  0
SECTION
  2
HEADER
  9
$ACADVER
  1
AC1014
  9
$ACADMAINTVER
 70
     0
  9
$DWGCODEPAGE
  3
ANSI_932
  9
$INSBASE
 10
0.0
 20
0.0
 30
0.0
  9
$EXTMIN
 10
20.0
 20
0.794667
 30
0.0
  9
$EXTMAX
 10
360.639205
 20
275.533874
 30
0.0
  9
$LIMMIN
 10
0.0
 20
0.0
  9
$LIMMAX
 10
420.0
 20
297.0
  9
$ORTHOMODE
 70
     1
  9
$REGENMODE
 70
     1
  9
$FILLMODE
 70
     1
  9
$QTEXTMODE
 70
     0
  9
$MIRRTEXT
 70
     1
  9
$DRAGMODE
 70
     2
  9
$LTSCALE
 40
1.0
  9
$OSMODE
 70
   183
  9
$ATTMODE
 70
     1
  9
$TEXTSIZE
 40
2.5
  9
$TRACEWID
 40
1.0
  9
$TEXTSTYLE
  7
STANDARD
  9
$CLAYER
  8
寸法線
  9
$CELTYPE
  6
BYLAYER
  9
$CECOLOR
 62
   256
  9
$CELTSCALE
 40
1.0
  9
$DELOBJ
 70
     1
  9
$DISPSILH
 70
     0
  9
$DIMSCALE
 40
0.0
  9
$DIMASZ
 40
5.0
  9
$DIMEXO
 40
2.0
  9
$DIMDLI
 40
3.75
  9
$DIMRND
 40
0.0
  9
$DIMDLE
 40
0.0
  9
$DIMEXE
 40
1.0
  9
$DIMTP
 40
0.0
  9
$DIMTM
 40
0.0
  9
$DIMTXT
 40
7.0
  9
$DIMCEN
 40
2.5
  9
$DIMTSZ
 40
0.0
  9
$DIMTOL
 70
     0
  9
$DIMLIM
 70
     0
  9
$DIMTIH
 70
     0
  9
$DIMTOH
 70
     0
  9
$DIMSE1
 70
     0
  9
$DIMSE2
 70
     0
  9
$DIMTAD
 70
     1
  9
$DIMZIN
 70
     8
  9
$DIMBLK
  1

  9
$DIMASO
 70
     1
  9
$DIMSHO
 70
     1
  9
$DIMPOST
  1

  9
$DIMAPOST
  1

  9
$DIMALT
 70
     0
  9
$DIMALTD
 70
     4
  9
$DIMALTF
 40
0.0394
  9
$DIMLFAC
 40
1.0
  9
$DIMTOFL
 70
     1
  9
$DIMTVP
 40
0.0
  9
$DIMTIX
 70
     0
  9
$DIMSOXD
 70
     0
  9
$DIMSAH
 70
     1
  9
$DIMBLK1
  1
_OPEN30
  9
$DIMBLK2
  1
_OPEN30
  9
$DIMSTYLE
  2
標準
  9
$DIMCLRD
 70
     0
  9
$DIMCLRE
 70
     0
  9
$DIMCLRT
 70
     0
  9
$DIMTFAC
 40
1.0
  9
$DIMGAP
 40
2.0
  9
$DIMJUST
 70
     0
  9
$DIMSD1
 70
     0
  9
$DIMSD2
 70
     0
  9
$DIMTOLJ
 70
     1
  9
$DIMTZIN
 70
     0
  9
$DIMALTZ
 70
     0
  9
$DIMALTTZ
 70
     0
  9
$DIMFIT
 70
     3
  9
$DIMUPT
 70
     0
  9
$DIMUNIT
 70
     2
  9
$DIMDEC
 70
     2
  9
$DIMTDEC
 70
     2
  9
$DIMALTU
 70
     8
  9
$DIMALTTD
 70
     4
  9
$DIMTXSTY
  7
STANDARD
  9
$DIMAUNIT
 70
     0
  9
$LUNITS
 70
     2
  9
$LUPREC
 70
     2
  9
$SKETCHINC
 40
1.0
  9
$FILLETRAD
 40
0.3
  9
$AUNITS
 70
     0
  9
$AUPREC
 70
     2
  9
$MENU
  1
acad
  9
$ELEVATION
 40
0.0
  9
$PELEVATION
 40
0.0
  9
$THICKNESS
 40
0.0
  9
$LIMCHECK
 70
     0
  9
$BLIPMODE
 70
     0
  9
$CHAMFERA
 40
10.0
  9
$CHAMFERB
 40
10.0
  9
$CHAMFERC
 40
20.0
  9
$CHAMFERD
 40
0.0
  9
$SKPOLY
 70
     0
  9
$TDCREATE
 40
2450795.774672569
  9
$TDUPDATE
 40
2453046.636308044
  9
$TDINDWG
 40
17.8529208102
  9
$TDUSRTIMER
 40
17.8529208102
  9
$USRTIMER
 70
     1
  9
$ANGBASE
 50
0.0
  9
$ANGDIR
 70
     0
  9
$PDMODE
 70
     0
  9
$PDSIZE
 40
0.0
  9
$PLINEWID
 40
0.0
  9
$COORDS
 70
     1
  9
$SPLFRAME
 70
     0
  9
$SPLINETYPE
 70
     6
  9
$SPLINESEGS
 70
     8
  9
$ATTDIA
 70
     0
  9
$ATTREQ
 70
     1
  9
$HANDLING
 70
     1
  9
$HANDSEED
  5
5425B
  9
$SURFTAB1
 70
     6
  9
$SURFTAB2
 70
     6
  9
$SURFTYPE
 70
     6
  9
$SURFU
 70
     6
  9
$SURFV
 70
     6
  9
$UCSNAME
  2

  9
$UCSORG
 10
0.0
 20
0.0
 30
0.0
  9
$UCSXDIR
 10
1.0
 20
0.0
 30
0.0
  9
$UCSYDIR
 10
0.0
 20
1.0
 30
0.0
  9
$PUCSNAME
  2

  9
$PUCSORG
 10
0.0
 20
0.0
 30
0.0
  9
$PUCSXDIR
 10
1.0
 20
0.0
 30
0.0
  9
$PUCSYDIR
 10
0.0
 20
1.0
 30
0.0
  9
$USERI1
 70
     0
  9
$USERI2
 70
     0
  9
$USERI3
 70
     0
  9
$USERI4
 70
     0
  9
$USERI5
 70
     0
  9
$USERR1
 40
0.0
  9
$USERR2
 40
0.0
  9
$USERR3
 40
0.0
  9
$USERR4
 40
0.0
  9
$USERR5
 40
0.0
  9
$WORLDVIEW
 70
     1
  9
$SHADEDGE
 70
     3
  9
$SHADEDIF
 70
    70
  9
$TILEMODE
 70
     1
  9
$MAXACTVP
 70
    48
  9
$PINSBASE
 10
0.0
 20
0.0
 30
0.0
  9
$PLIMCHECK
 70
     0
  9
$PEXTMIN
 10
4.0
 20
7.0
 30
0.0
  9
$PEXTMAX
 10
413.5
 20
286.0
 30
0.0
  9
$PLIMMIN
 10
0.0
 20
0.0
  9
$PLIMMAX
 10
420.0
 20
297.0
  9
$UNITMODE
 70
     0
  9
$VISRETAIN
 70
     0
  9
$PLINEGEN
 70
     0
  9
$PSLTSCALE
 70
     1
  9
$TREEDEPTH
 70
  3020
  9
$PICKSTYLE
 70
     1
  9
$CMLSTYLE
  2
STANDARD
  9
$CMLJUST
 70
     0
  9
$CMLSCALE
 40
20.0
  9
$PROXYGRAPHICS
 70
     1
  9
$MEASUREMENT
 70
     0
  0
ENDSEC
  0
SECTION
  2
CLASSES
  0
CLASS
  1
DICTIONARYVAR
  2
AcDbDictionaryVar
  3
"AutoCAD"
 90
        0
280
     0
281
     0
  0
CLASS
  1
LWPOLYLINE
  2
AcDbPolyline
  3
"AutoCAD"
 90
        0
280
     0
281
     1
  0
CLASS
  1
HATCH
  2
AcDbHatch
  3
"ACAD_SEDONA"
 90
        0
280
     0
281
     1
  0
ENDSEC
  0
SECTION
  2
TABLES
  0
TABLE
  2
VPORT
  5
8
100
AcDbSymbolTable
 70
     1
  0
VPORT
  5
54255
100
AcDbSymbolTableRecord
100
AcDbViewportTableRecord
  2
*ACTIVE
 70
     0
 10
0.0
 20
0.0
 11
1.0
 21
1.0
 12
190.325318
 22
138.167359
 13
0.0
 23
0.0
 14
1.0
 24
1.0
 15
5.0
 25
5.0
 16
0.0
 26
0.0
 36
1.0
 17
0.0
 27
0.0
 37
0.0
 40
276.772289
 41
1.43849
 42
50.0
 43
0.0
 44
0.0
 50
0.0
 51
0.0
 71
     0
 72
   100
 73
     1
 74
     1
 75
     1
 76
     1
 77
     0
 78
     0
  0
ENDTAB
  0
TABLE
  2
LTYPE
  5
5
100
AcDbSymbolTable
 70
     3
  0
LTYPE
  5
12
100
AcDbSymbolTableRecord
100
AcDbLinetypeTableRecord
  2
BYBLOCK
 70
     0
  3

 72
    65
 73
     0
 40
0.0
  0
LTYPE
  5
13
100
AcDbSymbolTableRecord
100
AcDbLinetypeTableRecord
  2
BYLAYER
 70
     0
  3

 72
    65
 73
     0
 40
0.0
  0
LTYPE
  5
14
100
AcDbSymbolTableRecord
100
AcDbLinetypeTableRecord
  2
CONTINUOUS
 70
     0
  3
Solid line
 72
    65
 73
     0
 40
0.0
  0
LTYPE
  5
1AC
100
AcDbSymbolTableRecord
100
AcDbLinetypeTableRecord
  2
WACOM_LSTYLE_M1
 70
     0
  3
実線     [---------]
 72
    65
 73
     2
 40
24.0
 49
12.0
 74
     0
 49
12.0
 74
     0
  0
LTYPE
  5
1AE
100
AcDbSymbolTableRecord
100
AcDbLinetypeTableRecord
  2
WACOM_LSTYLE_M4
 70
     0
  3
一点鎖線 [--- - ---]
 72
    65
 73
     4
 40
10.0
 49
7.0
 74
     0
 49
-1.0
 74
     0
 49
1.0
 74
     0
 49
-1.0
 74
     0
  0
ENDTAB
  0
TABLE
  2
LAYER
  5
2
100
AcDbSymbolTable
 70
     5
  0
LAYER
  5
E
100
AcDbSymbolTableRecord
100
AcDbLayerTableRecord
  2
0
 70
     0
 62
     7
  6
WACOM_LSTYLE_M1
  0
LAYER
  5
1B0
100
AcDbSymbolTableRecord
100
AcDbLayerTableRecord
  2
実線（中）
 70
     0
 62
     7
  6
WACOM_LSTYLE_M1
  0
LAYER
  5
1B1
100
AcDbSymbolTableRecord
100
AcDbLayerTableRecord
  2
一点鎖線
 70
     0
 62
     3
  6
WACOM_LSTYLE_M4
  0
LAYER
  5
1B3
100
AcDbSymbolTableRecord
100
AcDbLayerTableRecord
  2
DEFPOINTS
 70
     0
 62
     7
  6
WACOM_LSTYLE_M1
  0
LAYER
  5
535DF
100
AcDbSymbolTableRecord
100
AcDbLayerTableRecord
  2
寸法線
 70
     0
 62
     2
  6
WACOM_LSTYLE_M1
  0
ENDTAB
  0
TABLE
  2
STYLE
  5
3
100
AcDbSymbolTable
 70
     2
  0
STYLE
  5
F
100
AcDbSymbolTableRecord
100
AcDbTextStyleTableRecord
  2
STANDARD
 70
     0
 40
0.0
 41
1.0
 50
0.0
 71
     0
 42
2.5
  3
MS PGothic.ttf
  4

1001
ACAD
1000
MS PGothic
1071
    32818
  0
STYLE
  5
4B49A
100
AcDbSymbolTableRecord
100
AcDbTextStyleTableRecord
  2
ｺﾞｼｯｸ
 70
     0
 40
2.5
 41
1.0
 50
0.0
 71
     0
 42
2.5
  3
MS Gothic.ttf
  4

1001
ACAD
1000
MS Gothic
1071
    32817
  0
ENDTAB
  0
TABLE
  2
VIEW
  5
6
100
AcDbSymbolTable
 70
     0
  0
ENDTAB
  0
TABLE
  2
UCS
  5
7
100
AcDbSymbolTable
 70
     0
  0
ENDTAB
  0
TABLE
  2
APPID
  5
9
100
AcDbSymbolTable
 70
     5
  0
APPID
  5
10
100
AcDbSymbolTableRecord
100
AcDbRegAppTableRecord
  2
ACAD
 70
     0
  0
APPID
  5
24
100
AcDbSymbolTableRecord
100
AcDbRegAppTableRecord
  2
CONTENTTABDATA
 70
     0
  0
APPID
  5
25
100
AcDbSymbolTableRecord
100
AcDbRegAppTableRecord
  2
CONTENTCURRENTTAB
 70
     0
  0
APPID
  5
C35
100
AcDbSymbolTableRecord
100
AcDbRegAppTableRecord
  2
WACOM_STRING
 70
     0
  0
APPID
  5
76C1
100
AcDbSymbolTableRecord
100
AcDbRegAppTableRecord
  2
DRAWINGVARIABLESXDATA
 70
     0
  0
ENDTAB
  0
TABLE
  2
DIMSTYLE
  5
A
100
AcDbSymbolTable
 70
     2
  0
DIMSTYLE
105
1D
102
{ACAD_REACTORS
330
53646
102
}
100
AcDbSymbolTableRecord
100
AcDbDimStyleTableRecord
  2
STANDARD
 70
     0
  3

  4

  5

  6

  7

 40
1.0
 41
0.18
 42
0.0625
 43
0.38
 44
0.18
 45
0.0
 46
0.0
 47
0.0
 48
0.0
140
0.18
141
0.09
142
0.0
143
25.4
144
1.0
145
0.0
146
1.0
147
0.09
 71
     0
 72
     0
 73
     1
 74
     1
 75
     0
 76
     0
 77
     0
 78
     0
170
     0
171
     2
172
     0
173
     0
174
     0
175
     0
176
     0
177
     0
178
     0
270
     2
271
     4
272
     4
273
     2
274
     2
340
F
275
     0
280
     0
281
     0
282
     0
283
     1
284
     0
285
     0
286
     0
287
     3
288
     0
  0
DIMSTYLE
105
1B5
102
{ACAD_REACTORS
330
535DB
330
5376D
330
54188
102
}
100
AcDbSymbolTableRecord
100
AcDbDimStyleTableRecord
  2
標準
 70
     0
  3

  4

  5

  6
_OPEN30
  7
_OPEN30
 40
0.0
 41
5.0
 42
2.0
 43
3.75
 44
1.0
 45
0.0
 46
0.0
 47
0.0
 48
0.0
140
7.0
141
2.5
142
0.0
143
0.0394
144
1.0
145
0.0
146
1.0
147
2.0
 71
     0
 72
     0
 73
     0
 74
     0
 75
     0
 76
     0
 77
     1
 78
     8
170
     0
171
     4
172
     1
173
     1
174
     0
175
     0
176
     0
177
     0
178
     0
270
     2
271
     2
272
     2
273
     8
274
     4
340
F
275
     0
280
     0
281
     0
282
     0
283
     1
284
     0
285
     0
286
     0
287
     3
288
     0
  0
ENDTAB
  0
TABLE
  2
BLOCK_RECORD
  5
1
100
AcDbSymbolTable
 70
     7
  0
BLOCK_RECORD
  5
18
100
AcDbSymbolTableRecord
100
AcDbBlockTableRecord
  2
*MODEL_SPACE
  0
BLOCK_RECORD
  5
15
100
AcDbSymbolTableRecord
100
AcDbBlockTableRecord
  2
*PAPER_SPACE
  0
BLOCK_RECORD
  5
530EC
100
AcDbSymbolTableRecord
100
AcDbBlockTableRecord
  2
*D0
  0
BLOCK_RECORD
  5
530F8
100
AcDbSymbolTableRecord
100
AcDbBlockTableRecord
  2
*D1
  0
BLOCK_RECORD
  5
53170
100
AcDbSymbolTableRecord
100
AcDbBlockTableRecord
  2
_OPEN30
  0
BLOCK_RECORD
  5
535CD
100
AcDbSymbolTableRecord
100
AcDbBlockTableRecord
  2
*D3
  0
BLOCK_RECORD
  5
53639
100
AcDbSymbolTableRecord
100
AcDbBlockTableRecord
  2
*D4
  0
BLOCK_RECORD
  5
53761
100
AcDbSymbolTableRecord
100
AcDbBlockTableRecord
  2
*D5
  0
BLOCK_RECORD
  5
54216
100
AcDbSymbolTableRecord
100
AcDbBlockTableRecord
  2
*D6
  0
ENDTAB
  0
ENDSEC
  0
SECTION
  2
BLOCKS
  0
BLOCK
  5
19
100
AcDbEntity
  8
0
100
AcDbBlockBegin
  2
*MODEL_SPACE
 70
     0
 10
0.0
 20
0.0
 30
0.0
  3
*MODEL_SPACE
  1

  0
ENDBLK
  5
1A
100
AcDbEntity
  8
0
100
AcDbBlockEnd
  0
BLOCK
  5
16
100
AcDbEntity
 67
     1
  8
0
100
AcDbBlockBegin
  2
*PAPER_SPACE
 70
     0
 10
0.0
 20
0.0
 30
0.0
  3
*PAPER_SPACE
  1

  0
ENDBLK
  5
17
100
AcDbEntity
 67
     1
  8
0
100
AcDbBlockEnd
  0
BLOCK
  5
5373E
100
AcDbEntity
  8
0
100
AcDbBlockBegin
  2
*D0
 70
     1
 10
0.0
 20
0.0
 30
0.0
  3
*D0
  1

  0
LINE
  5
5373F
100
AcDbEntity
  8
0
  6
BYBLOCK
 62
     0
100
AcDbLine
 10
75.999988
 20
245.0
 30
0.0
 11
95.99784
 21
245.0
 31
0.0
  0
LINE
  5
53740
100
AcDbEntity
  8
0
  6
BYBLOCK
 62
     0
100
AcDbLine
 10
75.999988
 20
75.0
 30
0.0
 11
95.99784
 21
75.0
 31
0.0
  0
LINE
  5
53741
100
AcDbEntity
  8
0
  6
BYBLOCK
 62
     0
100
AcDbLine
 10
94.99784
 20
240.0
 30
0.0
 11
94.99784
 21
80.0
 31
0.0
  0
INSERT
  5
53742
100
AcDbEntity
  8
0
  6
BYBLOCK
 62
     0
100
AcDbBlockReference
  2
_OPEN30
 10
94.99784
 20
245.0
 30
0.0
 41
5.0
 42
5.0
 43
5.0
 50
90.0
  0
INSERT
  5
53743
100
AcDbEntity
  8
0
  6
BYBLOCK
 62
     0
100
AcDbBlockReference
  2
_OPEN30
 10
94.99784
 20
75.0
 30
0.0
 41
5.0
 42
5.0
 43
5.0
 50
270.0
  0
MTEXT
  5
53744
100
AcDbEntity
  8
0
  6
BYBLOCK
 62
     0
100
AcDbMText
 10
89.49784
 20
159.999993
 30
0.0
 40
7.0
 41
0.0
 71
     5
 72
     1
  1
\A1;170
 11
0.0
 21
1.0
 31
0.0
  0
POINT
  5
53745
100
AcDbEntity
  8
DEFPOINTS
  6
BYBLOCK
 62
     0
100
AcDbPoint
 10
73.999988
 20
245.0
 30
0.0
  0
POINT
  5
53746
100
AcDbEntity
  8
DEFPOINTS
  6
BYBLOCK
 62
     0
100
AcDbPoint
 10
73.999988
 20
75.0
 30
0.0
  0
POINT
  5
53747
100
AcDbEntity
  8
DEFPOINTS
  6
BYBLOCK
 62
     0
100
AcDbPoint
 10
94.99784
 20
75.0
 30
0.0
  0
ENDBLK
  5
53748
100
AcDbEntity
  8
0
100
AcDbBlockEnd
  0
BLOCK
  5
53733
100
AcDbEntity
  8
0
100
AcDbBlockBegin
  2
*D1
 70
     1
 10
0.0
 20
0.0
 30
0.0
  3
*D1
  1

  0
LINE
  5
53734
100
AcDbEntity
  8
0
  6
BYBLOCK
 62
     0
100
AcDbLine
 10
24.999988
 20
74.0
 30
0.0
 11
24.999988
 21
48.997944
 31
0.0
  0
LINE
  5
53735
100
AcDbEntity
  8
0
  6
BYBLOCK
 62
     0
100
AcDbLine
 10
74.999988
 20
74.0
 30
0.0
 11
74.999988
 21
48.997944
 31
0.0
  0
LINE
  5
53736
100
AcDbEntity
  8
0
  6
BYBLOCK
 62
     0
100
AcDbLine
 10
29.999988
 20
49.997944
 30
0.0
 11
69.999988
 21
49.997944
 31
0.0
  0
INSERT
  5
53737
100
AcDbEntity
  8
0
  6
BYBLOCK
 62
     0
100
AcDbBlockReference
  2
_OPEN30
 10
24.999988
 20
49.997944
 30
0.0
 41
5.0
 42
5.0
 43
5.0
 50
180.0
  0
INSERT
  5
53738
100
AcDbEntity
  8
0
  6
BYBLOCK
 62
     0
100
AcDbBlockReference
  2
_OPEN30
 10
74.999988
 20
49.997944
 30
0.0
 41
5.0
 42
5.0
 43
5.0
  0
MTEXT
  5
53739
100
AcDbEntity
  8
0
  6
BYBLOCK
 62
     0
100
AcDbMText
 10
49.999988
 20
55.497944
 30
0.0
 40
7.0
 41
0.0
 71
     5
 72
     1
  1
\A1;50
  0
POINT
  5
5373A
100
AcDbEntity
  8
DEFPOINTS
  6
BYBLOCK
 62
     0
100
AcDbPoint
 10
24.999988
 20
76.0
 30
0.0
  0
POINT
  5
5373B
100
AcDbEntity
  8
DEFPOINTS
  6
BYBLOCK
 62
     0
100
AcDbPoint
 10
74.999988
 20
76.0
 30
0.0
  0
POINT
  5
5373C
100
AcDbEntity
  8
DEFPOINTS
  6
BYBLOCK
 62
     0
100
AcDbPoint
 10
74.999988
 20
49.997944
 30
0.0
  0
ENDBLK
  5
5373D
100
AcDbEntity
  8
0
100
AcDbBlockEnd
  0
BLOCK
  5
53171
100
AcDbEntity
  8
0
100
AcDbBlockBegin
  2
_OPEN30
 70
     0
 10
0.0
 20
0.0
 30
0.0
  3
_OPEN30
  1

  0
LINE
  5
53172
100
AcDbEntity
  8
0
  6
BYBLOCK
 62
     0
100
AcDbLine
 10
-1.0
 20
0.267949
 30
0.0
 11
0.0
 21
0.0
 31
0.0
  0
LINE
  5
53173
100
AcDbEntity
  8
0
  6
BYBLOCK
 62
     0
100
AcDbLine
 10
0.0
 20
0.0
 30
0.0
 11
-1.0
 21
-0.267949
 31
0.0
  0
LINE
  5
53174
100
AcDbEntity
  8
0
  6
BYBLOCK
 62
     0
100
AcDbLine
 10
0.0
 20
0.0
 30
0.0
 11
-1.0
 21
0.0
 31
0.0
  0
ENDBLK
  5
53175
100
AcDbEntity
  8
0
100
AcDbBlockEnd
  0
BLOCK
  5
53749
100
AcDbEntity
  8
0
100
AcDbBlockBegin
  2
*D3
 70
     1
 10
0.0
 20
0.0
 30
0.0
  3
*D3
  1

  0
LINE
  5
5374A
100
AcDbEntity
  8
0
  6
BYBLOCK
 62
     0
100
AcDbLine
 10
75.999988
 20
75.0
 30
0.0
 11
95.99784
 21
75.0
 31
0.0
  0
LINE
  5
5374B
100
AcDbEntity
  8
0
  6
BYBLOCK
 62
     0
100
AcDbLine
 10
53.999752
 20
70.0
 30
0.0
 11
95.99784
 21
70.0
 31
0.0
  0
LINE
  5
5374C
100
AcDbEntity
  8
0
  6
BYBLOCK
 62
     0
100
AcDbLine
 10
94.99784
 20
80.0
 30
0.0
 11
94.99784
 21
85.0
 31
0.0
  0
LINE
  5
5374D
100
AcDbEntity
  8
0
  6
BYBLOCK
 62
     0
100
AcDbLine
 10
94.99784
 20
65.0
 30
0.0
 11
94.99784
 21
51.943182
 31
0.0
  0
LINE
  5
5374E
100
AcDbEntity
  8
0
  6
BYBLOCK
 62
     0
100
AcDbLine
 10
94.99784
 20
75.0
 30
0.0
 11
94.99784
 21
70.0
 31
0.0
  0
INSERT
  5
5374F
100
AcDbEntity
  8
0
  6
BYBLOCK
 62
     0
100
AcDbBlockReference
  2
_OPEN30
 10
94.99784
 20
75.0
 30
0.0
 41
5.0
 42
5.0
 43
5.0
 50
270.0
  0
INSERT
  5
53750
100
AcDbEntity
  8
0
  6
BYBLOCK
 62
     0
100
AcDbBlockReference
  2
_OPEN30
 10
94.99784
 20
70.0
 30
0.0
 41
5.0
 42
5.0
 43
5.0
 50
90.0
  0
MTEXT
  5
53751
100
AcDbEntity
  8
0
  6
BYBLOCK
 62
     0
100
AcDbMText
 10
89.49784
 20
55.971591
 30
0.0
 40
7.0
 41
0.0
 71
     5
 72
     1
  1
\A1;5
 11
0.0
 21
1.0
 31
0.0
  0
POINT
  5
53752
100
AcDbEntity
  8
DEFPOINTS
  6
BYBLOCK
 62
     0
100
AcDbPoint
 10
73.999988
 20
75.0
 30
0.0
  0
POINT
  5
53753
100
AcDbEntity
  8
DEFPOINTS
  6
BYBLOCK
 62
     0
100
AcDbPoint
 10
51.999752
 20
70.0
 30
0.0
  0
POINT
  5
53754
100
AcDbEntity
  8
DEFPOINTS
  6
BYBLOCK
 62
     0
100
AcDbPoint
 10
94.99784
 20
70.0
 30
0.0
  0
ENDBLK
  5
53755
100
AcDbEntity
  8
0
100
AcDbBlockEnd
  0
BLOCK
  5
53728
100
AcDbEntity
  8
0
100
AcDbBlockBegin
  2
*D4
 70
     1
 10
0.0
 20
0.0
 30
0.0
  3
*D4
  1

  0
LINE
  5
53729
100
AcDbEntity
  8
0
  6
BYBLOCK
 62
     0
100
AcDbLine
 10
265.003683
 20
148.000822
 30
0.0
 11
265.003683
 21
49.0
 31
0.0
  0
LINE
  5
5372A
100
AcDbEntity
  8
0
  6
BYBLOCK
 62
     0
100
AcDbLine
 10
295.004429
 20
148.00076
 30
0.0
 11
295.004429
 21
49.0
 31
0.0
  0
LINE
  5
5372B
100
AcDbEntity
  8
0
  6
BYBLOCK
 62
     0
100
AcDbLine
 10
270.003683
 20
50.0
 30
0.0
 11
290.004429
 21
50.0
 31
0.0
  0
INSERT
  5
5372C
100
AcDbEntity
  8
0
  6
BYBLOCK
 62
     0
100
AcDbBlockReference
  2
_OPEN30
 10
265.003683
 20
50.0
 30
0.0
 41
5.0
 42
5.0
 43
5.0
 50
180.0
  0
INSERT
  5
5372D
100
AcDbEntity
  8
0
  6
BYBLOCK
 62
     0
100
AcDbBlockReference
  2
_OPEN30
 10
295.004429
 20
50.0
 30
0.0
 41
5.0
 42
5.0
 43
5.0
  0
MTEXT
  5
5372E
100
AcDbEntity
  8
0
  6
BYBLOCK
 62
     0
100
AcDbMText
 10
280.004056
 20
55.5
 30
0.0
 40
7.0
 41
0.0
 71
     5
 72
     1
  1
\A1;30
  0
POINT
  5
5372F
100
AcDbEntity
  8
DEFPOINTS
  6
BYBLOCK
 62
     0
100
AcDbPoint
 10
265.003683
 20
150.000822
 30
0.0
  0
POINT
  5
53730
100
AcDbEntity
  8
DEFPOINTS
  6
BYBLOCK
 62
     0
100
AcDbPoint
 10
295.004429
 20
150.00076
 30
0.0
  0
POINT
  5
53731
100
AcDbEntity
  8
DEFPOINTS
  6
BYBLOCK
 62
     0
100
AcDbPoint
 10
295.004429
 20
50.0
 30
0.0
  0
ENDBLK
  5
53732
100
AcDbEntity
  8
0
100
AcDbBlockEnd
  0
BLOCK
  5
54222
100
AcDbEntity
  8
0
100
AcDbBlockBegin
  2
*D5
 70
     1
 10
0.0
 20
0.0
 30
0.0
  3
*D5
  1

  0
LINE
  5
54223
100
AcDbEntity
  8
0
  6
BYBLOCK
 62
     0
100
AcDbLine
 10
125.000161
 20
222.791779
 30
0.0
 11
125.000161
 21
260.999783
 31
0.0
  0
LINE
  5
54224
100
AcDbEntity
  8
0
  6
BYBLOCK
 62
     0
100
AcDbLine
 10
210.001825
 20
245.955408
 30
0.0
 11
210.001825
 21
260.999783
 31
0.0
  0
LINE
  5
54225
100
AcDbEntity
  8
0
  6
BYBLOCK
 62
     0
100
AcDbLine
 10
130.000161
 20
259.999783
 30
0.0
 11
205.001825
 21
259.999783
 31
0.0
  0
INSERT
  5
54226
100
AcDbEntity
  8
0
  6
BYBLOCK
 62
     0
100
AcDbBlockReference
  2
_OPEN30
 10
125.000161
 20
259.999783
 30
0.0
 41
5.0
 42
5.0
 43
5.0
 50
180.0
  0
INSERT
  5
54227
100
AcDbEntity
  8
0
  6
BYBLOCK
 62
     0
100
AcDbBlockReference
  2
_OPEN30
 10
210.001825
 20
259.999783
 30
0.0
 41
5.0
 42
5.0
 43
5.0
  0
MTEXT
  5
54228
100
AcDbEntity
  8
0
  6
BYBLOCK
 62
     0
100
AcDbMText
 10
167.500993
 20
265.499783
 30
0.0
 40
7.0
 41
0.0
 71
     5
 72
     1
  1
\A1;85
  0
POINT
  5
54229
100
AcDbEntity
  8
DEFPOINTS
  6
BYBLOCK
 62
     0
100
AcDbPoint
 10
125.000161
 20
220.791779
 30
0.0
  0
POINT
  5
5422A
100
AcDbEntity
  8
DEFPOINTS
  6
BYBLOCK
 62
     0
100
AcDbPoint
 10
210.001825
 20
243.955408
 30
0.0
  0
POINT
  5
5422B
100
AcDbEntity
  8
DEFPOINTS
  6
BYBLOCK
 62
     0
100
AcDbPoint
 10
210.001825
 20
259.999783
 30
0.0
  0
ENDBLK
  5
5422C
100
AcDbEntity
  8
0
100
AcDbBlockEnd
  0
BLOCK
  5
54243
100
AcDbEntity
  8
0
100
AcDbBlockBegin
  2
*D6
 70
     1
 10
0.0
 20
0.0
 30
0.0
  3
*D6
  1

  0
LINE
  5
54244
100
AcDbEntity
  8
0
  6
BYBLOCK
 62
     0
100
AcDbLine
 10
123.304416
 20
221.101748
 30
0.0
 11
109.0
 21
221.101748
 31
0.0
  0
LINE
  5
54245
100
AcDbEntity
  8
0
  6
BYBLOCK
 62
     0
100
AcDbLine
 10
123.299835
 20
98.900349
 30
0.0
 11
109.0
 21
98.900349
 31
0.0
  0
LINE
  5
54246
100
AcDbEntity
  8
0
  6
BYBLOCK
 62
     0
100
AcDbLine
 10
110.0
 20
216.101748
 30
0.0
 11
110.0
 21
103.900349
 31
0.0
  0
INSERT
  5
54247
100
AcDbEntity
  8
0
  6
BYBLOCK
 62
     0
100
AcDbBlockReference
  2
_OPEN30
 10
110.0
 20
221.101748
 30
0.0
 41
5.0
 42
5.0
 43
5.0
 50
90.0
  0
INSERT
  5
54248
100
AcDbEntity
  8
0
  6
BYBLOCK
 62
     0
100
AcDbBlockReference
  2
_OPEN30
 10
110.0
 20
98.900349
 30
0.0
 41
5.0
 42
5.0
 43
5.0
 50
270.0
  0
MTEXT
  5
54249
100
AcDbEntity
  8
0
  6
BYBLOCK
 62
     0
100
AcDbMText
 10
104.5
 20
160.000741
 30
0.0
 40
7.0
 41
0.0
 71
     5
 72
     1
  1
\A1;122.2
 11
0.0
 21
1.0
 31
0.0
  0
POINT
  5
5424A
100
AcDbEntity
  8
DEFPOINTS
  6
BYBLOCK
 62
     0
100
AcDbPoint
 10
125.304416
 20
221.101748
 30
0.0
  0
POINT
  5
5424B
100
AcDbEntity
  8
DEFPOINTS
  6
BYBLOCK
 62
     0
100
AcDbPoint
 10
125.299835
 20
98.900349
 30
0.0
  0
POINT
  5
5424C
100
AcDbEntity
  8
DEFPOINTS
  6
BYBLOCK
 62
     0
100
AcDbPoint
 10
110.0
 20
98.900349
 30
0.0
  0
ENDBLK
  5
5424D
100
AcDbEntity
  8
0
100
AcDbBlockEnd
  0
ENDSEC
  0
SECTION
  2
ENTITIES
  0
LINE
  5
52DE6
100
AcDbEntity
  8
一点鎖線
 62
     0
 48
4.0
100
AcDbLine
 10
220.0
 20
160.000612
 30
0.0
 11
115.0
 21
160.000748
 31
0.0
  0
LINE
  5
52DE7
100
AcDbEntity
  8
一点鎖線
 62
     0
 48
4.0
100
AcDbLine
 10
105.006788
 20
25.000757
 30
0.0
 11
215.003311
 21
25.001688
 31
0.0
  0
DIMENSION
  5
52DE8
100
AcDbEntity
  8
実線（中）
 62
     0
100
AcDbDimension
  2
*D0
 10
94.99784
 20
75.0
 30
0.0
 11
94.99784
 21
159.999993
 31
0.0
 70
   160
  3
標準
100
AcDbAlignedDimension
 13
73.999988
 23
245.0
 33
0.0
 14
73.999988
 24
75.0
 34
0.0
 50
90.0
100
AcDbRotatedDimension
1001
ACAD
1000
DSTYLE
1002
{
1070
    40
1040
1.0
1002
}
  0
LINE
  5
52DF1
100
AcDbEntity
  8
一点鎖線
 62
     0
 48
4.0
100
AcDbLine
 10
50.0
 20
250.0
 30
0.0
 11
49.99974
 21
65.0
 31
0.0
  0
DIMENSION
  5
52DF2
100
AcDbEntity
  8
実線（中）
 62
     0
100
AcDbDimension
  2
*D1
 10
74.999988
 20
49.997944
 30
0.0
 11
49.999988
 21
49.997944
 31
0.0
 70
   160
  3
標準
100
AcDbAlignedDimension
 13
24.999988
 23
76.0
 33
0.0
 14
74.999988
 24
76.0
 34
0.0
100
AcDbRotatedDimension
1001
ACAD
1000
DSTYLE
1002
{
1070
    40
1040
1.0
1002
}
  0
LINE
  5
52E42
100
AcDbEntity
  8
一点鎖線
 62
     0
100
AcDbLine
 10
20.0
 20
160.0
 30
0.0
 11
80.0
 21
160.0
 31
0.0
  0
LINE
  5
533B1
100
AcDbEntity
  8
実線（中）
 62
     0
100
AcDbLine
 10
256.004429
 20
244.000592
 30
0.0
 11
256.004441
 21
76.000592
 31
0.0
  0
LINE
  5
533B2
100
AcDbEntity
  8
実線（中）
 62
     0
100
AcDbLine
 10
304.00444
 20
76.000592
 30
0.0
 11
304.004429
 21
244.000592
 31
0.0
  0
LINE
  5
533B3
100
AcDbEntity
  8
実線（中）
 62
     0
100
AcDbLine
 10
302.004423
 20
126.353306
 30
0.0
 11
302.00444
 21
76.000592
 31
0.0
  0
LINE
  5
533B4
100
AcDbEntity
  8
実線（中）
 62
     0
100
AcDbLine
 10
258.004419
 20
129.253371
 30
0.0
 11
258.004336
 21
76.000592
 31
0.0
  0
ARC
  5
533B5
100
AcDbEntity
  8
実線（中）
 62
     0
100
AcDbCircle
 10
297.504014
 20
109.499074
 30
0.0
 40
5.0
100
AcDbArc
 50
180.0
 51
270.0
  0
LINE
  5
533B6
100
AcDbEntity
  8
一点鎖線
 62
     0
 48
4.0
100
AcDbLine
 10
280.004429
 20
250.000592
 30
0.0
 11
280.004204
 21
65.000592
 31
0.0
  0
LINE
  5
533B7
100
AcDbEntity
  8
実線（中）
 62
     0
100
AcDbLine
 10
278.504204
 20
71.500592
 30
0.0
 11
281.504204
 21
71.500592
 31
0.0
  0
LINE
  5
533B8
100
AcDbEntity
  8
実線（中）
 62
     0
100
AcDbLine
 10
278.004204
 20
70.000592
 30
0.0
 11
282.004204
 21
70.000592
 31
0.0
  0
LINE
  5
533B9
100
AcDbEntity
  8
実線（中）
 62
     0
100
AcDbLine
 10
278.004204
 20
70.000592
 30
0.0
 11
282.004204
 21
70.000592
 31
0.0
  0
LINE
  5
533BA
100
AcDbEntity
  8
実線（中）
 62
     0
100
AcDbLine
 10
277.004204
 20
74.000592
 30
0.0
 11
283.004204
 21
74.000592
 31
0.0
  0
LINE
  5
533BB
100
AcDbEntity
  8
実線（中）
 62
     0
100
AcDbLine
 10
258.004336
 20
76.000592
 30
0.0
 11
302.00444
 21
76.000592
 31
0.0
  0
LINE
  5
533BC
100
AcDbEntity
  8
実線（中）
 62
     0
100
AcDbLine
 10
257.004441
 20
75.000592
 30
0.0
 11
303.00444
 21
75.000592
 31
0.0
  0
LINE
  5
533BD
100
AcDbEntity
  8
実線（中）
 62
     0
100
AcDbLine
 10
279.504206
 20
77.000592
 30
0.0
 11
265.504206
 21
77.000592
 31
0.0
  0
LINE
  5
533BE
100
AcDbEntity
  8
実線（中）
 62
     0
100
AcDbLine
 10
265.504425
 20
77.000592
 30
0.0
 11
279.504425
 21
77.000592
 31
0.0
  0
LINE
  5
533BF
100
AcDbEntity
  8
実線（中）
 62
     0
100
AcDbLine
 10
258.254739
 20
76.000592
 30
0.0
 11
301.754037
 21
76.000592
 31
0.0
  0
LINE
  5
533C0
100
AcDbEntity
  8
実線（中）
 62
     0
100
AcDbLine
 10
258.754756
 20
96.330536
 30
0.0
 11
288.754756
 21
96.330578
 31
0.0
  0
LINE
  5
533C1
100
AcDbEntity
  8
実線（中）
 62
     0
100
AcDbLine
 10
258.754755
 20
97.330591
 30
0.0
 11
288.754755
 21
97.330578
 31
0.0
  0
LINE
  5
533C2
100
AcDbEntity
  8
実線（中）
 62
     0
100
AcDbLine
 10
258.754765
 20
86.100536
 30
0.0
 11
298.754765
 21
86.100592
 31
0.0
  0
LINE
  5
533C3
100
AcDbEntity
  8
実線（中）
 62
     0
100
AcDbLine
 10
258.754764
 20
87.100536
 30
0.0
 11
288.754766
 21
87.100578
 31
0.0
  0
LINE
  5
533C4
100
AcDbEntity
  8
実線（中）
 62
     0
100
AcDbLine
 10
261.254775
 20
76.000537
 30
0.0
 11
301.254775
 21
76.000592
 31
0.0
  0
LINE
  5
533C5
100
AcDbEntity
  8
実線（中）
 62
     0
100
AcDbLine
 10
261.254774
 20
77.000537
 30
0.0
 11
291.254776
 21
77.000578
 31
0.0
  0
LINE
  5
533C6
100
AcDbEntity
  8
実線（中）
 62
     0
100
AcDbLine
 10
261.254765
 20
86.100592
 30
0.0
 11
291.254765
 21
86.100578
 31
0.0
  0
LINE
  5
533C7
100
AcDbEntity
  8
実線（中）
 62
     0
100
AcDbLine
 10
261.254766
 20
85.100537
 30
0.0
 11
291.254766
 21
85.100578
 31
0.0
  0
CIRCLE
  5
533C8
100
AcDbEntity
  8
実線（中）
 62
     0
100
AcDbCircle
 10
278.75477
 20
81.850561
 30
0.0
 40
2.0
  0
LINE
  5
533C9
100
AcDbEntity
  8
実線（中）
 62
     0
100
AcDbLine
 10
277.204774
 20
79.000559
 30
0.0
 11
280.304774
 21
79.000563
 31
0.0
  0
LINE
  5
533CA
100
AcDbEntity
  8
実線（中）
 62
     0
100
AcDbLine
 10
277.979775
 20
78.00056
 30
0.0
 11
280.304775
 21
78.000563
 31
0.0
  0
CIRCLE
  5
533CB
100
AcDbEntity
  8
実線（中）
 62
     0
100
AcDbCircle
 10
281.25476
 20
93.080567
 30
0.0
 40
2.0
  0
LINE
  5
533CD
100
AcDbEntity
  8
実線（中）
 62
     0
100
AcDbLine
 10
261.254765
 20
86.100592
 30
0.0
 11
261.254775
 21
76.000592
 31
0.0
  0
LINE
  5
533CE
100
AcDbEntity
  8
実線（中）
 62
     0
100
AcDbLine
 10
262.204775
 20
78.000538
 30
0.0
 11
262.204774
 21
79.000538
 31
0.0
  0
LINE
  5
533CF
100
AcDbEntity
  8
実線（中）
 62
     0
100
AcDbLine
 10
265.304774
 20
79.000542
 30
0.0
 11
265.304775
 21
78.000542
 31
0.0
  0
LINE
  5
533D0
100
AcDbEntity
  8
実線（中）
 62
     0
100
AcDbLine
 10
267.204775
 20
78.000545
 30
0.0
 11
267.204774
 21
79.000545
 31
0.0
  0
LINE
  5
533D1
100
AcDbEntity
  8
実線（中）
 62
     0
100
AcDbLine
 10
270.304774
 20
79.000549
 30
0.0
 11
270.304775
 21
78.000549
 31
0.0
  0
LINE
  5
533D2
100
AcDbEntity
  8
実線（中）
 62
     0
100
AcDbLine
 10
272.204775
 20
78.000552
 30
0.0
 11
272.204774
 21
79.000552
 31
0.0
  0
LINE
  5
533D3
100
AcDbEntity
  8
実線（中）
 62
     0
100
AcDbLine
 10
275.304774
 20
79.000556
 30
0.0
 11
275.304775
 21
78.000556
 31
0.0
  0
LINE
  5
533D4
100
AcDbEntity
  8
実線（中）
 62
     0
100
AcDbLine
 10
277.204775
 20
78.000559
 30
0.0
 11
277.204774
 21
79.000559
 31
0.0
  0
LINE
  5
533D5
100
AcDbEntity
  8
実線（中）
 62
     0
100
AcDbLine
 10
263.754775
 20
78.00054
 30
0.0
 11
262.204775
 21
78.000538
 31
0.0
  0
LINE
  5
533D6
100
AcDbEntity
  8
実線（中）
 62
     0
100
AcDbLine
 10
262.979775
 20
78.000539
 30
0.0
 11
265.304775
 21
78.000542
 31
0.0
  0
ARC
  5
533D7
100
AcDbEntity
  8
実線（中）
 62
     0
100
AcDbCircle
 10
257.004441
 20
76.000592
 30
0.0
 40
1.0
100
AcDbArc
 50
180.000004
 51
270.0
  0
LINE
  5
533D8
100
AcDbEntity
  8
実線（中）
 62
     0
100
AcDbLine
 10
258.004336
 20
75.000592
 30
0.0
 11
258.004336
 21
76.000592
 31
0.0
  0
LINE
  5
533D9
100
AcDbEntity
  8
実線（中）
 62
     0
100
AcDbLine
 10
267.504204
 20
74.000592
 30
0.0
 11
275.004204
 21
74.000592
 31
0.0
  0
LINE
  5
533DA
100
AcDbEntity
  8
実線（中）
 62
     0
100
AcDbLine
 10
267.504204
 20
74.000592
 30
0.0
 11
266.504203
 21
75.000592
 31
0.0
  0
LINE
  5
533DB
100
AcDbEntity
  8
実線（中）
 62
     0
100
AcDbLine
 10
268.658779
 20
77.000554
 30
0.0
 11
265.858779
 21
77.000592
 31
0.0
  0
LINE
  5
533DD
100
AcDbEntity
  8
実線（中）
 62
     0
100
AcDbLine
 10
267.979775
 20
78.000546
 30
0.0
 11
270.304775
 21
78.000549
 31
0.0
  0
LINE
  5
533DE
100
AcDbEntity
  8
実線（中）
 62
     0
100
AcDbLine
 10
268.754775
 20
78.000547
 30
0.0
 11
267.204775
 21
78.000545
 31
0.0
  0
LINE
  5
533DF
100
AcDbEntity
  8
実線（中）
 62
     0
100
AcDbLine
 10
275.004204
 20
74.000592
 30
0.0
 11
275.004204
 21
72.000592
 31
0.0
  0
LINE
  5
533E0
100
AcDbEntity
  8
実線（中）
 62
     0
100
AcDbLine
 10
275.004204
 20
74.000592
 30
0.0
 11
275.004204
 21
72.000592
 31
0.0
  0
LINE
  5
533E1
100
AcDbEntity
  8
実線（中）
 62
     0
100
AcDbLine
 10
277.004204
 20
72.700592
 30
0.0
 11
278.504204
 21
71.500592
 31
0.0
  0
LINE
  5
533E2
100
AcDbEntity
  8
実線（中）
 62
     0
100
AcDbLine
 10
275.004204
 20
72.000592
 30
0.0
 11
278.004204
 21
70.000592
 31
0.0
  0
LINE
  5
533E3
100
AcDbEntity
  8
実線（中）
 62
     0
100
AcDbLine
 10
272.979775
 20
78.000553
 30
0.0
 11
275.304775
 21
78.000556
 31
0.0
  0
LINE
  5
533E4
100
AcDbEntity
  8
実線（中）
 62
     0
100
AcDbLine
 10
273.754775
 20
78.000554
 30
0.0
 11
272.204775
 21
78.000552
 31
0.0
  0
LINE
  5
533E5
100
AcDbEntity
  8
実線（中）
 62
     0
100
AcDbLine
 10
277.004204
 20
74.000592
 30
0.0
 11
277.004204
 21
72.700592
 31
0.0
  0
LINE
  5
533E6
100
AcDbEntity
  8
実線（中）
 62
     0
100
AcDbLine
 10
278.754775
 20
78.000561
 30
0.0
 11
277.204775
 21
78.000559
 31
0.0
  0
CIRCLE
  5
533E7
100
AcDbEntity
  8
実線（中）
 62
     0
100
AcDbCircle
 10
263.75477
 20
81.85054
 30
0.0
 40
2.0
  0
LINE
  5
533E8
100
AcDbEntity
  8
実線（中）
 62
     0
100
AcDbLine
 10
262.204774
 20
79.000538
 30
0.0
 11
265.304774
 21
79.000542
 31
0.0
  0
CIRCLE
  5
533E9
100
AcDbEntity
  8
実線（中）
 62
     0
100
AcDbCircle
 10
261.25476
 20
93.08054
 30
0.0
 40
2.0
  0
LINE
  5
533EA
100
AcDbEntity
  8
実線（中）
 62
     0
100
AcDbLine
 10
258.754755
 20
97.330591
 30
0.0
 11
258.754765
 21
86.100536
 31
0.0
  0
LINE
  5
533EB
100
AcDbEntity
  8
実線（中）
 62
     0
100
AcDbLine
 10
260.479765
 20
89.230539
 30
0.0
 11
262.804765
 21
89.230542
 31
0.0
  0
LINE
  5
533EC
100
AcDbEntity
  8
実線（中）
 62
     0
100
AcDbLine
 10
259.704764
 20
90.230538
 30
0.0
 11
262.804764
 21
90.230542
 31
0.0
  0
LINE
  5
533ED
100
AcDbEntity
  8
実線（中）
 62
     0
100
AcDbLine
 10
259.704765
 20
89.230538
 30
0.0
 11
259.704764
 21
90.230538
 31
0.0
  0
LINE
  5
533EE
100
AcDbEntity
  8
実線（中）
 62
     0
100
AcDbLine
 10
261.254765
 20
89.23054
 30
0.0
 11
259.704765
 21
89.230538
 31
0.0
  0
LINE
  5
533EF
100
AcDbEntity
  8
実線（中）
 62
     0
100
AcDbLine
 10
262.804764
 20
90.230542
 30
0.0
 11
262.804765
 21
89.230542
 31
0.0
  0
LINE
  5
533F0
100
AcDbEntity
  8
実線（中）
 62
     0
100
AcDbLine
 10
256.504014
 20
92.500052
 30
0.0
 11
258.004021
 21
92.500049
 31
0.0
  0
LINE
  5
533F1
100
AcDbEntity
  8
実線（中）
 62
     0
100
AcDbLine
 10
256.504014
 20
92.500052
 30
0.0
 11
256.00444
 21
92.500052
 31
0.0
  0
LINE
  5
533F2
100
AcDbEntity
  8
実線（中）
 62
     0
100
AcDbLine
 10
258.004374
 20
99.400136
 30
0.0
 11
256.003855
 21
99.400135
 31
0.0
  0
CIRCLE
  5
533F3
100
AcDbEntity
  8
実線（中）
 62
     0
100
AcDbCircle
 10
266.25476
 20
93.080547
 30
0.0
 40
2.0
  0
CIRCLE
  5
533F4
100
AcDbEntity
  8
実線（中）
 62
     0
100
AcDbCircle
 10
276.25476
 20
93.08056
 30
0.0
 40
2.0
  0
CIRCLE
  5
533F5
100
AcDbEntity
  8
実線（中）
 62
     0
100
AcDbCircle
 10
271.25476
 20
93.080553
 30
0.0
 40
2.0
  0
LINE
  5
533F6
100
AcDbEntity
  8
実線（中）
 62
     0
100
AcDbLine
 10
269.704764
 20
90.230551
 30
0.0
 11
272.804764
 21
90.230556
 31
0.0
  0
LINE
  5
533F7
100
AcDbEntity
  8
実線（中）
 62
     0
100
AcDbLine
 10
270.479765
 20
89.230552
 30
0.0
 11
272.804765
 21
89.230556
 31
0.0
  0
CIRCLE
  5
533F8
100
AcDbEntity
  8
実線（中）
 62
     0
100
AcDbCircle
 10
268.75477
 20
81.850547
 30
0.0
 40
2.0
  0
LINE
  5
533F9
100
AcDbEntity
  8
実線（中）
 62
     0
100
AcDbLine
 10
267.204774
 20
79.000545
 30
0.0
 11
270.304774
 21
79.000549
 31
0.0
  0
LINE
  5
533FA
100
AcDbEntity
  8
実線（中）
 62
     0
100
AcDbLine
 10
264.704764
 20
90.230544
 30
0.0
 11
267.804764
 21
90.230549
 31
0.0
  0
LINE
  5
533FB
100
AcDbEntity
  8
実線（中）
 62
     0
100
AcDbLine
 10
265.479765
 20
89.230546
 30
0.0
 11
267.804765
 21
89.230549
 31
0.0
  0
LINE
  5
533FC
100
AcDbEntity
  8
実線（中）
 62
     0
100
AcDbLine
 10
264.704765
 20
89.230544
 30
0.0
 11
264.704764
 21
90.230544
 31
0.0
  0
LINE
  5
533FD
100
AcDbEntity
  8
実線（中）
 62
     0
100
AcDbLine
 10
266.254765
 20
89.230547
 30
0.0
 11
264.704765
 21
89.230544
 31
0.0
  0
LINE
  5
533FE
100
AcDbEntity
  8
実線（中）
 62
     0
100
AcDbLine
 10
271.254765
 20
89.230553
 30
0.0
 11
269.704765
 21
89.230551
 31
0.0
  0
LINE
  5
533FF
100
AcDbEntity
  8
実線（中）
 62
     0
100
AcDbLine
 10
267.804764
 20
90.230549
 30
0.0
 11
267.804765
 21
89.230549
 31
0.0
  0
LINE
  5
53400
100
AcDbEntity
  8
実線（中）
 62
     0
100
AcDbLine
 10
269.704765
 20
89.230551
 30
0.0
 11
269.704764
 21
90.230551
 31
0.0
  0
CIRCLE
  5
53401
100
AcDbEntity
  8
実線（中）
 62
     0
100
AcDbCircle
 10
273.75477
 20
81.850554
 30
0.0
 40
2.0
  0
LINE
  5
53402
100
AcDbEntity
  8
実線（中）
 62
     0
100
AcDbLine
 10
272.204774
 20
79.000552
 30
0.0
 11
275.304774
 21
79.000556
 31
0.0
  0
LINE
  5
53403
100
AcDbEntity
  8
実線（中）
 62
     0
100
AcDbLine
 10
274.704764
 20
90.230558
 30
0.0
 11
277.804764
 21
90.230563
 31
0.0
  0
LINE
  5
53404
100
AcDbEntity
  8
実線（中）
 62
     0
100
AcDbLine
 10
276.254765
 20
89.23056
 30
0.0
 11
274.704765
 21
89.230558
 31
0.0
  0
LINE
  5
53405
100
AcDbEntity
  8
実線（中）
 62
     0
100
AcDbLine
 10
272.804764
 20
90.230556
 30
0.0
 11
272.804765
 21
89.230556
 31
0.0
  0
LINE
  5
53406
100
AcDbEntity
  8
実線（中）
 62
     0
100
AcDbLine
 10
274.704765
 20
89.230558
 30
0.0
 11
274.704764
 21
90.230558
 31
0.0
  0
LINE
  5
53407
100
AcDbEntity
  8
実線（中）
 62
     0
100
AcDbLine
 10
277.804764
 20
90.230563
 30
0.0
 11
277.804765
 21
89.230563
 31
0.0
  0
LINE
  5
53408
100
AcDbEntity
  8
実線（中）
 62
     0
100
AcDbLine
 10
275.479765
 20
89.230559
 30
0.0
 11
277.804765
 21
89.230563
 31
0.0
  0
LINE
  5
53409
100
AcDbEntity
  8
実線（中）
 62
     0
100
AcDbLine
 10
280.304774
 20
79.000563
 30
0.0
 11
280.304775
 21
78.000563
 31
0.0
  0
LINE
  5
5340A
100
AcDbEntity
  8
実線（中）
 62
     0
100
AcDbLine
 10
282.204775
 20
78.000566
 30
0.0
 11
282.204774
 21
79.000566
 31
0.0
  0
LINE
  5
5340B
100
AcDbEntity
  8
実線（中）
 62
     0
100
AcDbLine
 10
285.304774
 20
79.00057
 30
0.0
 11
285.304775
 21
78.00057
 31
0.0
  0
LINE
  5
5340C
100
AcDbEntity
  8
実線（中）
 62
     0
100
AcDbLine
 10
287.204775
 20
78.000572
 30
0.0
 11
287.204774
 21
79.000572
 31
0.0
  0
LINE
  5
5340D
100
AcDbEntity
  8
実線（中）
 62
     0
100
AcDbLine
 10
290.304774
 20
79.000577
 30
0.0
 11
290.304775
 21
78.000577
 31
0.0
  0
LINE
  5
5340E
100
AcDbEntity
  8
実線（中）
 62
     0
100
AcDbLine
 10
292.204775
 20
78.000579
 30
0.0
 11
292.204774
 21
79.000579
 31
0.0
  0
LINE
  5
5340F
100
AcDbEntity
  8
実線（中）
 62
     0
100
AcDbLine
 10
295.304774
 20
79.000584
 30
0.0
 11
295.304775
 21
78.000584
 31
0.0
  0
LINE
  5
53410
100
AcDbEntity
  8
実線（中）
 62
     0
100
AcDbLine
 10
297.204775
 20
78.000586
 30
0.0
 11
297.204774
 21
79.000586
 31
0.0
  0
LINE
  5
53411
100
AcDbEntity
  8
実線（中）
 62
     0
100
AcDbLine
 10
301.254765
 20
86.100592
 30
0.0
 11
301.254775
 21
76.000592
 31
0.0
  0
LINE
  5
53412
100
AcDbEntity
  8
実線（中）
 62
     0
100
AcDbLine
 10
300.304774
 20
79.00059
 30
0.0
 11
300.304775
 21
78.00059
 31
0.0
  0
LINE
  5
53414
100
AcDbEntity
  8
実線（中）
 62
     0
100
AcDbLine
 10
301.254776
 20
77.000592
 30
0.0
 11
287.254776
 21
77.000574
 31
0.0
  0
LINE
  5
53415
100
AcDbEntity
  8
実線（中）
 62
     0
100
AcDbLine
 10
285.004204
 20
74.000592
 30
0.0
 11
292.504204
 21
74.000592
 31
0.0
  0
LINE
  5
53416
100
AcDbEntity
  8
実線（中）
 62
     0
100
AcDbLine
 10
294.504206
 20
77.000592
 30
0.0
 11
280.504206
 21
77.000592
 31
0.0
  0
LINE
  5
53417
100
AcDbEntity
  8
実線（中）
 62
     0
100
AcDbLine
 10
280.504425
 20
77.000592
 30
0.0
 11
294.504425
 21
77.000592
 31
0.0
  0
LINE
  5
53418
100
AcDbEntity
  8
実線（中）
 62
     0
100
AcDbLine
 10
288.754775
 20
78.000575
 30
0.0
 11
287.204775
 21
78.000572
 31
0.0
  0
LINE
  5
53419
100
AcDbEntity
  8
実線（中）
 62
     0
100
AcDbLine
 10
281.504204
 20
71.500592
 30
0.0
 11
283.004204
 21
72.700592
 31
0.0
  0
LINE
  5
5341A
100
AcDbEntity
  8
実線（中）
 62
     0
100
AcDbLine
 10
285.004204
 20
74.000592
 30
0.0
 11
285.004204
 21
72.000592
 31
0.0
  0
LINE
  5
5341B
100
AcDbEntity
  8
実線（中）
 62
     0
100
AcDbLine
 10
285.004204
 20
72.000592
 30
0.0
 11
282.004204
 21
70.000592
 31
0.0
  0
LINE
  5
5341C
100
AcDbEntity
  8
実線（中）
 62
     0
100
AcDbLine
 10
280.004204
 20
71.500592
 30
0.0
 11
280.004204
 21
71.500592
 31
0.0
  0
LINE
  5
5341D
100
AcDbEntity
  8
実線（中）
 62
     0
100
AcDbLine
 10
283.754775
 20
78.000568
 30
0.0
 11
282.204775
 21
78.000566
 31
0.0
  0
LINE
  5
5341E
100
AcDbEntity
  8
実線（中）
 62
     0
100
AcDbLine
 10
282.979775
 20
78.000567
 30
0.0
 11
285.304775
 21
78.00057
 31
0.0
  0
LINE
  5
5341F
100
AcDbEntity
  8
実線（中）
 62
     0
100
AcDbLine
 10
283.004204
 20
74.000592
 30
0.0
 11
283.004204
 21
72.700592
 31
0.0
  0
LINE
  5
53420
100
AcDbEntity
  8
実線（中）
 62
     0
100
AcDbLine
 10
291.349638
 20
77.000561
 30
0.0
 11
294.149638
 21
77.000592
 31
0.0
  0
LINE
  5
53421
100
AcDbEntity
  8
実線（中）
 62
     0
100
AcDbLine
 10
287.979775
 20
78.000573
 30
0.0
 11
290.304775
 21
78.000577
 31
0.0
  0
LINE
  5
53422
100
AcDbEntity
  8
実線（中）
 62
     0
100
AcDbLine
 10
292.504204
 20
74.000592
 30
0.0
 11
293.504205
 21
75.000592
 31
0.0
  0
LINE
  5
53423
100
AcDbEntity
  8
実線（中）
 62
     0
100
AcDbLine
 10
293.754775
 20
78.000581
 30
0.0
 11
292.204775
 21
78.000579
 31
0.0
  0
LINE
  5
53424
100
AcDbEntity
  8
実線（中）
 62
     0
100
AcDbLine
 10
292.979775
 20
78.00058
 30
0.0
 11
295.304775
 21
78.000584
 31
0.0
  0
ARC
  5
53426
100
AcDbEntity
  8
実線（中）
 62
     0
100
AcDbCircle
 10
303.00444
 20
76.000592
 30
0.0
 40
1.0
100
AcDbArc
 50
270.0
 51
0.000004
  0
LINE
  5
53427
100
AcDbEntity
  8
実線（中）
 62
     0
100
AcDbLine
 10
297.979775
 20
78.000587
 30
0.0
 11
300.304775
 21
78.00059
 31
0.0
  0
LINE
  5
53428
100
AcDbEntity
  8
実線（中）
 62
     0
100
AcDbLine
 10
298.754775
 20
78.000588
 30
0.0
 11
297.204775
 21
78.000586
 31
0.0
  0
LINE
  5
53429
100
AcDbEntity
  8
実線（中）
 62
     0
100
AcDbLine
 10
302.00444
 20
75.000592
 30
0.0
 11
302.00444
 21
76.000592
 31
0.0
  0
LINE
  5
5342A
100
AcDbEntity
  8
実線（中）
 62
     0
100
AcDbLine
 10
291.254765
 20
86.100578
 30
0.0
 11
301.254765
 21
86.100592
 31
0.0
  0
LINE
  5
5342B
100
AcDbEntity
  8
実線（中）
 62
     0
100
AcDbLine
 10
291.254766
 20
85.100578
 30
0.0
 11
301.254766
 21
85.100592
 31
0.0
  0
LINE
  5
5342C
100
AcDbEntity
  8
実線（中）
 62
     0
100
AcDbLine
 10
298.754766
 20
87.100591
 30
0.0
 11
284.754766
 21
87.100573
 31
0.0
  0
LINE
  5
5342D
100
AcDbEntity
  8
実線（中）
 62
     0
100
AcDbLine
 10
296.254765
 20
89.230588
 30
0.0
 11
294.704765
 21
89.230586
 31
0.0
  0
LINE
  5
5342E
100
AcDbEntity
  8
実線（中）
 62
     0
100
AcDbLine
 10
295.479765
 20
89.230587
 30
0.0
 11
297.804765
 21
89.23059
 31
0.0
  0
LINE
  5
5342F
100
AcDbEntity
  8
実線（中）
 62
     0
100
AcDbLine
 10
294.704764
 20
90.230586
 30
0.0
 11
297.804764
 21
90.23059
 31
0.0
  0
CIRCLE
  5
53430
100
AcDbEntity
  8
実線（中）
 62
     0
100
AcDbCircle
 10
296.25476
 20
93.080588
 30
0.0
 40
2.0
  0
LINE
  5
53431
100
AcDbEntity
  8
実線（中）
 62
     0
100
AcDbLine
 10
288.754756
 20
96.330578
 30
0.0
 11
298.754756
 21
96.330591
 31
0.0
  0
LINE
  5
53432
100
AcDbEntity
  8
実線（中）
 62
     0
100
AcDbLine
 10
288.754755
 20
97.330578
 30
0.0
 11
298.754755
 21
97.330591
 31
0.0
  0
CIRCLE
  5
53433
100
AcDbEntity
  8
実線（中）
 62
     0
100
AcDbCircle
 10
291.25476
 20
93.080581
 30
0.0
 40
2.0
  0
CIRCLE
  5
53434
100
AcDbEntity
  8
実線（中）
 62
     0
100
AcDbCircle
 10
286.25476
 20
93.080574
 30
0.0
 40
2.0
  0
CIRCLE
  5
53435
100
AcDbEntity
  8
実線（中）
 62
     0
100
AcDbCircle
 10
288.75477
 20
81.850575
 30
0.0
 40
2.0
  0
LINE
  5
53436
100
AcDbEntity
  8
実線（中）
 62
     0
100
AcDbLine
 10
287.204774
 20
79.000572
 30
0.0
 11
290.304774
 21
79.000577
 31
0.0
  0
LINE
  5
53437
100
AcDbEntity
  8
実線（中）
 62
     0
100
AcDbLine
 10
285.479765
 20
89.230573
 30
0.0
 11
287.804765
 21
89.230576
 31
0.0
  0
LINE
  5
53438
100
AcDbEntity
  8
実線（中）
 62
     0
100
AcDbLine
 10
284.704764
 20
90.230572
 30
0.0
 11
287.804764
 21
90.230576
 31
0.0
  0
LINE
  5
53439
100
AcDbEntity
  8
実線（中）
 62
     0
100
AcDbLine
 10
282.204774
 20
79.000566
 30
0.0
 11
285.304774
 21
79.00057
 31
0.0
  0
CIRCLE
  5
5343A
100
AcDbEntity
  8
実線（中）
 62
     0
100
AcDbCircle
 10
283.75477
 20
81.850568
 30
0.0
 40
2.0
  0
LINE
  5
5343B
100
AcDbEntity
  8
実線（中）
 62
     0
100
AcDbLine
 10
279.704765
 20
89.230565
 30
0.0
 11
279.704764
 21
90.230565
 31
0.0
  0
LINE
  5
5343C
100
AcDbEntity
  8
実線（中）
 62
     0
100
AcDbLine
 10
282.804764
 20
90.230569
 30
0.0
 11
282.804765
 21
89.230569
 31
0.0
  0
LINE
  5
5343D
100
AcDbEntity
  8
実線（中）
 62
     0
100
AcDbLine
 10
280.479765
 20
89.230566
 30
0.0
 11
282.804765
 21
89.230569
 31
0.0
  0
LINE
  5
5343E
100
AcDbEntity
  8
実線（中）
 62
     0
100
AcDbLine
 10
281.254765
 20
89.230567
 30
0.0
 11
279.704765
 21
89.230565
 31
0.0
  0
LINE
  5
5343F
100
AcDbEntity
  8
実線（中）
 62
     0
100
AcDbLine
 10
279.704764
 20
90.230565
 30
0.0
 11
282.804764
 21
90.230569
 31
0.0
  0
LINE
  5
53440
100
AcDbEntity
  8
実線（中）
 62
     0
100
AcDbLine
 10
284.704765
 20
89.230572
 30
0.0
 11
284.704764
 21
90.230572
 31
0.0
  0
LINE
  5
53441
100
AcDbEntity
  8
実線（中）
 62
     0
100
AcDbLine
 10
286.254765
 20
89.230574
 30
0.0
 11
284.704765
 21
89.230572
 31
0.0
  0
CIRCLE
  5
53442
100
AcDbEntity
  8
実線（中）
 62
     0
100
AcDbCircle
 10
293.75477
 20
81.850581
 30
0.0
 40
2.0
  0
LINE
  5
53443
100
AcDbEntity
  8
実線（中）
 62
     0
100
AcDbLine
 10
292.204774
 20
79.000579
 30
0.0
 11
295.304774
 21
79.000584
 31
0.0
  0
LINE
  5
53444
100
AcDbEntity
  8
実線（中）
 62
     0
100
AcDbLine
 10
289.704764
 20
90.230579
 30
0.0
 11
292.804764
 21
90.230583
 31
0.0
  0
LINE
  5
53445
100
AcDbEntity
  8
実線（中）
 62
     0
100
AcDbLine
 10
290.479765
 20
89.23058
 30
0.0
 11
292.804765
 21
89.230583
 31
0.0
  0
LINE
  5
53446
100
AcDbEntity
  8
実線（中）
 62
     0
100
AcDbLine
 10
287.804764
 20
90.230576
 30
0.0
 11
287.804765
 21
89.230576
 31
0.0
  0
LINE
  5
53447
100
AcDbEntity
  8
実線（中）
 62
     0
100
AcDbLine
 10
289.704765
 20
89.230579
 30
0.0
 11
289.704764
 21
90.230579
 31
0.0
  0
LINE
  5
53448
100
AcDbEntity
  8
実線（中）
 62
     0
100
AcDbLine
 10
291.254765
 20
89.230581
 30
0.0
 11
289.704765
 21
89.230579
 31
0.0
  0
LINE
  5
53449
100
AcDbEntity
  8
実線（中）
 62
     0
100
AcDbLine
 10
294.704765
 20
89.230586
 30
0.0
 11
294.704764
 21
90.230586
 31
0.0
  0
LINE
  5
5344A
100
AcDbEntity
  8
実線（中）
 62
     0
100
AcDbLine
 10
292.804764
 20
90.230583
 30
0.0
 11
292.804765
 21
89.230583
 31
0.0
  0
LINE
  5
5344B
100
AcDbEntity
  8
実線（中）
 62
     0
100
AcDbLine
 10
298.754755
 20
97.330591
 30
0.0
 11
298.754765
 21
86.100592
 31
0.0
  0
LINE
  5
5344C
100
AcDbEntity
  8
実線（中）
 62
     0
100
AcDbLine
 10
297.204774
 20
79.000586
 30
0.0
 11
300.304774
 21
79.00059
 31
0.0
  0
CIRCLE
  5
5344D
100
AcDbEntity
  8
実線（中）
 62
     0
100
AcDbCircle
 10
298.75477
 20
81.850588
 30
0.0
 40
2.0
  0
LINE
  5
5344E
100
AcDbEntity
  8
実線（中）
 62
     0
100
AcDbLine
 10
297.804764
 20
90.23059
 30
0.0
 11
297.804765
 21
89.23059
 31
0.0
  0
LINE
  5
5344F
100
AcDbEntity
  8
実線（中）
 62
     0
100
AcDbLine
 10
303.504504
 20
92.500015
 30
0.0
 11
304.004079
 21
92.500014
 31
0.0
  0
LINE
  5
53450
100
AcDbEntity
  8
実線（中）
 62
     0
100
AcDbLine
 10
303.504504
 20
92.500015
 30
0.0
 11
302.004497
 21
92.500014
 31
0.0
  0
LINE
  5
53451
100
AcDbEntity
  8
実線（中）
 62
     0
100
AcDbLine
 10
301.753372
 20
104.499074
 30
0.0
 11
297.504014
 21
104.499074
 31
0.0
  0
LINE
  5
53452
100
AcDbEntity
  8
実線（中）
 62
     0
100
AcDbLine
 10
302.004433
 20
99.400085
 30
0.0
 11
304.004603
 21
99.400085
 31
0.0
  0
LINE
  5
53453
100
AcDbEntity
  8
実線（中）
 62
     0
100
AcDbLine
 10
302.004424
 20
190.747873
 30
0.0
 11
302.004425
 21
245.000592
 31
0.0
  0
LINE
  5
53454
100
AcDbEntity
  8
実線（中）
 62
     0
100
AcDbLine
 10
258.004288
 20
190.747927
 30
0.0
 11
258.004419
 21
245.000592
 31
0.0
  0
CIRCLE
  5
53455
100
AcDbEntity
  8
実線（中）
 62
     0
100
AcDbCircle
 10
262.504424
 20
207.502138
 30
0.0
 40
4.0
  0
CIRCLE
  5
53456
100
AcDbEntity
  8
実線（中）
 62
     0
100
AcDbCircle
 10
262.504424
 20
207.502138
 30
0.0
 40
1.5
  0
CIRCLE
  5
53457
100
AcDbEntity
  8
実線（中）
 62
     0
100
AcDbCircle
 10
262.504421
 20
207.502138
 30
0.0
 40
2.5
  0
ARC
  5
53458
100
AcDbEntity
  8
実線（中）
 62
     0
100
AcDbCircle
 10
262.503256
 20
207.502156
 30
0.0
 40
5.0
100
AcDbArc
 50
0.00015
 51
90.000099
  0
LINE
  5
53459
100
AcDbEntity
  8
実線（中）
 62
     0
100
AcDbLine
 10
302.004423
 20
179.997227
 30
0.0
 11
258.004311
 21
179.997227
 31
0.0
  0
LINE
  5
5345A
100
AcDbEntity
  8
実線（中）
 62
     0
100
AcDbLine
 10
302.004423
 20
140.997238
 30
0.0
 11
258.004394
 21
140.997238
 31
0.0
  0
LINE
  5
5345B
100
AcDbEntity
  8
一点鎖線
 62
     0
100
AcDbLine
 10
310.0
 20
160.000586
 30
0.0
 11
250.0
 21
160.000592
 31
0.0
  0
LINE
  5
5345C
100
AcDbEntity
  8
実線（中）
 62
     0
100
AcDbLine
 10
258.004288
 20
190.747927
 30
0.0
 11
258.004419
 21
129.253371
 31
0.0
  0
ARC
  5
5345D
100
AcDbEntity
  8
実線（中）
 62
     0
100
AcDbCircle
 10
265.003683
 20
160.000822
 30
0.0
 40
5.4
100
AcDbArc
 50
185.312731
 51
174.687184
  0
CIRCLE
  5
5345E
100
AcDbEntity
  8
実線（中）
 62
     0
100
AcDbCircle
 10
265.003683
 20
160.000822
 30
0.0
 40
3.75
  0
LINE
  5
5345F
100
AcDbEntity
  8
一点鎖線
 62
     0
100
AcDbLine
 10
265.003683
 20
150.000822
 30
0.0
 11
265.003683
 21
170.000822
 31
0.0
  0
LINE
  5
53460
100
AcDbEntity
  8
実線（中）
 62
     0
100
AcDbLine
 10
268.659017
 20
143.001581
 30
0.0
 11
265.859017
 21
143.001619
 31
0.0
  0
LINE
  5
53461
100
AcDbEntity
  8
実線（中）
 62
     0
100
AcDbLine
 10
267.659003
 20
142.001595
 30
0.0
 11
265.859003
 21
142.001619
 31
0.0
  0
LINE
  5
53462
100
AcDbEntity
  8
実線（中）
 62
     0
100
AcDbLine
 10
265.859017
 20
143.001619
 30
0.0
 11
265.85899
 21
140.997238
 31
0.0
  0
LINE
  5
53463
100
AcDbEntity
  8
実線（中）
 62
     0
100
AcDbLine
 10
268.659017
 20
143.001581
 30
0.0
 11
268.65899
 21
140.997238
 31
0.0
  0
LINE
  5
53464
100
AcDbEntity
  8
実線（中）
 62
     0
100
AcDbLine
 10
267.659003
 20
142.001595
 30
0.0
 11
267.65899
 21
140.997238
 31
0.0
  0
LINE
  5
53467
100
AcDbEntity
  8
実線（中）
 62
     0
100
AcDbLine
 10
262.003967
 20
175.996467
 30
0.0
 11
268.003967
 21
175.996463
 31
0.0
  0
LINE
  5
53468
100
AcDbEntity
  8
実線（中）
 62
     0
100
AcDbLine
 10
261.003967
 20
174.996466
 30
0.0
 11
269.003967
 21
174.996463
 31
0.0
  0
LINE
  5
53469
100
AcDbEntity
  8
実線（中）
 62
     0
100
AcDbLine
 10
261.003967
 20
177.996467
 30
0.0
 11
269.003967
 21
177.996467
 31
0.0
  0
CIRCLE
  5
5346A
100
AcDbEntity
  8
実線（中）
 62
     0
100
AcDbCircle
 10
265.003683
 20
160.000822
 30
0.0
 40
2.1
  0
LINE
  5
5346B
100
AcDbEntity
  8
実線（中）
 62
     0
100
AcDbLine
 10
259.626881
 20
159.500827
 30
0.0
 11
258.004353
 21
159.500829
 31
0.0
  0
LINE
  5
5346C
100
AcDbEntity
  8
実線（中）
 62
     0
100
AcDbLine
 10
259.626882
 20
160.500826
 30
0.0
 11
258.004354
 21
160.500829
 31
0.0
  0
LINE
  5
5346D
100
AcDbEntity
  8
実線（中）
 62
     0
100
AcDbLine
 10
261.003967
 20
174.996466
 30
0.0
 11
261.003967
 21
177.996467
 31
0.0
  0
LINE
  5
5346E
100
AcDbEntity
  8
実線（中）
 62
     0
100
AcDbLine
 10
262.003967
 20
175.996467
 30
0.0
 11
262.003967
 21
177.996467
 31
0.0
  0
LINE
  5
5346F
100
AcDbEntity
  8
実線（中）
 62
     0
100
AcDbLine
 10
269.003967
 20
174.996463
 30
0.0
 11
269.003967
 21
177.996467
 31
0.0
  0
LINE
  5
53470
100
AcDbEntity
  8
実線（中）
 62
     0
100
AcDbLine
 10
268.003967
 20
175.996463
 30
0.0
 11
268.003967
 21
177.996467
 31
0.0
  0
ARC
  5
53471
100
AcDbEntity
  8
実線（中）
 62
     0
100
AcDbCircle
 10
262.503256
 20
207.502154
 30
0.0
 40
5.0
100
AcDbArc
 50
270.000119
 51
0.00015
  0
LINE
  5
53472
100
AcDbEntity
  8
実線（中）
 62
     0
100
AcDbLine
 10
258.255462
 20
202.502143
 30
0.0
 11
262.503267
 21
202.502154
 31
0.0
  0
LINE
  5
53473
100
AcDbEntity
  8
実線（中）
 62
     0
100
AcDbLine
 10
302.004424
 20
190.747873
 30
0.0
 11
302.004423
 21
126.353306
 31
0.0
  0
ARC
  5
53474
100
AcDbEntity
  8
実線（中）
 62
     0
100
AcDbCircle
 10
295.004429
 20
160.00076
 30
0.0
 40
5.4
100
AcDbArc
 50
5.312729
 51
354.687181
  0
CIRCLE
  5
53475
100
AcDbEntity
  8
実線（中）
 62
     0
100
AcDbCircle
 10
295.004429
 20
160.00076
 30
0.0
 40
3.75
  0
LINE
  5
53476
100
AcDbEntity
  8
一点鎖線
 62
     0
100
AcDbLine
 10
295.004429
 20
150.0
 30
0.0
 11
295.004429
 21
170.0
 31
0.0
  0
LINE
  5
53477
100
AcDbEntity
  8
実線（中）
 62
     0
100
AcDbLine
 10
280.457006
 20
136.000584
 30
0.0
 11
280.45706
 21
112.480584
 31
0.0
  0
LINE
  5
53478
100
AcDbEntity
  8
実線（中）
 62
     0
100
AcDbLine
 10
286.457006
 20
136.0006
 30
0.0
 11
286.45706
 21
112.4806
 31
0.0
  0
CIRCLE
  5
53479
100
AcDbEntity
  8
実線（中）
 62
     0
100
AcDbCircle
 10
297.504438
 20
109.501589
 30
0.0
 40
4.0
  0
CIRCLE
  5
5347A
100
AcDbEntity
  8
実線（中）
 62
     0
100
AcDbCircle
 10
297.504438
 20
109.501589
 30
0.0
 40
2.5
  0
ARC
  5
5347B
100
AcDbEntity
  8
実線（中）
 62
     0
100
AcDbCircle
 10
297.504014
 20
109.499074
 30
0.0
 40
5.0
100
AcDbArc
 50
90.0
 51
180.0
  0
LINE
  5
5347C
100
AcDbEntity
  8
実線（中）
 62
     0
100
AcDbLine
 10
286.45706
 20
112.4806
 30
0.0
 11
280.45706
 21
112.480584
 31
0.0
  0
CIRCLE
  5
534B6
100
AcDbEntity
  8
実線（中）
 62
     0
100
AcDbCircle
 10
297.504441
 20
109.501589
 30
0.0
 40
1.5
  0
LINE
  5
534B7
100
AcDbEntity
  8
実線（中）
 62
     0
100
AcDbLine
 10
301.753138
 20
114.499074
 30
0.0
 11
297.504014
 21
114.499074
 31
0.0
  0
LINE
  5
534B8
100
AcDbEntity
  8
実線（中）
 62
     0
100
AcDbLine
 10
286.467006
 20
136.0006
 30
0.0
 11
280.467006
 21
136.000584
 31
0.0
  0
LINE
  5
534C9
100
AcDbEntity
  8
実線（中）
 62
     0
100
AcDbLine
 10
291.349568
 20
143.001552
 30
0.0
 11
294.149568
 21
143.001583
 31
0.0
  0
LINE
  5
534CA
100
AcDbEntity
  8
実線（中）
 62
     0
100
AcDbLine
 10
291.349568
 20
143.001552
 30
0.0
 11
291.34959
 21
140.997238
 31
0.0
  0
LINE
  5
534CB
100
AcDbEntity
  8
実線（中）
 62
     0
100
AcDbLine
 10
294.149568
 20
143.001583
 30
0.0
 11
294.14959
 21
140.997238
 31
0.0
  0
LINE
  5
534CC
100
AcDbEntity
  8
実線（中）
 62
     0
100
AcDbLine
 10
292.349579
 20
142.001563
 30
0.0
 11
292.34959
 21
140.997238
 31
0.0
  0
LINE
  5
534CD
100
AcDbEntity
  8
実線（中）
 62
     0
100
AcDbLine
 10
292.349579
 20
142.001563
 30
0.0
 11
294.149579
 21
142.001583
 31
0.0
  0
LINE
  5
534CE
100
AcDbEntity
  8
実線（中）
 62
     0
100
AcDbLine
 10
299.004908
 20
174.996458
 30
0.0
 11
291.004908
 21
174.996459
 31
0.0
  0
LINE
  5
534CF
100
AcDbEntity
  8
実線（中）
 62
     0
100
AcDbLine
 10
298.004908
 20
175.996459
 30
0.0
 11
292.004908
 21
175.996458
 31
0.0
  0
LINE
  5
534D0
100
AcDbEntity
  8
実線（中）
 62
     0
100
AcDbLine
 10
299.004909
 20
177.996459
 30
0.0
 11
291.004909
 21
177.996462
 31
0.0
  0
CIRCLE
  5
534D1
100
AcDbEntity
  8
実線（中）
 62
     0
100
AcDbCircle
 10
295.004429
 20
160.00076
 30
0.0
 40
2.1
  0
LINE
  5
534D2
100
AcDbEntity
  8
実線（中）
 62
     0
100
AcDbLine
 10
291.004908
 20
174.996459
 30
0.0
 11
291.004909
 21
177.996462
 31
0.0
  0
LINE
  5
534D3
100
AcDbEntity
  8
実線（中）
 62
     0
100
AcDbLine
 10
292.004908
 20
175.996458
 30
0.0
 11
292.004909
 21
177.996462
 31
0.0
  0
LINE
  5
534D4
100
AcDbEntity
  8
実線（中）
 62
     0
100
AcDbLine
 10
302.004423
 20
159.500753
 30
0.0
 11
300.38123
 21
159.500755
 31
0.0
  0
LINE
  5
534D5
100
AcDbEntity
  8
実線（中）
 62
     0
100
AcDbLine
 10
302.004424
 20
160.500753
 30
0.0
 11
300.381231
 21
160.500755
 31
0.0
  0
LINE
  5
534D6
100
AcDbEntity
  8
実線（中）
 62
     0
100
AcDbLine
 10
299.004908
 20
174.996458
 30
0.0
 11
299.004909
 21
177.996459
 31
0.0
  0
LINE
  5
534D7
100
AcDbEntity
  8
実線（中）
 62
     0
100
AcDbLine
 10
298.004908
 20
175.996459
 30
0.0
 11
298.004909
 21
177.996459
 31
0.0
  0
LINE
  5
534D8
100
AcDbEntity
  8
実線（中）
 62
     0
100
AcDbLine
 10
280.454002
 20
205.000529
 30
0.0
 11
280.454057
 21
184.020529
 31
0.0
  0
LINE
  5
534D9
100
AcDbEntity
  8
実線（中）
 62
     0
100
AcDbLine
 10
286.454002
 20
205.000545
 30
0.0
 11
286.454057
 21
184.020545
 31
0.0
  0
LINE
  5
534E2
100
AcDbEntity
  8
実線（中）
 62
     0
100
AcDbLine
 10
286.454057
 20
184.020545
 30
0.0
 11
280.454057
 21
184.020529
 31
0.0
  0
LINE
  5
53511
100
AcDbEntity
  8
実線（中）
 62
     0
100
AcDbLine
 10
286.454002
 20
205.000545
 30
0.0
 11
280.454002
 21
205.000529
 31
0.0
  0
LINE
  5
5351C
100
AcDbEntity
  8
実線（中）
 62
     0
100
AcDbLine
 10
258.004416
 20
244.00062
 30
0.0
 11
302.002814
 21
244.00062
 31
0.0
  0
LINE
  5
5351D
100
AcDbEntity
  8
実線（中）
 62
     0
100
AcDbLine
 10
303.004429
 20
245.000592
 30
0.0
 11
257.004429
 21
245.000592
 31
0.0
  0
LINE
  5
5351E
100
AcDbEntity
  8
実線（中）
 62
     0
100
AcDbLine
 10
265.504425
 20
243.000593
 30
0.0
 11
279.504425
 21
243.000593
 31
0.0
  0
LINE
  5
5351F
100
AcDbEntity
  8
実線（中）
 62
     0
100
AcDbLine
 10
258.254018
 20
244.00062
 30
0.0
 11
301.753211
 21
244.00062
 31
0.0
  0
LINE
  5
53520
100
AcDbEntity
  8
実線（中）
 62
     0
100
AcDbLine
 10
301.253523
 20
233.900676
 30
0.0
 11
261.253523
 21
233.90062
 31
0.0
  0
LINE
  5
53521
100
AcDbEntity
  8
実線（中）
 62
     0
100
AcDbLine
 10
301.253524
 20
232.900676
 30
0.0
 11
271.253522
 21
232.900634
 31
0.0
  0
LINE
  5
53522
100
AcDbEntity
  8
実線（中）
 62
     0
100
AcDbLine
 10
298.753523
 20
233.90062
 30
0.0
 11
268.753523
 21
233.900634
 31
0.0
  0
LINE
  5
53523
100
AcDbEntity
  8
実線（中）
 62
     0
100
AcDbLine
 10
298.753522
 20
234.900675
 30
0.0
 11
268.753521
 21
234.900634
 31
0.0
  0
LINE
  5
53524
100
AcDbEntity
  8
実線（中）
 62
     0
100
AcDbLine
 10
298.753513
 20
244.000675
 30
0.0
 11
258.753513
 21
244.00062
 31
0.0
  0
LINE
  5
53525
100
AcDbEntity
  8
実線（中）
 62
     0
100
AcDbLine
 10
301.253532
 20
223.670676
 30
0.0
 11
271.253532
 21
223.670634
 31
0.0
  0
LINE
  5
53526
100
AcDbEntity
  8
実線（中）
 62
     0
100
AcDbLine
 10
301.253533
 20
222.670621
 30
0.0
 11
271.253533
 21
222.670634
 31
0.0
  0
LINE
  5
53527
100
AcDbEntity
  8
実線（中）
 62
     0
100
AcDbLine
 10
298.753514
 20
243.000675
 30
0.0
 11
268.753511
 21
243.000634
 31
0.0
  0
CIRCLE
  5
53528
100
AcDbEntity
  8
実線（中）
 62
     0
100
AcDbCircle
 10
278.753528
 20
226.920645
 30
0.0
 40
2.0
  0
LINE
  5
53529
100
AcDbEntity
  8
実線（中）
 62
     0
100
AcDbLine
 10
279.528523
 20
230.770646
 30
0.0
 11
277.203523
 21
230.770643
 31
0.0
  0
LINE
  5
5352A
100
AcDbEntity
  8
実線（中）
 62
     0
100
AcDbLine
 10
280.303524
 20
229.770647
 30
0.0
 11
277.203524
 21
229.770643
 31
0.0
  0
LINE
  5
5352B
100
AcDbEntity
  8
実線（中）
 62
     0
100
AcDbLine
 10
278.753523
 20
230.770645
 30
0.0
 11
280.303523
 21
230.770647
 31
0.0
  0
CIRCLE
  5
5352C
100
AcDbEntity
  8
実線（中）
 62
     0
100
AcDbCircle
 10
281.253518
 20
238.150651
 30
0.0
 40
2.0
  0
LINE
  5
5352D
100
AcDbEntity
  8
実線（中）
 62
     0
100
AcDbLine
 10
258.753523
 20
233.90062
 30
0.0
 11
258.753513
 21
244.00062
 31
0.0
  0
LINE
  5
5352E
100
AcDbEntity
  8
実線（中）
 62
     0
100
AcDbLine
 10
268.753523
 20
233.900634
 30
0.0
 11
258.753523
 21
233.90062
 31
0.0
  0
LINE
  5
5352F
100
AcDbEntity
  8
実線（中）
 62
     0
100
AcDbLine
 10
271.253532
 20
223.670634
 30
0.0
 11
261.253532
 21
223.670621
 31
0.0
  0
LINE
  5
53530
100
AcDbEntity
  8
実線（中）
 62
     0
100
AcDbLine
 10
271.253533
 20
222.670634
 30
0.0
 11
261.253533
 21
222.670621
 31
0.0
  0
LINE
  5
53531
100
AcDbEntity
  8
実線（中）
 62
     0
100
AcDbLine
 10
261.253522
 20
232.900621
 30
0.0
 11
275.253522
 21
232.900639
 31
0.0
  0
CIRCLE
  5
53532
100
AcDbEntity
  8
実線（中）
 62
     0
100
AcDbCircle
 10
263.753528
 20
226.920624
 30
0.0
 40
2.0
  0
LINE
  5
53533
100
AcDbEntity
  8
実線（中）
 62
     0
100
AcDbLine
 10
264.528523
 20
230.770625
 30
0.0
 11
262.203523
 21
230.770622
 31
0.0
  0
LINE
  5
53534
100
AcDbEntity
  8
実線（中）
 62
     0
100
AcDbLine
 10
265.303524
 20
229.770626
 30
0.0
 11
262.203524
 21
229.770622
 31
0.0
  0
LINE
  5
53535
100
AcDbEntity
  8
実線（中）
 62
     0
100
AcDbLine
 10
258.255114
 20
212.502147
 30
0.0
 11
262.507412
 21
212.502154
 31
0.0
  0
LINE
  5
53536
100
AcDbEntity
  8
実線（中）
 62
     0
100
AcDbLine
 10
258.004358
 20
220.601049
 30
0.0
 11
256.003855
 21
220.601049
 31
0.0
  0
LINE
  5
53537
100
AcDbEntity
  8
実線（中）
 62
     0
100
AcDbLine
 10
261.253533
 20
222.670621
 30
0.0
 11
261.253523
 21
233.90062
 31
0.0
  0
LINE
  5
53538
100
AcDbEntity
  8
実線（中）
 62
     0
100
AcDbLine
 10
256.00443
 20
227.501133
 30
0.0
 11
258.004021
 21
227.501136
 31
0.0
  0
LINE
  5
53539
100
AcDbEntity
  8
実線（中）
 62
     0
100
AcDbLine
 10
262.203524
 20
229.770622
 30
0.0
 11
262.203523
 21
230.770622
 31
0.0
  0
CIRCLE
  5
5353A
100
AcDbEntity
  8
実線（中）
 62
     0
100
AcDbCircle
 10
268.753528
 20
226.920631
 30
0.0
 40
2.0
  0
LINE
  5
5353B
100
AcDbEntity
  8
実線（中）
 62
     0
100
AcDbLine
 10
263.753523
 20
230.770624
 30
0.0
 11
265.303523
 21
230.770626
 31
0.0
  0
LINE
  5
5353C
100
AcDbEntity
  8
実線（中）
 62
     0
100
AcDbLine
 10
265.303523
 20
230.770626
 30
0.0
 11
265.303524
 21
229.770626
 31
0.0
  0
LINE
  5
5353D
100
AcDbEntity
  8
実線（中）
 62
     0
100
AcDbLine
 10
270.303524
 20
229.770633
 30
0.0
 11
267.203524
 21
229.770629
 31
0.0
  0
LINE
  5
5353E
100
AcDbEntity
  8
実線（中）
 62
     0
100
AcDbLine
 10
269.528523
 20
230.770632
 30
0.0
 11
267.203523
 21
230.770629
 31
0.0
  0
LINE
  5
5353F
100
AcDbEntity
  8
実線（中）
 62
     0
100
AcDbLine
 10
267.203524
 20
229.770629
 30
0.0
 11
267.203523
 21
230.770629
 31
0.0
  0
LINE
  5
53540
100
AcDbEntity
  8
実線（中）
 62
     0
100
AcDbLine
 10
268.753523
 20
230.770631
 30
0.0
 11
270.303523
 21
230.770633
 31
0.0
  0
LINE
  5
53541
100
AcDbEntity
  8
実線（中）
 62
     0
100
AcDbLine
 10
270.303523
 20
230.770633
 30
0.0
 11
270.303524
 21
229.770633
 31
0.0
  0
CIRCLE
  5
53542
100
AcDbEntity
  8
実線（中）
 62
     0
100
AcDbCircle
 10
273.753528
 20
226.920638
 30
0.0
 40
2.0
  0
LINE
  5
53543
100
AcDbEntity
  8
実線（中）
 62
     0
100
AcDbLine
 10
274.528523
 20
230.770639
 30
0.0
 11
272.203523
 21
230.770636
 31
0.0
  0
LINE
  5
53544
100
AcDbEntity
  8
実線（中）
 62
     0
100
AcDbLine
 10
275.303524
 20
229.77064
 30
0.0
 11
272.203524
 21
229.770636
 31
0.0
  0
LINE
  5
53545
100
AcDbEntity
  8
実線（中）
 62
     0
100
AcDbLine
 10
272.203524
 20
229.770636
 30
0.0
 11
272.203523
 21
230.770636
 31
0.0
  0
LINE
  5
53546
100
AcDbEntity
  8
実線（中）
 62
     0
100
AcDbLine
 10
275.303523
 20
230.77064
 30
0.0
 11
275.303524
 21
229.77064
 31
0.0
  0
LINE
  5
53547
100
AcDbEntity
  8
実線（中）
 62
     0
100
AcDbLine
 10
273.753523
 20
230.770638
 30
0.0
 11
275.303523
 21
230.77064
 31
0.0
  0
LINE
  5
53548
100
AcDbEntity
  8
実線（中）
 62
     0
100
AcDbLine
 10
277.203524
 20
229.770643
 30
0.0
 11
277.203523
 21
230.770643
 31
0.0
  0
CIRCLE
  5
53549
100
AcDbEntity
  8
実線（中）
 62
     0
100
AcDbCircle
 10
261.253518
 20
238.150624
 30
0.0
 40
2.0
  0
LINE
  5
5354A
100
AcDbEntity
  8
実線（中）
 62
     0
100
AcDbLine
 10
258.753511
 20
243.00062
 30
0.0
 11
272.753511
 21
243.000638
 31
0.0
  0
LINE
  5
5354B
100
AcDbEntity
  8
実線（中）
 62
     0
100
AcDbLine
 10
268.753521
 20
234.900634
 30
0.0
 11
258.753521
 21
234.90062
 31
0.0
  0
ARC
  5
5354C
100
AcDbEntity
  8
実線（中）
 62
     0
100
AcDbCircle
 10
257.004429
 20
244.000592
 30
0.0
 40
1.0
100
AcDbArc
 50
90.0
 51
180.000004
  0
LINE
  5
5354D
100
AcDbEntity
  8
実線（中）
 62
     0
100
AcDbLine
 10
262.803514
 20
241.000626
 30
0.0
 11
259.703514
 21
241.000622
 31
0.0
  0
LINE
  5
5354E
100
AcDbEntity
  8
実線（中）
 62
     0
100
AcDbLine
 10
262.028513
 20
242.000625
 30
0.0
 11
259.703513
 21
242.000622
 31
0.0
  0
LINE
  5
5354F
100
AcDbEntity
  8
実線（中）
 62
     0
100
AcDbLine
 10
259.703514
 20
241.000622
 30
0.0
 11
259.703513
 21
242.000622
 31
0.0
  0
LINE
  5
53550
100
AcDbEntity
  8
実線（中）
 62
     0
100
AcDbLine
 10
262.803513
 20
242.000626
 30
0.0
 11
262.803514
 21
241.000626
 31
0.0
  0
LINE
  5
53551
100
AcDbEntity
  8
実線（中）
 62
     0
100
AcDbLine
 10
261.253513
 20
242.000624
 30
0.0
 11
262.803513
 21
242.000626
 31
0.0
  0
LINE
  5
53552
100
AcDbEntity
  8
実線（中）
 62
     0
100
AcDbLine
 10
272.803514
 20
241.00064
 30
0.0
 11
269.703514
 21
241.000635
 31
0.0
  0
CIRCLE
  5
53553
100
AcDbEntity
  8
実線（中）
 62
     0
100
AcDbCircle
 10
271.253518
 20
238.150637
 30
0.0
 40
2.0
  0
LINE
  5
53554
100
AcDbEntity
  8
実線（中）
 62
     0
100
AcDbLine
 10
271.253513
 20
242.000637
 30
0.0
 11
272.803513
 21
242.00064
 31
0.0
  0
LINE
  5
53555
100
AcDbEntity
  8
実線（中）
 62
     0
100
AcDbLine
 10
272.028513
 20
242.000639
 30
0.0
 11
269.703513
 21
242.000635
 31
0.0
  0
CIRCLE
  5
53556
100
AcDbEntity
  8
実線（中）
 62
     0
100
AcDbCircle
 10
266.253518
 20
238.150631
 30
0.0
 40
2.0
  0
LINE
  5
53557
100
AcDbEntity
  8
実線（中）
 62
     0
100
AcDbLine
 10
267.803514
 20
241.000633
 30
0.0
 11
264.703514
 21
241.000628
 31
0.0
  0
LINE
  5
53558
100
AcDbEntity
  8
実線（中）
 62
     0
100
AcDbLine
 10
266.253513
 20
242.000631
 30
0.0
 11
267.803513
 21
242.000633
 31
0.0
  0
LINE
  5
53559
100
AcDbEntity
  8
実線（中）
 62
     0
100
AcDbLine
 10
264.703514
 20
241.000628
 30
0.0
 11
264.703513
 21
242.000628
 31
0.0
  0
LINE
  5
5355A
100
AcDbEntity
  8
実線（中）
 62
     0
100
AcDbLine
 10
267.028513
 20
242.000632
 30
0.0
 11
264.703513
 21
242.000628
 31
0.0
  0
LINE
  5
5355B
100
AcDbEntity
  8
実線（中）
 62
     0
100
AcDbLine
 10
267.803513
 20
242.000633
 30
0.0
 11
267.803514
 21
241.000633
 31
0.0
  0
LINE
  5
5355C
100
AcDbEntity
  8
実線（中）
 62
     0
100
AcDbLine
 10
269.703514
 20
241.000635
 30
0.0
 11
269.703513
 21
242.000635
 31
0.0
  0
CIRCLE
  5
5355D
100
AcDbEntity
  8
実線（中）
 62
     0
100
AcDbCircle
 10
276.253518
 20
238.150644
 30
0.0
 40
2.0
  0
LINE
  5
5355E
100
AcDbEntity
  8
実線（中）
 62
     0
100
AcDbLine
 10
277.803514
 20
241.000646
 30
0.0
 11
274.703514
 21
241.000642
 31
0.0
  0
LINE
  5
5355F
100
AcDbEntity
  8
実線（中）
 62
     0
100
AcDbLine
 10
277.028513
 20
242.000645
 30
0.0
 11
274.703513
 21
242.000642
 31
0.0
  0
LINE
  5
53560
100
AcDbEntity
  8
実線（中）
 62
     0
100
AcDbLine
 10
272.803513
 20
242.00064
 30
0.0
 11
272.803514
 21
241.00064
 31
0.0
  0
LINE
  5
53561
100
AcDbEntity
  8
実線（中）
 62
     0
100
AcDbLine
 10
274.703514
 20
241.000642
 30
0.0
 11
274.703513
 21
242.000642
 31
0.0
  0
LINE
  5
53562
100
AcDbEntity
  8
実線（中）
 62
     0
100
AcDbLine
 10
276.253513
 20
242.000644
 30
0.0
 11
277.803513
 21
242.000646
 31
0.0
  0
LINE
  5
53563
100
AcDbEntity
  8
実線（中）
 62
     0
100
AcDbLine
 10
277.803513
 20
242.000646
 30
0.0
 11
277.803514
 21
241.000646
 31
0.0
  0
LINE
  5
53564
100
AcDbEntity
  8
実線（中）
 62
     0
100
AcDbLine
 10
298.753523
 20
233.90062
 30
0.0
 11
298.753513
 21
244.00062
 31
0.0
  0
CIRCLE
  5
53565
100
AcDbEntity
  8
実線（中）
 62
     0
100
AcDbCircle
 10
288.753528
 20
226.920659
 30
0.0
 40
2.0
  0
LINE
  5
53566
100
AcDbEntity
  8
実線（中）
 62
     0
100
AcDbLine
 10
290.303524
 20
229.770661
 30
0.0
 11
287.203524
 21
229.770656
 31
0.0
  0
LINE
  5
53567
100
AcDbEntity
  8
実線（中）
 62
     0
100
AcDbLine
 10
289.528523
 20
230.77066
 30
0.0
 11
287.203523
 21
230.770656
 31
0.0
  0
CIRCLE
  5
53568
100
AcDbEntity
  8
実線（中）
 62
     0
100
AcDbCircle
 10
283.753528
 20
226.920652
 30
0.0
 40
2.0
  0
LINE
  5
53569
100
AcDbEntity
  8
実線（中）
 62
     0
100
AcDbLine
 10
284.528523
 20
230.770653
 30
0.0
 11
282.203523
 21
230.770649
 31
0.0
  0
LINE
  5
5356A
100
AcDbEntity
  8
実線（中）
 62
     0
100
AcDbLine
 10
285.303524
 20
229.770654
 30
0.0
 11
282.203524
 21
229.770649
 31
0.0
  0
LINE
  5
5356B
100
AcDbEntity
  8
実線（中）
 62
     0
100
AcDbLine
 10
280.303523
 20
230.770647
 30
0.0
 11
280.303524
 21
229.770647
 31
0.0
  0
LINE
  5
5356C
100
AcDbEntity
  8
実線（中）
 62
     0
100
AcDbLine
 10
282.203524
 20
229.770649
 30
0.0
 11
282.203523
 21
230.770649
 31
0.0
  0
LINE
  5
5356D
100
AcDbEntity
  8
実線（中）
 62
     0
100
AcDbLine
 10
285.303523
 20
230.770654
 30
0.0
 11
285.303524
 21
229.770654
 31
0.0
  0
LINE
  5
5356E
100
AcDbEntity
  8
実線（中）
 62
     0
100
AcDbLine
 10
283.753523
 20
230.770652
 30
0.0
 11
285.303523
 21
230.770654
 31
0.0
  0
LINE
  5
5356F
100
AcDbEntity
  8
実線（中）
 62
     0
100
AcDbLine
 10
287.203524
 20
229.770656
 30
0.0
 11
287.203523
 21
230.770656
 31
0.0
  0
CIRCLE
  5
53570
100
AcDbEntity
  8
実線（中）
 62
     0
100
AcDbCircle
 10
293.753528
 20
226.920665
 30
0.0
 40
2.0
  0
LINE
  5
53571
100
AcDbEntity
  8
実線（中）
 62
     0
100
AcDbLine
 10
288.753523
 20
230.770659
 30
0.0
 11
290.303523
 21
230.770661
 31
0.0
  0
LINE
  5
53572
100
AcDbEntity
  8
実線（中）
 62
     0
100
AcDbLine
 10
290.303523
 20
230.770661
 30
0.0
 11
290.303524
 21
229.770661
 31
0.0
  0
LINE
  5
53573
100
AcDbEntity
  8
実線（中）
 62
     0
100
AcDbLine
 10
293.753523
 20
230.770665
 30
0.0
 11
295.303523
 21
230.770668
 31
0.0
  0
LINE
  5
53574
100
AcDbEntity
  8
実線（中）
 62
     0
100
AcDbLine
 10
295.303524
 20
229.770668
 30
0.0
 11
292.203524
 21
229.770663
 31
0.0
  0
LINE
  5
53575
100
AcDbEntity
  8
実線（中）
 62
     0
100
AcDbLine
 10
294.528523
 20
230.770666
 30
0.0
 11
292.203523
 21
230.770663
 31
0.0
  0
LINE
  5
53576
100
AcDbEntity
  8
実線（中）
 62
     0
100
AcDbLine
 10
292.203524
 20
229.770663
 30
0.0
 11
292.203523
 21
230.770663
 31
0.0
  0
LINE
  5
53577
100
AcDbEntity
  8
実線（中）
 62
     0
100
AcDbLine
 10
295.303523
 20
230.770668
 30
0.0
 11
295.303524
 21
229.770668
 31
0.0
  0
LINE
  5
53578
100
AcDbEntity
  8
実線（中）
 62
     0
100
AcDbLine
 10
302.004425
 20
220.600998
 30
0.0
 11
304.00485
 21
220.600998
 31
0.0
  0
LINE
  5
53579
100
AcDbEntity
  8
実線（中）
 62
     0
100
AcDbLine
 10
301.253533
 20
222.670621
 30
0.0
 11
301.253523
 21
233.900676
 31
0.0
  0
CIRCLE
  5
5357A
100
AcDbEntity
  8
実線（中）
 62
     0
100
AcDbCircle
 10
298.753528
 20
226.920672
 30
0.0
 40
2.0
  0
LINE
  5
5357B
100
AcDbEntity
  8
実線（中）
 62
     0
100
AcDbLine
 10
303.504718
 20
227.501095
 30
0.0
 11
304.004292
 21
227.501094
 31
0.0
  0
LINE
  5
5357C
100
AcDbEntity
  8
実線（中）
 62
     0
100
AcDbLine
 10
303.504718
 20
227.501095
 30
0.0
 11
302.00471
 21
227.501101
 31
0.0
  0
LINE
  5
5357D
100
AcDbEntity
  8
実線（中）
 62
     0
100
AcDbLine
 10
300.303524
 20
229.770674
 30
0.0
 11
297.203524
 21
229.77067
 31
0.0
  0
LINE
  5
5357E
100
AcDbEntity
  8
実線（中）
 62
     0
100
AcDbLine
 10
298.753523
 20
230.770672
 30
0.0
 11
300.303523
 21
230.770674
 31
0.0
  0
LINE
  5
5357F
100
AcDbEntity
  8
実線（中）
 62
     0
100
AcDbLine
 10
299.528523
 20
230.770673
 30
0.0
 11
297.203523
 21
230.77067
 31
0.0
  0
LINE
  5
53580
100
AcDbEntity
  8
実線（中）
 62
     0
100
AcDbLine
 10
297.203524
 20
229.77067
 30
0.0
 11
297.203523
 21
230.77067
 31
0.0
  0
LINE
  5
53581
100
AcDbEntity
  8
実線（中）
 62
     0
100
AcDbLine
 10
300.303523
 20
230.770674
 30
0.0
 11
300.303524
 21
229.770674
 31
0.0
  0
CIRCLE
  5
53582
100
AcDbEntity
  8
実線（中）
 62
     0
100
AcDbCircle
 10
296.253518
 20
238.150672
 30
0.0
 40
2.0
  0
LINE
  5
53583
100
AcDbEntity
  8
実線（中）
 62
     0
100
AcDbLine
 10
297.803514
 20
241.000674
 30
0.0
 11
294.703514
 21
241.00067
 31
0.0
  0
LINE
  5
53584
100
AcDbEntity
  8
実線（中）
 62
     0
100
AcDbLine
 10
297.028513
 20
242.000673
 30
0.0
 11
294.703513
 21
242.00067
 31
0.0
  0
LINE
  5
53585
100
AcDbEntity
  8
実線（中）
 62
     0
100
AcDbLine
 10
280.504425
 20
243.000593
 30
0.0
 11
294.504425
 21
243.000593
 31
0.0
  0
LINE
  5
53586
100
AcDbEntity
  8
実線（中）
 62
     0
100
AcDbLine
 10
287.803514
 20
241.00066
 30
0.0
 11
284.703514
 21
241.000656
 31
0.0
  0
CIRCLE
  5
53587
100
AcDbEntity
  8
実線（中）
 62
     0
100
AcDbCircle
 10
286.253518
 20
238.150658
 30
0.0
 40
2.0
  0
LINE
  5
53588
100
AcDbEntity
  8
実線（中）
 62
     0
100
AcDbLine
 10
286.253513
 20
242.000658
 30
0.0
 11
287.803513
 21
242.00066
 31
0.0
  0
LINE
  5
53589
100
AcDbEntity
  8
実線（中）
 62
     0
100
AcDbLine
 10
282.803513
 20
242.000653
 30
0.0
 11
282.803514
 21
241.000653
 31
0.0
  0
LINE
  5
5358A
100
AcDbEntity
  8
実線（中）
 62
     0
100
AcDbLine
 10
279.703514
 20
241.000649
 30
0.0
 11
279.703513
 21
242.000649
 31
0.0
  0
LINE
  5
5358B
100
AcDbEntity
  8
実線（中）
 62
     0
100
AcDbLine
 10
282.803514
 20
241.000653
 30
0.0
 11
279.703514
 21
241.000649
 31
0.0
  0
LINE
  5
5358C
100
AcDbEntity
  8
実線（中）
 62
     0
100
AcDbLine
 10
282.028513
 20
242.000652
 30
0.0
 11
279.703513
 21
242.000649
 31
0.0
  0
LINE
  5
5358D
100
AcDbEntity
  8
実線（中）
 62
     0
100
AcDbLine
 10
281.253513
 20
242.000651
 30
0.0
 11
282.803513
 21
242.000653
 31
0.0
  0
LINE
  5
5358E
100
AcDbEntity
  8
実線（中）
 62
     0
100
AcDbLine
 10
287.028513
 20
242.000659
 30
0.0
 11
284.703513
 21
242.000656
 31
0.0
  0
LINE
  5
5358F
100
AcDbEntity
  8
実線（中）
 62
     0
100
AcDbLine
 10
284.703514
 20
241.000656
 30
0.0
 11
284.703513
 21
242.000656
 31
0.0
  0
CIRCLE
  5
53590
100
AcDbEntity
  8
実線（中）
 62
     0
100
AcDbCircle
 10
291.253518
 20
238.150665
 30
0.0
 40
2.0
  0
LINE
  5
53591
100
AcDbEntity
  8
実線（中）
 62
     0
100
AcDbLine
 10
292.803514
 20
241.000667
 30
0.0
 11
289.703514
 21
241.000663
 31
0.0
  0
LINE
  5
53592
100
AcDbEntity
  8
実線（中）
 62
     0
100
AcDbLine
 10
292.028513
 20
242.000666
 30
0.0
 11
289.703513
 21
242.000663
 31
0.0
  0
LINE
  5
53593
100
AcDbEntity
  8
実線（中）
 62
     0
100
AcDbLine
 10
291.253513
 20
242.000665
 30
0.0
 11
292.803513
 21
242.000667
 31
0.0
  0
LINE
  5
53594
100
AcDbEntity
  8
実線（中）
 62
     0
100
AcDbLine
 10
287.803513
 20
242.00066
 30
0.0
 11
287.803514
 21
241.00066
 31
0.0
  0
LINE
  5
53595
100
AcDbEntity
  8
実線（中）
 62
     0
100
AcDbLine
 10
289.703514
 20
241.000663
 30
0.0
 11
289.703513
 21
242.000663
 31
0.0
  0
LINE
  5
53596
100
AcDbEntity
  8
実線（中）
 62
     0
100
AcDbLine
 10
292.803513
 20
242.000667
 30
0.0
 11
292.803514
 21
241.000667
 31
0.0
  0
LINE
  5
53597
100
AcDbEntity
  8
実線（中）
 62
     0
100
AcDbLine
 10
294.703514
 20
241.00067
 30
0.0
 11
294.703513
 21
242.00067
 31
0.0
  0
ARC
  5
53598
100
AcDbEntity
  8
実線（中）
 62
     0
100
AcDbCircle
 10
303.004429
 20
244.000592
 30
0.0
 40
1.0
100
AcDbArc
 50
0.000004
 51
90.0
  0
LINE
  5
53599
100
AcDbEntity
  8
実線（中）
 62
     0
100
AcDbLine
 10
297.803513
 20
242.000674
 30
0.0
 11
297.803514
 21
241.000674
 31
0.0
  0
LINE
  5
5359A
100
AcDbEntity
  8
実線（中）
 62
     0
100
AcDbLine
 10
296.253513
 20
242.000672
 30
0.0
 11
297.803513
 21
242.000674
 31
0.0
  0
DIMENSION
  5
535DB
100
AcDbEntity
  8
寸法線
 62
     0
100
AcDbDimension
  2
*D3
 10
94.99784
 20
70.0
 30
0.0
 11
89.49784
 21
55.971591
 31
0.0
 70
    32
  3
標準
100
AcDbAlignedDimension
 13
73.999988
 23
75.0
 33
0.0
 14
51.999752
 24
70.0
 34
0.0
 50
90.0
100
AcDbRotatedDimension
1001
ACAD
1000
DSTYLE
1002
{
1070
    40
1040
1.0
1002
}
  0
LEADER
  5
535DD
100
AcDbEntity
  8
寸法線
 62
     0
100
AcDbLeader
  3
標準
 73
     0
 74
     0
 75
     1
 40
20.147727
 41
42.75
 76
     3
 10
298.403255
 20
164.196946
 30
0.0
 10
310.002841
 20
182.925314
 30
0.0
 10
315.002841
 20
182.925314
 30
0.0
 77
     0
340
535DE
1001
ACAD
1000
DSTYLE
1002
{
1070
   140
1040
6.0
1002
}
  0
MTEXT
  5
535DE
102
{ACAD_REACTORS
330
535DD
102
}
100
AcDbEntity
  8
寸法線
 62
     0
100
AcDbMText
 10
317.002841
 20
194.999177
 30
0.0
 40
6.0
 41
0.0
 71
     4
 72
     1
  1
2-φ4.2穴\P壁面固定用
  0
MTEXT
  5
535F3
102
{ACAD_REACTORS
330
535F4
102
}
100
AcDbEntity
  8
寸法線
 62
     0
100
AcDbMText
 10
240.001825
 20
264.999783
 30
0.0
 40
6.0
 41
0.0
 71
     4
 72
     1
  1
DINレール取付の場合\P(35mm幅)
  0
LEADER
  5
535F4
100
AcDbEntity
  8
寸法線
 62
     0
100
AcDbLeader
  3
標準
 73
     0
 74
     0
 75
     1
 40
20.045455
 41
81.0
 76
     3
 10
213.80392
 20
175.505352
 30
0.0
 10
233.001825
 20
252.977056
 30
0.0
 10
238.001825
 20
252.977056
 30
0.0
 77
     0
340
535F3
1001
ACAD
1000
DSTYLE
1002
{
1070
   140
1040
2.0
1002
}
  0
MTEXT
  5
53627
100
AcDbEntity
  8
実線（中）
100
AcDbMText
 10
280.004204
 20
40.000592
 30
0.0
 40
5.0
 41
0.0
 71
     5
 72
     5
  1
ベース部
  0
DIMENSION
  5
53646
100
AcDbEntity
  8
寸法線
 62
     0
100
AcDbDimension
  2
*D4
 10
295.004429
 20
50.0
 30
0.0
 11
280.004056
 21
50.0
 31
0.0
 70
   160
  3
標準
100
AcDbAlignedDimension
 13
265.003683
 23
150.000822
 33
0.0
 14
295.004429
 24
150.00076
 34
0.0
100
AcDbRotatedDimension
  0
DIMENSION
  5
5376D
100
AcDbEntity
  8
実線（中）
100
AcDbDimension
  2
*D5
 10
210.001825
 20
259.999783
 30
0.0
 11
167.500993
 21
265.499783
 31
0.0
 70
    32
  3
標準
100
AcDbAlignedDimension
 13
125.000161
 23
220.791779
 33
0.0
 14
210.001825
 24
243.955408
 34
0.0
100
AcDbRotatedDimension
1001
ACAD
1000
DSTYLE
1002
{
1070
    40
1040
1.0
1002
}
  0
LINE
  5
54005
100
AcDbEntity
  8
実線（中）
100
AcDbLine
 10
25.999891
 20
204.002244
 30
0.0
 11
25.99985
 21
100.700761
 31
0.0
  0
LINE
  5
54006
100
AcDbEntity
  8
実線（中）
100
AcDbLine
 10
24.999877
 20
220.600761
 30
0.0
 11
24.999877
 21
100.400761
 31
0.0
  0
LINE
  5
54007
100
AcDbEntity
  8
実線（中）
100
AcDbLine
 10
27.469672
 20
101.997663
 30
0.0
 11
27.469689
 21
218.997795
 31
0.0
  0
LINE
  5
54008
100
AcDbEntity
  8
実線（中）
100
AcDbLine
 10
74.999877
 20
220.600761
 30
0.0
 11
74.999877
 21
100.400761
 31
0.0
  0
LINE
  5
54009
100
AcDbEntity
  8
実線（中）
100
AcDbLine
 10
73.999846
 20
220.300761
 30
0.0
 11
73.999871
 21
100.700761
 31
0.0
  0
LINE
  5
5400A
100
AcDbEntity
  8
実線（中）
100
AcDbLine
 10
72.469673
 20
101.997708
 30
0.0
 11
72.469695
 21
218.997795
 31
0.0
  0
LINE
  5
5400B
100
AcDbEntity
  8
実線（中）
100
AcDbLine
 10
74.999883
 20
76.500761
 30
0.0
 11
74.999871
 21
244.500761
 31
0.0
  0
LINE
  5
5400C
100
AcDbEntity
  8
実線（中）
100
AcDbLine
 10
24.999871
 20
244.500761
 30
0.0
 11
24.999884
 21
76.500761
 31
0.0
  0
LINE
  5
5400D
100
AcDbEntity
  8
実線（中）
100
AcDbLine
 10
56.250207
 20
89.730743
 30
0.0
 11
54.700207
 21
89.730741
 31
0.0
  0
CIRCLE
  5
5400E
100
AcDbEntity
  8
実線（中）
100
AcDbCircle
 10
56.250202
 20
93.580743
 30
0.0
 40
2.0
  0
LINE
  5
5400F
100
AcDbEntity
  8
実線（中）
100
AcDbLine
 10
54.700206
 20
90.730741
 30
0.0
 11
57.800206
 21
90.730745
 31
0.0
  0
LINE
  5
54010
100
AcDbEntity
  8
実線（中）
100
AcDbLine
 10
55.475207
 20
89.730742
 30
0.0
 11
57.800207
 21
89.730745
 31
0.0
  0
TEXT
  5
54011
100
AcDbEntity
  8
実線（中）
100
AcDbText
 10
38.625125
 20
102.868328
 30
0.0
 40
2.2
  1

 50
360.0
  7
ｺﾞｼｯｸ
100
AcDbText
  0
LINE
  5
54012
100
AcDbEntity
  8
実線（中）
100
AcDbLine
 10
54.999647
 20
74.500761
 30
0.0
 11
62.499647
 21
74.500761
 31
0.0
  0
LINE
  5
54013
100
AcDbEntity
  8
実線（中）
100
AcDbLine
 10
25.999877
 20
99.400761
 30
0.0
 11
73.999877
 21
99.400761
 31
0.0
  0
LINE
  5
54014
100
AcDbEntity
  8
実線（中）
100
AcDbLine
 10
26.29984
 20
100.400761
 30
0.0
 11
73.699876
 21
100.400761
 31
0.0
  0
LINE
  5
54015
100
AcDbEntity
  8
実線（中）
100
AcDbLine
 10
27.469668
 20
101.997663
 30
0.0
 11
72.469668
 21
101.997708
 31
0.0
  0
LINE
  5
54016
100
AcDbEntity
  8
実線（中）
100
AcDbLine
 10
31.250218
 20
76.500706
 30
0.0
 11
71.250218
 21
76.500761
 31
0.0
  0
LINE
  5
54017
100
AcDbEntity
  8
実線（中）
100
AcDbLine
 10
28.250182
 20
76.500761
 30
0.0
 11
71.74948
 21
76.500761
 31
0.0
  0
LINE
  5
54018
100
AcDbEntity
  8
実線（中）
100
AcDbLine
 10
25.999884
 20
75.500761
 30
0.0
 11
73.999883
 21
75.50076
 31
0.0
  0
LINE
  5
54019
100
AcDbEntity
  8
実線（中）
100
AcDbLine
 10
26.999779
 20
76.500761
 30
0.0
 11
72.999883
 21
76.500761
 31
0.0
  0
LINE
  5
5401A
100
AcDbEntity
  8
実線（中）
100
AcDbLine
 10
31.250208
 20
86.600761
 30
0.0
 11
61.250208
 21
86.600747
 31
0.0
  0
LINE
  5
5401B
100
AcDbEntity
  8
実線（中）
100
AcDbLine
 10
27.999795
 20
86.600707
 30
0.0
 11
68.750208
 21
86.600761
 31
0.0
  0
LINE
  5
5401C
100
AcDbEntity
  8
実線（中）
100
AcDbLine
 10
27.999813
 20
97.830758
 30
0.0
 11
58.750197
 21
97.830747
 31
0.0
  0
LINE
  5
5401D
100
AcDbEntity
  8
実線（中）
100
AcDbLine
 10
55.300216
 20
79.500739
 30
0.0
 11
55.300218
 21
78.500739
 31
0.0
  0
LINE
  5
5401E
100
AcDbEntity
  8
実線（中）
100
AcDbLine
 10
52.200218
 20
78.500735
 30
0.0
 11
52.200216
 21
79.500735
 31
0.0
  0
LINE
  5
5401F
100
AcDbEntity
  8
実線（中）
100
AcDbLine
 10
50.300216
 20
79.500732
 30
0.0
 11
50.300218
 21
78.500732
 31
0.0
  0
LINE
  5
54020
100
AcDbEntity
  8
実線（中）
100
AcDbLine
 10
45.300216
 20
79.500725
 30
0.0
 11
45.300218
 21
78.500725
 31
0.0
  0
LINE
  5
54021
100
AcDbEntity
  8
実線（中）
100
AcDbLine
 10
47.200218
 20
78.500728
 30
0.0
 11
47.200216
 21
79.500728
 31
0.0
  0
LINE
  5
54022
100
AcDbEntity
  8
実線（中）
100
AcDbLine
 10
42.200218
 20
78.500721
 30
0.0
 11
42.200216
 21
79.500721
 31
0.0
  0
LINE
  5
54023
100
AcDbEntity
  8
実線（中）
100
AcDbLine
 10
40.300216
 20
79.500718
 30
0.0
 11
40.300218
 21
78.500718
 31
0.0
  0
LINE
  5
54024
100
AcDbEntity
  8
実線（中）
100
AcDbLine
 10
37.200218
 20
78.500714
 30
0.0
 11
37.200216
 21
79.500714
 31
0.0
  0
LINE
  5
54025
100
AcDbEntity
  8
実線（中）
100
AcDbLine
 10
32.200218
 20
78.500707
 30
0.0
 11
32.200216
 21
79.500707
 31
0.0
  0
LINE
  5
54026
100
AcDbEntity
  8
実線（中）
100
AcDbLine
 10
35.300216
 20
79.500711
 30
0.0
 11
35.300218
 21
78.500711
 31
0.0
  0
LINE
  5
54027
100
AcDbEntity
  8
実線（中）
100
AcDbLine
 10
31.250208
 20
86.600761
 30
0.0
 11
31.250218
 21
76.500761
 31
0.0
  0
LINE
  5
54028
100
AcDbEntity
  8
実線（中）
100
AcDbLine
 10
26.999815
 20
98.900305
 30
0.0
 11
26.999779
 21
76.500761
 31
0.0
  0
LINE
  5
54029
100
AcDbEntity
  8
実線（中）
100
AcDbLine
 10
37.975218
 20
78.500715
 30
0.0
 11
40.300218
 21
78.500718
 31
0.0
  0
LINE
  5
5402A
100
AcDbEntity
  8
実線（中）
100
AcDbLine
 10
37.499647
 20
74.500761
 30
0.0
 11
44.999647
 21
74.500761
 31
0.0
  0
ARC
  5
5402B
100
AcDbEntity
  8
実線（中）
100
AcDbCircle
 10
25.999884
 20
76.500761
 30
0.0
 40
1.0
100
AcDbArc
 50
180.000004
 51
270.0
  0
LINE
  5
5402C
100
AcDbEntity
  8
実線（中）
100
AcDbLine
 10
26.999779
 20
75.500761
 30
0.0
 11
26.999779
 21
76.500761
 31
0.0
  0
LINE
  5
5402D
100
AcDbEntity
  8
実線（中）
100
AcDbLine
 10
32.975218
 20
78.500708
 30
0.0
 11
35.300218
 21
78.500711
 31
0.0
  0
LINE
  5
5402E
100
AcDbEntity
  8
実線（中）
100
AcDbLine
 10
33.750218
 20
78.500709
 30
0.0
 11
32.200218
 21
78.500707
 31
0.0
  0
LINE
  5
5402F
100
AcDbEntity
  8
実線（中）
100
AcDbLine
 10
38.750218
 20
78.500716
 30
0.0
 11
37.200218
 21
78.500714
 31
0.0
  0
LINE
  5
54030
100
AcDbEntity
  8
実線（中）
100
AcDbLine
 10
37.499647
 20
74.500761
 30
0.0
 11
36.499645
 21
75.500761
 31
0.0
  0
LINE
  5
54031
100
AcDbEntity
  8
実線（中）
100
AcDbLine
 10
44.999647
 20
72.500761
 30
0.0
 11
47.999647
 21
70.500761
 31
0.0
  0
LINE
  5
54032
100
AcDbEntity
  8
実線（中）
100
AcDbLine
 10
46.999647
 20
73.200761
 30
0.0
 11
48.499647
 21
72.000761
 31
0.0
  0
LINE
  5
54033
100
AcDbEntity
  8
実線（中）
100
AcDbLine
 10
48.750218
 20
78.50073
 30
0.0
 11
47.200218
 21
78.500728
 31
0.0
  0
LINE
  5
54034
100
AcDbEntity
  8
実線（中）
100
AcDbLine
 10
46.999647
 20
74.500761
 30
0.0
 11
52.999647
 21
74.500761
 31
0.0
  0
LINE
  5
54035
100
AcDbEntity
  8
実線（中）
100
AcDbLine
 10
44.999647
 20
74.500761
 30
0.0
 11
44.999647
 21
72.500761
 31
0.0
  0
LINE
  5
54036
100
AcDbEntity
  8
実線（中）
100
AcDbLine
 10
44.999647
 20
74.500761
 30
0.0
 11
44.999647
 21
72.500761
 31
0.0
  0
LINE
  5
54037
100
AcDbEntity
  8
実線（中）
100
AcDbLine
 10
42.975218
 20
78.500722
 30
0.0
 11
45.300218
 21
78.500725
 31
0.0
  0
LINE
  5
54038
100
AcDbEntity
  8
実線（中）
100
AcDbLine
 10
43.750218
 20
78.500723
 30
0.0
 11
42.200218
 21
78.500721
 31
0.0
  0
LINE
  5
54039
100
AcDbEntity
  8
実線（中）
100
AcDbLine
 10
46.999647
 20
74.500761
 30
0.0
 11
46.999647
 21
73.200761
 31
0.0
  0
LINE
  5
5403A
100
AcDbEntity
  8
実線（中）
100
AcDbLine
 10
54.999647
 20
74.500761
 30
0.0
 11
54.999647
 21
72.500761
 31
0.0
  0
LINE
  5
5403B
100
AcDbEntity
  8
実線（中）
100
AcDbLine
 10
51.499647
 20
72.000761
 30
0.0
 11
52.999647
 21
73.200761
 31
0.0
  0
LINE
  5
5403C
100
AcDbEntity
  8
実線（中）
100
AcDbLine
 10
54.999647
 20
72.500761
 30
0.0
 11
51.999647
 21
70.500761
 31
0.0
  0
LINE
  5
5403D
100
AcDbEntity
  8
実線（中）
100
AcDbLine
 10
49.999647
 20
72.000761
 30
0.0
 11
49.999647
 21
72.000761
 31
0.0
  0
LINE
  5
5403E
100
AcDbEntity
  8
実線（中）
100
AcDbLine
 10
47.999647
 20
70.500761
 30
0.0
 11
51.999647
 21
70.500761
 31
0.0
  0
LINE
  5
5403F
100
AcDbEntity
  8
実線（中）
100
AcDbLine
 10
47.999647
 20
70.500761
 30
0.0
 11
51.999647
 21
70.500761
 31
0.0
  0
LINE
  5
54040
100
AcDbEntity
  8
実線（中）
100
AcDbLine
 10
48.499647
 20
72.000761
 30
0.0
 11
51.499647
 21
72.000761
 31
0.0
  0
LINE
  5
54041
100
AcDbEntity
  8
実線（中）
100
AcDbLine
 10
47.975218
 20
78.500729
 30
0.0
 11
50.300218
 21
78.500732
 31
0.0
  0
LINE
  5
54042
100
AcDbEntity
  8
実線（中）
100
AcDbLine
 10
52.975218
 20
78.500736
 30
0.0
 11
55.300218
 21
78.500739
 31
0.0
  0
LINE
  5
54043
100
AcDbEntity
  8
実線（中）
100
AcDbLine
 10
52.999647
 20
74.500761
 30
0.0
 11
52.999647
 21
73.200761
 31
0.0
  0
LINE
  5
54044
100
AcDbEntity
  8
実線（中）
100
AcDbLine
 10
53.750218
 20
78.500737
 30
0.0
 11
52.200218
 21
78.500735
 31
0.0
  0
CIRCLE
  5
54045
100
AcDbEntity
  8
実線（中）
100
AcDbCircle
 10
41.250202
 20
93.580723
 30
0.0
 40
2.0
  0
LINE
  5
54046
100
AcDbEntity
  8
実線（中）
100
AcDbLine
 10
41.250207
 20
89.730723
 30
0.0
 11
39.700207
 21
89.73072
 31
0.0
  0
LINE
  5
54047
100
AcDbEntity
  8
実線（中）
100
AcDbLine
 10
39.700206
 20
90.73072
 30
0.0
 11
42.800206
 21
90.730725
 31
0.0
  0
LINE
  5
54048
100
AcDbEntity
  8
実線（中）
100
AcDbLine
 10
37.200216
 20
79.500714
 30
0.0
 11
40.300216
 21
79.500718
 31
0.0
  0
CIRCLE
  5
54049
100
AcDbEntity
  8
実線（中）
100
AcDbCircle
 10
38.750212
 20
82.350716
 30
0.0
 40
2.0
  0
LINE
  5
5404A
100
AcDbEntity
  8
実線（中）
100
AcDbLine
 10
39.700207
 20
89.73072
 30
0.0
 11
39.700206
 21
90.73072
 31
0.0
  0
LINE
  5
5404B
100
AcDbEntity
  8
実線（中）
100
AcDbLine
 10
37.800206
 20
90.730718
 30
0.0
 11
37.800207
 21
89.730718
 31
0.0
  0
LINE
  5
5404C
100
AcDbEntity
  8
実線（中）
100
AcDbLine
 10
32.800206
 20
90.730711
 30
0.0
 11
32.800207
 21
89.730711
 31
0.0
  0
LINE
  5
5404D
100
AcDbEntity
  8
実線（中）
100
AcDbLine
 10
34.700207
 20
89.730714
 30
0.0
 11
34.700206
 21
90.730714
 31
0.0
  0
LINE
  5
5404E
100
AcDbEntity
  8
実線（中）
100
AcDbLine
 10
29.700207
 20
89.730707
 30
0.0
 11
29.700206
 21
90.730707
 31
0.0
  0
LINE
  5
5404F
100
AcDbEntity
  8
実線（中）
100
AcDbLine
 10
27.999795
 20
86.600707
 30
0.0
 11
27.999813
 21
97.830758
 31
0.0
  0
LINE
  5
54050
100
AcDbEntity
  8
実線（中）
100
AcDbLine
 10
30.475207
 20
89.730708
 30
0.0
 11
32.800207
 21
89.730711
 31
0.0
  0
LINE
  5
54051
100
AcDbEntity
  8
実線（中）
100
AcDbLine
 10
28.003771
 20
84.000761
 30
0.0
 11
27.00377
 21
84.000849
 31
0.0
  0
LINE
  5
54052
100
AcDbEntity
  8
実線（中）
100
AcDbLine
 10
27.003638
 20
82.500849
 30
0.0
 11
28.003638
 21
82.500761
 31
0.0
  0
LINE
  5
54053
100
AcDbEntity
  8
実線（中）
100
AcDbLine
 10
28.003463
 20
80.500761
 30
0.0
 11
27.003461
 21
80.500849
 31
0.0
  0
LINE
  5
54054
100
AcDbEntity
  8
実線（中）
100
AcDbLine
 10
27.003329
 20
79.000849
 30
0.0
 11
28.003329
 21
79.000761
 31
0.0
  0
LINE
  5
54055
100
AcDbEntity
  8
実線（中）
100
AcDbLine
 10
28.003638
 20
82.500761
 30
0.0
 11
28.003771
 21
84.000761
 31
0.0
  0
LINE
  5
54056
100
AcDbEntity
  8
実線（中）
100
AcDbLine
 10
28.003329
 20
79.000761
 30
0.0
 11
28.003463
 21
80.500761
 31
0.0
  0
LINE
  5
54057
100
AcDbEntity
  8
実線（中）
100
AcDbLine
 10
31.250207
 20
89.730709
 30
0.0
 11
29.700207
 21
89.730707
 31
0.0
  0
CIRCLE
  5
54058
100
AcDbEntity
  8
実線（中）
100
AcDbCircle
 10
33.750212
 20
82.350709
 30
0.0
 40
2.0
  0
LINE
  5
54059
100
AcDbEntity
  8
実線（中）
100
AcDbLine
 10
32.200216
 20
79.500707
 30
0.0
 11
35.300216
 21
79.500711
 31
0.0
  0
LINE
  5
5405A
100
AcDbEntity
  8
実線（中）
100
AcDbLine
 10
35.475207
 20
89.730715
 30
0.0
 11
37.800207
 21
89.730718
 31
0.0
  0
LINE
  5
5405B
100
AcDbEntity
  8
実線（中）
100
AcDbLine
 10
36.250207
 20
89.730716
 30
0.0
 11
34.700207
 21
89.730714
 31
0.0
  0
LINE
  5
5405C
100
AcDbEntity
  8
実線（中）
100
AcDbLine
 10
29.700206
 20
90.730707
 30
0.0
 11
32.800206
 21
90.730711
 31
0.0
  0
CIRCLE
  5
5405D
100
AcDbEntity
  8
実線（中）
100
AcDbCircle
 10
31.250202
 20
93.580709
 30
0.0
 40
2.0
  0
LINE
  5
5405E
100
AcDbEntity
  8
実線（中）
100
AcDbLine
 10
25.499457
 20
93.000222
 30
0.0
 11
26.999464
 21
93.000218
 31
0.0
  0
LINE
  5
5405F
100
AcDbEntity
  8
実線（中）
100
AcDbLine
 10
25.499457
 20
93.000222
 30
0.0
 11
24.999883
 21
93.000222
 31
0.0
  0
ARC
  5
54060
100
AcDbEntity
  8
実線（中）
100
AcDbCircle
 10
25.999877
 20
100.400761
 30
0.0
 40
1.0
100
AcDbArc
 50
180.0
 51
270.0
  0
ARC
  5
54061
100
AcDbEntity
  8
実線（中）
100
AcDbCircle
 10
26.29984
 20
100.700761
 30
0.0
 40
0.3
100
AcDbArc
 50
179.999977
 51
270.0
  0
LINE
  5
54062
100
AcDbEntity
  8
実線（中）
100
AcDbLine
 10
26.999817
 20
98.900305
 30
0.0
 11
24.999298
 21
98.900305
 31
0.0
  0
CIRCLE
  5
54063
100
AcDbEntity
  8
実線（中）
100
AcDbCircle
 10
36.250202
 20
93.580716
 30
0.0
 40
2.0
  0
LINE
  5
54064
100
AcDbEntity
  8
実線（中）
100
AcDbLine
 10
34.700206
 20
90.730714
 30
0.0
 11
37.800206
 21
90.730718
 31
0.0
  0
LINE
  5
54065
100
AcDbEntity
  8
実線（中）
100
AcDbLine
 10
54.700207
 20
89.730741
 30
0.0
 11
54.700206
 21
90.730741
 31
0.0
  0
LINE
  5
54066
100
AcDbEntity
  8
実線（中）
100
AcDbLine
 10
52.800206
 20
90.730739
 30
0.0
 11
52.800207
 21
89.730739
 31
0.0
  0
LINE
  5
54067
100
AcDbEntity
  8
実線（中）
100
AcDbLine
 10
49.700207
 20
89.730734
 30
0.0
 11
49.700206
 21
90.730734
 31
0.0
  0
LINE
  5
54068
100
AcDbEntity
  8
実線（中）
100
AcDbLine
 10
44.700207
 20
89.730727
 30
0.0
 11
44.700206
 21
90.730727
 31
0.0
  0
LINE
  5
54069
100
AcDbEntity
  8
実線（中）
100
AcDbLine
 10
47.800206
 20
90.730732
 30
0.0
 11
47.800207
 21
89.730732
 31
0.0
  0
LINE
  5
5406A
100
AcDbEntity
  8
実線（中）
100
AcDbLine
 10
42.800206
 20
90.730725
 30
0.0
 11
42.800207
 21
89.730725
 31
0.0
  0
LINE
  5
5406B
100
AcDbEntity
  8
実線（中）
100
AcDbLine
 10
47.200216
 20
79.500728
 30
0.0
 11
50.300216
 21
79.500732
 31
0.0
  0
CIRCLE
  5
5406C
100
AcDbEntity
  8
実線（中）
100
AcDbCircle
 10
48.750212
 20
82.35073
 30
0.0
 40
2.0
  0
LINE
  5
5406D
100
AcDbEntity
  8
実線（中）
100
AcDbLine
 10
42.200216
 20
79.500721
 30
0.0
 11
45.300216
 21
79.500725
 31
0.0
  0
CIRCLE
  5
5406E
100
AcDbEntity
  8
実線（中）
100
AcDbCircle
 10
43.750212
 20
82.350723
 30
0.0
 40
2.0
  0
LINE
  5
5406F
100
AcDbEntity
  8
実線（中）
100
AcDbLine
 10
40.475207
 20
89.730722
 30
0.0
 11
42.800207
 21
89.730725
 31
0.0
  0
LINE
  5
54070
100
AcDbEntity
  8
実線（中）
100
AcDbLine
 10
45.475207
 20
89.730728
 30
0.0
 11
47.800207
 21
89.730732
 31
0.0
  0
LINE
  5
54071
100
AcDbEntity
  8
実線（中）
100
AcDbLine
 10
46.250207
 20
89.730729
 30
0.0
 11
44.700207
 21
89.730727
 31
0.0
  0
CIRCLE
  5
54072
100
AcDbEntity
  8
実線（中）
100
AcDbCircle
 10
53.750212
 20
82.350737
 30
0.0
 40
2.0
  0
LINE
  5
54073
100
AcDbEntity
  8
実線（中）
100
AcDbLine
 10
52.200216
 20
79.500735
 30
0.0
 11
55.300216
 21
79.500739
 31
0.0
  0
LINE
  5
54074
100
AcDbEntity
  8
実線（中）
100
AcDbLine
 10
50.475207
 20
89.730735
 30
0.0
 11
52.800207
 21
89.730739
 31
0.0
  0
LINE
  5
54075
100
AcDbEntity
  8
実線（中）
100
AcDbLine
 10
51.250207
 20
89.730736
 30
0.0
 11
49.700207
 21
89.730734
 31
0.0
  0
CIRCLE
  5
54076
100
AcDbEntity
  8
実線（中）
100
AcDbCircle
 10
46.250202
 20
93.580729
 30
0.0
 40
2.0
  0
LINE
  5
54077
100
AcDbEntity
  8
実線（中）
100
AcDbLine
 10
44.700206
 20
90.730727
 30
0.0
 11
47.800206
 21
90.730732
 31
0.0
  0
LINE
  5
54078
100
AcDbEntity
  8
実線（中）
100
AcDbLine
 10
49.700206
 20
90.730734
 30
0.0
 11
52.800206
 21
90.730739
 31
0.0
  0
CIRCLE
  5
54079
100
AcDbEntity
  8
実線（中）
100
AcDbCircle
 10
51.250202
 20
93.580736
 30
0.0
 40
2.0
  0
TEXT
  5
5407A
100
AcDbEntity
  8
実線（中）
100
AcDbText
 10
28.04471
 20
102.501799
 30
0.0
 40
1.0
  1
MADE IN JAPAN
 50
360.0
  7
ｺﾞｼｯｸ
100
AcDbText
  0
LINE
  5
5407B
100
AcDbEntity
  8
実線（中）
100
AcDbLine
 10
70.300216
 20
79.50076
 30
0.0
 11
70.300218
 21
78.50076
 31
0.0
  0
LINE
  5
5407C
100
AcDbEntity
  8
実線（中）
100
AcDbLine
 10
67.200218
 20
78.500755
 30
0.0
 11
67.200216
 21
79.500755
 31
0.0
  0
LINE
  5
5407D
100
AcDbEntity
  8
実線（中）
100
AcDbLine
 10
72.999875
 20
98.900254
 30
0.0
 11
72.999883
 21
76.500761
 31
0.0
  0
LINE
  5
5407E
100
AcDbEntity
  8
実線（中）
100
AcDbLine
 10
71.999879
 20
86.60076
 30
0.0
 11
71.999879
 21
76.500761
 31
0.0
  0
LINE
  5
5407F
100
AcDbEntity
  8
実線（中）
100
AcDbLine
 10
65.300216
 20
79.500753
 30
0.0
 11
65.300218
 21
78.500753
 31
0.0
  0
LINE
  5
54080
100
AcDbEntity
  8
実線（中）
100
AcDbLine
 10
62.200218
 20
78.500748
 30
0.0
 11
62.200216
 21
79.500748
 31
0.0
  0
LINE
  5
54081
100
AcDbEntity
  8
実線（中）
100
AcDbLine
 10
60.300216
 20
79.500746
 30
0.0
 11
60.300218
 21
78.500746
 31
0.0
  0
LINE
  5
54082
100
AcDbEntity
  8
実線（中）
100
AcDbLine
 10
57.200218
 20
78.500742
 30
0.0
 11
57.200216
 21
79.500742
 31
0.0
  0
LINE
  5
54083
100
AcDbEntity
  8
実線（中）
100
AcDbLine
 10
62.975218
 20
78.500749
 30
0.0
 11
65.300218
 21
78.500753
 31
0.0
  0
LINE
  5
54084
100
AcDbEntity
  8
実線（中）
100
AcDbLine
 10
57.975218
 20
78.500743
 30
0.0
 11
60.300218
 21
78.500746
 31
0.0
  0
LINE
  5
54085
100
AcDbEntity
  8
実線（中）
100
AcDbLine
 10
58.750218
 20
78.500744
 30
0.0
 11
57.200218
 21
78.500742
 31
0.0
  0
LINE
  5
54086
100
AcDbEntity
  8
実線（中）
100
AcDbLine
 10
63.750218
 20
78.500751
 30
0.0
 11
62.200218
 21
78.500748
 31
0.0
  0
LINE
  5
54087
100
AcDbEntity
  8
実線（中）
100
AcDbLine
 10
62.499647
 20
74.500761
 30
0.0
 11
63.499648
 21
75.500761
 31
0.0
  0
LINE
  5
54088
100
AcDbEntity
  8
実線（中）
100
AcDbLine
 10
68.750218
 20
78.500757
 30
0.0
 11
67.200218
 21
78.500755
 31
0.0
  0
LINE
  5
54089
100
AcDbEntity
  8
実線（中）
100
AcDbLine
 10
67.975218
 20
78.500756
 30
0.0
 11
70.300218
 21
78.50076
 31
0.0
  0
LINE
  5
5408A
100
AcDbEntity
  8
実線（中）
100
AcDbLine
 10
72.999883
 20
75.500761
 30
0.0
 11
72.999883
 21
76.500761
 31
0.0
  0
ARC
  5
5408B
100
AcDbEntity
  8
実線（中）
100
AcDbCircle
 10
73.999883
 20
76.500761
 30
0.0
 40
1.0
100
AcDbArc
 50
270.0
 51
0.000004
  0
LINE
  5
5408C
100
AcDbEntity
  8
実線（中）
100
AcDbLine
 10
72.999238
 20
90.000671
 30
0.0
 11
71.999238
 21
90.000761
 31
0.0
  0
LINE
  5
5408D
100
AcDbEntity
  8
実線（中）
100
AcDbLine
 10
71.999373
 20
91.500761
 30
0.0
 11
72.999374
 21
91.500671
 31
0.0
  0
LINE
  5
5408E
100
AcDbEntity
  8
実線（中）
100
AcDbLine
 10
71.99969
 20
95.000761
 30
0.0
 11
72.999692
 21
95.000671
 31
0.0
  0
LINE
  5
5408F
100
AcDbEntity
  8
実線（中）
100
AcDbLine
 10
72.999556
 20
93.500671
 30
0.0
 11
71.999556
 21
93.500761
 31
0.0
  0
LINE
  5
54090
100
AcDbEntity
  8
実線（中）
100
AcDbLine
 10
71.999238
 20
90.000761
 30
0.0
 11
71.999373
 21
91.500761
 31
0.0
  0
LINE
  5
54091
100
AcDbEntity
  8
実線（中）
100
AcDbLine
 10
67.800206
 20
90.730759
 30
0.0
 11
67.800207
 21
89.730759
 31
0.0
  0
LINE
  5
54092
100
AcDbEntity
  8
実線（中）
100
AcDbLine
 10
68.750197
 20
97.83076
 30
0.0
 11
68.750208
 21
86.600761
 31
0.0
  0
LINE
  5
54093
100
AcDbEntity
  8
実線（中）
100
AcDbLine
 10
62.800206
 20
90.730752
 30
0.0
 11
62.800207
 21
89.730752
 31
0.0
  0
LINE
  5
54094
100
AcDbEntity
  8
実線（中）
100
AcDbLine
 10
64.700207
 20
89.730755
 30
0.0
 11
64.700206
 21
90.730755
 31
0.0
  0
LINE
  5
54095
100
AcDbEntity
  8
実線（中）
100
AcDbLine
 10
59.700207
 20
89.730748
 30
0.0
 11
59.700206
 21
90.730748
 31
0.0
  0
LINE
  5
54096
100
AcDbEntity
  8
実線（中）
100
AcDbLine
 10
57.800206
 20
90.730745
 30
0.0
 11
57.800207
 21
89.730745
 31
0.0
  0
LINE
  5
54097
100
AcDbEntity
  8
実線（中）
100
AcDbLine
 10
62.200216
 20
79.500748
 30
0.0
 11
65.300216
 21
79.500753
 31
0.0
  0
CIRCLE
  5
54098
100
AcDbEntity
  8
実線（中）
100
AcDbCircle
 10
63.750212
 20
82.350751
 30
0.0
 40
2.0
  0
LINE
  5
54099
100
AcDbEntity
  8
実線（中）
100
AcDbLine
 10
61.250208
 20
86.600747
 30
0.0
 11
71.999879
 21
86.60076
 31
0.0
  0
LINE
  5
5409A
100
AcDbEntity
  8
実線（中）
100
AcDbLine
 10
57.200216
 20
79.500742
 30
0.0
 11
60.300216
 21
79.500746
 31
0.0
  0
CIRCLE
  5
5409B
100
AcDbEntity
  8
実線（中）
100
AcDbCircle
 10
58.750212
 20
82.350744
 30
0.0
 40
2.0
  0
LINE
  5
5409C
100
AcDbEntity
  8
実線（中）
100
AcDbLine
 10
61.250207
 20
89.73075
 30
0.0
 11
59.700207
 21
89.730748
 31
0.0
  0
LINE
  5
5409D
100
AcDbEntity
  8
実線（中）
100
AcDbLine
 10
60.475207
 20
89.730749
 30
0.0
 11
62.800207
 21
89.730752
 31
0.0
  0
LINE
  5
5409E
100
AcDbEntity
  8
実線（中）
100
AcDbLine
 10
67.200216
 20
79.500755
 30
0.0
 11
70.300216
 21
79.50076
 31
0.0
  0
CIRCLE
  5
5409F
100
AcDbEntity
  8
実線（中）
100
AcDbCircle
 10
68.750212
 20
82.350757
 30
0.0
 40
2.0
  0
LINE
  5
540A0
100
AcDbEntity
  8
実線（中）
100
AcDbLine
 10
65.475207
 20
89.730756
 30
0.0
 11
67.800207
 21
89.730759
 31
0.0
  0
LINE
  5
540A1
100
AcDbEntity
  8
実線（中）
100
AcDbLine
 10
66.250207
 20
89.730757
 30
0.0
 11
64.700207
 21
89.730755
 31
0.0
  0
LINE
  5
540A2
100
AcDbEntity
  8
実線（中）
100
AcDbLine
 10
58.750197
 20
97.830747
 30
0.0
 11
68.750197
 21
97.83076
 31
0.0
  0
CIRCLE
  5
540A3
100
AcDbEntity
  8
実線（中）
100
AcDbCircle
 10
66.250202
 20
93.580757
 30
0.0
 40
2.0
  0
CIRCLE
  5
540A4
100
AcDbEntity
  8
実線（中）
100
AcDbCircle
 10
61.250202
 20
93.58075
 30
0.0
 40
2.0
  0
LINE
  5
540A5
100
AcDbEntity
  8
実線（中）
100
AcDbLine
 10
59.700206
 20
90.730748
 30
0.0
 11
62.800206
 21
90.730752
 31
0.0
  0
LINE
  5
540A6
100
AcDbEntity
  8
実線（中）
100
AcDbLine
 10
64.700206
 20
90.730755
 30
0.0
 11
67.800206
 21
90.730759
 31
0.0
  0
LINE
  5
540A7
100
AcDbEntity
  8
実線（中）
100
AcDbLine
 10
71.999556
 20
93.500761
 30
0.0
 11
71.99969
 21
95.000761
 31
0.0
  0
LINE
  5
540A8
100
AcDbEntity
  8
実線（中）
100
AcDbLine
 10
74.499947
 20
93.000184
 30
0.0
 11
74.999521
 21
93.000184
 31
0.0
  0
LINE
  5
540A9
100
AcDbEntity
  8
実線（中）
100
AcDbLine
 10
74.499947
 20
93.000184
 30
0.0
 11
72.99994
 21
93.000183
 31
0.0
  0
ARC
  5
540AA
100
AcDbEntity
  8
実線（中）
100
AcDbCircle
 10
73.699876
 20
100.700761
 30
0.0
 40
0.3
100
AcDbArc
 50
270.0
 51
0.000012
  0
ARC
  5
540AB
100
AcDbEntity
  8
実線（中）
100
AcDbCircle
 10
73.999877
 20
100.400761
 30
0.0
 40
1.0
100
AcDbArc
 50
270.0
 51
0.0
  0
LINE
  5
540AC
100
AcDbEntity
  8
実線（中）
100
AcDbLine
 10
72.999875
 20
98.900254
 30
0.0
 11
75.000045
 21
98.900254
 31
0.0
  0
CIRCLE
  5
540AD
100
AcDbEntity
  8
実線（中）
100
AcDbCircle
 10
67.500745
 20
109.900217
 30
0.0
 40
4.5
  0
TEXT
  5
540AE
100
AcDbEntity
  8
実線（中）
100
AcDbText
 10
67.507844
 20
102.499394
 30
0.0
 40
1.0
  1
NP-1408
 50
360.0
  7
ｺﾞｼｯｸ
100
AcDbText
  0
LINE
  5
540AF
100
AcDbEntity
  8
実線（中）
100
AcDbLine
 10
71.998256
 20
242.005007
 30
0.0
 11
71.998255
 21
240.505007
 31
0.0
  0
LINE
  5
540B0
100
AcDbEntity
  8
実線（中）
100
AcDbLine
 10
72.999867
 20
222.101167
 30
0.0
 11
72.999868
 21
245.500761
 31
0.0
  0
LINE
  5
540B1
100
AcDbEntity
  8
実線（中）
100
AcDbLine
 10
68.748965
 20
234.400789
 30
0.0
 11
68.748955
 21
244.500789
 31
0.0
  0
LINE
  5
540B2
100
AcDbEntity
  8
実線（中）
100
AcDbLine
 10
26.999803
 20
222.101218
 30
0.0
 11
26.999861
 21
245.500761
 31
0.0
  0
LINE
  5
540B3
100
AcDbEntity
  8
実線（中）
100
AcDbLine
 10
27.999859
 20
244.500789
 30
0.0
 11
27.999868
 21
234.400793
 31
0.0
  0
CIRCLE
  5
540B4
100
AcDbEntity
  8
実線（中）
100
AcDbCircle
 10
56.248961
 20
238.650827
 30
0.0
 40
2.0
  0
LINE
  5
540B5
100
AcDbEntity
  8
実線（中）
100
AcDbLine
 10
71.999867
 20
223.17079
 30
0.0
 11
41.248976
 21
223.170804
 31
0.0
  0
LINE
  5
540B6
100
AcDbEntity
  8
実線（中）
100
AcDbLine
 10
68.748965
 20
234.400789
 30
0.0
 11
38.748965
 21
234.400803
 31
0.0
  0
LINE
  5
540B7
100
AcDbEntity
  8
実線（中）
100
AcDbLine
 10
25.999877
 20
221.600761
 30
0.0
 11
73.999877
 21
221.600761
 31
0.0
  0
LINE
  5
540B8
100
AcDbEntity
  8
実線（中）
100
AcDbLine
 10
26.299908
 20
220.600761
 30
0.0
 11
73.699841
 21
220.600761
 31
0.0
  0
LINE
  5
540B9
100
AcDbEntity
  8
実線（中）
100
AcDbLine
 10
27.469692
 20
218.997795
 30
0.0
 11
72.4697
 21
218.997795
 31
0.0
  0
LINE
  5
540BA
100
AcDbEntity
  8
実線（中）
100
AcDbLine
 10
71.999867
 20
234.400842
 30
0.0
 11
31.248965
 21
234.400789
 31
0.0
  0
LINE
  5
540BC
100
AcDbEntity
  8
実線（中）
100
AcDbLine
 10
25.999898
 20
220.300761
 30
0.0
 11
25.999891
 21
204.002244
 31
0.0
  0
CIRCLE
  5
540BD
100
AcDbEntity
  8
実線（中）
100
AcDbCircle
 10
32.499865
 20
207.900868
 30
0.0
 40
4.5
  0
CIRCLE
  5
540BE
100
AcDbEntity
  8
実線（中）
100
AcDbCircle
 10
41.248961
 20
238.650807
 30
0.0
 40
2.0
  0
LINE
  5
540BF
100
AcDbEntity
  8
実線（中）
100
AcDbLine
 10
38.748965
 20
231.2708
 30
0.0
 11
40.298965
 21
231.270802
 31
0.0
  0
CIRCLE
  5
540C0
100
AcDbEntity
  8
実線（中）
100
AcDbCircle
 10
38.748971
 20
227.4208
 30
0.0
 40
2.0
  0
LINE
  5
540C1
100
AcDbEntity
  8
実線（中）
100
AcDbLine
 10
40.298967
 20
230.270802
 30
0.0
 11
37.198967
 21
230.270798
 31
0.0
  0
LINE
  5
540C2
100
AcDbEntity
  8
実線（中）
100
AcDbLine
 10
41.248976
 20
223.170804
 30
0.0
 11
31.248976
 21
223.17079
 31
0.0
  0
LINE
  5
540C3
100
AcDbEntity
  8
実線（中）
100
AcDbLine
 10
31.248976
 20
223.17079
 30
0.0
 11
31.248965
 21
234.400789
 31
0.0
  0
LINE
  5
540C4
100
AcDbEntity
  8
実線（中）
100
AcDbLine
 10
28.001363
 20
231.002865
 30
0.0
 11
28.001361
 21
229.502865
 31
0.0
  0
LINE
  5
540C5
100
AcDbEntity
  8
実線（中）
100
AcDbLine
 10
26.999801
 20
222.101218
 30
0.0
 11
24.999298
 21
222.101218
 31
0.0
  0
ARC
  5
540C6
100
AcDbEntity
  8
実線（中）
100
AcDbCircle
 10
26.299908
 20
220.300761
 30
0.0
 40
0.3
100
AcDbArc
 50
90.0
 51
179.999977
  0
ARC
  5
540C7
100
AcDbEntity
  8
実線（中）
100
AcDbCircle
 10
25.999877
 20
220.600761
 30
0.0
 40
1.0
100
AcDbArc
 50
90.0
 51
180.0
  0
LINE
  5
540C8
100
AcDbEntity
  8
実線（中）
100
AcDbLine
 10
28.001361
 20
229.502865
 30
0.0
 11
27.001359
 21
229.502867
 31
0.0
  0
LINE
  5
540C9
100
AcDbEntity
  8
実線（中）
100
AcDbLine
 10
27.001354
 20
227.502867
 30
0.0
 11
28.001354
 21
227.502865
 31
0.0
  0
LINE
  5
540CA
100
AcDbEntity
  8
実線（中）
100
AcDbLine
 10
28.001352
 20
226.002865
 30
0.0
 11
27.00135
 21
226.002867
 31
0.0
  0
LINE
  5
540CB
100
AcDbEntity
  8
実線（中）
100
AcDbLine
 10
24.999872
 20
228.001302
 30
0.0
 11
26.999464
 21
228.001305
 31
0.0
  0
LINE
  5
540CC
100
AcDbEntity
  8
実線（中）
100
AcDbLine
 10
28.001354
 20
227.502865
 30
0.0
 11
28.001352
 21
226.002865
 31
0.0
  0
CIRCLE
  5
540CD
100
AcDbEntity
  8
実線（中）
100
AcDbCircle
 10
33.748971
 20
227.420793
 30
0.0
 40
2.0
  0
LINE
  5
540CE
100
AcDbEntity
  8
実線（中）
100
AcDbLine
 10
38.748965
 20
234.400803
 30
0.0
 11
27.999833
 21
234.400793
 31
0.0
  0
CIRCLE
  5
540CF
100
AcDbEntity
  8
実線（中）
100
AcDbCircle
 10
31.248961
 20
238.650793
 30
0.0
 40
2.0
  0
LINE
  5
540D0
100
AcDbEntity
  8
実線（中）
100
AcDbLine
 10
27.001363
 20
231.002867
 30
0.0
 11
28.001363
 21
231.002865
 31
0.0
  0
LINE
  5
540D1
100
AcDbEntity
  8
実線（中）
100
AcDbLine
 10
35.298967
 20
230.270795
 30
0.0
 11
32.198967
 21
230.270791
 31
0.0
  0
LINE
  5
540D2
100
AcDbEntity
  8
実線（中）
100
AcDbLine
 10
34.523965
 20
231.270794
 30
0.0
 11
32.198965
 21
231.270791
 31
0.0
  0
LINE
  5
540D3
100
AcDbEntity
  8
実線（中）
100
AcDbLine
 10
32.198967
 20
230.270791
 30
0.0
 11
32.198965
 21
231.270791
 31
0.0
  0
LINE
  5
540D4
100
AcDbEntity
  8
実線（中）
100
AcDbLine
 10
35.298965
 20
231.270795
 30
0.0
 11
35.298967
 21
230.270795
 31
0.0
  0
LINE
  5
540D5
100
AcDbEntity
  8
実線（中）
100
AcDbLine
 10
33.748965
 20
231.270793
 30
0.0
 11
35.298965
 21
231.270795
 31
0.0
  0
LINE
  5
540D6
100
AcDbEntity
  8
実線（中）
100
AcDbLine
 10
37.198967
 20
230.270798
 30
0.0
 11
37.198965
 21
231.270798
 31
0.0
  0
LINE
  5
540D7
100
AcDbEntity
  8
実線（中）
100
AcDbLine
 10
39.523965
 20
231.270801
 30
0.0
 11
37.198965
 21
231.270798
 31
0.0
  0
CIRCLE
  5
540D8
100
AcDbEntity
  8
実線（中）
100
AcDbCircle
 10
36.248961
 20
238.6508
 30
0.0
 40
2.0
  0
CIRCLE
  5
540D9
100
AcDbEntity
  8
実線（中）
100
AcDbCircle
 10
48.748971
 20
227.420814
 30
0.0
 40
2.0
  0
CIRCLE
  5
540DA
100
AcDbEntity
  8
実線（中）
100
AcDbCircle
 10
43.748971
 20
227.420807
 30
0.0
 40
2.0
  0
CIRCLE
  5
540DB
100
AcDbEntity
  8
実線（中）
100
AcDbCircle
 10
53.748971
 20
227.420821
 30
0.0
 40
2.0
  0
CIRCLE
  5
540DC
100
AcDbEntity
  8
実線（中）
100
AcDbCircle
 10
46.248961
 20
238.650813
 30
0.0
 40
2.0
  0
LINE
  5
540DD
100
AcDbEntity
  8
実線（中）
100
AcDbLine
 10
50.298967
 20
230.270816
 30
0.0
 11
47.198967
 21
230.270812
 31
0.0
  0
LINE
  5
540DE
100
AcDbEntity
  8
実線（中）
100
AcDbLine
 10
49.523965
 20
231.270815
 30
0.0
 11
47.198965
 21
231.270812
 31
0.0
  0
LINE
  5
540DF
100
AcDbEntity
  8
実線（中）
100
AcDbLine
 10
43.748965
 20
231.270807
 30
0.0
 11
45.298965
 21
231.270809
 31
0.0
  0
LINE
  5
540E0
100
AcDbEntity
  8
実線（中）
100
AcDbLine
 10
45.298967
 20
230.270809
 30
0.0
 11
42.198967
 21
230.270805
 31
0.0
  0
LINE
  5
540E1
100
AcDbEntity
  8
実線（中）
100
AcDbLine
 10
44.523965
 20
231.270808
 30
0.0
 11
42.198965
 21
231.270805
 31
0.0
  0
LINE
  5
540E2
100
AcDbEntity
  8
実線（中）
100
AcDbLine
 10
40.298965
 20
231.270802
 30
0.0
 11
40.298967
 21
230.270802
 31
0.0
  0
LINE
  5
540E3
100
AcDbEntity
  8
実線（中）
100
AcDbLine
 10
42.198967
 20
230.270805
 30
0.0
 11
42.198965
 21
231.270805
 31
0.0
  0
LINE
  5
540E4
100
AcDbEntity
  8
実線（中）
100
AcDbLine
 10
45.298965
 20
231.270809
 30
0.0
 11
45.298967
 21
230.270809
 31
0.0
  0
LINE
  5
540E5
100
AcDbEntity
  8
実線（中）
100
AcDbLine
 10
47.198967
 20
230.270812
 30
0.0
 11
47.198965
 21
231.270812
 31
0.0
  0
LINE
  5
540E6
100
AcDbEntity
  8
実線（中）
100
AcDbLine
 10
48.748965
 20
231.270814
 30
0.0
 11
50.298965
 21
231.270816
 31
0.0
  0
LINE
  5
540E7
100
AcDbEntity
  8
実線（中）
100
AcDbLine
 10
50.298965
 20
231.270816
 30
0.0
 11
50.298967
 21
230.270816
 31
0.0
  0
LINE
  5
540E8
100
AcDbEntity
  8
実線（中）
100
AcDbLine
 10
53.748965
 20
231.270821
 30
0.0
 11
55.298965
 21
231.270823
 31
0.0
  0
LINE
  5
540E9
100
AcDbEntity
  8
実線（中）
100
AcDbLine
 10
55.298965
 20
231.270823
 30
0.0
 11
55.298967
 21
230.270823
 31
0.0
  0
LINE
  5
540EA
100
AcDbEntity
  8
実線（中）
100
AcDbLine
 10
52.198967
 20
230.270819
 30
0.0
 11
52.198965
 21
231.270819
 31
0.0
  0
LINE
  5
540EB
100
AcDbEntity
  8
実線（中）
100
AcDbLine
 10
55.298967
 20
230.270823
 30
0.0
 11
52.198967
 21
230.270819
 31
0.0
  0
LINE
  5
540EC
100
AcDbEntity
  8
実線（中）
100
AcDbLine
 10
54.523965
 20
231.270822
 30
0.0
 11
52.198965
 21
231.270819
 31
0.0
  0
CIRCLE
  5
540ED
100
AcDbEntity
  8
実線（中）
100
AcDbCircle
 10
51.248961
 20
238.65082
 30
0.0
 40
2.0
  0
LINE
  5
540EE
100
AcDbEntity
  8
実線（中）
100
AcDbLine
 10
71.998255
 20
237.005007
 30
0.0
 11
72.998256
 21
237.005007
 31
0.0
  0
LINE
  5
540EF
100
AcDbEntity
  8
実線（中）
100
AcDbLine
 10
71.998255
 20
240.505007
 30
0.0
 11
72.998256
 21
240.505007
 31
0.0
  0
LINE
  5
540F0
100
AcDbEntity
  8
実線（中）
100
AcDbLine
 10
72.998256
 20
238.505007
 30
0.0
 11
71.998256
 21
238.505007
 31
0.0
  0
LINE
  5
540F1
100
AcDbEntity
  8
実線（中）
100
AcDbLine
 10
71.999867
 20
223.17079
 30
0.0
 11
71.999867
 21
234.400841
 31
0.0
  0
CIRCLE
  5
540F2
100
AcDbEntity
  8
実線（中）
100
AcDbCircle
 10
63.748971
 20
227.420835
 30
0.0
 40
2.0
  0
CIRCLE
  5
540F3
100
AcDbEntity
  8
実線（中）
100
AcDbCircle
 10
58.748971
 20
227.420828
 30
0.0
 40
2.0
  0
CIRCLE
  5
540F4
100
AcDbEntity
  8
実線（中）
100
AcDbCircle
 10
68.748971
 20
227.420841
 30
0.0
 40
2.0
  0
LINE
  5
540F5
100
AcDbEntity
  8
実線（中）
100
AcDbLine
 10
64.523965
 20
231.270836
 30
0.0
 11
62.198965
 21
231.270832
 31
0.0
  0
LINE
  5
540F6
100
AcDbEntity
  8
実線（中）
100
AcDbLine
 10
65.298967
 20
230.270837
 30
0.0
 11
62.198967
 21
230.270832
 31
0.0
  0
LINE
  5
540F7
100
AcDbEntity
  8
実線（中）
100
AcDbLine
 10
63.748965
 20
231.270835
 30
0.0
 11
65.298965
 21
231.270837
 31
0.0
  0
CIRCLE
  5
540F8
100
AcDbEntity
  8
実線（中）
100
AcDbCircle
 10
66.248961
 20
238.650841
 30
0.0
 40
2.0
  0
LINE
  5
540F9
100
AcDbEntity
  8
実線（中）
100
AcDbLine
 10
58.748965
 20
231.270828
 30
0.0
 11
60.298965
 21
231.27083
 31
0.0
  0
LINE
  5
540FA
100
AcDbEntity
  8
実線（中）
100
AcDbLine
 10
60.298967
 20
230.27083
 30
0.0
 11
57.198967
 21
230.270825
 31
0.0
  0
LINE
  5
540FB
100
AcDbEntity
  8
実線（中）
100
AcDbLine
 10
57.198967
 20
230.270825
 30
0.0
 11
57.198965
 21
231.270825
 31
0.0
  0
LINE
  5
540FC
100
AcDbEntity
  8
実線（中）
100
AcDbLine
 10
59.523965
 20
231.270829
 30
0.0
 11
57.198965
 21
231.270825
 31
0.0
  0
LINE
  5
540FD
100
AcDbEntity
  8
実線（中）
100
AcDbLine
 10
62.198967
 20
230.270832
 30
0.0
 11
62.198965
 21
231.270832
 31
0.0
  0
LINE
  5
540FE
100
AcDbEntity
  8
実線（中）
100
AcDbLine
 10
60.298965
 20
231.27083
 30
0.0
 11
60.298967
 21
230.27083
 31
0.0
  0
CIRCLE
  5
540FF
100
AcDbEntity
  8
実線（中）
100
AcDbCircle
 10
61.248961
 20
238.650834
 30
0.0
 40
2.0
  0
LINE
  5
54100
100
AcDbEntity
  8
実線（中）
100
AcDbLine
 10
69.523965
 20
231.270842
 30
0.0
 11
67.198965
 21
231.270839
 31
0.0
  0
LINE
  5
54101
100
AcDbEntity
  8
実線（中）
100
AcDbLine
 10
70.298967
 20
230.270844
 30
0.0
 11
67.198967
 21
230.270839
 31
0.0
  0
LINE
  5
54102
100
AcDbEntity
  8
実線（中）
100
AcDbLine
 10
67.198967
 20
230.270839
 30
0.0
 11
67.198965
 21
231.270839
 31
0.0
  0
LINE
  5
54103
100
AcDbEntity
  8
実線（中）
100
AcDbLine
 10
65.298965
 20
231.270837
 30
0.0
 11
65.298967
 21
230.270837
 31
0.0
  0
LINE
  5
54104
100
AcDbEntity
  8
実線（中）
100
AcDbLine
 10
70.298965
 20
231.270844
 30
0.0
 11
70.298967
 21
230.270844
 31
0.0
  0
LINE
  5
54105
100
AcDbEntity
  8
実線（中）
100
AcDbLine
 10
68.748965
 20
231.270841
 30
0.0
 11
70.298965
 21
231.270844
 31
0.0
  0
LINE
  5
54106
100
AcDbEntity
  8
実線（中）
100
AcDbLine
 10
71.998256
 20
238.505007
 30
0.0
 11
71.998255
 21
237.005007
 31
0.0
  0
LINE
  5
54107
100
AcDbEntity
  8
実線（中）
100
AcDbLine
 10
72.999868
 20
222.101167
 30
0.0
 11
75.000292
 21
222.101167
 31
0.0
  0
ARC
  5
54108
100
AcDbEntity
  8
実線（中）
100
AcDbCircle
 10
73.699841
 20
220.300761
 30
0.0
 40
0.3
100
AcDbArc
 50
0.000012
 51
90.0
  0
ARC
  5
54109
100
AcDbEntity
  8
実線（中）
100
AcDbCircle
 10
73.999877
 20
220.600761
 30
0.0
 40
1.0
100
AcDbArc
 50
0.0
 51
90.0
  0
LINE
  5
5410A
100
AcDbEntity
  8
実線（中）
100
AcDbLine
 10
74.50016
 20
228.001264
 30
0.0
 11
74.999734
 21
228.001263
 31
0.0
  0
LINE
  5
5410B
100
AcDbEntity
  8
実線（中）
100
AcDbLine
 10
74.50016
 20
228.001264
 30
0.0
 11
73.000153
 21
228.00127
 31
0.0
  0
LINE
  5
5410C
100
AcDbEntity
  8
実線（中）
100
AcDbLine
 10
57.023955
 20
242.500828
 30
0.0
 11
54.698955
 21
242.500825
 31
0.0
  0
LINE
  5
5410D
100
AcDbEntity
  8
実線（中）
100
AcDbLine
 10
57.798957
 20
241.500829
 30
0.0
 11
54.698957
 21
241.500825
 31
0.0
  0
LINE
  5
5410E
100
AcDbEntity
  8
実線（中）
100
AcDbLine
 10
68.748955
 20
244.500844
 30
0.0
 11
28.748955
 21
244.500789
 31
0.0
  0
LINE
  5
5410F
100
AcDbEntity
  8
実線（中）
100
AcDbLine
 10
28.249461
 20
244.500789
 30
0.0
 11
71.748654
 21
244.500789
 31
0.0
  0
LINE
  5
54110
100
AcDbEntity
  8
実線（中）
100
AcDbLine
 10
73.999871
 20
245.500761
 30
0.0
 11
25.999871
 21
245.500761
 31
0.0
  0
LINE
  5
54111
100
AcDbEntity
  8
実線（中）
100
AcDbLine
 10
27.999859
 20
244.500789
 30
0.0
 11
72.998256
 21
244.500789
 31
0.0
  0
LINE
  5
54112
100
AcDbEntity
  8
実線（中）
100
AcDbLine
 10
42.023955
 20
242.500808
 30
0.0
 11
39.698955
 21
242.500804
 31
0.0
  0
LINE
  5
54113
100
AcDbEntity
  8
実線（中）
100
AcDbLine
 10
42.798957
 20
241.500809
 30
0.0
 11
39.698957
 21
241.500804
 31
0.0
  0
LINE
  5
54114
100
AcDbEntity
  8
実線（中）
100
AcDbLine
 10
31.248955
 20
242.500793
 30
0.0
 11
32.798955
 21
242.500795
 31
0.0
  0
LINE
  5
54115
100
AcDbEntity
  8
実線（中）
100
AcDbLine
 10
32.023955
 20
242.500794
 30
0.0
 11
29.698955
 21
242.500791
 31
0.0
  0
LINE
  5
54116
100
AcDbEntity
  8
実線（中）
100
AcDbLine
 10
32.798957
 20
241.500795
 30
0.0
 11
29.698957
 21
241.500791
 31
0.0
  0
ARC
  5
54117
100
AcDbEntity
  8
実線（中）
100
AcDbCircle
 10
25.999871
 20
244.500761
 30
0.0
 40
1.0
100
AcDbArc
 50
90.0
 51
180.000004
  0
LINE
  5
54118
100
AcDbEntity
  8
実線（中）
100
AcDbLine
 10
29.698957
 20
241.500791
 30
0.0
 11
29.698955
 21
242.500791
 31
0.0
  0
LINE
  5
54119
100
AcDbEntity
  8
実線（中）
100
AcDbLine
 10
37.023955
 20
242.500801
 30
0.0
 11
34.698955
 21
242.500798
 31
0.0
  0
LINE
  5
5411A
100
AcDbEntity
  8
実線（中）
100
AcDbLine
 10
37.798957
 20
241.500802
 30
0.0
 11
34.698957
 21
241.500798
 31
0.0
  0
LINE
  5
5411B
100
AcDbEntity
  8
実線（中）
100
AcDbLine
 10
32.798955
 20
242.500795
 30
0.0
 11
32.798957
 21
241.500795
 31
0.0
  0
LINE
  5
5411C
100
AcDbEntity
  8
実線（中）
100
AcDbLine
 10
34.698957
 20
241.500798
 30
0.0
 11
34.698955
 21
242.500798
 31
0.0
  0
LINE
  5
5411D
100
AcDbEntity
  8
実線（中）
100
AcDbLine
 10
39.698957
 20
241.500804
 30
0.0
 11
39.698955
 21
242.500804
 31
0.0
  0
LINE
  5
5411E
100
AcDbEntity
  8
実線（中）
100
AcDbLine
 10
36.248955
 20
242.5008
 30
0.0
 11
37.798955
 21
242.500802
 31
0.0
  0
LINE
  5
5411F
100
AcDbEntity
  8
実線（中）
100
AcDbLine
 10
37.798955
 20
242.500802
 30
0.0
 11
37.798957
 21
241.500802
 31
0.0
  0
LINE
  5
54120
100
AcDbEntity
  8
実線（中）
100
AcDbLine
 10
41.248955
 20
242.500807
 30
0.0
 11
42.798955
 21
242.500809
 31
0.0
  0
LINE
  5
54121
100
AcDbEntity
  8
実線（中）
100
AcDbLine
 10
42.798955
 20
242.500809
 30
0.0
 11
42.798957
 21
241.500809
 31
0.0
  0
LINE
  5
54122
100
AcDbEntity
  8
実線（中）
100
AcDbLine
 10
47.023955
 20
242.500815
 30
0.0
 11
44.698955
 21
242.500811
 31
0.0
  0
LINE
  5
54123
100
AcDbEntity
  8
実線（中）
100
AcDbLine
 10
47.798957
 20
241.500816
 30
0.0
 11
44.698957
 21
241.500811
 31
0.0
  0
LINE
  5
54124
100
AcDbEntity
  8
実線（中）
100
AcDbLine
 10
46.248955
 20
242.500813
 30
0.0
 11
47.798955
 21
242.500816
 31
0.0
  0
LINE
  5
54125
100
AcDbEntity
  8
実線（中）
100
AcDbLine
 10
44.698957
 20
241.500811
 30
0.0
 11
44.698955
 21
242.500811
 31
0.0
  0
LINE
  5
54126
100
AcDbEntity
  8
実線（中）
100
AcDbLine
 10
47.798955
 20
242.500816
 30
0.0
 11
47.798957
 21
241.500816
 31
0.0
  0
LINE
  5
54127
100
AcDbEntity
  8
実線（中）
100
AcDbLine
 10
51.248955
 20
242.50082
 30
0.0
 11
52.798955
 21
242.500822
 31
0.0
  0
LINE
  5
54128
100
AcDbEntity
  8
実線（中）
100
AcDbLine
 10
52.798957
 20
241.500822
 30
0.0
 11
49.698957
 21
241.500818
 31
0.0
  0
LINE
  5
54129
100
AcDbEntity
  8
実線（中）
100
AcDbLine
 10
52.023955
 20
242.500821
 30
0.0
 11
49.698955
 21
242.500818
 31
0.0
  0
LINE
  5
5412A
100
AcDbEntity
  8
実線（中）
100
AcDbLine
 10
49.698957
 20
241.500818
 30
0.0
 11
49.698955
 21
242.500818
 31
0.0
  0
LINE
  5
5412B
100
AcDbEntity
  8
実線（中）
100
AcDbLine
 10
54.698957
 20
241.500825
 30
0.0
 11
54.698955
 21
242.500825
 31
0.0
  0
LINE
  5
5412C
100
AcDbEntity
  8
実線（中）
100
AcDbLine
 10
52.798955
 20
242.500822
 30
0.0
 11
52.798957
 21
241.500822
 31
0.0
  0
LINE
  5
5412D
100
AcDbEntity
  8
実線（中）
100
AcDbLine
 10
72.998256
 20
242.005007
 30
0.0
 11
71.998256
 21
242.005007
 31
0.0
  0
LINE
  5
5412E
100
AcDbEntity
  8
実線（中）
100
AcDbLine
 10
62.023955
 20
242.500835
 30
0.0
 11
59.698955
 21
242.500832
 31
0.0
  0
LINE
  5
5412F
100
AcDbEntity
  8
実線（中）
100
AcDbLine
 10
62.798957
 20
241.500836
 30
0.0
 11
59.698957
 21
241.500832
 31
0.0
  0
LINE
  5
54130
100
AcDbEntity
  8
実線（中）
100
AcDbLine
 10
59.698957
 20
241.500832
 30
0.0
 11
59.698955
 21
242.500832
 31
0.0
  0
LINE
  5
54131
100
AcDbEntity
  8
実線（中）
100
AcDbLine
 10
57.798955
 20
242.500829
 30
0.0
 11
57.798957
 21
241.500829
 31
0.0
  0
LINE
  5
54132
100
AcDbEntity
  8
実線（中）
100
AcDbLine
 10
56.248955
 20
242.500827
 30
0.0
 11
57.798955
 21
242.500829
 31
0.0
  0
LINE
  5
54133
100
AcDbEntity
  8
実線（中）
100
AcDbLine
 10
62.798955
 20
242.500836
 30
0.0
 11
62.798957
 21
241.500836
 31
0.0
  0
LINE
  5
54134
100
AcDbEntity
  8
実線（中）
100
AcDbLine
 10
61.248955
 20
242.500834
 30
0.0
 11
62.798955
 21
242.500836
 31
0.0
  0
LINE
  5
54135
100
AcDbEntity
  8
実線（中）
100
AcDbLine
 10
66.248955
 20
242.500841
 30
0.0
 11
67.798955
 21
242.500843
 31
0.0
  0
LINE
  5
54136
100
AcDbEntity
  8
実線（中）
100
AcDbLine
 10
67.798955
 20
242.500843
 30
0.0
 11
67.798957
 21
241.500843
 31
0.0
  0
LINE
  5
54137
100
AcDbEntity
  8
実線（中）
100
AcDbLine
 10
64.698957
 20
241.500839
 30
0.0
 11
64.698955
 21
242.500839
 31
0.0
  0
LINE
  5
54138
100
AcDbEntity
  8
実線（中）
100
AcDbLine
 10
67.023955
 20
242.500842
 30
0.0
 11
64.698955
 21
242.500839
 31
0.0
  0
LINE
  5
54139
100
AcDbEntity
  8
実線（中）
100
AcDbLine
 10
67.798957
 20
241.500843
 30
0.0
 11
64.698957
 21
241.500839
 31
0.0
  0
ARC
  5
5413A
100
AcDbEntity
  8
実線（中）
100
AcDbCircle
 10
73.999871
 20
244.500761
 30
0.0
 40
1.0
100
AcDbArc
 50
0.000004
 51
90.0
  0
ARC
  5
5413B
100
AcDbEntity
  8
実線（中）
100
AcDbCircle
 10
210.603942
 20
149.70062
 30
0.0
 40
2.0
100
AcDbArc
 50
270.0
 51
0.000056
  0
LINE
  5
5413C
100
AcDbEntity
  8
実線（中）
100
AcDbLine
 10
208.003943
 20
152.00062
 30
0.0
 11
208.003943
 21
147.70062
 31
0.0
  0
LINE
  5
5413D
100
AcDbEntity
  8
実線（中）
100
AcDbLine
 10
213.803911
 20
175.50062
 30
0.0
 11
213.803952
 21
144.50062
 31
0.0
  0
LINE
  5
5413E
100
AcDbEntity
  8
実線（中）
100
AcDbLine
 10
206.102756
 20
141.997173
 30
0.0
 11
206.104959
 21
178.00035
 31
0.0
  0
LINE
  5
5413F
100
AcDbEntity
  8
実線（中）
100
AcDbLine
 10
196.501766
 20
220.896624
 30
0.0
 11
196.501769
 21
99.092238
 31
0.0
  0
LINE
  5
54140
100
AcDbEntity
  8
実線（中）
100
AcDbLine
 10
196.501884
 20
219.09592
 30
0.0
 11
196.501652
 21
100.89592
 31
0.0
  0
LINE
  5
54141
100
AcDbEntity
  8
実線（中）
100
AcDbLine
 10
125.000161
 20
220.791779
 30
0.0
 11
124.999847
 21
99.20035
 31
0.0
  0
LINE
  5
54142
100
AcDbEntity
  8
実線（中）
100
AcDbLine
 10
195.501649
 20
99.895922
 30
0.0
 11
125.304101
 21
98.900379
 31
0.0
  0
ARC
  5
54143
100
AcDbEntity
  8
実線（中）
100
AcDbCircle
 10
125.299847
 20
99.200349
 30
0.0
 40
0.3
100
AcDbArc
 50
179.999852
 51
270.812515
  0
LINE
  5
54144
100
AcDbEntity
  8
実線（中）
100
AcDbLine
 10
129.499964
 20
129.196031
 30
0.0
 11
129.500045
 21
120.196031
 31
0.0
  0
LINE
  5
54145
100
AcDbEntity
  8
実線（中）
100
AcDbLine
 10
132.499964
 20
129.196031
 30
0.0
 11
132.500045
 21
120.196031
 31
0.0
  0
LINE
  5
54146
100
AcDbEntity
  8
実線（中）
100
AcDbLine
 10
129.500045
 20
120.196031
 30
0.0
 11
132.500045
 21
120.196031
 31
0.0
  0
LINE
  5
54147
100
AcDbEntity
  8
実線（中）
100
AcDbLine
 10
129.499964
 20
129.196031
 30
0.0
 11
132.499964
 21
129.196031
 31
0.0
  0
LINE
  5
54148
100
AcDbEntity
  8
実線（中）
100
AcDbLine
 10
210.002767
 20
140.997205
 30
0.0
 11
210.00346
 21
75.997204
 31
0.0
  0
LINE
  5
54149
100
AcDbEntity
  8
実線（中）
100
AcDbLine
 10
167.802903
 20
99.092238
 30
0.0
 11
196.501769
 21
99.092238
 31
0.0
  0
LINE
  5
5414A
100
AcDbEntity
  8
実線（中）
100
AcDbLine
 10
168.099588
 20
92.800868
 30
0.0
 11
184.715403
 21
75.289851
 31
0.0
  0
LINE
  5
5414B
100
AcDbEntity
  8
実線（中）
100
AcDbLine
 10
167.802903
 20
99.092238
 30
0.0
 11
167.808712
 21
93.505905
 31
0.0
  0
ARC
  5
5414C
100
AcDbEntity
  8
実線（中）
100
AcDbCircle
 10
168.808712
 20
93.505952
 30
0.0
 40
1.0
100
AcDbArc
 50
180.002664
 51
224.836329
  0
LINE
  5
5414D
100
AcDbEntity
  8
実線（中）
100
AcDbLine
 10
199.103468
 20
74.997688
 30
0.0
 11
209.003467
 21
74.997195
 31
0.0
  0
LINE
  5
5414E
100
AcDbEntity
  8
実線（中）
100
AcDbLine
 10
185.424655
 20
74.994935
 30
0.0
 11
199.107562
 21
74.996689
 31
0.0
  0
ARC
  5
5414F
100
AcDbEntity
  8
実線（中）
100
AcDbCircle
 10
185.424527
 20
75.994935
 30
0.0
 40
1.0
100
AcDbArc
 50
224.836329
 51
270.007343
  0
LINE
  5
54150
100
AcDbEntity
  8
実線（中）
100
AcDbLine
 10
206.25346
 20
70.997195
 30
0.0
 11
210.00346
 21
70.997195
 31
0.0
  0
LINE
  5
54151
100
AcDbEntity
  8
実線（中）
100
AcDbLine
 10
206.25346
 20
72.997195
 30
0.0
 11
210.00346
 21
72.997195
 31
0.0
  0
LINE
  5
54152
100
AcDbEntity
  8
実線（中）
100
AcDbLine
 10
206.25346
 20
74.997332
 30
0.0
 11
206.25346
 21
70.997204
 31
0.0
  0
LINE
  5
54153
100
AcDbEntity
  8
実線（中）
100
AcDbLine
 10
210.00346
 20
75.997204
 30
0.0
 11
210.00346
 21
70.997195
 31
0.0
  0
ARC
  5
54154
100
AcDbEntity
  8
実線（中）
100
AcDbCircle
 10
209.00346
 20
75.997195
 30
0.0
 40
1.0
100
AcDbArc
 50
270.00039
 51
0.000538
  0
ARC
  5
54155
100
AcDbEntity
  8
実線（中）
100
AcDbCircle
 10
195.501652
 20
100.895922
 30
0.0
 40
1.0
100
AcDbArc
 50
269.99985
 51
359.999888
  0
LINE
  5
54156
100
AcDbEntity
  8
実線（中）
100
AcDbLine
 10
207.003952
 20
144.50062
 30
0.0
 11
208.303932
 21
146.50062
 31
0.0
  0
LINE
  5
54157
100
AcDbEntity
  8
実線（中）
100
AcDbLine
 10
206.102756
 20
141.997173
 30
0.0
 11
209.00276
 21
141.997194
 31
0.0
  0
LINE
  5
54158
100
AcDbEntity
  8
実線（中）
100
AcDbLine
 10
208.052837
 20
143.998797
 30
0.0
 11
207.402837
 21
143.998797
 31
0.0
  0
LINE
  5
54159
100
AcDbEntity
  8
実線（中）
100
AcDbLine
 10
207.402837
 20
143.998797
 30
0.0
 11
207.20284
 21
141.998797
 31
0.0
  0
LINE
  5
5415A
100
AcDbEntity
  8
実線（中）
100
AcDbLine
 10
207.003952
 20
144.50062
 30
0.0
 11
207.003954
 21
142.50062
 31
0.0
  0
LINE
  5
5415B
100
AcDbEntity
  8
実線（中）
100
AcDbLine
 10
206.303954
 20
142.50062
 30
0.0
 11
207.003954
 21
142.50062
 31
0.0
  0
LINE
  5
5415C
100
AcDbEntity
  8
実線（中）
100
AcDbLine
 10
208.052837
 20
143.998797
 30
0.0
 11
209.552837
 21
141.998797
 31
0.0
  0
LINE
  5
5415D
100
AcDbEntity
  8
実線（中）
100
AcDbLine
 10
210.002837
 20
141.998797
 30
0.0
 11
210.002767
 21
140.997205
 31
0.0
  0
LINE
  5
5415E
100
AcDbEntity
  8
実線（中）
100
AcDbLine
 10
207.65284
 20
141.998797
 30
0.0
 11
210.002837
 21
141.998797
 31
0.0
  0
LINE
  5
5415F
100
AcDbEntity
  8
実線（中）
100
AcDbLine
 10
212.303952
 20
144.500618
 30
0.0
 11
211.303932
 21
146.50062
 31
0.0
  0
LINE
  5
54160
100
AcDbEntity
  8
実線（中）
100
AcDbLine
 10
211.303932
 20
146.50062
 30
0.0
 11
208.303932
 21
146.50062
 31
0.0
  0
LINE
  5
54161
100
AcDbEntity
  8
実線（中）
100
AcDbLine
 10
210.603942
 20
147.70062
 30
0.0
 11
208.003943
 21
147.70062
 31
0.0
  0
LINE
  5
54162
100
AcDbEntity
  8
実線（中）
100
AcDbLine
 10
213.803952
 20
144.50062
 30
0.0
 11
212.303952
 21
144.500618
 31
0.0
  0
LINE
  5
54163
100
AcDbEntity
  8
実線（中）
100
AcDbLine
 10
195.501886
 20
220.095922
 30
0.0
 11
125.304416
 21
221.091748
 31
0.0
  0
LINE
  5
54164
100
AcDbEntity
  8
実線（中）
100
AcDbLine
 10
132.499964
 20
190.796108
 30
0.0
 11
132.500045
 21
199.796108
 31
0.0
  0
LINE
  5
54165
100
AcDbEntity
  8
実線（中）
100
AcDbLine
 10
129.499964
 20
190.796108
 30
0.0
 11
129.500045
 21
199.796108
 31
0.0
  0
LINE
  5
54166
100
AcDbEntity
  8
実線（中）
100
AcDbLine
 10
129.499964
 20
190.796108
 30
0.0
 11
132.499964
 21
190.796108
 31
0.0
  0
LINE
  5
54167
100
AcDbEntity
  8
実線（中）
100
AcDbLine
 10
129.500045
 20
199.796108
 30
0.0
 11
132.500045
 21
199.796108
 31
0.0
  0
ARC
  5
54168
100
AcDbEntity
  8
実線（中）
100
AcDbCircle
 10
125.300161
 20
220.791778
 30
0.0
 40
0.3
100
AcDbArc
 50
89.187253
 51
179.999852
  0
LINE
  5
54169
100
AcDbEntity
  8
実線（中）
100
AcDbLine
 10
210.004975
 20
178.000378
 30
0.0
 11
210.001814
 21
243.997246
 31
0.0
  0
LINE
  5
5416A
100
AcDbEntity
  8
実線（中）
100
AcDbLine
 10
168.094946
 20
227.187956
 30
0.0
 11
184.70956
 21
244.704453
 31
0.0
  0
ARC
  5
5416B
100
AcDbEntity
  8
実線（中）
100
AcDbCircle
 10
210.603922
 20
170.30062
 30
0.0
 40
2.0
100
AcDbArc
 50
0.000064
 51
90.0
  0
LINE
  5
5416C
100
AcDbEntity
  8
実線（中）
100
AcDbLine
 10
208.003933
 20
168.00062
 30
0.0
 11
208.003933
 21
172.30062
 31
0.0
  0
LINE
  5
5416D
100
AcDbEntity
  8
実線（中）
100
AcDbLine
 10
210.003858
 20
163.995908
 30
0.0
 11
210.003858
 21
155.995908
 31
0.0
  0
LINE
  5
5416E
100
AcDbEntity
  8
実線（中）
100
AcDbLine
 10
212.603922
 20
170.300622
 30
0.0
 11
212.603942
 21
149.700622
 31
0.0
  0
LINE
  5
5416F
100
AcDbEntity
  8
実線（中）
100
AcDbLine
 10
206.303943
 20
152.00062
 30
0.0
 11
208.003943
 21
152.00062
 31
0.0
  0
LINE
  5
54170
100
AcDbEntity
  8
実線（中）
100
AcDbLine
 10
206.103858
 20
155.995908
 30
0.0
 11
210.003858
 21
155.995908
 31
0.0
  0
LINE
  5
54171
100
AcDbEntity
  8
実線（中）
100
AcDbLine
 10
206.303933
 20
168.00062
 30
0.0
 11
208.003933
 21
168.00062
 31
0.0
  0
LINE
  5
54172
100
AcDbEntity
  8
実線（中）
100
AcDbLine
 10
206.103858
 20
163.995908
 30
0.0
 11
210.003858
 21
163.995908
 31
0.0
  0
LINE
  5
54173
100
AcDbEntity
  8
実線（中）
100
AcDbLine
 10
207.003914
 20
175.500621
 30
0.0
 11
208.303932
 21
173.50062
 31
0.0
  0
ARC
  5
54174
100
AcDbEntity
  8
実線（中）
100
AcDbCircle
 10
208.704968
 20
177.500398
 30
0.0
 40
1.5
100
AcDbArc
 50
180.001017
 51
270.001017
  0
LINE
  5
54175
100
AcDbEntity
  8
実線（中）
100
AcDbLine
 10
206.104959
 20
178.00035
 30
0.0
 11
210.004975
 21
178.000378
 31
0.0
  0
LINE
  5
54176
100
AcDbEntity
  8
実線（中）
100
AcDbLine
 10
207.003911
 20
177.50062
 30
0.0
 11
207.003914
 21
175.500621
 31
0.0
  0
LINE
  5
54177
100
AcDbEntity
  8
実線（中）
100
AcDbLine
 10
206.303911
 20
177.50062
 30
0.0
 11
207.003911
 21
177.500621
 31
0.0
  0
LINE
  5
54178
100
AcDbEntity
  8
実線（中）
100
AcDbLine
 10
207.204968
 20
177.500371
 30
0.0
 11
207.204959
 21
178.000371
 31
0.0
  0
ARC
  5
54179
100
AcDbEntity
  8
実線（中）
100
AcDbCircle
 10
209.004977
 20
177.000403
 30
0.0
 40
1.0
100
AcDbArc
 50
270.001017
 51
0.001017
  0
LINE
  5
5417A
100
AcDbEntity
  8
実線（中）
100
AcDbLine
 10
212.303911
 20
175.500618
 30
0.0
 11
211.303932
 21
173.50062
 31
0.0
  0
LINE
  5
5417B
100
AcDbEntity
  8
実線（中）
100
AcDbLine
 10
209.004995
 20
176.000403
 30
0.0
 11
208.704995
 21
176.000398
 31
0.0
  0
LINE
  5
5417C
100
AcDbEntity
  8
実線（中）
100
AcDbLine
 10
211.303932
 20
173.50062
 30
0.0
 11
208.303932
 21
173.50062
 31
0.0
  0
LINE
  5
5417D
100
AcDbEntity
  8
実線（中）
100
AcDbLine
 10
210.603922
 20
172.30062
 30
0.0
 11
208.003933
 21
172.30062
 31
0.0
  0
LINE
  5
5417E
100
AcDbEntity
  8
実線（中）
100
AcDbLine
 10
213.803911
 20
175.50062
 30
0.0
 11
212.303911
 21
175.500618
 31
0.0
  0
LINE
  5
5417F
100
AcDbEntity
  8
実線（中）
100
AcDbLine
 10
210.004959
 20
178.000421
 30
0.0
 11
210.004977
 21
177.000421
 31
0.0
  0
LINE
  5
54180
100
AcDbEntity
  8
実線（中）
100
AcDbLine
 10
167.804205
 20
220.896624
 30
0.0
 11
196.501766
 21
220.896623
 31
0.0
  0
LINE
  5
54181
100
AcDbEntity
  8
実線（中）
100
AcDbLine
 10
167.804205
 20
220.896624
 30
0.0
 11
167.804211
 21
226.483015
 31
0.0
  0
ARC
  5
54182
100
AcDbEntity
  8
実線（中）
100
AcDbCircle
 10
168.804211
 20
226.483014
 30
0.0
 40
1.0
100
AcDbArc
 50
135.175134
 51
179.999949
  0
ARC
  5
54183
100
AcDbEntity
  8
実線（中）
100
AcDbCircle
 10
195.501884
 20
219.095922
 30
0.0
 40
1.0
100
AcDbArc
 50
359.999888
 51
89.99985
  0
LINE
  5
54184
100
AcDbEntity
  8
実線（中）
100
AcDbLine
 10
199.101714
 20
244.997079
 30
0.0
 11
209.001805
 21
244.997193
 31
0.0
  0
LINE
  5
54185
100
AcDbEntity
  8
実線（中）
100
AcDbLine
 10
185.418884
 20
244.999511
 30
0.0
 11
199.101714
 21
244.998699
 31
0.0
  0
ARC
  5
54186
100
AcDbEntity
  8
実線（中）
100
AcDbCircle
 10
185.418825
 20
243.999511
 30
0.0
 40
1.0
100
AcDbArc
 50
89.996599
 51
135.175134
  0
ARC
  5
54187
100
AcDbEntity
  8
実線（中）
100
AcDbCircle
 10
209.001814
 20
243.997193
 30
0.0
 40
1.0
100
AcDbArc
 50
0.003053
 51
90.000528
  0
DIMENSION
  5
54188
100
AcDbEntity
  8
実線（中）
100
AcDbDimension
  2
*D6
 10
110.0
 20
98.900349
 30
0.0
 11
110.0
 21
160.000741
 31
0.0
 70
   160
  3
標準
100
AcDbAlignedDimension
 13
125.304416
 23
221.101748
 33
0.0
 14
125.299835
 24
98.900349
 34
0.0
 50
90.0
100
AcDbRotatedDimension
1001
ACAD
1000
DSTYLE
1002
{
1070
    40
1040
1.0
1002
}
  0
LINE
  5
54189
100
AcDbEntity
  8
実線（中）
100
AcDbLine
 10
208.996763
 20
1.001774
 30
0.0
 11
125.299921
 21
1.001056
 31
0.0
  0
LINE
  5
5418A
100
AcDbEntity
  8
実線（中）
100
AcDbLine
 10
125.29986
 20
49.001055
 30
0.0
 11
208.996762
 21
49.001774
 31
0.0
  0
LINE
  5
5418B
100
AcDbEntity
  8
実線（中）
100
AcDbLine
 10
124.999921
 20
1.300927
 30
0.0
 11
124.999864
 21
48.700926
 31
0.0
  0
ARC
  5
5418C
100
AcDbEntity
  8
実線（中）
100
AcDbCircle
 10
125.299921
 20
1.300927
 30
0.0
 40
0.3
100
AcDbArc
 50
180.000068
 51
270.000001
  0
LINE
  5
5418D
100
AcDbEntity
  8
実線（中）
100
AcDbLine
 10
124.99986
 20
48.700926
 30
0.0
 11
124.999861
 21
47.000926
 31
0.0
  0
ARC
  5
5418E
100
AcDbEntity
  8
実線（中）
100
AcDbCircle
 10
125.29986
 20
48.700926
 30
0.0
 40
0.3
100
AcDbArc
 50
90.000002
 51
180.000037
  0
LINE
  5
5418F
100
AcDbEntity
  8
実線（中）
100
AcDbLine
 10
197.996698
 20
41.751775
 30
0.0
 11
197.996698
 21
45.751775
 31
0.0
  0
LINE
  5
54190
100
AcDbEntity
  8
実線（中）
100
AcDbLine
 10
199.096672
 20
3.00178
 30
0.0
 11
199.080184
 21
47.002052
 31
0.0
  0
LINE
  5
54191
100
AcDbEntity
  8
実線（中）
100
AcDbLine
 10
209.9967
 20
2.001773
 30
0.0
 11
209.996762
 21
48.001773
 31
0.0
  0
MTEXT
  5
54192
100
AcDbEntity
  8
実線（中）
100
AcDbMText
 10
188.497515
 20
42.864847
 30
0.0
 40
3.0
 41
0.0
 71
     1
 72
     5
  1
\fＭＳ Ｐゴシック|b0|i0|c128|p50;8
  7
ｺﾞｼｯｸ
 11
0.0
 21
1.0
 31
0.0
  0
LINE
  5
54193
100
AcDbEntity
  8
実線（中）
100
AcDbLine
 10
192.996698
 20
45.751775
 30
0.0
 11
192.996698
 21
41.751775
 31
0.0
  0
LINE
  5
54194
100
AcDbEntity
  8
実線（中）
100
AcDbLine
 10
187.496698
 20
45.851775
 30
0.0
 11
187.496698
 21
6.251775
 31
0.0
  0
LINE
  5
54195
100
AcDbEntity
  8
実線（中）
100
AcDbLine
 10
185.496698
 20
6.251775
 30
0.0
 11
185.496698
 21
47.002052
 31
0.0
  0
LINE
  5
54196
100
AcDbEntity
  8
実線（中）
100
AcDbLine
 10
192.496698
 20
45.851775
 30
0.0
 11
192.496698
 21
6.651775
 31
0.0
  0
LINE
  5
54197
100
AcDbEntity
  8
実線（中）
100
AcDbLine
 10
192.496698
 20
47.002052
 30
0.0
 11
192.496698
 21
6.251775
 31
0.0
  0
MTEXT
  5
54198
100
AcDbEntity
  8
実線（中）
100
AcDbMText
 10
176.497515
 20
24.364688
 30
0.0
 40
3.0
 41
0.0
 71
     1
 72
     5
  1
\fＭＳ Ｐゴシック|b0|i0|c128|p50;13
  7
ｺﾞｼｯｸ
 11
0.0
 21
1.0
 31
0.0
  0
MTEXT
  5
54199
100
AcDbEntity
  8
実線（中）
100
AcDbMText
 10
176.497515
 20
19.364688
 30
0.0
 40
3.0
 41
0.0
 71
     1
 72
     5
  1
\fＭＳ Ｐゴシック|b0|i0|c128|p50;12
  7
ｺﾞｼｯｸ
 11
0.0
 21
1.0
 31
0.0
  0
MTEXT
  5
5419A
100
AcDbEntity
  8
実線（中）
100
AcDbMText
 10
176.497515
 20
34.364688
 30
0.0
 40
3.0
 41
0.0
 71
     1
 72
     5
  1
\fＭＳ Ｐゴシック|b0|i0|c128|p50;15
  7
ｺﾞｼｯｸ
 11
0.0
 21
1.0
 31
0.0
  0
MTEXT
  5
5419B
100
AcDbEntity
  8
実線（中）
100
AcDbMText
 10
176.497515
 20
29.364688
 30
0.0
 40
3.0
 41
0.0
 71
     1
 72
     5
  1
\fＭＳ Ｐゴシック|b0|i0|c128|p50;14
  7
ｺﾞｼｯｸ
 11
0.0
 21
1.0
 31
0.0
  0
MTEXT
  5
5419C
100
AcDbEntity
  8
実線（中）
100
AcDbMText
 10
176.497515
 20
39.364688
 30
0.0
 40
3.0
 41
0.0
 71
     1
 72
     5
  1
\fＭＳ Ｐゴシック|b0|i0|c128|p50;16
  7
ｺﾞｼｯｸ
 11
0.0
 21
1.0
 31
0.0
  0
LINE
  5
5419D
100
AcDbEntity
  8
実線（中）
100
AcDbLine
 10
173.496698
 20
43.751775
 30
0.0
 11
180.496698
 21
43.751775
 31
0.0
  0
MTEXT
  5
5419E
100
AcDbEntity
  8
実線（中）
100
AcDbMText
 10
176.497515
 20
5.364847
 30
0.0
 40
3.0
 41
0.0
 71
     1
 72
     5
  1
\fＭＳ Ｐゴシック|b0|i0|c128|p50;9
  7
ｺﾞｼｯｸ
 11
0.0
 21
1.0
 31
0.0
  0
MTEXT
  5
5419F
100
AcDbEntity
  8
実線（中）
100
AcDbMText
 10
176.497515
 20
9.364688
 30
0.0
 40
3.0
 41
0.0
 71
     1
 72
     5
  1
\fＭＳ Ｐゴシック|b0|i0|c128|p50;10
  7
ｺﾞｼｯｸ
 11
0.0
 21
1.0
 31
0.0
  0
LINE
  5
541A0
100
AcDbEntity
  8
実線（中）
100
AcDbLine
 10
180.496698
 20
4.151775
 30
0.0
 11
175.496698
 21
4.151775
 31
0.0
  0
MTEXT
  5
541A1
100
AcDbEntity
  8
実線（中）
100
AcDbMText
 10
176.497515
 20
14.364688
 30
0.0
 40
3.0
 41
0.0
 71
     1
 72
     5
  1
\fＭＳ Ｐゴシック|b0|i0|c128|p50;11
  7
ｺﾞｼｯｸ
 11
0.0
 21
1.0
 31
0.0
  0
LINE
  5
541A2
100
AcDbEntity
  8
実線（中）
100
AcDbLine
 10
199.096672
 20
3.00178
 30
0.0
 11
167.493481
 21
3.001942
 31
0.0
  0
LINE
  5
541A3
100
AcDbEntity
  8
実線（中）
100
AcDbLine
 10
175.496698
 20
43.751775
 30
0.0
 11
175.496698
 21
4.151775
 31
0.0
  0
LINE
  5
541A4
100
AcDbEntity
  8
実線（中）
100
AcDbLine
 10
173.496694
 20
3.001912
 30
0.0
 11
173.496698
 21
43.751775
 31
0.0
  0
LINE
  5
541A5
100
AcDbEntity
  8
実線（中）
100
AcDbLine
 10
167.493481
 20
3.001942
 30
0.0
 11
167.493481
 21
1.001942
 31
0.0
  0
LINE
  5
541A6
100
AcDbEntity
  8
実線（中）
100
AcDbLine
 10
209.846731
 20
21.501774
 30
0.0
 11
209.846731
 21
26.501774
 31
0.0
  0
LINE
  5
541A7
100
AcDbEntity
  8
実線（中）
 48
0.5
100
AcDbLine
 10
204.096731
 20
21.501774
 30
0.0
 11
204.096731
 21
26.501774
 31
0.0
  0
LINE
  5
541A8
100
AcDbEntity
  8
実線（中）
100
AcDbLine
 10
206.095265
 20
21.501774
 30
0.0
 11
206.095265
 21
26.501774
 31
0.0
  0
LINE
  5
541A9
100
AcDbEntity
  8
実線（中）
100
AcDbLine
 10
206.095265
 20
10.001774
 30
0.0
 11
206.095265
 21
38.001774
 31
0.0
  0
LINE
  5
541AA
100
AcDbEntity
  8
実線（中）
100
AcDbLine
 10
185.496698
 20
19.751775
 30
0.0
 11
185.496698
 21
22.751775
 31
0.0
  0
LINE
  5
541AB
100
AcDbEntity
  8
実線（中）
100
AcDbLine
 10
180.996698
 20
23.251775
 30
0.0
 11
180.996698
 21
19.251775
 31
0.0
  0
LINE
  5
541AC
100
AcDbEntity
  8
実線（中）
100
AcDbLine
 10
180.496698
 20
43.351775
 30
0.0
 11
180.496698
 21
4.151775
 31
0.0
  0
LINE
  5
541AD
100
AcDbEntity
  8
実線（中）
100
AcDbLine
 10
180.496698
 20
43.751775
 30
0.0
 11
180.496694
 21
3.001876
 31
0.0
  0
LINE
  5
541AE
100
AcDbEntity
  8
実線（中）
100
AcDbLine
 10
185.496694
 20
3.00185
 30
0.0
 11
185.496698
 21
43.751775
 31
0.0
  0
LINE
  5
541AF
100
AcDbEntity
  8
実線（中）
100
AcDbLine
 10
192.496698
 20
6.251775
 30
0.0
 11
199.096671
 21
6.251775
 31
0.0
  0
LINE
  5
541B0
100
AcDbEntity
  8
実線（中）
100
AcDbLine
 10
192.996698
 20
6.751775
 30
0.0
 11
197.996698
 21
6.751775
 31
0.0
  0
LINE
  5
541B1
100
AcDbEntity
  8
実線（中）
100
AcDbLine
 10
192.996698
 20
10.751775
 30
0.0
 11
197.996698
 21
10.751775
 31
0.0
  0
LINE
  5
541B2
100
AcDbEntity
  8
実線（中）
100
AcDbLine
 10
192.996698
 20
11.751775
 30
0.0
 11
197.996698
 21
11.751775
 31
0.0
  0
LINE
  5
541B3
100
AcDbEntity
  8
実線（中）
100
AcDbLine
 10
192.996698
 20
16.751775
 30
0.0
 11
197.996698
 21
16.751775
 31
0.0
  0
LINE
  5
541B4
100
AcDbEntity
  8
実線（中）
100
AcDbLine
 10
192.996698
 20
15.751775
 30
0.0
 11
197.996698
 21
15.751775
 31
0.0
  0
LINE
  5
541B5
100
AcDbEntity
  8
実線（中）
100
AcDbLine
 10
192.496698
 20
21.251775
 30
0.0
 11
199.096672
 21
21.251775
 31
0.0
  0
LINE
  5
541B6
100
AcDbEntity
  8
実線（中）
100
AcDbLine
 10
192.996698
 20
20.751775
 30
0.0
 11
197.996698
 21
20.751775
 31
0.0
  0
LINE
  5
541B7
100
AcDbEntity
  8
実線（中）
100
AcDbLine
 10
192.996698
 20
10.751775
 30
0.0
 11
192.996698
 21
6.751775
 31
0.0
  0
LINE
  5
541B8
100
AcDbEntity
  8
実線（中）
100
AcDbLine
 10
185.496698
 20
9.751775
 30
0.0
 11
185.496698
 21
12.751775
 31
0.0
  0
LINE
  5
541B9
100
AcDbEntity
  8
実線（中）
100
AcDbLine
 10
180.996698
 20
13.251775
 30
0.0
 11
180.996698
 21
9.251775
 31
0.0
  0
LINE
  5
541BA
100
AcDbEntity
  8
実線（中）
100
AcDbLine
 10
192.496698
 20
6.251775
 30
0.0
 11
185.496698
 21
6.251775
 31
0.0
  0
LINE
  5
541BB
100
AcDbEntity
  8
実線（中）
100
AcDbLine
 10
184.996673
 20
3.001855
 30
0.0
 11
184.996673
 21
1.000929
 31
0.0
  0
LINE
  5
541BC
100
AcDbEntity
  8
実線（中）
100
AcDbLine
 10
180.996698
 20
4.251775
 30
0.0
 11
185.496698
 21
4.251775
 31
0.0
  0
LINE
  5
541BD
100
AcDbEntity
  8
実線（中）
100
AcDbLine
 10
180.996698
 20
8.251775
 30
0.0
 11
185.496698
 21
8.251775
 31
0.0
  0
LINE
  5
541BE
100
AcDbEntity
  8
実線（中）
100
AcDbLine
 10
180.996698
 20
9.251775
 30
0.0
 11
185.496698
 21
9.251775
 31
0.0
  0
LINE
  5
541BF
100
AcDbEntity
  8
実線（中）
100
AcDbLine
 10
180.996698
 20
8.251775
 30
0.0
 11
180.996698
 21
4.251775
 31
0.0
  0
LINE
  5
541C0
100
AcDbEntity
  8
実線（中）
100
AcDbLine
 10
185.496698
 20
4.751775
 30
0.0
 11
185.496698
 21
7.751775
 31
0.0
  0
MTEXT
  5
541C1
100
AcDbEntity
  8
実線（中）
100
AcDbMText
 10
188.497515
 20
8.052437
 30
0.0
 40
3.0
 41
0.0
 71
     1
 72
     5
  1
\f@ＭＳ Ｐゴシック|b0|i0|c128|p50;1
  7
ｺﾞｼｯｸ
 11
0.0
 21
1.0
 31
0.0
  0
LINE
  5
541C2
100
AcDbEntity
  8
実線（中）
100
AcDbLine
 10
180.996698
 20
18.251775
 30
0.0
 11
180.996698
 21
14.251775
 31
0.0
  0
LINE
  5
541C3
100
AcDbEntity
  8
実線（中）
100
AcDbLine
 10
185.496698
 20
14.751775
 30
0.0
 11
185.496698
 21
17.751775
 31
0.0
  0
LINE
  5
541C4
100
AcDbEntity
  8
実線（中）
100
AcDbLine
 10
180.996698
 20
13.251775
 30
0.0
 11
185.496698
 21
13.251775
 31
0.0
  0
LINE
  5
541C5
100
AcDbEntity
  8
実線（中）
100
AcDbLine
 10
180.996698
 20
14.251775
 30
0.0
 11
185.496698
 21
14.251775
 31
0.0
  0
LINE
  5
541C6
100
AcDbEntity
  8
実線（中）
100
AcDbLine
 10
180.996698
 20
18.251775
 30
0.0
 11
185.496698
 21
18.251775
 31
0.0
  0
LINE
  5
541C7
100
AcDbEntity
  8
実線（中）
100
AcDbLine
 10
180.496698
 20
18.751775
 30
0.0
 11
185.496698
 21
18.751775
 31
0.0
  0
LINE
  5
541C8
100
AcDbEntity
  8
実線（中）
100
AcDbLine
 10
180.996698
 20
19.251775
 30
0.0
 11
185.496698
 21
19.251775
 31
0.0
  0
MTEXT
  5
541C9
100
AcDbEntity
  8
実線（中）
100
AcDbMText
 10
188.497515
 20
12.864847
 30
0.0
 40
3.0
 41
0.0
 71
     1
 72
     5
  1
\fＭＳ Ｐゴシック|b0|i0|c128|p50;2
  7
ｺﾞｼｯｸ
 11
0.0
 21
1.0
 31
0.0
  0
LINE
  5
541CA
100
AcDbEntity
  8
実線（中）
100
AcDbLine
 10
192.996698
 20
15.751775
 30
0.0
 11
192.996698
 21
11.751775
 31
0.0
  0
MTEXT
  5
541CB
100
AcDbEntity
  8
実線（中）
100
AcDbMText
 10
188.497515
 20
17.864847
 30
0.0
 40
3.0
 41
0.0
 71
     1
 72
     5
  1
\fＭＳ Ｐゴシック|b0|i0|c128|p50;3
  7
ｺﾞｼｯｸ
 11
0.0
 21
1.0
 31
0.0
  0
LINE
  5
541CC
100
AcDbEntity
  8
実線（中）
100
AcDbLine
 10
192.996698
 20
20.751775
 30
0.0
 11
192.996698
 21
16.751775
 31
0.0
  0
LINE
  5
541CD
100
AcDbEntity
  8
実線（中）
100
AcDbLine
 10
197.996698
 20
6.751775
 30
0.0
 11
197.996698
 21
10.751775
 31
0.0
  0
ARC
  5
541CE
100
AcDbEntity
  8
実線（中）
100
AcDbCircle
 10
208.9967
 20
2.001774
 30
0.0
 40
1.0
100
AcDbArc
 50
270.0
 51
359.999925
  0
LINE
  5
541CF
100
AcDbEntity
  8
実線（中）
100
AcDbLine
 10
197.996698
 20
11.751775
 30
0.0
 11
197.996698
 21
15.751775
 31
0.0
  0
LINE
  5
541D0
100
AcDbEntity
  8
実線（中）
100
AcDbLine
 10
197.996698
 20
16.751775
 30
0.0
 11
197.996698
 21
20.751775
 31
0.0
  0
LINE
  5
541D1
100
AcDbEntity
  8
実線（中）
100
AcDbLine
 10
206.095265
 20
10.001774
 30
0.0
 11
206.095265
 21
21.501774
 31
0.0
  0
LINE
  5
541D2
100
AcDbEntity
  8
実線（中）
100
AcDbLine
 10
209.846731
 20
11.501774
 30
0.0
 11
209.846731
 21
18.501774
 31
0.0
  0
LINE
  5
541D3
100
AcDbEntity
  8
実線（中）
100
AcDbLine
 10
206.095265
 20
11.501774
 30
0.0
 11
209.846731
 21
11.501774
 31
0.0
  0
LINE
  5
541D4
100
AcDbEntity
  8
実線（中）
100
AcDbLine
 10
206.095265
 20
10.001774
 30
0.0
 11
209.846731
 21
10.001774
 31
0.0
  0
LINE
  5
541D5
100
AcDbEntity
  8
実線（中）
100
AcDbLine
 10
209.846731
 20
10.001774
 30
0.0
 11
209.846731
 21
11.501774
 31
0.0
  0
LINE
  5
541D6
100
AcDbEntity
  8
実線（中）
100
AcDbLine
 10
206.095265
 20
18.501774
 30
0.0
 11
209.846731
 21
18.501774
 31
0.0
  0
LINE
  5
541D7
100
AcDbEntity
  8
実線（中）
100
AcDbLine
 10
206.095265
 20
21.501774
 30
0.0
 11
209.846731
 21
21.501774
 31
0.0
  0
LINE
  5
541D8
100
AcDbEntity
  8
実線（中）
 48
0.5
100
AcDbLine
 10
206.095265
 20
21.501774
 30
0.0
 11
204.096731
 21
21.501774
 31
0.0
  0
LINE
  5
541D9
100
AcDbEntity
  8
実線（中）
100
AcDbLine
 10
209.846731
 20
21.501774
 30
0.0
 11
209.846731
 21
18.501774
 31
0.0
  0
LINE
  5
541DA
100
AcDbEntity
  8
実線（中）
100
AcDbLine
 10
192.496698
 20
36.251775
 30
0.0
 11
199.096674
 21
36.251775
 31
0.0
  0
LINE
  5
541DB
100
AcDbEntity
  8
実線（中）
100
AcDbLine
 10
192.996698
 20
21.751775
 30
0.0
 11
197.996698
 21
21.751775
 31
0.0
  0
LINE
  5
541DC
100
AcDbEntity
  8
実線（中）
100
AcDbLine
 10
192.996698
 20
26.751775
 30
0.0
 11
197.996698
 21
26.751775
 31
0.0
  0
LINE
  5
541DD
100
AcDbEntity
  8
実線（中）
100
AcDbLine
 10
192.996698
 20
25.751775
 30
0.0
 11
197.996698
 21
25.751775
 31
0.0
  0
LINE
  5
541DE
100
AcDbEntity
  8
実線（中）
100
AcDbLine
 10
192.996698
 20
35.751775
 30
0.0
 11
197.996698
 21
35.751775
 31
0.0
  0
LINE
  5
541DF
100
AcDbEntity
  8
実線（中）
100
AcDbLine
 10
192.996698
 20
30.751775
 30
0.0
 11
197.996698
 21
30.751775
 31
0.0
  0
LINE
  5
541E0
100
AcDbEntity
  8
実線（中）
100
AcDbLine
 10
192.996698
 20
31.751775
 30
0.0
 11
197.996698
 21
31.751775
 31
0.0
  0
LINE
  5
541E1
100
AcDbEntity
  8
実線（中）
100
AcDbLine
 10
192.996698
 20
40.751775
 30
0.0
 11
197.996698
 21
40.751775
 31
0.0
  0
LINE
  5
541E2
100
AcDbEntity
  8
実線（中）
100
AcDbLine
 10
192.996698
 20
36.751775
 30
0.0
 11
197.996698
 21
36.751775
 31
0.0
  0
LINE
  5
541E3
100
AcDbEntity
  8
実線（中）
100
AcDbLine
 10
192.996698
 20
41.751775
 30
0.0
 11
197.996698
 21
41.751775
 31
0.0
  0
LINE
  5
541E4
100
AcDbEntity
  8
実線（中）
100
AcDbLine
 10
192.996698
 20
35.751775
 30
0.0
 11
192.996698
 21
31.751775
 31
0.0
  0
MTEXT
  5
541E5
100
AcDbEntity
  8
実線（中）
100
AcDbMText
 10
188.497515
 20
32.864847
 30
0.0
 40
3.0
 41
0.0
 71
     1
 72
     5
  1
\fＭＳ Ｐゴシック|b0|i0|c128|p50;6
  7
ｺﾞｼｯｸ
 11
0.0
 21
1.0
 31
0.0
  0
LINE
  5
541E6
100
AcDbEntity
  8
実線（中）
100
AcDbLine
 10
180.996698
 20
33.251775
 30
0.0
 11
180.996698
 21
29.251775
 31
0.0
  0
LINE
  5
541E7
100
AcDbEntity
  8
実線（中）
100
AcDbLine
 10
185.496698
 20
24.751775
 30
0.0
 11
185.496698
 21
27.751775
 31
0.0
  0
LINE
  5
541E8
100
AcDbEntity
  8
実線（中）
100
AcDbLine
 10
180.996698
 20
28.251775
 30
0.0
 11
180.996698
 21
24.251775
 31
0.0
  0
LINE
  5
541E9
100
AcDbEntity
  8
実線（中）
100
AcDbLine
 10
180.996698
 20
23.251775
 30
0.0
 11
185.496698
 21
23.251775
 31
0.0
  0
LINE
  5
541EA
100
AcDbEntity
  8
実線（中）
100
AcDbLine
 10
180.996698
 20
24.251775
 30
0.0
 11
185.496698
 21
24.251775
 31
0.0
  0
LINE
  5
541EB
100
AcDbEntity
  8
実線（中）
100
AcDbLine
 10
180.996698
 20
29.251775
 30
0.0
 11
185.496698
 21
29.251775
 31
0.0
  0
LINE
  5
541EC
100
AcDbEntity
  8
実線（中）
100
AcDbLine
 10
180.996698
 20
28.251775
 30
0.0
 11
185.496698
 21
28.251775
 31
0.0
  0
LINE
  5
541ED
100
AcDbEntity
  8
実線（中）
100
AcDbLine
 10
185.496698
 20
29.751775
 30
0.0
 11
185.496698
 21
32.751775
 31
0.0
  0
LINE
  5
541EE
100
AcDbEntity
  8
実線（中）
100
AcDbLine
 10
192.996698
 20
30.751775
 30
0.0
 11
192.996698
 21
26.751775
 31
0.0
  0
MTEXT
  5
541EF
100
AcDbEntity
  8
実線（中）
100
AcDbMText
 10
188.497515
 20
22.864847
 30
0.0
 40
3.0
 41
0.0
 71
     1
 72
     5
  1
\fＭＳ Ｐゴシック|b0|i0|c128|p50;4
  7
ｺﾞｼｯｸ
 11
0.0
 21
1.0
 31
0.0
  0
LINE
  5
541F0
100
AcDbEntity
  8
実線（中）
100
AcDbLine
 10
192.996698
 20
25.751775
 30
0.0
 11
192.996698
 21
21.751775
 31
0.0
  0
MTEXT
  5
541F1
100
AcDbEntity
  8
実線（中）
100
AcDbMText
 10
188.497515
 20
27.864847
 30
0.0
 40
3.0
 41
0.0
 71
     1
 72
     5
  1
\fＭＳ Ｐゴシック|b0|i0|c128|p50;5
  7
ｺﾞｼｯｸ
 11
0.0
 21
1.0
 31
0.0
  0
LINE
  5
541F2
100
AcDbEntity
  8
実線（中）
100
AcDbLine
 10
180.496698
 20
33.751775
 30
0.0
 11
185.496698
 21
33.751775
 31
0.0
  0
LINE
  5
541F3
100
AcDbEntity
  8
実線（中）
100
AcDbLine
 10
180.996698
 20
33.251775
 30
0.0
 11
185.496698
 21
33.251775
 31
0.0
  0
LINE
  5
541F4
100
AcDbEntity
  8
実線（中）
100
AcDbLine
 10
180.996698
 20
34.251775
 30
0.0
 11
185.496698
 21
34.251775
 31
0.0
  0
LINE
  5
541F5
100
AcDbEntity
  8
実線（中）
100
AcDbLine
 10
180.996698
 20
38.251775
 30
0.0
 11
185.496698
 21
38.251775
 31
0.0
  0
LINE
  5
541F6
100
AcDbEntity
  8
実線（中）
100
AcDbLine
 10
180.996698
 20
38.251775
 30
0.0
 11
180.996698
 21
34.251775
 31
0.0
  0
LINE
  5
541F7
100
AcDbEntity
  8
実線（中）
100
AcDbLine
 10
185.496698
 20
34.751775
 30
0.0
 11
185.496698
 21
37.751775
 31
0.0
  0
LINE
  5
541F8
100
AcDbEntity
  8
実線（中）
100
AcDbLine
 10
185.496698
 20
43.751775
 30
0.0
 11
180.496698
 21
43.751775
 31
0.0
  0
LINE
  5
541F9
100
AcDbEntity
  8
実線（中）
100
AcDbLine
 10
180.996698
 20
39.251775
 30
0.0
 11
185.496698
 21
39.251775
 31
0.0
  0
LINE
  5
541FA
100
AcDbEntity
  8
実線（中）
100
AcDbLine
 10
180.996698
 20
43.251775
 30
0.0
 11
185.496698
 21
43.251775
 31
0.0
  0
LINE
  5
541FB
100
AcDbEntity
  8
実線（中）
100
AcDbLine
 10
180.996698
 20
43.251775
 30
0.0
 11
180.996698
 21
39.251775
 31
0.0
  0
LINE
  5
541FC
100
AcDbEntity
  8
実線（中）
100
AcDbLine
 10
185.496698
 20
39.751775
 30
0.0
 11
185.496698
 21
42.751775
 31
0.0
  0
LINE
  5
541FD
100
AcDbEntity
  8
実線（中）
100
AcDbLine
 10
192.996698
 20
40.751775
 30
0.0
 11
192.996698
 21
36.751775
 31
0.0
  0
MTEXT
  5
541FE
100
AcDbEntity
  8
実線（中）
100
AcDbMText
 10
188.497515
 20
37.864847
 30
0.0
 40
3.0
 41
0.0
 71
     1
 72
     5
  1
\fＭＳ Ｐゴシック|b0|i0|c128|p50;7
  7
ｺﾞｼｯｸ
 11
0.0
 21
1.0
 31
0.0
  0
LINE
  5
541FF
100
AcDbEntity
  8
実線（中）
100
AcDbLine
 10
209.846731
 20
36.501774
 30
0.0
 11
209.846731
 21
29.501774
 31
0.0
  0
LINE
  5
54200
100
AcDbEntity
  8
実線（中）
100
AcDbLine
 10
206.095265
 20
26.501774
 30
0.0
 11
206.095265
 21
38.001774
 31
0.0
  0
LINE
  5
54201
100
AcDbEntity
  8
実線（中）
100
AcDbLine
 10
197.996698
 20
31.751775
 30
0.0
 11
197.996698
 21
35.751775
 31
0.0
  0
LINE
  5
54202
100
AcDbEntity
  8
実線（中）
100
AcDbLine
 10
197.996698
 20
26.751775
 30
0.0
 11
197.996698
 21
30.751775
 31
0.0
  0
LINE
  5
54203
100
AcDbEntity
  8
実線（中）
100
AcDbLine
 10
197.996698
 20
21.751775
 30
0.0
 11
197.996698
 21
25.751775
 31
0.0
  0
LINE
  5
54204
100
AcDbEntity
  8
実線（中）
100
AcDbLine
 10
209.846731
 20
26.501774
 30
0.0
 11
209.846731
 21
29.501774
 31
0.0
  0
LINE
  5
54205
100
AcDbEntity
  8
実線（中）
100
AcDbLine
 10
209.846731
 20
26.501774
 30
0.0
 11
206.095265
 21
26.501774
 31
0.0
  0
LINE
  5
54206
100
AcDbEntity
  8
実線（中）
 48
0.5
100
AcDbLine
 10
206.095265
 20
26.501774
 30
0.0
 11
204.096731
 21
26.501774
 31
0.0
  0
LINE
  5
54207
100
AcDbEntity
  8
実線（中）
100
AcDbLine
 10
206.095265
 20
22.501774
 30
0.0
 11
204.346731
 21
22.501774
 31
0.0
  0
LINE
  5
54208
100
AcDbEntity
  8
実線（中）
100
AcDbLine
 10
204.346731
 20
25.501774
 30
0.0
 11
206.095265
 21
25.501774
 31
0.0
  0
LINE
  5
54209
100
AcDbEntity
  8
実線（中）
100
AcDbLine
 10
204.796731
 20
22.501774
 30
0.0
 11
204.796731
 21
25.501774
 31
0.0
  0
LINE
  5
5420A
100
AcDbEntity
  8
実線（中）
100
AcDbLine
 10
204.346731
 20
22.501774
 30
0.0
 11
204.346731
 21
25.501774
 31
0.0
  0
LINE
  5
5420B
100
AcDbEntity
  8
実線（中）
100
AcDbLine
 10
206.095265
 20
29.501774
 30
0.0
 11
209.846731
 21
29.501774
 31
0.0
  0
LINE
  5
5420C
100
AcDbEntity
  8
実線（中）
100
AcDbLine
 10
197.996698
 20
36.751775
 30
0.0
 11
197.996698
 21
40.751775
 31
0.0
  0
LINE
  5
5420D
100
AcDbEntity
  8
実線（中）
100
AcDbLine
 10
206.095265
 20
36.501774
 30
0.0
 11
209.846731
 21
36.501774
 31
0.0
  0
LINE
  5
5420E
100
AcDbEntity
  8
実線（中）
100
AcDbLine
 10
206.095265
 20
38.001774
 30
0.0
 11
209.846731
 21
38.001774
 31
0.0
  0
LINE
  5
5420F
100
AcDbEntity
  8
実線（中）
100
AcDbLine
 10
209.846731
 20
38.001774
 30
0.0
 11
209.846731
 21
36.501774
 31
0.0
  0
LINE
  5
54210
100
AcDbEntity
  8
実線（中）
100
AcDbLine
 10
199.080184
 20
47.002052
 30
0.0
 11
167.493481
 21
47.002052
 31
0.0
  0
LINE
  5
54211
100
AcDbEntity
  8
実線（中）
100
AcDbLine
 10
167.493481
 20
47.002052
 30
0.0
 11
167.493481
 21
49.002052
 31
0.0
  0
LINE
  5
54212
100
AcDbEntity
  8
実線（中）
100
AcDbLine
 10
192.996698
 20
45.751775
 30
0.0
 11
197.996698
 21
45.751775
 31
0.0
  0
LINE
  5
54213
100
AcDbEntity
  8
実線（中）
100
AcDbLine
 10
184.996672
 20
47.002052
 30
0.0
 11
184.996683
 21
49.001568
 31
0.0
  0
LINE
  5
54214
100
AcDbEntity
  8
実線（中）
100
AcDbLine
 10
187.496698
 20
45.851775
 30
0.0
 11
192.496698
 21
45.851775
 31
0.0
  0
ARC
  5
54215
100
AcDbEntity
  8
実線（中）
100
AcDbCircle
 10
208.996762
 20
48.001774
 30
0.0
 40
1.0
100
AcDbArc
 50
359.999925
 51
90.0
  0
VIEWPORT
  5
39
100
AcDbEntity
 67
     1
  8
0
100
AcDbViewport
 10
217.516087
 20
141.28344
 30
0.0
 40
517.310499
 41
300.319717
 68
    -1
 69
     1
1001
ACAD
1000
MVIEW
1002
{
1070
    16
1010
0.0
1020
0.0
1030
0.0
1010
0.0
1020
0.0
1030
1.0
1040
0.0
1040
300.319717
1040
217.516087
1040
141.28344
1040
50.0
1040
0.0
1040
0.0
1070
     0
1070
   100
1070
     1
1070
     1
1070
     0
1070
     0
1070
     0
1070
     0
1040
0.0
1040
0.0
1040
0.0
1040
0.5
1040
0.5
1040
5.0
1040
5.0
1070
     0
1002
{
1002
}
1002
}
  0
ENDSEC
  0
SECTION
  2
OBJECTS
  0
DICTIONARY
  5
C
100
AcDbDictionary
  3
ACAD_GROUP
350
D
  3
ACAD_MLINESTYLE
350
1B
  3
ACDBVARIABLEDICTIONARY
350
33
  3
CONTENTDICTIONARY
350
23
  3
DRAWINGVARIABLESDICT
350
76C0
  0
DICTIONARY
  5
D
102
{ACAD_REACTORS
330
C
102
}
100
AcDbDictionary
  0
DICTIONARY
  5
1B
102
{ACAD_REACTORS
330
C
102
}
100
AcDbDictionary
  3
STANDARD
350
1C
  0
DICTIONARY
  5
33
102
{ACAD_REACTORS
330
C
102
}
100
AcDbDictionary
  3
DIMADEC
350
34
  3
SORTENTS
350
5BD8
  0
DICTIONARY
  5
23
102
{ACAD_REACTORS
330
C
102
}
100
AcDbDictionary
  0
DICTIONARY
  5
76C0
102
{ACAD_REACTORS
330
C
102
}
100
AcDbDictionary
1001
DRAWINGVARIABLESXDATA
1000
POLARANG
1000
0.785398
1000
POLARMODE
1000
1
  0
MLINESTYLE
  5
1C
102
{ACAD_REACTORS
330
1B
102
}
100
AcDbMlineStyle
  2
STANDARD
 70
     0
  3

 62
   256
 51
90.0
 52
90.0
 71
     2
 49
0.5
 62
   256
  6
BYLAYER
 49
-0.5
 62
   256
  6
BYLAYER
  0
DICTIONARYVAR
  5
34
102
{ACAD_REACTORS
330
33
102
}
100
DictionaryVariables
280
     0
  1
0
  0
DICTIONARYVAR
  5
5BD8
102
{ACAD_REACTORS
330
33
102
}
100
DictionaryVariables
280
     0
  1
96
  0
ENDSEC
  0
EOF
