  0
SECTION
  2
HEADER
  9
$ACADVER
  1
AC1012
  9
$DWGCODEPAGE
  3
ansi_932
  9
$INSBASE
 10
0.0
 20
0.0
 30
0.0
  9
$EXTMIN
 10
65.25
 20
0.0
 30
0.0
  9
$EXTMAX
 10
464.4875000000001
 20
293.5875
 30
0.0
  9
$LIMMIN
 10
65.25
 20
0.0
  9
$LIMMAX
 10
464.4875000000001
 20
293.5875
  9
$ORTHOMODE
 70
     0
  9
$REGENMODE
 70
     1
  9
$FILLMODE
 70
     1
  9
$QTEXTMODE
 70
     0
  9
$MIRRTEXT
 70
     1
  9
$DRAGMODE
 70
     2
  9
$LTSCALE
 40
1.0
  9
$OSMODE
 70
    37
  9
$ATTMODE
 70
     1
  9
$TEXTSIZE
 40
0.2
  9
$TRACEWID
 40
0.05
  9
$TEXTSTYLE
  7
STANDARD
  9
$CLAYER
  8
新しいレイヤ_1
  9
$CELTYPE
  6
BYLAYER
  9
$CECOLOR
 62
   256
  9
$CELTSCALE
 40
1.0
  9
$DELOBJ
 70
     1
  9
$DISPSILH
 70
     0
  9
$DIMSCALE
 40
1.0
  9
$DIMASZ
 40
0.18
  9
$DIMEXO
 40
0.0625
  9
$DIMDLI
 40
0.38
  9
$DIMRND
 40
0.0
  9
$DIMDLE
 40
0.0
  9
$DIMEXE
 40
0.18
  9
$DIMTP
 40
0.0
  9
$DIMTM
 40
0.0
  9
$DIMTXT
 40
0.18
  9
$DIMCEN
 40
0.09
  9
$DIMTSZ
 40
0.0
  9
$DIMTOL
 70
     0
  9
$DIMLIM
 70
     0
  9
$DIMTIH
 70
     1
  9
$DIMTOH
 70
     1
  9
$DIMSE1
 70
     0
  9
$DIMSE2
 70
     0
  9
$DIMTAD
 70
     0
  9
$DIMZIN
 70
     0
  9
$DIMBLK
  1

  9
$DIMASO
 70
     1
  9
$DIMSHO
 70
     1
  9
$DIMPOST
  1

  9
$DIMAPOST
  1

  9
$DIMALT
 70
     0
  9
$DIMALTD
 70
     2
  9
$DIMALTF
 40
25.4
  9
$DIMLFAC
 40
1.0
  9
$DIMTOFL
 70
     0
  9
$DIMTVP
 40
0.0
  9
$DIMTIX
 70
     0
  9
$DIMSOXD
 70
     0
  9
$DIMSAH
 70
     0
  9
$DIMBLK1
  1

  9
$DIMBLK2
  1

  9
$DIMSTYLE
  2
STANDARD
  9
$DIMCLRD
 70
     0
  9
$DIMCLRE
 70
     0
  9
$DIMCLRT
 70
     0
  9
$DIMTFAC
 40
1.0
  9
$DIMGAP
 40
0.09
  9
$DIMJUST
 70
     0
  9
$DIMSD1
 70
     0
  9
$DIMSD2
 70
     0
  9
$DIMTOLJ
 70
     1
  9
$DIMTZIN
 70
     0
  9
$DIMALTZ
 70
     0
  9
$DIMALTTZ
 70
     0
  9
$DIMFIT
 70
     3
  9
$DIMUPT
 70
     0
  9
$DIMUNIT
 70
     2
  9
$DIMDEC
 70
     4
  9
$DIMTDEC
 70
     4
  9
$DIMALTU
 70
     2
  9
$DIMALTTD
 70
     2
  9
$DIMTXSTY
  7
STANDARD
  9
$DIMAUNIT
 70
     0
  9
$LUNITS
 70
     2
  9
$LUPREC
 70
     2
  9
$SKETCHINC
 40
0.1
  9
$FILLETRAD
 40
0.5
  9
$AUNITS
 70
     0
  9
$AUPREC
 70
     0
  9
$MENU
  1
.
  9
$ELEVATION
 40
0.0
  9
$PELEVATION
 40
0.0
  9
$THICKNESS
 40
0.0
  9
$LIMCHECK
 70
     0
  9
$CHAMFERA
 40
0.0
  9
$CHAMFERB
 40
0.0
  9
$CHAMFERC
 40
0.0
  9
$CHAMFERD
 40
0.0
  9
$SKPOLY
 70
     0
  9
$TDCREATE
 40
2456937.600520636
  9
$TDUPDATE
 40
2456937.600525463
  9
$TDINDWG
 40
0.0000000116
  9
$TDUSRTIMER
 40
0.0000000116
  9
$USRTIMER
 70
     1
  9
$ANGBASE
 50
0.0
  9
$ANGDIR
 70
     0
  9
$PDMODE
 70
     0
  9
$PDSIZE
 40
0.0
  9
$PLINEWID
 40
0.0
  9
$COORDS
 70
     1
  9
$SPLFRAME
 70
     0
  9
$SPLINETYPE
 70
     6
  9
$SPLINESEGS
 70
     8
  9
$ATTDIA
 70
     0
  9
$ATTREQ
 70
     1
  9
$HANDLING
 70
     1
  9
$HANDSEED
  5
695
  9
$SURFTAB1
 70
     6
  9
$SURFTAB2
 70
     6
  9
$SURFTYPE
 70
     6
  9
$SURFU
 70
     6
  9
$SURFV
 70
     6
  9
$UCSNAME
  2

  9
$UCSORG
 10
0.0
 20
0.0
 30
0.0
  9
$UCSXDIR
 10
1.0
 20
0.0
 30
0.0
  9
$UCSYDIR
 10
0.0
 20
1.0
 30
0.0
  9
$PUCSNAME
  2

  9
$PUCSORG
 10
0.0
 20
0.0
 30
0.0
  9
$PUCSXDIR
 10
1.0
 20
0.0
 30
0.0
  9
$PUCSYDIR
 10
0.0
 20
1.0
 30
0.0
  9
$USERI1
 70
     0
  9
$USERI2
 70
     0
  9
$USERI3
 70
     0
  9
$USERI4
 70
     0
  9
$USERI5
 70
     0
  9
$USERR1
 40
0.0
  9
$USERR2
 40
0.0
  9
$USERR3
 40
0.0
  9
$USERR4
 40
0.0
  9
$USERR5
 40
0.0
  9
$WORLDVIEW
 70
     1
  9
$SHADEDGE
 70
     3
  9
$SHADEDIF
 70
    70
  9
$TILEMODE
 70
     1
  9
$MAXACTVP
 70
    64
  9
$PINSBASE
 10
0.0
 20
0.0
 30
0.0
  9
$PLIMCHECK
 70
     0
  9
$PEXTMIN
 10
-9.375
 20
-25.0
 30
0.0
  9
$PEXTMAX
 10
525.0
 20
371.25
 30
0.0
  9
$PLIMMIN
 10
-7.5
 20
-20.0
  9
$PLIMMAX
 10
420.0
 20
297.0
  9
$UNITMODE
 70
     0
  9
$VISRETAIN
 70
     1
  9
$PLINEGEN
 70
     0
  9
$PSLTSCALE
 70
     1
  9
$TREEDEPTH
 70
  3020
  9
$PICKSTYLE
 70
     1
  9
$CMLSTYLE
  2
STANDARD
  9
$CMLJUST
 70
     0
  9
$CMLSCALE
 40
1.0
  9
$SAVEIMAGES
 70
     1
  0
ENDSEC
  0
SECTION
  2
CLASSES
  0
CLASS
  1
ACDBDICTIONARYWDFLT
  2
AcDbDictionaryWithDefault
  3
ObjectDBX Classes
 90
    32768
280
     0
281
     0
  0
CLASS
  1
VISUALSTYLE
  2
AcDbVisualStyle
  3
ObjectDBX Classes
 90
     4095
280
     0
281
     0
  0
CLASS
  1
MATERIAL
  2
AcDbMaterial
  3
ObjectDBX Classes
 90
     1153
280
     0
281
     0
  0
CLASS
  1
SCALE
  2
AcDbScale
  3
ObjectDBX Classes
 90
     1153
280
     0
281
     0
  0
CLASS
  1
SUN
  2
AcDbSun
  3
SCENEOE
 90
     1153
280
     0
281
     0
  0
CLASS
  1
RASTERVARIABLES
  2
AcDbRasterVariables
  3
ISM
 90
    32768
280
     0
281
     0
  0
CLASS
  1
DICTIONARYVAR
  2
AcDbDictionaryVar
  3
ObjectDBX Classes
 90
        0
280
     0
281
     0
  0
CLASS
  1
XRECORD
  2
AcDbXrecord
  3
ObjectDBX Classes
 90
    32768
280
     0
281
     0
  0
CLASS
  1
LWPOLYLINE
  2
AcDbPolyline
  3
ObjectDBX Classes
 90
    32768
280
     0
281
     1
  0
CLASS
  1
HATCH
  2
AcDbHatch
  3
ObjectDBX Classes
 90
    32768
280
     0
281
     1
  0
CLASS
  1
ACDBPLACEHOLDER
  2
AcDbPlaceHolder
  3
ObjectDBX Classes
 90
        0
280
     0
281
     0
  0
CLASS
  1
LAYOUT
  2
AcDbLayout
  3
ObjectDBX Classes
 90
        0
280
     0
281
     0
  0
ENDSEC
  0
SECTION
  2
TABLES
  0
TABLE
  2
VPORT
  5
8
330
0
100
AcDbSymbolTable
 70
     1
  0
VPORT
  5
29
330
8
100
AcDbSymbolTableRecord
100
AcDbViewportTableRecord
  2
*ACTIVE
 70
     0
 10
0.0
 20
0.0
 11
1.0
 21
1.0
 12
211.895
 22
117.435
 13
0.0
 23
0.0
 14
0.5
 24
0.5
 15
0.5
 25
0.5
 16
0.0
 26
0.0
 36
1.0
 17
0.0
 27
0.0
 37
0.0
 40
246.6135
 41
1.359858645207987
 42
50.0
 43
0.0
 44
0.0
 50
0.0
 51
0.0
 71
     0
 72
 20000
 73
     1
 74
     3
 75
     0
 76
     0
 77
     0
 78
     0
  0
ENDTAB
  0
TABLE
  2
LTYPE
  5
5
330
0
100
AcDbSymbolTable
 70
     2
  0
LTYPE
  5
14
330
5
100
AcDbSymbolTableRecord
100
AcDbLinetypeTableRecord
  2
BYBLOCK
 70
     0
  3

 72
    65
 73
     0
 40
0.0
  0
LTYPE
  5
15
330
5
100
AcDbSymbolTableRecord
100
AcDbLinetypeTableRecord
  2
BYLAYER
 70
     0
  3

 72
    65
 73
     0
 40
0.0
  0
LTYPE
  5
16
330
5
100
AcDbSymbolTableRecord
100
AcDbLinetypeTableRecord
  2
CONTINUOUS
 70
     0
  3
Solid line
 72
    65
 73
     0
 40
0.0
  0
LTYPE
  5
6C
330
5
100
AcDbSymbolTableRecord
100
AcDbLinetypeTableRecord
  2
ACAD_ISO04W100
 70
     0
  3
ISO long-dash dot ____ . ____ . ____ . ____ . _
 72
    65
 73
     4
 40
30.0
 49
24.0
 74
     0
 49
-3.0
 74
     0
 49
0.0
 74
     0
 49
-3.0
 74
     0
  0
ENDTAB
  0
TABLE
  2
LAYER
  5
2
330
0
100
AcDbSymbolTable
 70
     6
  0
LAYER
  5
10
330
2
100
AcDbSymbolTableRecord
100
AcDbLayerTableRecord
  2
0
 70
     0
 62
     7
  6
CONTINUOUS
  0
LAYER
  5
6D
330
2
100
AcDbSymbolTableRecord
100
AcDbLayerTableRecord
  2
新しいレイヤ_1
 70
     0
 62
     7
  6
CONTINUOUS
  0
LAYER
  5
6E
330
2
100
AcDbSymbolTableRecord
100
AcDbLayerTableRecord
  2
プラグ
 70
     0
 62
     3
  6
CONTINUOUS
  0
LAYER
  5
6F
330
2
100
AcDbSymbolTableRecord
100
AcDbLayerTableRecord
  2
寸法
 70
     0
 62
     7
  6
CONTINUOUS
  0
LAYER
  5
70
330
2
100
AcDbSymbolTableRecord
100
AcDbLayerTableRecord
  2
アレスタ
 70
     0
 62
     1
  6
CONTINUOUS
  0
LAYER
  5
71
330
2
100
AcDbSymbolTableRecord
100
AcDbLayerTableRecord
  2
RCVIEWPORTFRAME
 70
     0
 62
    -7
  6
CONTINUOUS
  0
ENDTAB
  0
TABLE
  2
STYLE
  5
3
330
0
100
AcDbSymbolTable
 70
     5
  0
STYLE
  5
11
330
3
100
AcDbSymbolTableRecord
100
AcDbTextStyleTableRecord
  2
STANDARD
 70
     0
 40
0.0
 41
1.0
 50
0.0
 71
     0
 42
0.2
  3
txt.shx
  4
extfont
  0
STYLE
  5
72
330
3
100
AcDbSymbolTableRecord
100
AcDbTextStyleTableRecord
  2
MS_PGOTHIC
 70
     0
 40
0.0
 41
1.0
 50
0.0
 71
     0
 42
0.2
  3
MS PGothic.ttf
  4

1001
ACAD
1000
ＭＳ Ｐゴシック
1071
    32818
  0
STYLE
  5
73
330
3
100
AcDbSymbolTableRecord
100
AcDbTextStyleTableRecord
  2
VERTICAL
 70
     4
 40
0.0
 41
1.0
 50
0.0
 71
     0
 42
0.2
  3
txt.shx
  4
extfont
  0
STYLE
  5
74
330
3
100
AcDbSymbolTableRecord
100
AcDbTextStyleTableRecord
  2
VERTICAL_MS_PGOTHIC
 70
     0
 40
0.0
 41
1.0
 50
0.0
 71
     0
 42
0.2
  3
MS PGothic.ttf
  4

1001
ACAD
1000
@ＭＳ Ｐゴシック
1071
    32818
  0
STYLE
  5
649
330
3
100
AcDbSymbolTableRecord
100
AcDbTextStyleTableRecord
  2
MS_GOTHIC
 70
     0
 40
0.0
 41
1.0
 50
0.0
 71
     0
 42
0.2
  3
MS Gothic.ttf
  4
extfont
1001
ACAD
1000
ＭＳ ゴシック
1071
    32817
  0
ENDTAB
  0
TABLE
  2
VIEW
  5
6
330
0
100
AcDbSymbolTable
 70
     0
  0
ENDTAB
  0
TABLE
  2
UCS
  5
7
330
0
100
AcDbSymbolTable
 70
     0
  0
ENDTAB
  0
TABLE
  2
APPID
  5
9
330
0
100
AcDbSymbolTable
 70
     2
  0
APPID
  5
12
330
9
100
AcDbSymbolTableRecord
100
AcDbRegAppTableRecord
  2
ACAD
 70
     0
  0
APPID
  5
6A
330
9
100
AcDbSymbolTableRecord
100
AcDbRegAppTableRecord
  2
ROOTPRO_CAD
 70
     0
  0
ENDTAB
  0
TABLE
  2
DIMSTYLE
  5
A
330
0
100
AcDbSymbolTable
 70
     1
  0
DIMSTYLE
105
27
102
{ACAD_REACTORS
330
64A
330
652
330
65A
330
662
330
66A
330
674
102
}
330
A
100
AcDbSymbolTableRecord
100
AcDbDimStyleTableRecord
  2
STANDARD
 70
     0
  3

  4

  5

  6

  7

 40
1.0
 41
0.18
 42
0.0625
 43
0.38
 44
0.18
 45
0.0
 46
0.0
 47
0.0
 48
0.0
140
0.18
141
0.09
142
0.0
143
25.4
144
1.0
145
0.0
146
1.0
147
0.09
 71
     0
 72
     0
 73
     1
 74
     1
 75
     0
 76
     0
 77
     0
 78
     0
170
     0
171
     2
172
     0
173
     0
174
     0
175
     0
176
     0
177
     0
178
     0
270
     2
271
     4
272
     4
273
     2
274
     2
340
11
275
     0
280
     0
281
     0
282
     0
283
     1
284
     0
285
     0
286
     0
287
     3
288
     0
  0
ENDTAB
  0
TABLE
  2
BLOCK_RECORD
  5
1
330
0
100
AcDbSymbolTable
 70
     7
  0
BLOCK_RECORD
  5
1F
330
1
100
AcDbSymbolTableRecord
100
AcDbBlockTableRecord
  2
*MODEL_SPACE
  0
BLOCK_RECORD
  5
1B
330
1
100
AcDbSymbolTableRecord
100
AcDbBlockTableRecord
  2
*PAPER_SPACE
  0
BLOCK_RECORD
  5
64B
330
1
100
AcDbSymbolTableRecord
100
AcDbBlockTableRecord
  2
*D1
  0
BLOCK_RECORD
  5
653
330
1
100
AcDbSymbolTableRecord
100
AcDbBlockTableRecord
  2
*D2
  0
BLOCK_RECORD
  5
65B
330
1
100
AcDbSymbolTableRecord
100
AcDbBlockTableRecord
  2
*D3
  0
BLOCK_RECORD
  5
663
330
1
100
AcDbSymbolTableRecord
100
AcDbBlockTableRecord
  2
*D4
  0
BLOCK_RECORD
  5
66B
330
1
100
AcDbSymbolTableRecord
100
AcDbBlockTableRecord
  2
*D5
  0
BLOCK_RECORD
  5
675
330
1
100
AcDbSymbolTableRecord
100
AcDbBlockTableRecord
  2
*D6
  0
ENDTAB
  0
ENDSEC
  0
SECTION
  2
BLOCKS
  0
BLOCK
  5
20
330
1F
100
AcDbEntity
  8
0
100
AcDbBlockBegin
  2
*MODEL_SPACE
 70
     0
 10
0.0
 20
0.0
 30
0.0
  3
*MODEL_SPACE
  1

  0
ENDBLK
  5
21
330
1F
100
AcDbEntity
  8
0
100
AcDbBlockEnd
  0
BLOCK
  5
1C
330
1B
100
AcDbEntity
 67
     1
  8
0
100
AcDbBlockBegin
  2
*PAPER_SPACE
 70
     0
 10
0.0
 20
0.0
 30
0.0
  3
*PAPER_SPACE
  1

  0
ENDBLK
  5
1D
330
1B
100
AcDbEntity
 67
     1
  8
0
100
AcDbBlockEnd
  0
BLOCK
  5
650
330
64B
100
AcDbEntity
  8
0
100
AcDbBlockBegin
  2
*D1
 70
     1
 10
0.0
 20
0.0
 30
0.0
  3
*D1
  1
*D1
  0
MTEXT
  5
64C
330
64B
100
AcDbEntity
  8
寸法
100
AcDbMText
 10
275.2
 20
155.872250994
 30
0.0
 40
1.538599426386233
 41
6.276
 71
     7
 72
     1
  1
{\fＭＳ ゴシック|b0|i0;21.00}
  7
MS_GOTHIC
 11
6.123233995736766E-17
 21
1.0
 31
0.0
1001
ACAD
1000
MTEXTBEGIN
1070
    44
1040
0.75
1000
MTEXTEND
  0
LINE
  5
64D
330
64B
100
AcDbEntity
  8
寸法
100
AcDbLine
 10
234.37
 20
168.872250994
 30
0.0
 11
276.7
 21
168.872250994
 31
0.0
  0
LINE
  5
64E
330
64B
100
AcDbEntity
  8
寸法
100
AcDbLine
 10
238.27
 20
147.872250994
 30
0.0
 11
276.7
 21
147.872250994
 31
0.0
  0
LINE
  5
64F
330
64B
100
AcDbEntity
  8
寸法
100
AcDbLine
 10
275.7
 20
168.872250994
 30
0.0
 11
275.7
 21
147.872250994
 31
0.0
  0
ENDBLK
  5
651
330
64B
100
AcDbEntity
  8
0
100
AcDbBlockEnd
  0
BLOCK
  5
658
330
653
100
AcDbEntity
  8
0
100
AcDbBlockBegin
  2
*D2
 70
     1
 10
0.0
 20
0.0
 30
0.0
  3
*D2
  1
*D2
  0
MTEXT
  5
654
330
653
100
AcDbEntity
  8
寸法
100
AcDbMText
 10
275.2
 20
124.972250994
 30
0.0
 40
1.538750791640279
 41
6.316
 71
     7
 72
     1
  1
{\fＭＳ ゴシック|b0|i0;41.00}
  7
MS_GOTHIC
 11
6.123233995736766E-17
 21
1.0
 31
0.0
1001
ACAD
1000
MTEXTBEGIN
1070
    44
1040
0.75
1000
MTEXTEND
  0
LINE
  5
655
330
653
100
AcDbEntity
  8
寸法
100
AcDbLine
 10
238.27
 20
147.872250994
 30
0.0
 11
276.7
 21
147.872250994
 31
0.0
  0
LINE
  5
656
330
653
100
AcDbEntity
  8
寸法
100
AcDbLine
 10
261.07
 20
107.072250994
 30
0.0
 11
276.7
 21
107.072250994
 31
0.0
  0
LINE
  5
657
330
653
100
AcDbEntity
  8
寸法
100
AcDbLine
 10
275.7
 20
147.872250994
 30
0.0
 11
275.7
 21
107.072250994
 31
0.0
  0
ENDBLK
  5
659
330
653
100
AcDbEntity
  8
0
100
AcDbBlockEnd
  0
BLOCK
  5
660
330
65B
100
AcDbEntity
  8
0
100
AcDbBlockBegin
  2
*D3
 70
     1
 10
0.0
 20
0.0
 30
0.0
  3
*D3
  1
*D3
  0
MTEXT
  5
65C
330
65B
100
AcDbEntity
  8
寸法
100
AcDbMText
 10
206.97
 20
179.03
 30
0.0
 40
1.538637448297805
 41
6.286
 71
     7
 72
     1
  1
{\fＭＳ ゴシック|b0|i0;50.00}
  7
MS_GOTHIC
1001
ACAD
1000
MTEXTBEGIN
1070
    44
1040
0.7500000000000001
1000
MTEXTEND
  0
LINE
  5
65D
330
65B
100
AcDbEntity
  8
寸法
100
AcDbLine
 10
184.47
 20
168.772250994
 30
0.0
 11
184.47
 21
179.53
 31
0.0
  0
LINE
  5
65E
330
65B
100
AcDbEntity
  8
寸法
100
AcDbLine
 10
234.47
 20
168.772250994
 30
0.0
 11
234.47
 21
179.53
 31
0.0
  0
LINE
  5
65F
330
65B
100
AcDbEntity
  8
寸法
100
AcDbLine
 10
184.47
 20
178.53
 30
0.0
 11
234.47
 21
178.53
 31
0.0
  0
ENDBLK
  5
661
330
65B
100
AcDbEntity
  8
0
100
AcDbBlockEnd
  0
BLOCK
  5
668
330
663
100
AcDbEntity
  8
0
100
AcDbBlockBegin
  2
*D4
 70
     1
 10
0.0
 20
0.0
 30
0.0
  3
*D4
  1
*D4
  0
MTEXT
  5
664
330
663
100
AcDbEntity
  8
寸法
100
AcDbMText
 10
206.970424577153
 20
96.96999999999994
 30
0.0
 40
1.538561283115225
 41
6.266
 71
     7
 72
     1
  1
{\fＭＳ ゴシック|b0|i0;94.00}
  7
MS_GOTHIC
1001
ACAD
1000
MTEXTBEGIN
1070
    44
1040
0.7500000000000001
1000
MTEXTEND
  0
LINE
  5
665
330
663
100
AcDbEntity
  8
寸法
100
AcDbLine
 10
162.4707858546167
 20
106.772250994
 30
0.0
 11
162.4707858546167
 21
95.46999999999994
 31
0.0
  0
LINE
  5
666
330
663
100
AcDbEntity
  8
寸法
100
AcDbLine
 10
256.4700632996893
 20
106.5722512427218
 30
0.0
 11
256.4700632996893
 21
95.46999999999994
 31
0.0
  0
LINE
  5
667
330
663
100
AcDbEntity
  8
寸法
100
AcDbLine
 10
162.4707858546167
 20
96.46999999999994
 30
0.0
 11
256.4700632996893
 21
96.46999999999994
 31
0.0
  0
ENDBLK
  5
669
330
663
100
AcDbEntity
  8
0
100
AcDbBlockEnd
  0
BLOCK
  5
672
330
66B
100
AcDbEntity
  8
0
100
AcDbBlockBegin
  2
*D5
 70
     1
 10
0.0
 20
0.0
 30
0.0
  3
*D5
  1
*D5
  0
MTEXT
  5
66C
330
66B
100
AcDbEntity
  8
寸法
100
AcDbMText
 10
263.5699367003107
 20
96.97000000000003
 30
0.0
 40
1.538825757575757
 41
5.016000000000001
 71
     7
 72
     1
  1
{\fＭＳ ゴシック|b0|i0;4.00}
  7
MS_GOTHIC
1001
ACAD
1000
MTEXTBEGIN
1070
    44
1040
0.75
1000
MTEXTEND
  0
LINE
  5
66D
330
66B
100
AcDbEntity
  8
寸法
100
AcDbLine
 10
256.4700632996893
 20
106.5722512427218
 30
0.0
 11
256.4700632996893
 21
95.47000000000003
 31
0.0
  0
LINE
  5
66E
330
66B
100
AcDbEntity
  8
寸法
100
AcDbLine
 10
260.5699367003107
 20
106.588360764921
 30
0.0
 11
260.5699367003107
 21
95.47000000000003
 31
0.0
  0
LINE
  5
66F
330
66B
100
AcDbEntity
  8
寸法
100
AcDbLine
 10
256.4700632996893
 20
96.47000000000003
 30
0.0
 11
251.4700632996893
 21
96.47000000000003
 31
0.0
  0
LINE
  5
670
330
66B
100
AcDbEntity
  8
寸法
100
AcDbLine
 10
260.5699367003107
 20
96.47000000000003
 30
0.0
 11
267.5699367003107
 21
96.47000000000003
 31
0.0
  0
LINE
  5
671
330
66B
100
AcDbEntity
  8
寸法
100
AcDbLine
 10
256.4700632996893
 20
96.47000000000003
 30
0.0
 11
260.5699367003107
 21
96.47000000000003
 31
0.0
  0
ENDBLK
  5
673
330
66B
100
AcDbEntity
  8
0
100
AcDbBlockEnd
  0
BLOCK
  5
67A
330
675
100
AcDbEntity
  8
0
100
AcDbBlockBegin
  2
*D6
 70
     1
 10
0.0
 20
0.0
 30
0.0
  3
*D6
  1
*D6
  0
MTEXT
  5
676
330
675
100
AcDbEntity
  8
寸法
100
AcDbMText
 10
275.1999999999999
 20
210.67
 30
0.0
 40
1.538599426386233
 41
6.276
 71
     7
 72
     1
  1
{\fＭＳ ゴシック|b0|i0;25.00}
  7
MS_GOTHIC
 11
6.123233995736766E-17
 21
1.0
 31
0.0
1001
ACAD
1000
MTEXTBEGIN
1070
    44
1040
0.75
1000
MTEXTEND
  0
LINE
  5
677
330
675
100
AcDbEntity
  8
寸法
100
AcDbLine
 10
256.47
 20
200.67
 30
0.0
 11
276.7
 21
200.67
 31
0.0
  0
LINE
  5
678
330
675
100
AcDbEntity
  8
寸法
100
AcDbLine
 10
256.47
 20
225.67
 30
0.0
 11
276.7000000000014
 21
225.67
 31
0.0
  0
LINE
  5
679
330
675
100
AcDbEntity
  8
寸法
100
AcDbLine
 10
275.7
 20
200.67
 30
0.0
 11
275.7000000000014
 21
225.67
 31
0.0
  0
ENDBLK
  5
67B
330
675
100
AcDbEntity
  8
0
100
AcDbBlockEnd
  0
ENDSEC
  0
SECTION
  2
ENTITIES
  0
LINE
  5
75
330
1F
100
AcDbEntity
  8
プラグ
100
AcDbLine
 10
209.47
 20
223.47
 30
0.0
 11
184.17
 21
223.47
 31
0.0
  0
LINE
  5
76
330
1F
100
AcDbEntity
  8
プラグ
100
AcDbLine
 10
184.17
 20
204.37
 30
0.0
 11
184.17
 21
223.47
 31
0.0
  0
TEXT
  5
77
330
1F
100
AcDbEntity
  8
プラグ
100
AcDbText
 10
168.9199647605696
 20
201.03
 30
0.0
 40
2.00001662751765
  1
1
 50
90.0
  7
MS_PGOTHIC
 11
169.3289056603774
 21
201.03
 31
0.0
100
AcDbText
 73
     1
  0
TEXT
  5
78
330
1F
100
AcDbEntity
  8
プラグ
100
AcDbText
 10
168.9197667011388
 20
223.97
 30
0.0
 40
2.000008222352655
  1
2
 50
90.0
  7
MS_PGOTHIC
 11
169.3287058823529
 21
223.97
 31
0.0
100
AcDbText
 73
     1
  0
LINE
  5
79
330
1F
100
AcDbEntity
  8
プラグ
100
AcDbLine
 10
209.47
 20
223.47
 30
0.0
 11
233.27
 21
223.47
 31
0.0
  0
TEXT
  5
7A
330
1F
100
AcDbEntity
  8
プラグ
100
AcDbText
 10
176.920361933298
 20
223.97
 30
0.0
 40
1.999989553412243
  1
4
 50
90.0
  7
MS_PGOTHIC
 11
177.3292972972972
 21
223.97
 31
0.0
100
AcDbText
 73
     1
  0
TEXT
  5
7B
330
1F
100
AcDbEntity
  8
プラグ
100
AcDbText
 10
176.9197667011387
 20
201.07
 30
0.0
 40
2.000008222352655
  1
3
 50
90.0
  7
MS_PGOTHIC
 11
177.3287058823529
 21
201.07
 31
0.0
100
AcDbText
 73
     1
  0
POLYLINE
  5
7C
330
1F
100
AcDbEntity
  8
プラグ
100
AcDb2dPolyline
 66
     1
 10
0.0
 20
0.0
 30
0.0
  0
VERTEX
  5
7D
330
7C
100
AcDbEntity
  8
0
100
AcDbVertex
100
AcDb2dVertex
 10
184.17
 20
223.47
 30
0.0
  0
VERTEX
  5
7E
330
7C
100
AcDbEntity
  8
0
100
AcDbVertex
100
AcDb2dVertex
 10
184.17
 20
202.87
 30
0.0
  0
VERTEX
  5
7F
330
7C
100
AcDbEntity
  8
0
100
AcDbVertex
100
AcDb2dVertex
 10
209.47
 20
202.87
 30
0.0
  0
SEQEND
  5
80
330
7C
100
AcDbEntity
  8
プラグ
  0
ARC
  5
81
330
1F
100
AcDbEntity
  8
プラグ
100
AcDbCircle
 10
254.02
 20
212.37
 30
0.0
 40
0.5
100
AcDbArc
 50
270.0
 51
0.0
  0
LINE
  5
82
330
1F
100
AcDbEntity
  8
プラグ
100
AcDbLine
 10
254.02
 20
211.87
 30
0.0
 11
247.92
 21
211.87
 31
0.0
  0
ARC
  5
83
330
1F
100
AcDbEntity
  8
プラグ
100
AcDbCircle
 10
247.92
 20
212.37
 30
0.0
 40
0.5
100
AcDbArc
 50
180.0
 51
270.0
  0
LINE
  5
84
330
1F
100
AcDbEntity
  8
プラグ
100
AcDbLine
 10
247.42
 20
212.37
 30
0.0
 11
247.42
 21
218.47
 31
0.0
  0
ARC
  5
85
330
1F
100
AcDbEntity
  8
プラグ
100
AcDbCircle
 10
247.92
 20
218.47
 30
0.0
 40
0.5
100
AcDbArc
 50
90.0
 51
180.0
  0
LINE
  5
86
330
1F
100
AcDbEntity
  8
プラグ
100
AcDbLine
 10
247.92
 20
218.97
 30
0.0
 11
254.02
 21
218.97
 31
0.0
  0
ARC
  5
87
330
1F
100
AcDbEntity
  8
プラグ
100
AcDbCircle
 10
254.02
 20
218.47
 30
0.0
 40
0.5
100
AcDbArc
 50
0.0
 51
90.0
  0
LINE
  5
88
330
1F
100
AcDbEntity
  8
プラグ
100
AcDbLine
 10
254.52
 20
218.47
 30
0.0
 11
254.52
 21
212.37
 31
0.0
  0
LINE
  5
89
330
1F
100
AcDbEntity
  8
プラグ
100
AcDbLine
 10
254.52
 20
215.92
 30
0.0
 11
253.826571371
 21
215.92
 31
0.0
  0
LINE
  5
8A
330
1F
100
AcDbEntity
  8
プラグ
100
AcDbLine
 10
254.52
 20
214.92
 30
0.0
 11
253.826571371
 21
214.92
 31
0.0
  0
LINE
  5
8B
330
1F
100
AcDbEntity
  8
プラグ
100
AcDbLine
 10
248.113428629
 20
215.92
 30
0.0
 11
247.42
 21
215.92
 31
0.0
  0
LINE
  5
8C
330
1F
100
AcDbEntity
  8
プラグ
100
AcDbLine
 10
248.113428629
 20
214.92
 30
0.0
 11
247.42
 21
214.92
 31
0.0
  0
LINE
  5
8D
330
1F
100
AcDbEntity
  8
プラグ
100
AcDbLine
 10
251.47
 20
218.276571371
 30
0.0
 11
251.47
 21
218.97
 31
0.0
  0
LINE
  5
8E
330
1F
100
AcDbEntity
  8
プラグ
100
AcDbLine
 10
250.47
 20
218.276571371
 30
0.0
 11
250.47
 21
218.97
 31
0.0
  0
LINE
  5
8F
330
1F
100
AcDbEntity
  8
プラグ
100
AcDbLine
 10
251.47
 20
212.563428629
 30
0.0
 11
251.47
 21
211.87
 31
0.0
  0
LINE
  5
90
330
1F
100
AcDbEntity
  8
プラグ
100
AcDbLine
 10
250.47
 20
212.563428629
 30
0.0
 11
250.47
 21
211.87
 31
0.0
  0
ARC
  5
91
330
1F
100
AcDbEntity
  8
プラグ
100
AcDbCircle
 10
254.02
 20
203.37
 30
0.0
 40
0.5
100
AcDbArc
 50
270.0
 51
0.0
  0
LINE
  5
92
330
1F
100
AcDbEntity
  8
プラグ
100
AcDbLine
 10
254.02
 20
202.87
 30
0.0
 11
247.92
 21
202.87
 31
0.0
  0
ARC
  5
93
330
1F
100
AcDbEntity
  8
プラグ
100
AcDbCircle
 10
247.92
 20
203.37
 30
0.0
 40
0.5
100
AcDbArc
 50
180.0
 51
270.0
  0
LINE
  5
94
330
1F
100
AcDbEntity
  8
プラグ
100
AcDbLine
 10
247.42
 20
203.37
 30
0.0
 11
247.42
 21
209.47
 31
0.0
  0
ARC
  5
95
330
1F
100
AcDbEntity
  8
プラグ
100
AcDbCircle
 10
247.92
 20
209.47
 30
0.0
 40
0.5
100
AcDbArc
 50
90.0
 51
180.0
  0
LINE
  5
96
330
1F
100
AcDbEntity
  8
プラグ
100
AcDbLine
 10
247.92
 20
209.97
 30
0.0
 11
254.02
 21
209.97
 31
0.0
  0
ARC
  5
97
330
1F
100
AcDbEntity
  8
プラグ
100
AcDbCircle
 10
254.02
 20
209.47
 30
0.0
 40
0.5
100
AcDbArc
 50
0.0
 51
90.0
  0
LINE
  5
98
330
1F
100
AcDbEntity
  8
プラグ
100
AcDbLine
 10
254.52
 20
209.47
 30
0.0
 11
254.52
 21
203.37
 31
0.0
  0
LINE
  5
99
330
1F
100
AcDbEntity
  8
プラグ
100
AcDbLine
 10
254.52
 20
206.92
 30
0.0
 11
253.826571371
 21
206.92
 31
0.0
  0
LINE
  5
9A
330
1F
100
AcDbEntity
  8
プラグ
100
AcDbLine
 10
254.52
 20
205.92
 30
0.0
 11
253.826571371
 21
205.92
 31
0.0
  0
LINE
  5
9B
330
1F
100
AcDbEntity
  8
プラグ
100
AcDbLine
 10
248.113428629
 20
206.92
 30
0.0
 11
247.42
 21
206.92
 31
0.0
  0
LINE
  5
9C
330
1F
100
AcDbEntity
  8
プラグ
100
AcDbLine
 10
248.113428629
 20
205.92
 30
0.0
 11
247.42
 21
205.92
 31
0.0
  0
LINE
  5
9D
330
1F
100
AcDbEntity
  8
プラグ
100
AcDbLine
 10
251.47
 20
209.276571371
 30
0.0
 11
251.47
 21
209.97
 31
0.0
  0
LINE
  5
9E
330
1F
100
AcDbEntity
  8
プラグ
100
AcDbLine
 10
250.47
 20
209.276571371
 30
0.0
 11
250.47
 21
209.97
 31
0.0
  0
LINE
  5
9F
330
1F
100
AcDbEntity
  8
プラグ
100
AcDbLine
 10
251.47
 20
203.563428629
 30
0.0
 11
251.47
 21
202.87
 31
0.0
  0
LINE
  5
A0
330
1F
100
AcDbEntity
  8
プラグ
100
AcDbLine
 10
250.47
 20
203.563428629
 30
0.0
 11
250.47
 21
202.87
 31
0.0
  0
ARC
  5
A1
330
1F
100
AcDbEntity
  8
プラグ
100
AcDbCircle
 10
244.02
 20
216.87
 30
0.0
 40
0.5
100
AcDbArc
 50
270.0
 51
0.0
  0
LINE
  5
A2
330
1F
100
AcDbEntity
  8
プラグ
100
AcDbLine
 10
244.02
 20
216.37
 30
0.0
 11
237.92
 21
216.37
 31
0.0
  0
ARC
  5
A3
330
1F
100
AcDbEntity
  8
プラグ
100
AcDbCircle
 10
237.92
 20
216.87
 30
0.0
 40
0.5
100
AcDbArc
 50
180.0
 51
270.0
  0
LINE
  5
A4
330
1F
100
AcDbEntity
  8
プラグ
100
AcDbLine
 10
237.92
 20
223.47
 30
0.0
 11
244.02
 21
223.47
 31
0.0
  0
ARC
  5
A5
330
1F
100
AcDbEntity
  8
プラグ
100
AcDbCircle
 10
244.02
 20
222.97
 30
0.0
 40
0.5
100
AcDbArc
 50
0.0
 51
90.0
  0
LINE
  5
A6
330
1F
100
AcDbEntity
  8
プラグ
100
AcDbLine
 10
244.52
 20
222.97
 30
0.0
 11
244.52
 21
216.87
 31
0.0
  0
LINE
  5
A7
330
1F
100
AcDbEntity
  8
プラグ
100
AcDbLine
 10
244.52
 20
220.42
 30
0.0
 11
243.826571371
 21
220.42
 31
0.0
  0
LINE
  5
A8
330
1F
100
AcDbEntity
  8
プラグ
100
AcDbLine
 10
244.52
 20
219.42
 30
0.0
 11
243.826571371
 21
219.42
 31
0.0
  0
LINE
  5
A9
330
1F
100
AcDbEntity
  8
プラグ
100
AcDbLine
 10
238.113428629
 20
220.42
 30
0.0
 11
237.42
 21
220.42
 31
0.0
  0
LINE
  5
AA
330
1F
100
AcDbEntity
  8
プラグ
100
AcDbLine
 10
238.113428629
 20
219.42
 30
0.0
 11
237.42
 21
219.42
 31
0.0
  0
LINE
  5
AB
330
1F
100
AcDbEntity
  8
プラグ
100
AcDbLine
 10
241.47
 20
222.776571371
 30
0.0
 11
241.47
 21
223.47
 31
0.0
  0
LINE
  5
AC
330
1F
100
AcDbEntity
  8
プラグ
100
AcDbLine
 10
240.47
 20
222.776571371
 30
0.0
 11
240.47
 21
223.47
 31
0.0
  0
LINE
  5
AD
330
1F
100
AcDbEntity
  8
プラグ
100
AcDbLine
 10
241.47
 20
217.063428629
 30
0.0
 11
241.47
 21
216.37
 31
0.0
  0
LINE
  5
AE
330
1F
100
AcDbEntity
  8
プラグ
100
AcDbLine
 10
240.47
 20
217.063428629
 30
0.0
 11
240.47
 21
216.37
 31
0.0
  0
ARC
  5
AF
330
1F
100
AcDbEntity
  8
プラグ
100
AcDbCircle
 10
244.02
 20
207.87
 30
0.0
 40
0.5
100
AcDbArc
 50
270.0
 51
0.0
  0
LINE
  5
B0
330
1F
100
AcDbEntity
  8
プラグ
100
AcDbLine
 10
244.02
 20
207.37
 30
0.0
 11
237.92
 21
207.37
 31
0.0
  0
ARC
  5
B1
330
1F
100
AcDbEntity
  8
プラグ
100
AcDbCircle
 10
237.92
 20
207.87
 30
0.0
 40
0.5
100
AcDbArc
 50
180.0
 51
270.0
  0
LINE
  5
B2
330
1F
100
AcDbEntity
  8
プラグ
100
AcDbLine
 10
237.42
 20
207.87
 30
0.0
 11
237.42
 21
213.97
 31
0.0
  0
ARC
  5
B3
330
1F
100
AcDbEntity
  8
プラグ
100
AcDbCircle
 10
237.92
 20
213.97
 30
0.0
 40
0.5
100
AcDbArc
 50
90.0
 51
180.0
  0
LINE
  5
B4
330
1F
100
AcDbEntity
  8
プラグ
100
AcDbLine
 10
237.92
 20
214.47
 30
0.0
 11
244.02
 21
214.47
 31
0.0
  0
ARC
  5
B5
330
1F
100
AcDbEntity
  8
プラグ
100
AcDbCircle
 10
244.02
 20
213.97
 30
0.0
 40
0.5
100
AcDbArc
 50
0.0
 51
90.0
  0
LINE
  5
B6
330
1F
100
AcDbEntity
  8
プラグ
100
AcDbLine
 10
244.52
 20
213.97
 30
0.0
 11
244.52
 21
207.87
 31
0.0
  0
LINE
  5
B7
330
1F
100
AcDbEntity
  8
プラグ
100
AcDbLine
 10
244.52
 20
211.42
 30
0.0
 11
243.826571371
 21
211.42
 31
0.0
  0
LINE
  5
B8
330
1F
100
AcDbEntity
  8
プラグ
100
AcDbLine
 10
244.52
 20
210.42
 30
0.0
 11
243.826571371
 21
210.42
 31
0.0
  0
LINE
  5
B9
330
1F
100
AcDbEntity
  8
プラグ
100
AcDbLine
 10
238.113428629
 20
211.42
 30
0.0
 11
237.42
 21
211.42
 31
0.0
  0
LINE
  5
BA
330
1F
100
AcDbEntity
  8
プラグ
100
AcDbLine
 10
238.113428629
 20
210.42
 30
0.0
 11
237.42
 21
210.42
 31
0.0
  0
LINE
  5
BB
330
1F
100
AcDbEntity
  8
プラグ
100
AcDbLine
 10
241.47
 20
213.776571371
 30
0.0
 11
241.47
 21
214.47
 31
0.0
  0
LINE
  5
BC
330
1F
100
AcDbEntity
  8
プラグ
100
AcDbLine
 10
240.47
 20
213.776571371
 30
0.0
 11
240.47
 21
214.47
 31
0.0
  0
LINE
  5
BD
330
1F
100
AcDbEntity
  8
プラグ
100
AcDbLine
 10
241.47
 20
208.063428629
 30
0.0
 11
241.47
 21
207.37
 31
0.0
  0
LINE
  5
BE
330
1F
100
AcDbEntity
  8
プラグ
100
AcDbLine
 10
240.47
 20
208.063428629
 30
0.0
 11
240.47
 21
207.37
 31
0.0
  0
ARC
  5
BF
330
1F
100
AcDbEntity
  8
プラグ
100
AcDbCircle
 10
164.92
 20
212.37
 30
0.0
 40
0.5
100
AcDbArc
 50
180.0
 51
270.0
  0
LINE
  5
C0
330
1F
100
AcDbEntity
  8
プラグ
100
AcDbLine
 10
164.92
 20
211.87
 30
0.0
 11
171.02
 21
211.87
 31
0.0
  0
ARC
  5
C1
330
1F
100
AcDbEntity
  8
プラグ
100
AcDbCircle
 10
171.02
 20
212.37
 30
0.0
 40
0.5
100
AcDbArc
 50
270.0
 51
0.0
  0
LINE
  5
C2
330
1F
100
AcDbEntity
  8
プラグ
100
AcDbLine
 10
171.52
 20
212.37
 30
0.0
 11
171.52
 21
218.47
 31
0.0
  0
ARC
  5
C3
330
1F
100
AcDbEntity
  8
プラグ
100
AcDbCircle
 10
171.02
 20
218.47
 30
0.0
 40
0.5
100
AcDbArc
 50
0.0
 51
90.0
  0
LINE
  5
C4
330
1F
100
AcDbEntity
  8
プラグ
100
AcDbLine
 10
171.02
 20
218.97
 30
0.0
 11
164.92
 21
218.97
 31
0.0
  0
ARC
  5
C5
330
1F
100
AcDbEntity
  8
プラグ
100
AcDbCircle
 10
164.92
 20
218.47
 30
0.0
 40
0.5
100
AcDbArc
 50
90.0
 51
180.0
  0
LINE
  5
C6
330
1F
100
AcDbEntity
  8
プラグ
100
AcDbLine
 10
164.42
 20
218.47
 30
0.0
 11
164.42
 21
212.37
 31
0.0
  0
LINE
  5
C7
330
1F
100
AcDbEntity
  8
プラグ
100
AcDbLine
 10
164.42
 20
215.92
 30
0.0
 11
165.113428629
 21
215.92
 31
0.0
  0
LINE
  5
C8
330
1F
100
AcDbEntity
  8
プラグ
100
AcDbLine
 10
164.42
 20
214.92
 30
0.0
 11
165.113428629
 21
214.92
 31
0.0
  0
LINE
  5
C9
330
1F
100
AcDbEntity
  8
プラグ
100
AcDbLine
 10
170.826571371
 20
215.92
 30
0.0
 11
171.52
 21
215.92
 31
0.0
  0
LINE
  5
CA
330
1F
100
AcDbEntity
  8
プラグ
100
AcDbLine
 10
170.826571371
 20
214.92
 30
0.0
 11
171.52
 21
214.92
 31
0.0
  0
LINE
  5
CB
330
1F
100
AcDbEntity
  8
プラグ
100
AcDbLine
 10
167.47
 20
218.276571371
 30
0.0
 11
167.47
 21
218.97
 31
0.0
  0
LINE
  5
CC
330
1F
100
AcDbEntity
  8
プラグ
100
AcDbLine
 10
168.47
 20
218.276571371
 30
0.0
 11
168.47
 21
218.97
 31
0.0
  0
LINE
  5
CD
330
1F
100
AcDbEntity
  8
プラグ
100
AcDbLine
 10
167.47
 20
212.563428629
 30
0.0
 11
167.47
 21
211.87
 31
0.0
  0
LINE
  5
CE
330
1F
100
AcDbEntity
  8
プラグ
100
AcDbLine
 10
168.47
 20
212.563428629
 30
0.0
 11
168.47
 21
211.87
 31
0.0
  0
ARC
  5
CF
330
1F
100
AcDbEntity
  8
プラグ
100
AcDbCircle
 10
174.92
 20
216.87
 30
0.0
 40
0.5
100
AcDbArc
 50
180.0
 51
270.0
  0
LINE
  5
D0
330
1F
100
AcDbEntity
  8
プラグ
100
AcDbLine
 10
174.92
 20
216.37
 30
0.0
 11
181.02
 21
216.37
 31
0.0
  0
ARC
  5
D1
330
1F
100
AcDbEntity
  8
プラグ
100
AcDbCircle
 10
181.02
 20
216.87
 30
0.0
 40
0.5
100
AcDbArc
 50
270.0
 51
0.0
  0
LINE
  5
D2
330
1F
100
AcDbEntity
  8
プラグ
100
AcDbLine
 10
181.02
 20
223.47
 30
0.0
 11
174.92
 21
223.47
 31
0.0
  0
ARC
  5
D3
330
1F
100
AcDbEntity
  8
プラグ
100
AcDbCircle
 10
174.92
 20
222.97
 30
0.0
 40
0.5
100
AcDbArc
 50
90.0
 51
180.0
  0
LINE
  5
D4
330
1F
100
AcDbEntity
  8
プラグ
100
AcDbLine
 10
174.42
 20
222.97
 30
0.0
 11
174.42
 21
216.87
 31
0.0
  0
LINE
  5
D5
330
1F
100
AcDbEntity
  8
プラグ
100
AcDbLine
 10
174.42
 20
220.42
 30
0.0
 11
175.113428629
 21
220.42
 31
0.0
  0
LINE
  5
D6
330
1F
100
AcDbEntity
  8
プラグ
100
AcDbLine
 10
174.42
 20
219.42
 30
0.0
 11
175.113428629
 21
219.42
 31
0.0
  0
LINE
  5
D7
330
1F
100
AcDbEntity
  8
プラグ
100
AcDbLine
 10
180.826571371
 20
220.42
 30
0.0
 11
181.52
 21
220.42
 31
0.0
  0
LINE
  5
D8
330
1F
100
AcDbEntity
  8
プラグ
100
AcDbLine
 10
180.826571371
 20
219.42
 30
0.0
 11
181.52
 21
219.42
 31
0.0
  0
LINE
  5
D9
330
1F
100
AcDbEntity
  8
プラグ
100
AcDbLine
 10
177.47
 20
222.776571371
 30
0.0
 11
177.47
 21
223.47
 31
0.0
  0
LINE
  5
DA
330
1F
100
AcDbEntity
  8
プラグ
100
AcDbLine
 10
178.47
 20
222.776571371
 30
0.0
 11
178.47
 21
223.47
 31
0.0
  0
LINE
  5
DB
330
1F
100
AcDbEntity
  8
プラグ
100
AcDbLine
 10
177.47
 20
217.063428629
 30
0.0
 11
177.47
 21
216.37
 31
0.0
  0
LINE
  5
DC
330
1F
100
AcDbEntity
  8
プラグ
100
AcDbLine
 10
178.47
 20
217.063428629
 30
0.0
 11
178.47
 21
216.37
 31
0.0
  0
ARC
  5
DD
330
1F
100
AcDbEntity
  8
プラグ
100
AcDbCircle
 10
164.92
 20
203.37
 30
0.0
 40
0.5
100
AcDbArc
 50
180.0
 51
270.0
  0
LINE
  5
DE
330
1F
100
AcDbEntity
  8
プラグ
100
AcDbLine
 10
164.92
 20
202.87
 30
0.0
 11
171.02
 21
202.87
 31
0.0
  0
ARC
  5
DF
330
1F
100
AcDbEntity
  8
プラグ
100
AcDbCircle
 10
171.02
 20
203.37
 30
0.0
 40
0.5
100
AcDbArc
 50
270.0
 51
0.0
  0
LINE
  5
E0
330
1F
100
AcDbEntity
  8
プラグ
100
AcDbLine
 10
171.52
 20
203.37
 30
0.0
 11
171.52
 21
209.47
 31
0.0
  0
ARC
  5
E1
330
1F
100
AcDbEntity
  8
プラグ
100
AcDbCircle
 10
171.02
 20
209.47
 30
0.0
 40
0.5
100
AcDbArc
 50
0.0
 51
90.0
  0
LINE
  5
E2
330
1F
100
AcDbEntity
  8
プラグ
100
AcDbLine
 10
171.02
 20
209.97
 30
0.0
 11
164.92
 21
209.97
 31
0.0
  0
ARC
  5
E3
330
1F
100
AcDbEntity
  8
プラグ
100
AcDbCircle
 10
164.92
 20
209.47
 30
0.0
 40
0.5
100
AcDbArc
 50
90.0
 51
180.0
  0
LINE
  5
E4
330
1F
100
AcDbEntity
  8
プラグ
100
AcDbLine
 10
164.42
 20
209.47
 30
0.0
 11
164.42
 21
203.37
 31
0.0
  0
LINE
  5
E5
330
1F
100
AcDbEntity
  8
プラグ
100
AcDbLine
 10
164.42
 20
206.92
 30
0.0
 11
165.113428629
 21
206.92
 31
0.0
  0
LINE
  5
E6
330
1F
100
AcDbEntity
  8
プラグ
100
AcDbLine
 10
164.42
 20
205.92
 30
0.0
 11
165.113428629
 21
205.92
 31
0.0
  0
LINE
  5
E7
330
1F
100
AcDbEntity
  8
プラグ
100
AcDbLine
 10
170.826571371
 20
206.92
 30
0.0
 11
171.52
 21
206.92
 31
0.0
  0
LINE
  5
E8
330
1F
100
AcDbEntity
  8
プラグ
100
AcDbLine
 10
170.826571371
 20
205.92
 30
0.0
 11
171.52
 21
205.92
 31
0.0
  0
LINE
  5
E9
330
1F
100
AcDbEntity
  8
プラグ
100
AcDbLine
 10
167.47
 20
209.276571371
 30
0.0
 11
167.47
 21
209.97
 31
0.0
  0
LINE
  5
EA
330
1F
100
AcDbEntity
  8
プラグ
100
AcDbLine
 10
168.47
 20
209.276571371
 30
0.0
 11
168.47
 21
209.97
 31
0.0
  0
LINE
  5
EB
330
1F
100
AcDbEntity
  8
プラグ
100
AcDbLine
 10
167.47
 20
203.563428629
 30
0.0
 11
167.47
 21
202.87
 31
0.0
  0
LINE
  5
EC
330
1F
100
AcDbEntity
  8
プラグ
100
AcDbLine
 10
168.47
 20
203.563428629
 30
0.0
 11
168.47
 21
202.87
 31
0.0
  0
ARC
  5
ED
330
1F
100
AcDbEntity
  8
プラグ
100
AcDbCircle
 10
174.92
 20
207.87
 30
0.0
 40
0.5
100
AcDbArc
 50
180.0
 51
270.0
  0
LINE
  5
EE
330
1F
100
AcDbEntity
  8
プラグ
100
AcDbLine
 10
174.92
 20
207.37
 30
0.0
 11
181.02
 21
207.37
 31
0.0
  0
ARC
  5
EF
330
1F
100
AcDbEntity
  8
プラグ
100
AcDbCircle
 10
181.02
 20
207.87
 30
0.0
 40
0.5
100
AcDbArc
 50
270.0
 51
0.0
  0
LINE
  5
F0
330
1F
100
AcDbEntity
  8
プラグ
100
AcDbLine
 10
181.52
 20
207.87
 30
0.0
 11
181.52
 21
213.97
 31
0.0
  0
ARC
  5
F1
330
1F
100
AcDbEntity
  8
プラグ
100
AcDbCircle
 10
181.02
 20
213.97
 30
0.0
 40
0.5
100
AcDbArc
 50
0.0
 51
90.0
  0
LINE
  5
F2
330
1F
100
AcDbEntity
  8
プラグ
100
AcDbLine
 10
181.02
 20
214.47
 30
0.0
 11
174.92
 21
214.47
 31
0.0
  0
ARC
  5
F3
330
1F
100
AcDbEntity
  8
プラグ
100
AcDbCircle
 10
174.92
 20
213.97
 30
0.0
 40
0.5
100
AcDbArc
 50
90.0
 51
180.0
  0
LINE
  5
F4
330
1F
100
AcDbEntity
  8
プラグ
100
AcDbLine
 10
174.42
 20
213.97
 30
0.0
 11
174.42
 21
207.87
 31
0.0
  0
LINE
  5
F5
330
1F
100
AcDbEntity
  8
プラグ
100
AcDbLine
 10
174.42
 20
211.42
 30
0.0
 11
175.113428629
 21
211.42
 31
0.0
  0
LINE
  5
F6
330
1F
100
AcDbEntity
  8
プラグ
100
AcDbLine
 10
174.42
 20
210.42
 30
0.0
 11
175.113428629
 21
210.42
 31
0.0
  0
LINE
  5
F7
330
1F
100
AcDbEntity
  8
プラグ
100
AcDbLine
 10
180.826571371
 20
211.42
 30
0.0
 11
181.52
 21
211.42
 31
0.0
  0
LINE
  5
F8
330
1F
100
AcDbEntity
  8
プラグ
100
AcDbLine
 10
180.826571371
 20
210.42
 30
0.0
 11
181.52
 21
210.42
 31
0.0
  0
LINE
  5
F9
330
1F
100
AcDbEntity
  8
プラグ
100
AcDbLine
 10
177.47
 20
213.776571371
 30
0.0
 11
177.47
 21
214.47
 31
0.0
  0
LINE
  5
FA
330
1F
100
AcDbEntity
  8
プラグ
100
AcDbLine
 10
178.47
 20
213.776571371
 30
0.0
 11
178.47
 21
214.47
 31
0.0
  0
LINE
  5
FB
330
1F
100
AcDbEntity
  8
プラグ
100
AcDbLine
 10
177.47
 20
208.063428629
 30
0.0
 11
177.47
 21
207.37
 31
0.0
  0
LINE
  5
FC
330
1F
100
AcDbEntity
  8
プラグ
100
AcDbLine
 10
178.47
 20
208.063428629
 30
0.0
 11
178.47
 21
207.37
 31
0.0
  0
LINE
  5
FD
330
1F
100
AcDbEntity
  8
プラグ
100
AcDbLine
 10
227.47
 20
107.072250994
 30
0.0
 11
227.07
 21
111.572250994
 31
0.0
  0
LINE
  5
FE
330
1F
100
AcDbEntity
  8
プラグ
100
AcDbLine
 10
227.07
 20
111.572250994
 30
0.0
 11
209.47
 21
111.572250994
 31
0.0
  0
LINE
  5
FF
330
1F
100
AcDbEntity
  8
プラグ
100
AcDbLine
 10
191.47
 20
107.072250994
 30
0.0
 11
191.87
 21
111.572250994
 31
0.0
  0
LINE
  5
100
330
1F
100
AcDbEntity
  8
プラグ
100
AcDbLine
 10
191.87
 20
111.572250994
 30
0.0
 11
209.47
 21
111.572250994
 31
0.0
  0
LINE
  5
101
330
1F
100
AcDbEntity
  8
プラグ
100
AcDbLine
 10
227.47
 20
107.072250994
 30
0.0
 11
256.47
 21
107.072250994
 31
0.0
  0
LINE
  5
102
330
1F
100
AcDbEntity
  8
プラグ
100
AcDbLine
 10
162.47
 20
107.072250994
 30
0.0
 11
191.47
 21
107.072250994
 31
0.0
  0
LINE
  5
103
330
1F
100
AcDbEntity
  8
プラグ
100
AcDbLine
 10
237.97
 20
109.072250994
 30
0.0
 11
235.72
 21
109.072250994
 31
0.0
  0
LINE
  5
104
330
1F
100
AcDbEntity
  8
プラグ
100
AcDbLine
 10
237.97
 20
109.072250994
 30
0.0
 11
240.22
 21
109.072250994
 31
0.0
  0
ARC
  5
105
330
1F
100
AcDbEntity
  8
プラグ
100
AcDbCircle
 10
255.374510944
 20
131.372250994
 30
0.0
 40
1.000000000000009
100
AcDbArc
 50
0.2251296059996115
 51
89.99999999999962
  0
LINE
  5
106
330
1F
100
AcDbEntity
  8
プラグ
100
AcDbLine
 10
183.22
 20
111.572250994
 30
0.0
 11
180.97
 21
111.572250994
 31
0.0
  0
LINE
  5
107
330
1F
100
AcDbEntity
  8
プラグ
100
AcDbLine
 10
178.72
 20
111.572250994
 30
0.0
 11
180.97
 21
111.572250994
 31
0.0
  0
POLYLINE
  5
108
330
1F
100
AcDbEntity
  8
プラグ
100
AcDb2dPolyline
 66
     1
 10
0.0
 20
0.0
 30
0.0
  0
VERTEX
  5
109
330
108
100
AcDbEntity
  8
0
100
AcDbVertex
100
AcDb2dVertex
 10
240.22
 20
109.072250994
 30
0.0
  0
VERTEX
  5
10A
330
108
100
AcDbEntity
  8
0
100
AcDbVertex
100
AcDb2dVertex
 10
240.22
 20
111.572250994
 30
0.0
  0
VERTEX
  5
10B
330
108
100
AcDbEntity
  8
0
100
AcDbVertex
100
AcDb2dVertex
 10
237.97
 20
111.572250994
 30
0.0
  0
SEQEND
  5
10C
330
108
100
AcDbEntity
  8
プラグ
  0
LINE
  5
10D
330
1F
100
AcDbEntity
  8
プラグ
100
AcDbLine
 10
235.72
 20
111.572250994
 30
0.0
 11
237.97
 21
111.572250994
 31
0.0
  0
LINE
  5
10E
330
1F
100
AcDbEntity
  8
プラグ
100
AcDbLine
 10
235.72
 20
109.072250994
 30
0.0
 11
235.72
 21
111.572250994
 31
0.0
  0
LINE
  5
10F
330
1F
100
AcDbEntity
  8
プラグ
100
AcDbLine
 10
183.22
 20
109.072250994
 30
0.0
 11
183.22
 21
111.572250994
 31
0.0
  0
LINE
  5
110
330
1F
100
AcDbEntity
  8
プラグ
100
AcDbLine
 10
180.97
 20
109.072250994
 30
0.0
 11
183.22
 21
109.072250994
 31
0.0
  0
LINE
  5
111
330
1F
100
AcDbEntity
  8
プラグ
100
AcDbLine
 10
178.72
 20
109.072250994
 30
0.0
 11
178.72
 21
111.572250994
 31
0.0
  0
LINE
  5
112
330
1F
100
AcDbEntity
  8
プラグ
100
AcDbLine
 10
180.97
 20
109.072250994
 30
0.0
 11
178.72
 21
109.072250994
 31
0.0
  0
LINE
  5
113
330
1F
100
AcDbEntity
  8
プラグ
100
AcDbLine
 10
256.374503225
 20
131.376180237
 30
0.0
 11
256.47
 21
107.072250994
 31
0.0
  0
ARC
  5
114
330
1F
100
AcDbEntity
  8
プラグ
100
AcDbCircle
 10
163.578259193
 20
131.372250994
 30
0.0
 40
1.0
100
AcDbArc
 50
90.0
 51
179.774870394
  0
LINE
  5
115
330
1F
100
AcDbEntity
  8
プラグ
100
AcDbLine
 10
162.565496775
 20
131.376180237
 30
0.0
 11
162.47
 21
107.072250994
 31
0.0
  0
LINE
  5
116
330
1F
100
AcDbEntity
  8
プラグ
100
AcDbLine
 10
234.97
 20
47.92000000000002
 30
0.0
 11
233.95
 21
47.92000000000002
 31
0.0
  0
LINE
  5
117
330
1F
100
AcDbEntity
  8
プラグ
100
AcDbLine
 10
184.99
 20
72.92000000000002
 30
0.0
 11
183.97
 21
72.92000000000002
 31
0.0
  0
LINE
  5
118
330
1F
100
AcDbEntity
  8
プラグ
100
AcDbLine
 10
183.97
 20
47.92000000000002
 30
0.0
 11
184.99
 21
47.92000000000002
 31
0.0
  0
LINE
  5
119
330
1F
100
AcDbEntity
  8
プラグ
100
AcDbLine
 10
209.47
 20
71.42000000000002
 30
0.0
 11
183.97
 21
71.42000000000002
 31
0.0
  0
LINE
  5
11A
330
1F
100
AcDbEntity
  8
プラグ
100
AcDbLine
 10
163.47
 20
71.42000000000002
 30
0.0
 11
163.47
 21
60.42000000000002
 31
0.0
  0
LINE
  5
11B
330
1F
100
AcDbEntity
  8
プラグ
100
AcDbLine
 10
163.47
 20
71.42000000000002
 30
0.0
 11
183.97
 21
71.42000000000002
 31
0.0
  0
LINE
  5
11C
330
1F
100
AcDbEntity
  8
プラグ
100
AcDbLine
 10
209.47
 20
49.42000000000002
 30
0.0
 11
183.97
 21
49.42000000000002
 31
0.0
  0
LINE
  5
11D
330
1F
100
AcDbEntity
  8
プラグ
100
AcDbLine
 10
163.47
 20
49.42000000000002
 30
0.0
 11
183.97
 21
49.42000000000002
 31
0.0
  0
LINE
  5
11E
330
1F
100
AcDbEntity
  8
プラグ
100
AcDbLine
 10
163.47
 20
49.42000000000002
 30
0.0
 11
163.47
 21
60.42000000000002
 31
0.0
  0
LINE
  5
11F
330
1F
100
AcDbEntity
  8
プラグ
100
AcDbLine
 10
211.47
 20
49.42000000000002
 30
0.0
 11
211.47
 21
49.72000000000003
 31
0.0
  0
LINE
  5
120
330
1F
100
AcDbEntity
  8
プラグ
100
AcDbLine
 10
211.47
 20
49.72000000000003
 30
0.0
 11
207.47
 21
49.72000000000003
 31
0.0
  0
LINE
  5
121
330
1F
100
AcDbEntity
  8
プラグ
100
AcDbLine
 10
207.47
 20
49.72000000000003
 30
0.0
 11
207.47
 21
49.42000000000002
 31
0.0
  0
LINE
  5
122
330
1F
100
AcDbEntity
  8
プラグ
100
AcDbLine
 10
191.87
 20
71.42000000000002
 30
0.0
 11
191.87
 21
72.92000000000002
 31
0.0
  0
LINE
  5
123
330
1F
100
AcDbEntity
  8
プラグ
100
AcDbLine
 10
191.47
 20
71.42000000000002
 30
0.0
 11
191.47
 21
72.92000000000002
 31
0.0
  0
LINE
  5
124
330
1F
100
AcDbEntity
  8
プラグ
100
AcDbLine
 10
191.47
 20
49.42000000000002
 30
0.0
 11
191.47
 21
47.92000000000002
 31
0.0
  0
LINE
  5
125
330
1F
100
AcDbEntity
  8
プラグ
100
AcDbLine
 10
191.87
 20
49.42000000000002
 30
0.0
 11
191.87
 21
47.92000000000002
 31
0.0
  0
LINE
  5
126
330
1F
100
AcDbEntity
  8
プラグ
100
AcDbLine
 10
227.07
 20
71.42000000000002
 30
0.0
 11
227.07
 21
72.92000000000002
 31
0.0
  0
LINE
  5
127
330
1F
100
AcDbEntity
  8
プラグ
100
AcDbLine
 10
227.47
 20
71.42000000000002
 30
0.0
 11
227.47
 21
72.92000000000002
 31
0.0
  0
LINE
  5
128
330
1F
100
AcDbEntity
  8
プラグ
100
AcDbLine
 10
227.47
 20
49.42000000000002
 30
0.0
 11
227.47
 21
47.92000000000002
 31
0.0
  0
LINE
  5
129
330
1F
100
AcDbEntity
  8
プラグ
100
AcDbLine
 10
227.07
 20
49.42000000000002
 30
0.0
 11
227.07
 21
47.92000000000002
 31
0.0
  0
LINE
  5
12A
330
1F
100
AcDbEntity
  8
プラグ
100
AcDbLine
 10
209.47
 20
71.42000000000002
 30
0.0
 11
255.47
 21
71.42000000000002
 31
0.0
  0
LINE
  5
12B
330
1F
100
AcDbEntity
  8
プラグ
100
AcDbLine
 10
233.95
 20
72.92000000000002
 30
0.0
 11
235.7
 21
72.92000000000002
 31
0.0
  0
LINE
  5
12C
330
1F
100
AcDbEntity
  8
プラグ
100
AcDbLine
 10
209.47
 20
49.42000000000002
 30
0.0
 11
255.47
 21
49.42000000000002
 31
0.0
  0
LINE
  5
12D
330
1F
100
AcDbEntity
  8
プラグ
100
AcDbLine
 10
256.47
 20
66.17000000000002
 30
0.0
 11
255.47
 21
66.17000000000002
 31
0.0
  0
LINE
  5
12E
330
1F
100
AcDbEntity
  8
プラグ
100
AcDbLine
 10
256.47
 20
54.67000000000002
 30
0.0
 11
255.47
 21
54.67000000000002
 31
0.0
  0
LINE
  5
12F
330
1F
100
AcDbEntity
  8
プラグ
100
AcDbLine
 10
240.22
 20
71.92000000000002
 30
0.0
 11
235.72
 21
71.92000000000002
 31
0.0
  0
LINE
  5
130
330
1F
100
AcDbEntity
  8
プラグ
100
AcDbLine
 10
235.72
 20
71.92000000000002
 30
0.0
 11
235.72
 21
71.42000000000002
 31
0.0
  0
LINE
  5
131
330
1F
100
AcDbEntity
  8
プラグ
100
AcDbLine
 10
240.22
 20
71.92000000000002
 30
0.0
 11
240.22
 21
71.42000000000002
 31
0.0
  0
LINE
  5
132
330
1F
100
AcDbEntity
  8
プラグ
100
AcDbLine
 10
235.45
 20
49.42000000000002
 30
0.0
 11
241.69
 21
49.42000000000002
 31
0.0
  0
LINE
  5
133
330
1F
100
AcDbEntity
  8
プラグ
100
AcDbLine
 10
240.22
 20
48.92000000000002
 30
0.0
 11
235.72
 21
48.92000000000002
 31
0.0
  0
LINE
  5
134
330
1F
100
AcDbEntity
  8
プラグ
100
AcDbLine
 10
235.72
 20
48.92000000000002
 30
0.0
 11
235.72
 21
49.42000000000002
 31
0.0
  0
LINE
  5
135
330
1F
100
AcDbEntity
  8
プラグ
100
AcDbLine
 10
240.22
 20
48.92000000000002
 30
0.0
 11
240.22
 21
49.42000000000002
 31
0.0
  0
LINE
  5
136
330
1F
100
AcDbEntity
  8
プラグ
100
AcDbLine
 10
183.88
 20
71.42000000000002
 30
0.0
 11
176.95
 21
71.42000000000002
 31
0.0
  0
LINE
  5
137
330
1F
100
AcDbEntity
  8
プラグ
100
AcDbLine
 10
178.72
 20
71.92000000000002
 30
0.0
 11
183.22
 21
71.92000000000002
 31
0.0
  0
LINE
  5
138
330
1F
100
AcDbEntity
  8
プラグ
100
AcDbLine
 10
183.22
 20
71.92000000000002
 30
0.0
 11
183.22
 21
71.42000000000002
 31
0.0
  0
LINE
  5
139
330
1F
100
AcDbEntity
  8
プラグ
100
AcDbLine
 10
178.72
 20
71.92000000000002
 30
0.0
 11
178.72
 21
71.42000000000002
 31
0.0
  0
LINE
  5
13A
330
1F
100
AcDbEntity
  8
プラグ
100
AcDbLine
 10
178.72
 20
48.92000000000002
 30
0.0
 11
183.22
 21
48.92000000000002
 31
0.0
  0
LINE
  5
13B
330
1F
100
AcDbEntity
  8
プラグ
100
AcDbLine
 10
183.22
 20
48.92000000000002
 30
0.0
 11
183.22
 21
49.42000000000002
 31
0.0
  0
LINE
  5
13C
330
1F
100
AcDbEntity
  8
プラグ
100
AcDbLine
 10
178.72
 20
48.92000000000002
 30
0.0
 11
178.72
 21
49.42000000000002
 31
0.0
  0
LINE
  5
13D
330
1F
100
AcDbEntity
  8
プラグ
100
AcDbLine
 10
209.47
 20
52.51128784700001
 30
0.0
 11
209.47
 21
67.511287847
 31
0.0
  0
LINE
  5
13E
330
1F
100
AcDbEntity
  8
プラグ
100
AcDbLine
 10
162.97
 20
72.92000000000002
 30
0.0
 11
234.97
 21
72.92000000000002
 31
0.0
  0
ARC
  5
13F
330
1F
100
AcDbEntity
  8
プラグ
100
AcDbCircle
 10
162.97
 20
72.42000000000002
 30
0.0
 40
0.5
100
AcDbArc
 50
90.0
 51
180.0
  0
LINE
  5
140
330
1F
100
AcDbEntity
  8
プラグ
100
AcDbLine
 10
162.47
 20
72.42000000000002
 30
0.0
 11
162.47
 21
48.42000000000002
 31
0.0
  0
LINE
  5
141
330
1F
100
AcDbEntity
  8
プラグ
100
AcDbLine
 10
235.47
 20
47.92000000000002
 30
0.0
 11
162.97
 21
47.92000000000002
 31
0.0
  0
ARC
  5
142
330
1F
100
AcDbEntity
  8
プラグ
100
AcDbCircle
 10
162.97
 20
48.42000000000002
 30
0.0
 40
0.5
100
AcDbArc
 50
180.0
 51
270.0
  0
LINE
  5
143
330
1F
100
AcDbEntity
  8
プラグ
100
AcDbLine
 10
255.97
 20
47.92000000000002
 30
0.0
 11
235.47
 21
47.92000000000002
 31
0.0
  0
ARC
  5
144
330
1F
100
AcDbEntity
  8
プラグ
100
AcDbCircle
 10
255.97
 20
48.42000000000002
 30
0.0
 40
0.5
100
AcDbArc
 50
270.0
 51
0.0
  0
LINE
  5
145
330
1F
100
AcDbEntity
  8
プラグ
100
AcDbLine
 10
235.7
 20
72.92000000000002
 30
0.0
 11
255.97
 21
72.92000000000002
 31
0.0
  0
ARC
  5
146
330
1F
100
AcDbEntity
  8
プラグ
100
AcDbCircle
 10
255.97
 20
72.42000000000002
 30
0.0
 40
0.5
100
AcDbArc
 50
0.0
 51
90.0
  0
LINE
  5
147
330
1F
100
AcDbEntity
  8
プラグ
100
AcDbLine
 10
233.95
 20
200.67
 30
0.0
 11
234.97
 21
200.67
 31
0.0
  0
LINE
  5
148
330
1F
100
AcDbEntity
  8
プラグ
100
AcDbLine
 10
234.97
 20
225.67
 30
0.0
 11
233.95
 21
225.67
 31
0.0
  0
LINE
  5
149
330
1F
100
AcDbEntity
  8
プラグ
100
AcDbLine
 10
246.47
 20
210.07
 30
0.0
 11
256.47
 21
210.07
 31
0.0
  0
LINE
  5
14A
330
1F
100
AcDbEntity
  8
プラグ
100
AcDbLine
 10
246.47
 20
219.07
 30
0.0
 11
256.47
 21
219.07
 31
0.0
  0
LINE
  5
14B
330
1F
100
AcDbEntity
  8
プラグ
100
AcDbLine
 10
246.47
 20
211.77
 30
0.0
 11
256.47
 21
211.77
 31
0.0
  0
LINE
  5
14C
330
1F
100
AcDbEntity
  8
プラグ
100
AcDbLine
 10
234.77
 20
202.87
 30
0.0
 11
209.47
 21
202.87
 31
0.0
  0
LINE
  5
14D
330
1F
100
AcDbEntity
  8
プラグ
100
AcDbLine
 10
245.47
 20
208.22
 30
0.0
 11
245.47
 21
213.62
 31
0.0
  0
LINE
  5
14E
330
1F
100
AcDbEntity
  8
プラグ
100
AcDbLine
 10
255.47
 20
212.72
 30
0.0
 11
255.47
 21
218.12
 31
0.0
  0
LINE
  5
14F
330
1F
100
AcDbEntity
  8
プラグ
100
AcDbLine
 10
255.47
 20
203.72
 30
0.0
 11
255.47
 21
209.12
 31
0.0
  0
LINE
  5
150
330
1F
100
AcDbEntity
  8
プラグ
100
AcDbLine
 10
246.47
 20
202.77
 30
0.0
 11
246.47
 21
210.07
 31
0.0
  0
TEXT
  5
151
330
1F
100
AcDbEntity
  8
プラグ
100
AcDbText
 10
252.0695666517859
 20
201.04
 30
0.0
 40
2.000005435412801
  1
7
 50
90.0
  7
MS_PGOTHIC
 11
252.478505263158
 21
201.04
 31
0.0
100
AcDbText
 73
     1
  0
TEXT
  5
152
330
1F
100
AcDbEntity
  8
プラグ
100
AcDbText
 10
252.0202192602146
 20
223.97
 30
0.0
 40
1.999985748136104
  1
8
 50
90.0
  7
MS_PGOTHIC
 11
252.4291538461538
 21
223.97
 31
0.0
100
AcDbText
 73
     1
  0
LINE
  5
153
330
1F
100
AcDbEntity
  8
プラグ
100
AcDbLine
 10
245.47
 20
217.22
 30
0.0
 11
245.47
 21
222.62
 31
0.0
  0
TEXT
  5
154
330
1F
100
AcDbEntity
  8
プラグ
100
AcDbText
 10
243.8493070341007
 20
223.94
 30
0.0
 40
1.999977824969687
  1
6
 50
90.0
  7
MS_PGOTHIC
 11
244.25824
 21
223.94
 31
0.0
100
AcDbText
 73
     1
  0
TEXT
  5
155
330
1F
100
AcDbEntity
  8
プラグ
100
AcDbText
 10
243.8497667011387
 20
201.03
 30
0.0
 40
2.000008222352655
  1
5
 50
90.0
  7
MS_PGOTHIC
 11
244.2587058823529
 21
201.03
 31
0.0
100
AcDbText
 73
     1
  0
ARC
  5
156
330
1F
100
AcDbEntity
  8
プラグ
100
AcDbCircle
 10
255.97
 20
225.17
 30
0.0
 40
0.5
100
AcDbArc
 50
0.0
 51
90.0
  0
LINE
  5
157
330
1F
100
AcDbEntity
  8
プラグ
100
AcDbLine
 10
256.47
 20
201.17
 30
0.0
 11
256.47
 21
225.17
 31
0.0
  0
ARC
  5
158
330
1F
100
AcDbEntity
  8
プラグ
100
AcDbCircle
 10
255.97
 20
201.17
 30
0.0
 40
0.5
100
AcDbArc
 50
270.0
 51
0.0
  0
LINE
  5
159
330
1F
100
AcDbEntity
  8
プラグ
100
AcDbLine
 10
235.37
 20
221.17
 30
0.0
 11
235.37
 21
220.17
 31
0.0
  0
LINE
  5
15A
330
1F
100
AcDbEntity
  8
プラグ
100
AcDbLine
 10
235.37
 20
218.67
 30
0.0
 11
235.37
 21
217.67
 31
0.0
  0
LINE
  5
15B
330
1F
100
AcDbEntity
  8
プラグ
100
AcDbLine
 10
235.37
 20
216.17
 30
0.0
 11
235.37
 21
215.17
 31
0.0
  0
LINE
  5
15C
330
1F
100
AcDbEntity
  8
プラグ
100
AcDbLine
 10
235.37
 20
213.67
 30
0.0
 11
235.37
 21
212.67
 31
0.0
  0
LINE
  5
15D
330
1F
100
AcDbEntity
  8
プラグ
100
AcDbLine
 10
235.37
 20
211.17
 30
0.0
 11
235.37
 21
210.17
 31
0.0
  0
LINE
  5
15E
330
1F
100
AcDbEntity
  8
プラグ
100
AcDbLine
 10
235.37
 20
208.67
 30
0.0
 11
235.37
 21
207.67
 31
0.0
  0
LINE
  5
15F
330
1F
100
AcDbEntity
  8
プラグ
100
AcDbLine
 10
235.37
 20
206.17
 30
0.0
 11
235.37
 21
205.17
 31
0.0
  0
LINE
  5
160
330
1F
100
AcDbEntity
  8
プラグ
100
AcDbLine
 10
234.77
 20
222.67
 30
0.0
 11
235.37
 21
222.67
 31
0.0
  0
LINE
  5
161
330
1F
100
AcDbEntity
  8
プラグ
100
AcDbLine
 10
234.77
 20
221.17
 30
0.0
 11
235.37
 21
221.17
 31
0.0
  0
LINE
  5
162
330
1F
100
AcDbEntity
  8
プラグ
100
AcDbLine
 10
234.77
 20
220.17
 30
0.0
 11
235.37
 21
220.17
 31
0.0
  0
LINE
  5
163
330
1F
100
AcDbEntity
  8
プラグ
100
AcDbLine
 10
234.77
 20
218.67
 30
0.0
 11
235.37
 21
218.67
 31
0.0
  0
LINE
  5
164
330
1F
100
AcDbEntity
  8
プラグ
100
AcDbLine
 10
234.77
 20
217.67
 30
0.0
 11
235.37
 21
217.67
 31
0.0
  0
LINE
  5
165
330
1F
100
AcDbEntity
  8
プラグ
100
AcDbLine
 10
234.77
 20
216.17
 30
0.0
 11
235.37
 21
216.17
 31
0.0
  0
LINE
  5
166
330
1F
100
AcDbEntity
  8
プラグ
100
AcDbLine
 10
234.77
 20
215.17
 30
0.0
 11
235.37
 21
215.17
 31
0.0
  0
LINE
  5
167
330
1F
100
AcDbEntity
  8
プラグ
100
AcDbLine
 10
234.77
 20
213.67
 30
0.0
 11
235.37
 21
213.67
 31
0.0
  0
LINE
  5
168
330
1F
100
AcDbEntity
  8
プラグ
100
AcDbLine
 10
234.77
 20
212.67
 30
0.0
 11
235.37
 21
212.67
 31
0.0
  0
LINE
  5
169
330
1F
100
AcDbEntity
  8
プラグ
100
AcDbLine
 10
234.77
 20
211.17
 30
0.0
 11
235.37
 21
211.17
 31
0.0
  0
LINE
  5
16A
330
1F
100
AcDbEntity
  8
プラグ
100
AcDbLine
 10
234.77
 20
210.17
 30
0.0
 11
235.37
 21
210.17
 31
0.0
  0
LINE
  5
16B
330
1F
100
AcDbEntity
  8
プラグ
100
AcDbLine
 10
234.77
 20
208.67
 30
0.0
 11
235.37
 21
208.67
 31
0.0
  0
LINE
  5
16C
330
1F
100
AcDbEntity
  8
プラグ
100
AcDbLine
 10
234.77
 20
207.67
 30
0.0
 11
235.37
 21
207.67
 31
0.0
  0
LINE
  5
16D
330
1F
100
AcDbEntity
  8
プラグ
100
AcDbLine
 10
234.77
 20
206.17
 30
0.0
 11
235.37
 21
206.17
 31
0.0
  0
LINE
  5
16E
330
1F
100
AcDbEntity
  8
プラグ
100
AcDbLine
 10
234.77
 20
205.17
 30
0.0
 11
235.37
 21
205.17
 31
0.0
  0
LINE
  5
16F
330
1F
100
AcDbEntity
  8
プラグ
100
AcDbLine
 10
234.77
 20
203.67
 30
0.0
 11
235.37
 21
203.67
 31
0.0
  0
LINE
  5
170
330
1F
100
AcDbEntity
  8
プラグ
100
AcDbLine
 10
235.37
 20
203.67
 30
0.0
 11
235.37
 21
202.77
 31
0.0
  0
ARC
  5
171
330
1F
100
AcDbEntity
  8
プラグ
100
AcDbCircle
 10
237.27
 20
224.67
 30
0.0
 40
1.0
100
AcDbArc
 50
0.0
 51
90.0
  0
LINE
  5
172
330
1F
100
AcDbEntity
  8
プラグ
100
AcDbLine
 10
237.27
 20
225.67
 30
0.0
 11
255.97
 21
225.67
 31
0.0
  0
ARC
  5
173
330
1F
100
AcDbEntity
  8
プラグ
100
AcDbCircle
 10
237.37
 20
201.67
 30
0.0
 40
1.0
100
AcDbArc
 50
270.0
 51
0.0
  0
LINE
  5
174
330
1F
100
AcDbEntity
  8
プラグ
100
AcDbLine
 10
238.37
 20
202.77
 30
0.0
 11
238.37
 21
201.67
 31
0.0
  0
LINE
  5
175
330
1F
100
AcDbEntity
  8
プラグ
100
AcDbLine
 10
238.27
 20
214.57
 30
0.0
 11
238.27
 21
216.27
 31
0.0
  0
LINE
  5
176
330
1F
100
AcDbEntity
  8
プラグ
100
AcDbLine
 10
240.27
 20
214.57
 30
0.0
 11
240.27
 21
216.27
 31
0.0
  0
LINE
  5
177
330
1F
100
AcDbEntity
  8
プラグ
100
AcDbLine
 10
254.47
 20
200.67
 30
0.0
 11
254.47
 21
202.77
 31
0.0
  0
LINE
  5
178
330
1F
100
AcDbEntity
  8
プラグ
100
AcDbLine
 10
235.37
 20
223.67
 30
0.0
 11
235.37
 21
222.67
 31
0.0
  0
LINE
  5
179
330
1F
100
AcDbEntity
  8
プラグ
100
AcDbLine
 10
254.47
 20
225.67
 30
0.0
 11
254.47
 21
223.67
 31
0.0
  0
LINE
  5
17A
330
1F
100
AcDbEntity
  8
プラグ
100
AcDbLine
 10
246.47
 20
210.02
 30
0.0
 11
246.47
 21
223.67
 31
0.0
  0
LINE
  5
17B
330
1F
100
AcDbEntity
  8
プラグ
100
AcDbLine
 10
238.27
 20
223.67
 30
0.0
 11
238.27
 21
224.67
 31
0.0
  0
LINE
  5
17C
330
1F
100
AcDbEntity
  8
プラグ
100
AcDbLine
 10
233.27
 20
223.47
 30
0.0
 11
234.77
 21
221.97
 31
0.0
  0
LINE
  5
17D
330
1F
100
AcDbEntity
  8
プラグ
100
AcDbLine
 10
234.77
 20
202.87
 30
0.0
 11
234.77
 21
221.97
 31
0.0
  0
LINE
  5
17E
330
1F
100
AcDbEntity
  8
プラグ
100
AcDbLine
 10
234.77
 20
222.67
 30
0.0
 11
234.77
 21
202.87
 31
0.0
  0
LINE
  5
17F
330
1F
100
AcDbEntity
  8
プラグ
100
AcDbLine
 10
235.37
 20
222.67
 30
0.0
 11
235.37
 21
221.17
 31
0.0
  0
LINE
  5
180
330
1F
100
AcDbEntity
  8
プラグ
100
AcDbLine
 10
235.37
 20
220.17
 30
0.0
 11
235.37
 21
218.67
 31
0.0
  0
LINE
  5
181
330
1F
100
AcDbEntity
  8
プラグ
100
AcDbLine
 10
235.37
 20
217.67
 30
0.0
 11
235.37
 21
216.17
 31
0.0
  0
LINE
  5
182
330
1F
100
AcDbEntity
  8
プラグ
100
AcDbLine
 10
235.37
 20
215.17
 30
0.0
 11
235.37
 21
213.67
 31
0.0
  0
LINE
  5
183
330
1F
100
AcDbEntity
  8
プラグ
100
AcDbLine
 10
235.37
 20
212.67
 30
0.0
 11
235.37
 21
211.17
 31
0.0
  0
LINE
  5
184
330
1F
100
AcDbEntity
  8
プラグ
100
AcDbLine
 10
235.37
 20
210.17
 30
0.0
 11
235.37
 21
208.67
 31
0.0
  0
LINE
  5
185
330
1F
100
AcDbEntity
  8
プラグ
100
AcDbLine
 10
235.37
 20
207.67
 30
0.0
 11
235.37
 21
206.17
 31
0.0
  0
LINE
  5
186
330
1F
100
AcDbEntity
  8
プラグ
100
AcDbLine
 10
235.37
 20
205.17
 30
0.0
 11
235.37
 21
203.67
 31
0.0
  0
LINE
  5
187
330
1F
100
AcDbEntity
  8
プラグ
100
AcDbLine
 10
172.47
 20
210.07
 30
0.0
 11
162.47
 21
210.07
 31
0.0
  0
LINE
  5
188
330
1F
100
AcDbEntity
  8
プラグ
100
AcDbLine
 10
172.47
 20
219.07
 30
0.0
 11
162.47
 21
219.07
 31
0.0
  0
LINE
  5
189
330
1F
100
AcDbEntity
  8
プラグ
100
AcDbLine
 10
172.47
 20
211.77
 30
0.0
 11
162.47
 21
211.77
 31
0.0
  0
LINE
  5
18A
330
1F
100
AcDbEntity
  8
プラグ
100
AcDbLine
 10
173.47
 20
208.22
 30
0.0
 11
173.47
 21
213.62
 31
0.0
  0
LINE
  5
18B
330
1F
100
AcDbEntity
  8
プラグ
100
AcDbLine
 10
163.47
 20
212.72
 30
0.0
 11
163.47
 21
218.12
 31
0.0
  0
LINE
  5
18C
330
1F
100
AcDbEntity
  8
プラグ
100
AcDbLine
 10
163.47
 20
203.72
 30
0.0
 11
163.47
 21
209.12
 31
0.0
  0
LINE
  5
18D
330
1F
100
AcDbEntity
  8
プラグ
100
AcDbLine
 10
172.47
 20
202.77
 30
0.0
 11
172.47
 21
210.07
 31
0.0
  0
LINE
  5
18E
330
1F
100
AcDbEntity
  8
プラグ
100
AcDbLine
 10
173.47
 20
217.22
 30
0.0
 11
173.47
 21
222.62
 31
0.0
  0
ARC
  5
18F
330
1F
100
AcDbEntity
  8
プラグ
100
AcDbCircle
 10
162.97
 20
225.17
 30
0.0
 40
0.5
100
AcDbArc
 50
90.0
 51
180.0
  0
LINE
  5
190
330
1F
100
AcDbEntity
  8
プラグ
100
AcDbLine
 10
162.47
 20
201.17
 30
0.0
 11
162.47
 21
225.17
 31
0.0
  0
ARC
  5
191
330
1F
100
AcDbEntity
  8
プラグ
100
AcDbCircle
 10
162.97
 20
201.17
 30
0.0
 40
0.5
100
AcDbArc
 50
180.0
 51
270.0
  0
LINE
  5
192
330
1F
100
AcDbEntity
  8
プラグ
100
AcDbLine
 10
183.57
 20
221.17
 30
0.0
 11
183.57
 21
220.17
 31
0.0
  0
LINE
  5
193
330
1F
100
AcDbEntity
  8
プラグ
100
AcDbLine
 10
183.57
 20
218.67
 30
0.0
 11
183.57
 21
217.67
 31
0.0
  0
LINE
  5
194
330
1F
100
AcDbEntity
  8
プラグ
100
AcDbLine
 10
183.57
 20
216.17
 30
0.0
 11
183.57
 21
215.17
 31
0.0
  0
LINE
  5
195
330
1F
100
AcDbEntity
  8
プラグ
100
AcDbLine
 10
183.57
 20
213.67
 30
0.0
 11
183.57
 21
212.67
 31
0.0
  0
LINE
  5
196
330
1F
100
AcDbEntity
  8
プラグ
100
AcDbLine
 10
183.57
 20
211.17
 30
0.0
 11
183.57
 21
210.17
 31
0.0
  0
LINE
  5
197
330
1F
100
AcDbEntity
  8
プラグ
100
AcDbLine
 10
183.57
 20
208.67
 30
0.0
 11
183.57
 21
207.67
 31
0.0
  0
LINE
  5
198
330
1F
100
AcDbEntity
  8
プラグ
100
AcDbLine
 10
183.57
 20
206.17
 30
0.0
 11
183.57
 21
205.17
 31
0.0
  0
LINE
  5
199
330
1F
100
AcDbEntity
  8
プラグ
100
AcDbLine
 10
184.17
 20
222.67
 30
0.0
 11
183.57
 21
222.67
 31
0.0
  0
LINE
  5
19A
330
1F
100
AcDbEntity
  8
プラグ
100
AcDbLine
 10
184.17
 20
221.17
 30
0.0
 11
183.57
 21
221.17
 31
0.0
  0
LINE
  5
19B
330
1F
100
AcDbEntity
  8
プラグ
100
AcDbLine
 10
184.17
 20
220.17
 30
0.0
 11
183.57
 21
220.17
 31
0.0
  0
LINE
  5
19C
330
1F
100
AcDbEntity
  8
プラグ
100
AcDbLine
 10
184.17
 20
218.67
 30
0.0
 11
183.57
 21
218.67
 31
0.0
  0
LINE
  5
19D
330
1F
100
AcDbEntity
  8
プラグ
100
AcDbLine
 10
184.17
 20
217.67
 30
0.0
 11
183.57
 21
217.67
 31
0.0
  0
LINE
  5
19E
330
1F
100
AcDbEntity
  8
プラグ
100
AcDbLine
 10
184.17
 20
216.17
 30
0.0
 11
183.57
 21
216.17
 31
0.0
  0
LINE
  5
19F
330
1F
100
AcDbEntity
  8
プラグ
100
AcDbLine
 10
184.17
 20
215.17
 30
0.0
 11
183.57
 21
215.17
 31
0.0
  0
LINE
  5
1A0
330
1F
100
AcDbEntity
  8
プラグ
100
AcDbLine
 10
184.17
 20
213.67
 30
0.0
 11
183.57
 21
213.67
 31
0.0
  0
LINE
  5
1A1
330
1F
100
AcDbEntity
  8
プラグ
100
AcDbLine
 10
184.17
 20
212.67
 30
0.0
 11
183.57
 21
212.67
 31
0.0
  0
LINE
  5
1A2
330
1F
100
AcDbEntity
  8
プラグ
100
AcDbLine
 10
184.17
 20
211.17
 30
0.0
 11
183.57
 21
211.17
 31
0.0
  0
LINE
  5
1A3
330
1F
100
AcDbEntity
  8
プラグ
100
AcDbLine
 10
184.17
 20
210.17
 30
0.0
 11
183.57
 21
210.17
 31
0.0
  0
LINE
  5
1A4
330
1F
100
AcDbEntity
  8
プラグ
100
AcDbLine
 10
184.17
 20
208.67
 30
0.0
 11
183.57
 21
208.67
 31
0.0
  0
LINE
  5
1A5
330
1F
100
AcDbEntity
  8
プラグ
100
AcDbLine
 10
184.17
 20
207.67
 30
0.0
 11
183.57
 21
207.67
 31
0.0
  0
LINE
  5
1A6
330
1F
100
AcDbEntity
  8
プラグ
100
AcDbLine
 10
184.17
 20
206.17
 30
0.0
 11
183.57
 21
206.17
 31
0.0
  0
LINE
  5
1A7
330
1F
100
AcDbEntity
  8
プラグ
100
AcDbLine
 10
184.17
 20
205.17
 30
0.0
 11
183.57
 21
205.17
 31
0.0
  0
LINE
  5
1A8
330
1F
100
AcDbEntity
  8
プラグ
100
AcDbLine
 10
184.17
 20
203.67
 30
0.0
 11
183.57
 21
203.67
 31
0.0
  0
LINE
  5
1A9
330
1F
100
AcDbEntity
  8
プラグ
100
AcDbLine
 10
183.57
 20
203.67
 30
0.0
 11
183.57
 21
202.77
 31
0.0
  0
ARC
  5
1AA
330
1F
100
AcDbEntity
  8
プラグ
100
AcDbCircle
 10
181.67
 20
224.67
 30
0.0
 40
1.0
100
AcDbArc
 50
90.0
 51
180.0
  0
LINE
  5
1AB
330
1F
100
AcDbEntity
  8
プラグ
100
AcDbLine
 10
181.67
 20
225.67
 30
0.0
 11
162.97
 21
225.67
 31
0.0
  0
ARC
  5
1AC
330
1F
100
AcDbEntity
  8
プラグ
100
AcDbCircle
 10
181.57
 20
201.67
 30
0.0
 40
1.0
100
AcDbArc
 50
180.0
 51
270.0
  0
LINE
  5
1AD
330
1F
100
AcDbEntity
  8
プラグ
100
AcDbLine
 10
180.57
 20
202.77
 30
0.0
 11
180.57
 21
201.67
 31
0.0
  0
LINE
  5
1AE
330
1F
100
AcDbEntity
  8
プラグ
100
AcDbLine
 10
180.67
 20
214.57
 30
0.0
 11
180.67
 21
216.27
 31
0.0
  0
LINE
  5
1AF
330
1F
100
AcDbEntity
  8
プラグ
100
AcDbLine
 10
178.67
 20
214.57
 30
0.0
 11
178.67
 21
216.27
 31
0.0
  0
LINE
  5
1B0
330
1F
100
AcDbEntity
  8
プラグ
100
AcDbLine
 10
164.47
 20
200.67
 30
0.0
 11
164.47
 21
202.77
 31
0.0
  0
POLYLINE
  5
1B1
330
1F
100
AcDbEntity
  8
プラグ
100
AcDb2dPolyline
 66
     1
 10
0.0
 20
0.0
 30
0.0
  0
VERTEX
  5
1B2
330
1B1
100
AcDbEntity
  8
0
100
AcDbVertex
100
AcDb2dVertex
 10
182.47
 20
223.67
 30
0.0
  0
VERTEX
  5
1B3
330
1B1
100
AcDbEntity
  8
0
100
AcDbVertex
100
AcDb2dVertex
 10
183.57
 20
223.67
 30
0.0
  0
VERTEX
  5
1B4
330
1B1
100
AcDbEntity
  8
0
100
AcDbVertex
100
AcDb2dVertex
 10
183.57
 20
222.67
 30
0.0
  0
SEQEND
  5
1B5
330
1B1
100
AcDbEntity
  8
プラグ
  0
LINE
  5
1B6
330
1F
100
AcDbEntity
  8
プラグ
100
AcDbLine
 10
164.47
 20
225.67
 30
0.0
 11
164.47
 21
223.67
 31
0.0
  0
LINE
  5
1B7
330
1F
100
AcDbEntity
  8
プラグ
100
AcDbLine
 10
172.47
 20
210.02
 30
0.0
 11
172.47
 21
223.67
 31
0.0
  0
LINE
  5
1B8
330
1F
100
AcDbEntity
  8
プラグ
100
AcDbLine
 10
180.67
 20
223.67
 30
0.0
 11
180.67
 21
224.67
 31
0.0
  0
LINE
  5
1B9
330
1F
100
AcDbEntity
  8
プラグ
100
AcDbLine
 10
184.17
 20
202.87
 30
0.0
 11
184.17
 21
221.97
 31
0.0
  0
LINE
  5
1BA
330
1F
100
AcDbEntity
  8
プラグ
100
AcDbLine
 10
184.17
 20
222.67
 30
0.0
 11
184.17
 21
202.87
 31
0.0
  0
LINE
  5
1BB
330
1F
100
AcDbEntity
  8
プラグ
100
AcDbLine
 10
183.57
 20
222.67
 30
0.0
 11
183.57
 21
221.17
 31
0.0
  0
LINE
  5
1BC
330
1F
100
AcDbEntity
  8
プラグ
100
AcDbLine
 10
183.57
 20
220.17
 30
0.0
 11
183.57
 21
218.67
 31
0.0
  0
LINE
  5
1BD
330
1F
100
AcDbEntity
  8
プラグ
100
AcDbLine
 10
183.57
 20
217.67
 30
0.0
 11
183.57
 21
216.17
 31
0.0
  0
LINE
  5
1BE
330
1F
100
AcDbEntity
  8
プラグ
100
AcDbLine
 10
183.57
 20
215.17
 30
0.0
 11
183.57
 21
213.67
 31
0.0
  0
LINE
  5
1BF
330
1F
100
AcDbEntity
  8
プラグ
100
AcDbLine
 10
183.57
 20
212.67
 30
0.0
 11
183.57
 21
211.17
 31
0.0
  0
LINE
  5
1C0
330
1F
100
AcDbEntity
  8
プラグ
100
AcDbLine
 10
183.57
 20
210.17
 30
0.0
 11
183.57
 21
208.67
 31
0.0
  0
LINE
  5
1C1
330
1F
100
AcDbEntity
  8
プラグ
100
AcDbLine
 10
183.57
 20
207.67
 30
0.0
 11
183.57
 21
206.17
 31
0.0
  0
LINE
  5
1C2
330
1F
100
AcDbEntity
  8
プラグ
100
AcDbLine
 10
183.57
 20
205.17
 30
0.0
 11
183.57
 21
203.67
 31
0.0
  0
LINE
  5
1C3
330
1F
100
AcDbEntity
  8
プラグ
100
AcDbLine
 10
181.67
 20
225.67
 30
0.0
 11
237.27
 21
225.67
 31
0.0
  0
LINE
  5
1C4
330
1F
100
AcDbEntity
  8
プラグ
100
AcDbLine
 10
255.97
 20
200.67
 30
0.0
 11
162.97
 21
200.67
 31
0.0
  0
LINE
  5
1C5
330
1F
100
AcDbEntity
  8
プラグ
100
AcDbLine
 10
171.47
 20
218.12
 30
0.0
 11
172.47
 21
218.12
 31
0.0
  0
LINE
  5
1C6
330
1F
100
AcDbEntity
  8
プラグ
100
AcDbLine
 10
163.47
 20
218.12
 30
0.0
 11
164.47
 21
218.12
 31
0.0
  0
LINE
  5
1C7
330
1F
100
AcDbEntity
  8
プラグ
100
AcDbLine
 10
164.47
 20
212.72
 30
0.0
 11
163.47
 21
212.72
 31
0.0
  0
LINE
  5
1C8
330
1F
100
AcDbEntity
  8
プラグ
100
AcDbLine
 10
172.47
 20
212.72
 30
0.0
 11
171.57
 21
212.72
 31
0.0
  0
LINE
  5
1C9
330
1F
100
AcDbEntity
  8
プラグ
100
AcDbLine
 10
171.57
 20
209.12
 30
0.0
 11
172.47
 21
209.12
 31
0.0
  0
LINE
  5
1CA
330
1F
100
AcDbEntity
  8
プラグ
100
AcDbLine
 10
163.47
 20
209.12
 30
0.0
 11
164.47
 21
209.12
 31
0.0
  0
LINE
  5
1CB
330
1F
100
AcDbEntity
  8
プラグ
100
AcDbLine
 10
164.47
 20
203.72
 30
0.0
 11
163.47
 21
203.72
 31
0.0
  0
LINE
  5
1CC
330
1F
100
AcDbEntity
  8
プラグ
100
AcDbLine
 10
172.47
 20
203.72
 30
0.0
 11
171.57
 21
203.72
 31
0.0
  0
LINE
  5
1CD
330
1F
100
AcDbEntity
  8
プラグ
100
AcDbLine
 10
174.47
 20
208.22
 30
0.0
 11
173.47
 21
208.22
 31
0.0
  0
LINE
  5
1CE
330
1F
100
AcDbEntity
  8
プラグ
100
AcDbLine
 10
173.47
 20
213.62
 30
0.0
 11
174.47
 21
213.62
 31
0.0
  0
LINE
  5
1CF
330
1F
100
AcDbEntity
  8
プラグ
100
AcDbLine
 10
173.47
 20
222.62
 30
0.0
 11
174.57
 21
222.62
 31
0.0
  0
LINE
  5
1D0
330
1F
100
AcDbEntity
  8
プラグ
100
AcDbLine
 10
174.37
 20
217.22
 30
0.0
 11
173.47
 21
217.22
 31
0.0
  0
LINE
  5
1D1
330
1F
100
AcDbEntity
  8
プラグ
100
AcDbLine
 10
245.47
 20
222.62
 30
0.0
 11
244.47
 21
222.62
 31
0.0
  0
LINE
  5
1D2
330
1F
100
AcDbEntity
  8
プラグ
100
AcDbLine
 10
244.57
 20
217.22
 30
0.0
 11
245.47
 21
217.22
 31
0.0
  0
LINE
  5
1D3
330
1F
100
AcDbEntity
  8
プラグ
100
AcDbLine
 10
245.47
 20
213.62
 30
0.0
 11
244.57
 21
213.62
 31
0.0
  0
LINE
  5
1D4
330
1F
100
AcDbEntity
  8
プラグ
100
AcDbLine
 10
244.67
 20
208.22
 30
0.0
 11
245.47
 21
208.22
 31
0.0
  0
LINE
  5
1D5
330
1F
100
AcDbEntity
  8
プラグ
100
AcDbLine
 10
247.37
 20
218.12
 30
0.0
 11
246.47
 21
218.12
 31
0.0
  0
LINE
  5
1D6
330
1F
100
AcDbEntity
  8
プラグ
100
AcDbLine
 10
255.47
 20
218.12
 30
0.0
 11
254.57
 21
218.12
 31
0.0
  0
LINE
  5
1D7
330
1F
100
AcDbEntity
  8
プラグ
100
AcDbLine
 10
254.47
 20
212.72
 30
0.0
 11
255.47
 21
212.72
 31
0.0
  0
LINE
  5
1D8
330
1F
100
AcDbEntity
  8
プラグ
100
AcDbLine
 10
246.47
 20
212.72
 30
0.0
 11
247.47
 21
212.72
 31
0.0
  0
LINE
  5
1D9
330
1F
100
AcDbEntity
  8
プラグ
100
AcDbLine
 10
247.57
 20
209.12
 30
0.0
 11
246.47
 21
209.12
 31
0.0
  0
LINE
  5
1DA
330
1F
100
AcDbEntity
  8
プラグ
100
AcDbLine
 10
255.47
 20
209.12
 30
0.0
 11
254.57
 21
209.12
 31
0.0
  0
LINE
  5
1DB
330
1F
100
AcDbEntity
  8
プラグ
100
AcDbLine
 10
254.67
 20
203.72
 30
0.0
 11
255.47
 21
203.72
 31
0.0
  0
LINE
  5
1DC
330
1F
100
AcDbEntity
  8
プラグ
100
AcDbLine
 10
246.47
 20
203.72
 30
0.0
 11
247.47
 21
203.72
 31
0.0
  0
ARC
  5
1DD
330
1F
100
AcDbEntity
  8
プラグ
100
AcDbCircle
 10
237.77
 20
147.372250994
 30
0.0
 40
0.5
100
AcDbArc
 50
0.0
 51
90.0
  0
POLYLINE
  5
1DE
330
1F
100
AcDbEntity
  8
プラグ
100
AcDb2dPolyline
 66
     1
 10
0.0
 20
0.0
 30
0.0
  0
VERTEX
  5
1DF
330
1DE
100
AcDbEntity
  8
0
100
AcDbVertex
100
AcDb2dVertex
 10
253.47
 20
144.322250994
 30
0.0
  0
VERTEX
  5
1E0
330
1DE
100
AcDbEntity
  8
0
100
AcDbVertex
100
AcDb2dVertex
 10
238.27
 20
144.322250994
 30
0.0
  0
VERTEX
  5
1E1
330
1DE
100
AcDbEntity
  8
0
100
AcDbVertex
100
AcDb2dVertex
 10
238.27
 20
147.372250994
 30
0.0
  0
SEQEND
  5
1E2
330
1DE
100
AcDbEntity
  8
プラグ
  0
CIRCLE
  5
1E3
330
1F
100
AcDbEntity
  8
プラグ
100
AcDbCircle
 10
236.57
 20
143.322250994
 30
0.0
 40
0.5999999999999943
  0
CIRCLE
  5
1E4
330
1F
100
AcDbEntity
  8
プラグ
100
AcDbCircle
 10
236.57
 20
143.322250994
 30
0.0
 40
0.5999999999999943
  0
ARC
  5
1E5
330
1F
100
AcDbEntity
  8
プラグ
100
AcDbCircle
 10
253.47
 20
143.322250994
 30
0.0
 40
1.0
100
AcDbArc
 50
0.0
 51
90.0
  0
LINE
  5
1E6
330
1F
100
AcDbEntity
  8
プラグ
100
AcDbLine
 10
254.47
 20
132.372250994
 30
0.0
 11
254.47
 21
143.322250994
 31
0.0
  0
LINE
  5
1E7
330
1F
100
AcDbEntity
  8
プラグ
100
AcDbLine
 10
237.77
 20
147.872250994
 30
0.0
 11
181.17
 21
147.872250994
 31
0.0
  0
CIRCLE
  5
1E8
330
1F
100
AcDbEntity
  8
プラグ
100
AcDbCircle
 10
251.970221577
 20
142.722250994
 30
0.0
 40
0.5999999999999943
  0
ARC
  5
1E9
330
1F
100
AcDbEntity
  8
プラグ
100
AcDbCircle
 10
181.17
 20
147.372250994
 30
0.0
 40
0.5
100
AcDbArc
 50
90.0
 51
180.0
  0
POLYLINE
  5
1EA
330
1F
100
AcDbEntity
  8
プラグ
100
AcDb2dPolyline
 66
     1
 10
0.0
 20
0.0
 30
0.0
  0
VERTEX
  5
1EB
330
1EA
100
AcDbEntity
  8
0
100
AcDbVertex
100
AcDb2dVertex
 10
165.47
 20
144.322250994
 30
0.0
  0
VERTEX
  5
1EC
330
1EA
100
AcDbEntity
  8
0
100
AcDbVertex
100
AcDb2dVertex
 10
180.67
 20
144.322250994
 30
0.0
  0
VERTEX
  5
1ED
330
1EA
100
AcDbEntity
  8
0
100
AcDbVertex
100
AcDb2dVertex
 10
180.67
 20
147.372250994
 30
0.0
  0
SEQEND
  5
1EE
330
1EA
100
AcDbEntity
  8
プラグ
  0
CIRCLE
  5
1EF
330
1F
100
AcDbEntity
  8
プラグ
100
AcDbCircle
 10
182.37
 20
143.322250994
 30
0.0
 40
0.5999999999999943
  0
CIRCLE
  5
1F0
330
1F
100
AcDbEntity
  8
プラグ
100
AcDbCircle
 10
182.37
 20
143.322250994
 30
0.0
 40
0.5999999999999943
  0
ARC
  5
1F1
330
1F
100
AcDbEntity
  8
プラグ
100
AcDbCircle
 10
165.47
 20
143.322250994
 30
0.0
 40
1.0
100
AcDbArc
 50
90.0
 51
180.0
  0
LINE
  5
1F2
330
1F
100
AcDbEntity
  8
プラグ
100
AcDbLine
 10
164.47
 20
132.372250994
 30
0.0
 11
164.47
 21
143.322250994
 31
0.0
  0
LINE
  5
1F3
330
1F
100
AcDbEntity
  8
プラグ
100
AcDbLine
 10
181.17
 20
147.872250994
 30
0.0
 11
237.77
 21
147.872250994
 31
0.0
  0
CIRCLE
  5
1F4
330
1F
100
AcDbEntity
  8
プラグ
100
AcDbCircle
 10
166.969778423
 20
142.722250994
 30
0.0
 40
0.5999999999999943
  0
LINE
  5
1F5
330
1F
100
AcDbEntity
  8
プラグ
100
AcDbLine
 10
163.578259193
 20
132.372250994
 30
0.0
 11
164.47
 21
132.372250994
 31
0.0
  0
LINE
  5
1F6
330
1F
100
AcDbEntity
  8
プラグ
100
AcDbLine
 10
236.094580475
 20
156.215260457
 30
0.0
 11
237.378606346
 21
158.003773124
 31
0.0
  0
LINE
  5
1F7
330
1F
100
AcDbEntity
  8
プラグ
100
AcDbLine
 10
235.033688999
 20
163.083149891
 30
0.0
 11
235.732729674
 21
163.11978506
 31
0.0
  0
ARC
  5
1F8
330
1F
100
AcDbEntity
  8
プラグ
100
AcDbCircle
 10
235.059856977
 20
162.583835123
 30
0.0
 40
0.5000000000000263
100
AcDbArc
 50
92.99999999999893
 51
182.9999999999989
  0
ARC
  5
1F9
330
1F
100
AcDbEntity
  8
プラグ
100
AcDbCircle
 10
236.363192398
 20
158.732768676
 30
0.0
 40
1.249999999999992
100
AcDbArc
 50
324.3243212060005
 51
71.5606550410005
  0
LINE
  5
1FA
330
1F
100
AcDbEntity
  8
プラグ
100
AcDbLine
 10
235.88523665
 20
160.209778596
 30
0.0
 11
236.758568092
 21
159.918592466
 31
0.0
  0
LINE
  5
1FB
330
1F
100
AcDbEntity
  8
プラグ
100
AcDbLine
 10
235.732729674
 20
163.11978506
 30
0.0
 11
235.88523665
 21
160.209778596
 31
0.0
  0
ARC
  5
1FC
330
1F
100
AcDbEntity
  8
プラグ
100
AcDbCircle
 10
182.37
 20
143.322250994
 30
0.0
 40
0.7999999999999898
100
AcDbArc
 50
101.4775121860009
 51
172.9999999960009
  0
LINE
  5
1FD
330
1F
100
AcDbEntity
  8
プラグ
100
AcDbLine
 10
176.02
 20
144.322250994
 30
0.0
 11
182.47
 21
144.322250994
 31
0.0
  0
LINE
  5
1FE
330
1F
100
AcDbEntity
  8
プラグ
100
AcDbLine
 10
182.845419525
 20
156.215260457
 30
0.0
 11
181.561393654
 21
158.003773124
 31
0.0
  0
LINE
  5
1FF
330
1F
100
AcDbEntity
  8
プラグ
100
AcDbLine
 10
182.845419525
 20
156.215260457
 30
0.0
 11
182.21081335
 21
144.106253297
 31
0.0
  0
ARC
  5
200
330
1F
100
AcDbEntity
  8
プラグ
100
AcDbCircle
 10
182.664355265
 20
143.206687254
 30
0.0
 40
0.699999999999987
100
AcDbArc
 50
266.999999999999
 51
356.999999999999
  0
LINE
  5
201
330
1F
100
AcDbEntity
  8
プラグ
100
AcDbLine
 10
183.17
 20
143.322250994
 30
0.0
 11
183.17
 21
143.622250994
 31
0.0
  0
ARC
  5
202
330
1F
100
AcDbEntity
  8
プラグ
100
AcDbCircle
 10
182.47
 20
143.622250994
 30
0.0
 40
0.6999999999999886
100
AcDbArc
 50
0.0
 51
90.0
  0
LINE
  5
203
330
1F
100
AcDbEntity
  8
プラグ
100
AcDbLine
 10
183.700962857
 20
149.611212583
 30
0.0
 11
183.363395939
 21
143.170052084
 31
0.0
  0
LINE
  5
204
330
1F
100
AcDbEntity
  8
プラグ
100
AcDbLine
 10
182.314194821
 20
142.524199754
 30
0.0
 11
182.373464036
 21
142.520055246
 31
0.0
  0
LINE
  5
205
330
1F
100
AcDbEntity
  8
プラグ
100
AcDbLine
 10
182.328131235
 20
142.523347366
 30
0.0
 11
182.627720095
 21
142.507646579
 31
0.0
  0
ARC
  5
206
330
1F
100
AcDbEntity
  8
プラグ
100
AcDbCircle
 10
182.37
 20
143.322250994
 30
0.0
 40
0.8000000000000109
100
AcDbArc
 50
194.4775121860004
 51
265.9999999960003
  0
ARC
  5
207
330
1F
100
AcDbEntity
  8
プラグ
100
AcDbCircle
 10
182.37
 20
143.322250994
 30
0.0
 40
0.7999999999999945
100
AcDbArc
 50
172.9999999999993
 51
266.9999999999994
  0
ARC
  5
208
330
1F
100
AcDbEntity
  8
プラグ
100
AcDbCircle
 10
182.37
 20
143.322250994
 30
0.0
 40
0.7999999999999962
100
AcDbArc
 50
265.999999999999
 51
0.0
  0
LINE
  5
209
330
1F
100
AcDbEntity
  8
プラグ
100
AcDbLine
 10
183.906311001
 20
163.083149891
 30
0.0
 11
183.207270326
 21
163.11978506
 31
0.0
  0
ARC
  5
20A
330
1F
100
AcDbEntity
  8
プラグ
100
AcDbCircle
 10
183.880143023
 20
162.583835123
 30
0.0
 40
0.4999999999999979
100
AcDbArc
 50
357.0000000000009
 51
87.0000000000009
  0
ARC
  5
20B
330
1F
100
AcDbEntity
  8
プラグ
100
AcDbCircle
 10
182.576807602
 20
158.732768676
 30
0.0
 40
1.249999999999996
100
AcDbArc
 50
108.4393449590005
 51
215.6756787940005
  0
LINE
  5
20C
330
1F
100
AcDbEntity
  8
プラグ
100
AcDbLine
 10
183.05476335
 20
160.209778596
 30
0.0
 11
182.181431908
 21
159.918592466
 31
0.0
  0
LINE
  5
20D
330
1F
100
AcDbEntity
  8
プラグ
100
AcDbLine
 10
183.207270326
 20
163.11978506
 30
0.0
 11
183.05476335
 21
160.209778596
 31
0.0
  0
LINE
  5
20E
330
1F
100
AcDbEntity
  8
プラグ
100
AcDbLine
 10
184.37945779
 20
162.557667145
 30
0.0
 11
183.363395939
 21
143.170052084
 31
0.0
  0
LINE
  5
20F
330
1F
100
AcDbEntity
  8
プラグ
100
AcDbLine
 10
162.555778423
 20
143.822250994
 30
0.0
 11
162.555778423
 21
143.122250994
 31
0.0
  0
ARC
  5
210
330
1F
100
AcDbEntity
  8
プラグ
100
AcDbCircle
 10
163.055778423
 20
143.822250994
 30
0.0
 40
0.5
100
AcDbArc
 50
90.0
 51
180.0
  0
ARC
  5
211
330
1F
100
AcDbEntity
  8
プラグ
100
AcDbCircle
 10
166.969778423
 20
142.722250994
 30
0.0
 40
1.249999999999999
100
AcDbArc
 50
201.4393449589995
 51
308.6756787939995
  0
LINE
  5
212
330
1F
100
AcDbEntity
  8
プラグ
100
AcDbLine
 10
169.469778423
 20
143.122250994
 30
0.0
 11
167.750917572
 21
141.746381315
 31
0.0
  0
LINE
  5
213
330
1F
100
AcDbEntity
  8
プラグ
100
AcDbLine
 10
165.469778423
 20
143.122250994
 30
0.0
 11
165.806272128
 21
142.265355927
 31
0.0
  0
LINE
  5
214
330
1F
100
AcDbEntity
  8
プラグ
100
AcDbLine
 10
162.555778423
 20
143.122250994
 30
0.0
 11
165.469778423
 21
143.122250994
 31
0.0
  0
LINE
  5
215
330
1F
100
AcDbEntity
  8
プラグ
100
AcDbLine
 10
169.469778423
 20
143.122250994
 30
0.0
 11
181.595403331
 21
143.122250994
 31
0.0
  0
LINE
  5
216
330
1F
100
AcDbEntity
  8
プラグ
100
AcDbLine
 10
163.055778423
 20
144.322250994
 30
0.0
 11
182.47
 21
144.322250994
 31
0.0
  0
LINE
  5
217
330
1F
100
AcDbEntity
  8
プラグ
100
AcDbLine
 10
256.384221577
 20
143.822250994
 30
0.0
 11
256.384221577
 21
143.122250994
 31
0.0
  0
ARC
  5
218
330
1F
100
AcDbEntity
  8
プラグ
100
AcDbCircle
 10
255.884221577
 20
143.822250994
 30
0.0
 40
0.5
100
AcDbArc
 50
0.0
 51
90.0
  0
ARC
  5
219
330
1F
100
AcDbEntity
  8
プラグ
100
AcDbCircle
 10
251.970221577
 20
142.722250994
 30
0.0
 40
1.250000000000012
100
AcDbArc
 50
231.324321206
 51
338.560655041
  0
LINE
  5
21A
330
1F
100
AcDbEntity
  8
プラグ
100
AcDbLine
 10
249.470221577
 20
143.122250994
 30
0.0
 11
251.189082428
 21
141.746381315
 31
0.0
  0
LINE
  5
21B
330
1F
100
AcDbEntity
  8
プラグ
100
AcDbLine
 10
253.470221577
 20
143.122250994
 30
0.0
 11
253.133727872
 21
142.265355927
 31
0.0
  0
LINE
  5
21C
330
1F
100
AcDbEntity
  8
プラグ
100
AcDbLine
 10
256.384221577
 20
143.122250994
 30
0.0
 11
253.470221577
 21
143.122250994
 31
0.0
  0
ARC
  5
21D
330
1F
100
AcDbEntity
  8
プラグ
100
AcDbCircle
 10
236.57
 20
143.322250994
 30
0.0
 40
0.8000000000000066
100
AcDbArc
 50
7.000000003999735
 51
78.52248781399975
  0
LINE
  5
21E
330
1F
100
AcDbEntity
  8
プラグ
100
AcDbLine
 10
242.92
 20
144.322250994
 30
0.0
 11
236.47
 21
144.322250994
 31
0.0
  0
LINE
  5
21F
330
1F
100
AcDbEntity
  8
プラグ
100
AcDbLine
 10
236.094580475
 20
156.215260457
 30
0.0
 11
236.72918665
 21
144.106253297
 31
0.0
  0
ARC
  5
220
330
1F
100
AcDbEntity
  8
プラグ
100
AcDbCircle
 10
236.275644735
 20
143.206687254
 30
0.0
 40
0.699999999999987
100
AcDbArc
 50
183.000000000001
 51
273.000000000001
  0
LINE
  5
221
330
1F
100
AcDbEntity
  8
プラグ
100
AcDbLine
 10
235.77
 20
143.322250994
 30
0.0
 11
235.77
 21
143.622250994
 31
0.0
  0
ARC
  5
222
330
1F
100
AcDbEntity
  8
プラグ
100
AcDbCircle
 10
236.47
 20
143.622250994
 30
0.0
 40
0.6999999999999886
100
AcDbArc
 50
90.0
 51
180.0
  0
LINE
  5
223
330
1F
100
AcDbEntity
  8
プラグ
100
AcDbLine
 10
235.239037143
 20
149.611212583
 30
0.0
 11
235.576604061
 21
143.170052084
 31
0.0
  0
LINE
  5
224
330
1F
100
AcDbEntity
  8
プラグ
100
AcDbLine
 10
236.625805179
 20
142.524199754
 30
0.0
 11
236.566535964
 21
142.520055246
 31
0.0
  0
LINE
  5
225
330
1F
100
AcDbEntity
  8
プラグ
100
AcDbLine
 10
236.611868765
 20
142.523347366
 30
0.0
 11
236.312279905
 21
142.507646579
 31
0.0
  0
ARC
  5
226
330
1F
100
AcDbEntity
  8
プラグ
100
AcDbCircle
 10
236.57
 20
143.322250994
 30
0.0
 40
0.7999999999999977
100
AcDbArc
 50
274.0000000040004
 51
345.5224878140003
  0
ARC
  5
227
330
1F
100
AcDbEntity
  8
プラグ
100
AcDbCircle
 10
236.57
 20
143.322250994
 30
0.0
 40
0.8000000000000084
100
AcDbArc
 50
272.9999999999994
 51
6.999999999999564
  0
ARC
  5
228
330
1F
100
AcDbEntity
  8
プラグ
100
AcDbCircle
 10
236.57
 20
143.322250994
 30
0.0
 40
0.8000000000000114
100
AcDbArc
 50
180.0
 51
274.0
  0
LINE
  5
229
330
1F
100
AcDbEntity
  8
プラグ
100
AcDbLine
 10
234.56054221
 20
162.557667145
 30
0.0
 11
235.576604061
 21
143.170052084
 31
0.0
  0
LINE
  5
22A
330
1F
100
AcDbEntity
  8
プラグ
100
AcDbLine
 10
249.470221577
 20
143.122250994
 30
0.0
 11
237.344596669
 21
143.122250994
 31
0.0
  0
LINE
  5
22B
330
1F
100
AcDbEntity
  8
プラグ
100
AcDbLine
 10
255.884221577
 20
144.322250994
 30
0.0
 11
236.47
 21
144.322250994
 31
0.0
  0
LINE
  5
22C
330
1F
100
AcDbEntity
  8
プラグ
100
AcDbLine
 10
254.47
 20
132.372250994
 30
0.0
 11
255.374510944
 21
132.372250994
 31
0.0
  0
ARC
  5
22D
330
1F
100
AcDbEntity
  8
プラグ
100
AcDbCircle
 10
237.235803212
 20
223.12
 30
0.0
 40
0.7500000000000004
100
AcDbArc
 50
23.57817847799902
 51
156.421821521999
  0
LINE
  5
22E
330
1F
100
AcDbEntity
  8
プラグ
100
AcDbLine
 10
238.441581635
 20
222.42
 30
0.0
 11
236.791581635
 21
222.42
 31
0.0
  0
ARC
  5
22F
330
1F
100
AcDbEntity
  8
プラグ
100
AcDbCircle
 10
237.235803212
 20
203.22
 30
0.0
 40
0.7500000000000004
100
AcDbArc
 50
203.578178477999
 51
336.421821521999
  0
LINE
  5
230
330
1F
100
AcDbEntity
  8
プラグ
100
AcDbLine
 10
238.441581635
 20
203.92
 30
0.0
 11
236.791581635
 21
203.92
 31
0.0
  0
ARC
  5
231
330
1F
100
AcDbEntity
  8
プラグ
100
AcDbCircle
 10
235.841581635
 20
203.17
 30
0.0
 40
0.25
100
AcDbArc
 50
180.0
 51
270.00015455
  0
LINE
  5
232
330
1F
100
AcDbEntity
  8
プラグ
100
AcDbLine
 10
235.948416857
 20
202.92
 30
0.0
 11
235.841582309
 21
202.92
 31
0.0
  0
ARC
  5
233
330
1F
100
AcDbEntity
  8
プラグ
100
AcDbCircle
 10
235.841581635
 20
223.17
 30
0.0
 40
0.25
100
AcDbArc
 50
90.0
 51
180.0
  0
LINE
  5
234
330
1F
100
AcDbEntity
  8
プラグ
100
AcDbLine
 10
238.441581635
 20
223.17
 30
0.0
 11
238.441581635
 21
222.42
 31
0.0
  0
LINE
  5
235
330
1F
100
AcDbEntity
  8
プラグ
100
AcDbLine
 10
235.841581635
 20
223.42
 30
0.0
 11
238.191581635
 21
223.42
 31
0.0
  0
ARC
  5
236
330
1F
100
AcDbEntity
  8
プラグ
100
AcDbCircle
 10
238.191581635
 20
223.17
 30
0.0
 40
0.25
100
AcDbArc
 50
0.0
 51
90.0
  0
LINE
  5
237
330
1F
100
AcDbEntity
  8
プラグ
100
AcDbLine
 10
235.841581635
 20
202.92
 30
0.0
 11
238.191581635
 21
202.92
 31
0.0
  0
LINE
  5
238
330
1F
100
AcDbEntity
  8
プラグ
100
AcDbLine
 10
238.441581635
 20
203.17
 30
0.0
 11
238.441581635
 21
203.92
 31
0.0
  0
ARC
  5
239
330
1F
100
AcDbEntity
  8
プラグ
100
AcDbCircle
 10
238.191581635
 20
203.17
 30
0.0
 40
0.25
100
AcDbArc
 50
270.0
 51
0.0
  0
LINE
  5
23A
330
1F
100
AcDbEntity
  8
プラグ
100
AcDbLine
 10
236.791581635
 20
202.92
 30
0.0
 11
236.791581635
 21
223.42
 31
0.0
  0
LINE
  5
23B
330
1F
100
AcDbEntity
  8
プラグ
100
AcDbLine
 10
235.591581635
 20
203.17
 30
0.0
 11
235.591581635
 21
223.17
 31
0.0
  0
LINE
  5
23C
330
1F
100
AcDbEntity
  8
プラグ
100
AcDbLine
 10
235.991581635
 20
223.67
 30
0.0
 11
235.991581635
 21
223.42
 31
0.0
  0
LINE
  5
23D
330
1F
100
AcDbEntity
  8
プラグ
100
AcDbLine
 10
237.745705163
 20
223.67
 30
0.0
 11
254.47
 21
223.67
 31
0.0
  0
LINE
  5
23E
330
1F
100
AcDbEntity
  8
プラグ
100
AcDbLine
 10
237.42
 20
216.87
 30
0.0
 11
237.42
 21
222.42
 31
0.0
  0
ARC
  5
23F
330
1F
100
AcDbEntity
  8
プラグ
100
AcDbCircle
 10
237.92
 20
222.97
 30
0.0
 40
0.5
100
AcDbArc
 50
90.0
 51
92.36664204999998
  0
LINE
  5
240
330
1F
100
AcDbEntity
  8
プラグ
100
AcDbLine
 10
236.791581635
 20
217.22
 30
0.0
 11
237.47
 21
217.22
 31
0.0
  0
LINE
  5
241
330
1F
100
AcDbEntity
  8
プラグ
100
AcDbLine
 10
236.791581635
 20
216.27
 30
0.0
 11
246.47
 21
216.27
 31
0.0
  0
LINE
  5
242
330
1F
100
AcDbEntity
  8
プラグ
100
AcDbLine
 10
236.791581635
 20
214.57
 30
0.0
 11
246.47
 21
214.57
 31
0.0
  0
LINE
  5
243
330
1F
100
AcDbEntity
  8
プラグ
100
AcDbLine
 10
237.47
 20
213.62
 30
0.0
 11
236.791581635
 21
213.62
 31
0.0
  0
LINE
  5
244
330
1F
100
AcDbEntity
  8
プラグ
100
AcDbLine
 10
236.791581635
 20
208.22
 30
0.0
 11
237.37
 21
208.22
 31
0.0
  0
LINE
  5
245
330
1F
100
AcDbEntity
  8
プラグ
100
AcDbLine
 10
236.791581635
 20
207.27
 30
0.0
 11
246.47
 21
207.27
 31
0.0
  0
LINE
  5
246
330
1F
100
AcDbEntity
  8
プラグ
100
AcDbLine
 10
235.991581635
 20
202.77
 30
0.0
 11
235.991581635
 21
202.92
 31
0.0
  0
LINE
  5
247
330
1F
100
AcDbEntity
  8
プラグ
100
AcDbLine
 10
237.835803212
 20
202.77
 30
0.0
 11
256.47
 21
202.77
 31
0.0
  0
LINE
  5
248
330
1F
100
AcDbEntity
  8
プラグ
100
AcDbLine
 10
235.37
 20
202.77
 30
0.0
 11
236.635803212
 21
202.77
 31
0.0
  0
ARC
  5
249
330
1F
100
AcDbEntity
  8
プラグ
100
AcDbCircle
 10
181.704196788
 20
203.22
 30
0.0
 40
0.7500000000000004
100
AcDbArc
 50
203.578178477999
 51
336.421821521999
  0
LINE
  5
24A
330
1F
100
AcDbEntity
  8
プラグ
100
AcDbLine
 10
180.498418365
 20
203.92
 30
0.0
 11
182.148418365
 21
203.92
 31
0.0
  0
ARC
  5
24B
330
1F
100
AcDbEntity
  8
プラグ
100
AcDbCircle
 10
181.704196788
 20
223.12
 30
0.0
 40
0.7500000000000004
100
AcDbArc
 50
23.57817847799902
 51
156.421821521999
  0
LINE
  5
24C
330
1F
100
AcDbEntity
  8
プラグ
100
AcDbLine
 10
180.498418365
 20
222.42
 30
0.0
 11
182.148418365
 21
222.42
 31
0.0
  0
ARC
  5
24D
330
1F
100
AcDbEntity
  8
プラグ
100
AcDbCircle
 10
183.098418365
 20
223.17
 30
0.0
 40
0.25
100
AcDbArc
 50
0.0
 51
90.00015455000002
  0
LINE
  5
24E
330
1F
100
AcDbEntity
  8
プラグ
100
AcDbLine
 10
182.991583143
 20
223.42
 30
0.0
 11
183.098417691
 21
223.42
 31
0.0
  0
ARC
  5
24F
330
1F
100
AcDbEntity
  8
プラグ
100
AcDbCircle
 10
183.098418365
 20
203.17
 30
0.0
 40
0.25
100
AcDbArc
 50
270.0
 51
0.0
  0
LINE
  5
250
330
1F
100
AcDbEntity
  8
プラグ
100
AcDbLine
 10
180.498418365
 20
203.17
 30
0.0
 11
180.498418365
 21
203.92
 31
0.0
  0
LINE
  5
251
330
1F
100
AcDbEntity
  8
プラグ
100
AcDbLine
 10
183.098418365
 20
202.92
 30
0.0
 11
180.748418365
 21
202.92
 31
0.0
  0
ARC
  5
252
330
1F
100
AcDbEntity
  8
プラグ
100
AcDbCircle
 10
180.748418365
 20
203.17
 30
0.0
 40
0.25
100
AcDbArc
 50
180.0
 51
270.0
  0
LINE
  5
253
330
1F
100
AcDbEntity
  8
プラグ
100
AcDbLine
 10
183.098418365
 20
223.42
 30
0.0
 11
180.748418365
 21
223.42
 31
0.0
  0
LINE
  5
254
330
1F
100
AcDbEntity
  8
プラグ
100
AcDbLine
 10
180.498418365
 20
223.17
 30
0.0
 11
180.498418365
 21
222.42
 31
0.0
  0
ARC
  5
255
330
1F
100
AcDbEntity
  8
プラグ
100
AcDbCircle
 10
180.748418365
 20
223.17
 30
0.0
 40
0.25
100
AcDbArc
 50
90.0
 51
180.0
  0
LINE
  5
256
330
1F
100
AcDbEntity
  8
プラグ
100
AcDbLine
 10
182.148418365
 20
223.42
 30
0.0
 11
182.148418365
 21
202.92
 31
0.0
  0
LINE
  5
257
330
1F
100
AcDbEntity
  8
プラグ
100
AcDbLine
 10
183.348418365
 20
223.17
 30
0.0
 11
183.348418365
 21
203.17
 31
0.0
  0
LINE
  5
258
330
1F
100
AcDbEntity
  8
プラグ
100
AcDbLine
 10
182.948418365
 20
202.77
 30
0.0
 11
182.948418365
 21
202.92
 31
0.0
  0
LINE
  5
259
330
1F
100
AcDbEntity
  8
プラグ
100
AcDbLine
 10
181.104196788
 20
202.77
 30
0.0
 11
162.47
 21
202.77
 31
0.0
  0
LINE
  5
25A
330
1F
100
AcDbEntity
  8
プラグ
100
AcDbLine
 10
183.57
 20
202.77
 30
0.0
 11
182.304196788
 21
202.77
 31
0.0
  0
LINE
  5
25B
330
1F
100
AcDbEntity
  8
プラグ
100
AcDbLine
 10
182.148418365
 20
207.27
 30
0.0
 11
172.47
 21
207.27
 31
0.0
  0
LINE
  5
25C
330
1F
100
AcDbEntity
  8
プラグ
100
AcDbLine
 10
182.148418365
 20
208.22
 30
0.0
 11
181.47
 21
208.22
 31
0.0
  0
LINE
  5
25D
330
1F
100
AcDbEntity
  8
プラグ
100
AcDbLine
 10
181.47
 20
213.62
 30
0.0
 11
182.148418365
 21
213.62
 31
0.0
  0
LINE
  5
25E
330
1F
100
AcDbEntity
  8
プラグ
100
AcDbLine
 10
182.148418365
 20
214.57
 30
0.0
 11
172.47
 21
214.57
 31
0.0
  0
LINE
  5
25F
330
1F
100
AcDbEntity
  8
プラグ
100
AcDbLine
 10
182.148418365
 20
216.27
 30
0.0
 11
172.47
 21
216.27
 31
0.0
  0
LINE
  5
260
330
1F
100
AcDbEntity
  8
プラグ
100
AcDbLine
 10
182.148418365
 20
217.22
 30
0.0
 11
181.57
 21
217.22
 31
0.0
  0
LINE
  5
261
330
1F
100
AcDbEntity
  8
プラグ
100
AcDbLine
 10
181.52
 20
216.87
 30
0.0
 11
181.52
 21
222.42
 31
0.0
  0
ARC
  5
262
330
1F
100
AcDbEntity
  8
プラグ
100
AcDbCircle
 10
181.02
 20
222.97
 30
0.0
 40
0.5000000000000144
100
AcDbArc
 50
87.63335786999974
 51
89.99999999999974
  0
LINE
  5
263
330
1F
100
AcDbEntity
  8
プラグ
100
AcDbLine
 10
181.194294837
 20
223.67
 30
0.0
 11
164.47
 21
223.67
 31
0.0
  0
LINE
  5
264
330
1F
100
AcDbEntity
  8
プラグ
100
AcDbLine
 10
182.47
 20
223.67
 30
0.0
 11
182.21409874
 21
223.67
 31
0.0
  0
LINE
  5
265
330
1F
100
AcDbEntity
  8
プラグ
100
AcDbLine
 10
182.948418365
 20
223.67
 30
0.0
 11
182.948418365
 21
223.42
 31
0.0
  0
LINE
  5
266
330
1F
100
AcDbEntity
  8
プラグ
100
AcDbLine
 10
236.72590126
 20
223.67
 30
0.0
 11
235.37
 21
223.67
 31
0.0
  0
ARC
  5
267
330
1F
100
AcDbEntity
  8
プラグ
100
AcDbCircle
 10
164.47
 20
50.42000000000002
 30
0.0
 40
1.0
100
AcDbArc
 50
180.0
 51
270.0
  0
ARC
  5
268
330
1F
100
AcDbEntity
  8
プラグ
100
AcDbCircle
 10
164.47
 20
70.42000000000002
 30
0.0
 40
1.0
100
AcDbArc
 50
90.0
 51
180.0
  0
LINE
  5
269
330
1F
100
AcDbEntity
  8
プラグ
100
AcDbLine
 10
163.47
 20
70.42000000000002
 30
0.0
 11
163.47
 21
50.42000000000002
 31
0.0
  0
CIRCLE
  5
26A
330
1F
100
AcDbEntity
  8
プラグ
100
AcDbCircle
 10
170.97
 20
60.42000000000002
 30
0.0
 40
1.75
  0
LINE
  5
26B
330
1F
100
AcDbEntity
  8
プラグ
100
AcDbLine
 10
175.47
 20
68.87
 30
0.0
 11
165.47
 21
68.87
 31
0.0
  0
LINE
  5
26C
330
1F
100
AcDbEntity
  8
プラグ
100
AcDbLine
 10
165.47
 20
68.87
 30
0.0
 11
165.47
 21
61.67000000000002
 31
0.0
  0
LINE
  5
26D
330
1F
100
AcDbEntity
  8
プラグ
100
AcDbLine
 10
175.47
 20
62.92000000000002
 30
0.0
 11
175.47
 21
68.87
 31
0.0
  0
LINE
  5
26E
330
1F
100
AcDbEntity
  8
プラグ
100
AcDbLine
 10
167.97
 20
61.67000000000002
 30
0.0
 11
165.47
 21
61.67000000000002
 31
0.0
  0
LINE
  5
26F
330
1F
100
AcDbEntity
  8
プラグ
100
AcDbLine
 10
175.47
 20
51.97000000000003
 30
0.0
 11
165.47
 21
51.97000000000003
 31
0.0
  0
LINE
  5
270
330
1F
100
AcDbEntity
  8
プラグ
100
AcDbLine
 10
165.47
 20
51.97000000000003
 30
0.0
 11
165.47
 21
59.17000000000002
 31
0.0
  0
LINE
  5
271
330
1F
100
AcDbEntity
  8
プラグ
100
AcDbLine
 10
175.47
 20
57.92000000000002
 30
0.0
 11
175.47
 21
51.97000000000003
 31
0.0
  0
LINE
  5
272
330
1F
100
AcDbEntity
  8
プラグ
100
AcDbLine
 10
167.97
 20
59.17000000000002
 30
0.0
 11
165.47
 21
59.17000000000002
 31
0.0
  0
LINE
  5
273
330
1F
100
AcDbEntity
  8
プラグ
100
AcDbLine
 10
177.47
 20
68.87
 30
0.0
 11
188.47
 21
68.87
 31
0.0
  0
LINE
  5
274
330
1F
100
AcDbEntity
  8
プラグ
100
AcDbLine
 10
188.47
 20
68.87
 30
0.0
 11
188.47
 21
61.67000000000002
 31
0.0
  0
CIRCLE
  5
275
330
1F
100
AcDbEntity
  8
プラグ
100
AcDbCircle
 10
176.47
 20
60.42000000000002
 30
0.0
 40
1.0
  0
LINE
  5
276
330
1F
100
AcDbEntity
  8
プラグ
100
AcDbLine
 10
174.304936491
 20
61.67000000000002
 30
0.0
 11
173.97
 21
61.67000000000002
 31
0.0
  0
ARC
  5
277
330
1F
100
AcDbEntity
  8
プラグ
100
AcDbCircle
 10
176.47
 20
60.42000000000002
 30
0.0
 40
2.499999999999999
100
AcDbArc
 50
113.578178478
 51
150.0
  0
LINE
  5
278
330
1F
100
AcDbEntity
  8
プラグ
100
AcDbLine
 10
178.635063509
 20
61.67000000000002
 30
0.0
 11
188.47
 21
61.67000000000002
 31
0.0
  0
ARC
  5
279
330
1F
100
AcDbEntity
  8
プラグ
100
AcDbCircle
 10
176.47
 20
60.42000000000002
 30
0.0
 40
2.500000000000008
100
AcDbArc
 50
29.99999999999989
 51
66.4218215219999
  0
LINE
  5
27A
330
1F
100
AcDbEntity
  8
プラグ
100
AcDbLine
 10
177.47
 20
68.87
 30
0.0
 11
177.47
 21
62.71128784700001
 31
0.0
  0
ARC
  5
27B
330
1F
100
AcDbEntity
  8
プラグ
100
AcDbCircle
 10
170.97
 20
60.42000000000002
 30
0.0
 40
3.249999999999999
100
AcDbArc
 50
22.61986494799999
 51
157.380135052
  0
LINE
  5
27C
330
1F
100
AcDbEntity
  8
プラグ
100
AcDbLine
 10
174.304936491
 20
59.17000000000002
 30
0.0
 11
173.97
 21
59.17000000000002
 31
0.0
  0
ARC
  5
27D
330
1F
100
AcDbEntity
  8
プラグ
100
AcDbCircle
 10
170.97
 20
60.42000000000002
 30
0.0
 40
3.249999999999999
100
AcDbArc
 50
202.619864948
 51
337.380135052
  0
LINE
  5
27E
330
1F
100
AcDbEntity
  8
プラグ
100
AcDbLine
 10
188.304936491
 20
61.67000000000002
 30
0.0
 11
178.47
 21
61.67000000000002
 31
0.0
  0
LINE
  5
27F
330
1F
100
AcDbEntity
  8
プラグ
100
AcDbLine
 10
188.47
 20
51.97000000000003
 30
0.0
 11
188.47
 21
59.17000000000002
 31
0.0
  0
LINE
  5
280
330
1F
100
AcDbEntity
  8
プラグ
100
AcDbLine
 10
178.635063509
 20
59.17000000000002
 30
0.0
 11
188.47
 21
59.17000000000002
 31
0.0
  0
LINE
  5
281
330
1F
100
AcDbEntity
  8
プラグ
100
AcDbLine
 10
188.304936491
 20
59.17000000000002
 30
0.0
 11
178.47
 21
59.17000000000002
 31
0.0
  0
LINE
  5
282
330
1F
100
AcDbEntity
  8
プラグ
100
AcDbLine
 10
177.47
 20
51.97000000000003
 30
0.0
 11
177.47
 21
58.12871215300001
 31
0.0
  0
LINE
  5
283
330
1F
100
AcDbEntity
  8
プラグ
100
AcDbLine
 10
177.47
 20
51.97000000000003
 30
0.0
 11
188.47
 21
51.97000000000003
 31
0.0
  0
ARC
  5
284
330
1F
100
AcDbEntity
  8
プラグ
100
AcDbCircle
 10
176.47
 20
60.42000000000002
 30
0.0
 40
2.500000000000008
100
AcDbArc
 50
209.9999999999999
 51
327.9946167919999
  0
LINE
  5
285
330
1F
100
AcDbEntity
  8
プラグ
100
AcDbLine
 10
191.87
 20
64.42000000000002
 30
0.0
 11
193.37
 21
64.42000000000002
 31
0.0
  0
LINE
  5
286
330
1F
100
AcDbEntity
  8
プラグ
100
AcDbLine
 10
193.37
 20
64.42000000000002
 30
0.0
 11
193.37
 21
60.42000000000002
 31
0.0
  0
LINE
  5
287
330
1F
100
AcDbEntity
  8
プラグ
100
AcDbLine
 10
191.87
 20
64.42000000000002
 30
0.0
 11
190.87
 21
64.42000000000002
 31
0.0
  0
LINE
  5
288
330
1F
100
AcDbEntity
  8
プラグ
100
AcDbLine
 10
190.87
 20
64.42000000000002
 30
0.0
 11
190.87
 21
68.92000000000002
 31
0.0
  0
LINE
  5
289
330
1F
100
AcDbEntity
  8
プラグ
100
AcDbLine
 10
190.87
 20
68.92000000000002
 30
0.0
 11
191.87
 21
68.92000000000002
 31
0.0
  0
LINE
  5
28A
330
1F
100
AcDbEntity
  8
プラグ
100
AcDbLine
 10
191.87
 20
71.42000000000002
 30
0.0
 11
191.87
 21
68.92000000000002
 31
0.0
  0
LINE
  5
28B
330
1F
100
AcDbEntity
  8
プラグ
100
AcDbLine
 10
190.87
 20
51.92000000000002
 30
0.0
 11
191.87
 21
51.92000000000002
 31
0.0
  0
LINE
  5
28C
330
1F
100
AcDbEntity
  8
プラグ
100
AcDbLine
 10
191.87
 20
49.42000000000002
 30
0.0
 11
191.87
 21
51.92000000000002
 31
0.0
  0
LINE
  5
28D
330
1F
100
AcDbEntity
  8
プラグ
100
AcDbLine
 10
193.37
 20
56.42000000000002
 30
0.0
 11
193.37
 21
60.42000000000002
 31
0.0
  0
LINE
  5
28E
330
1F
100
AcDbEntity
  8
プラグ
100
AcDbLine
 10
191.87
 20
51.92000000000002
 30
0.0
 11
191.87
 21
49.42000000000002
 31
0.0
  0
LINE
  5
28F
330
1F
100
AcDbEntity
  8
プラグ
100
AcDbLine
 10
191.87
 20
64.42000000000002
 30
0.0
 11
191.87
 21
56.42000000000002
 31
0.0
  0
LINE
  5
290
330
1F
100
AcDbEntity
  8
プラグ
100
AcDbLine
 10
190.87
 20
56.42000000000002
 30
0.0
 11
193.37
 21
56.42000000000002
 31
0.0
  0
LINE
  5
291
330
1F
100
AcDbEntity
  8
プラグ
100
AcDbLine
 10
190.87
 20
56.42000000000002
 30
0.0
 11
190.87
 21
51.92000000000002
 31
0.0
  0
LINE
  5
292
330
1F
100
AcDbEntity
  8
プラグ
100
AcDbLine
 10
191.87
 20
64.42000000000002
 30
0.0
 11
191.87
 21
65.42000000000002
 31
0.0
  0
LINE
  5
293
330
1F
100
AcDbEntity
  8
プラグ
100
AcDbLine
 10
194.37
 20
65.42000000000002
 30
0.0
 11
194.37
 21
60.42000000000002
 31
0.0
  0
LINE
  5
294
330
1F
100
AcDbEntity
  8
プラグ
100
AcDbLine
 10
191.87
 20
65.42000000000002
 30
0.0
 11
194.37
 21
65.42000000000002
 31
0.0
  0
LINE
  5
295
330
1F
100
AcDbEntity
  8
プラグ
100
AcDbLine
 10
191.87
 20
56.42000000000002
 30
0.0
 11
191.87
 21
55.42000000000002
 31
0.0
  0
LINE
  5
296
330
1F
100
AcDbEntity
  8
プラグ
100
AcDbLine
 10
194.37
 20
55.42000000000002
 30
0.0
 11
194.37
 21
60.42000000000002
 31
0.0
  0
LINE
  5
297
330
1F
100
AcDbEntity
  8
プラグ
100
AcDbLine
 10
191.87
 20
55.42000000000002
 30
0.0
 11
194.37
 21
55.42000000000002
 31
0.0
  0
LINE
  5
298
330
1F
100
AcDbEntity
  8
プラグ
100
AcDbLine
 10
195.42
 20
60.42000000000002
 30
0.0
 11
195.42
 21
65.19000000000003
 31
0.0
  0
ARC
  5
299
330
1F
100
AcDbEntity
  8
プラグ
100
AcDbCircle
 10
195.65
 20
65.19000000000003
 30
0.0
 40
0.230000000000004
100
AcDbArc
 50
90.0
 51
180.0
  0
LINE
  5
29A
330
1F
100
AcDbEntity
  8
プラグ
100
AcDbLine
 10
195.65
 20
65.42000000000002
 30
0.0
 11
195.69
 21
65.42000000000002
 31
0.0
  0
LINE
  5
29B
330
1F
100
AcDbEntity
  8
プラグ
100
AcDbLine
 10
195.92
 20
65.19000000000003
 30
0.0
 11
195.92
 21
60.42000000000002
 31
0.0
  0
ARC
  5
29C
330
1F
100
AcDbEntity
  8
プラグ
100
AcDbCircle
 10
195.69
 20
65.19000000000003
 30
0.0
 40
0.2299999999999898
100
AcDbArc
 50
0.0
 51
90.0
  0
LINE
  5
29D
330
1F
100
AcDbEntity
  8
プラグ
100
AcDbLine
 10
195.92
 20
60.42000000000002
 30
0.0
 11
195.92
 21
54.90000000000001
 31
0.0
  0
ARC
  5
29E
330
1F
100
AcDbEntity
  8
プラグ
100
AcDbCircle
 10
195.69
 20
54.90000000000001
 30
0.0
 40
0.230000000000004
100
AcDbArc
 50
270.0
 51
0.0
  0
LINE
  5
29F
330
1F
100
AcDbEntity
  8
プラグ
100
AcDbLine
 10
195.65
 20
54.67000000000002
 30
0.0
 11
195.69
 21
54.67000000000002
 31
0.0
  0
LINE
  5
2A0
330
1F
100
AcDbEntity
  8
プラグ
100
AcDbLine
 10
195.42
 20
60.42000000000002
 30
0.0
 11
195.42
 21
54.90000000000001
 31
0.0
  0
ARC
  5
2A1
330
1F
100
AcDbEntity
  8
プラグ
100
AcDbCircle
 10
195.65
 20
54.90000000000001
 30
0.0
 40
0.2299999999999898
100
AcDbArc
 50
180.0
 51
270.0
  0
LINE
  5
2A2
330
1F
100
AcDbEntity
  8
プラグ
100
AcDbLine
 10
198.47
 20
67.42000000000002
 30
0.0
 11
206.47
 21
67.42000000000002
 31
0.0
  0
LINE
  5
2A3
330
1F
100
AcDbEntity
  8
プラグ
100
AcDbLine
 10
197.47
 20
66.42000000000002
 30
0.0
 11
197.47
 21
66.37
 31
0.0
  0
LINE
  5
2A4
330
1F
100
AcDbEntity
  8
プラグ
100
AcDbLine
 10
207.47
 20
66.42000000000002
 30
0.0
 11
207.47
 21
66.37
 31
0.0
  0
ARC
  5
2A5
330
1F
100
AcDbEntity
  8
プラグ
100
AcDbCircle
 10
206.47
 20
66.42000000000002
 30
0.0
 40
1.0
100
AcDbArc
 50
270.0
 51
90.0
  0
LINE
  5
2A6
330
1F
100
AcDbEntity
  8
プラグ
100
AcDbLine
 10
206.47
 20
65.42000000000002
 30
0.0
 11
198.470001907
 21
65.42000000000002
 31
0.0
  0
ARC
  5
2A7
330
1F
100
AcDbEntity
  8
プラグ
100
AcDbCircle
 10
198.47
 20
66.42000000000002
 30
0.0
 40
1.0
100
AcDbArc
 50
90.0
 51
270.000109283
  0
LINE
  5
2A8
330
1F
100
AcDbEntity
  8
プラグ
100
AcDbLine
 10
220.47
 20
67.42000000000002
 30
0.0
 11
212.47
 21
67.42000000000002
 31
0.0
  0
LINE
  5
2A9
330
1F
100
AcDbEntity
  8
プラグ
100
AcDbLine
 10
221.47
 20
66.42000000000002
 30
0.0
 11
221.47
 21
66.37
 31
0.0
  0
LINE
  5
2AA
330
1F
100
AcDbEntity
  8
プラグ
100
AcDbLine
 10
211.47
 20
66.42000000000002
 30
0.0
 11
211.47
 21
66.37
 31
0.0
  0
ARC
  5
2AB
330
1F
100
AcDbEntity
  8
プラグ
100
AcDbCircle
 10
212.47
 20
66.42000000000002
 30
0.0
 40
1.0
100
AcDbArc
 50
90.0
 51
270.0
  0
LINE
  5
2AC
330
1F
100
AcDbEntity
  8
プラグ
100
AcDbLine
 10
212.47
 20
65.42000000000002
 30
0.0
 11
220.469998093
 21
65.42000000000002
 31
0.0
  0
ARC
  5
2AD
330
1F
100
AcDbEntity
  8
プラグ
100
AcDbCircle
 10
220.47
 20
66.42000000000002
 30
0.0
 40
1.0
100
AcDbArc
 50
269.9998907169993
 51
89.99999999999935
  0
LINE
  5
2AE
330
1F
100
AcDbEntity
  8
プラグ
100
AcDbLine
 10
198.47
 20
53.42000000000002
 30
0.0
 11
206.47
 21
53.42000000000002
 31
0.0
  0
LINE
  5
2AF
330
1F
100
AcDbEntity
  8
プラグ
100
AcDbLine
 10
197.47
 20
54.42000000000002
 30
0.0
 11
197.47
 21
54.47000000000003
 31
0.0
  0
LINE
  5
2B0
330
1F
100
AcDbEntity
  8
プラグ
100
AcDbLine
 10
207.47
 20
54.42000000000002
 30
0.0
 11
207.47
 21
54.47000000000003
 31
0.0
  0
ARC
  5
2B1
330
1F
100
AcDbEntity
  8
プラグ
100
AcDbCircle
 10
206.47
 20
54.42000000000002
 30
0.0
 40
1.0
100
AcDbArc
 50
270.0
 51
90.0
  0
LINE
  5
2B2
330
1F
100
AcDbEntity
  8
プラグ
100
AcDbLine
 10
206.47
 20
55.42000000000002
 30
0.0
 11
198.470001907
 21
55.42000000000002
 31
0.0
  0
ARC
  5
2B3
330
1F
100
AcDbEntity
  8
プラグ
100
AcDbCircle
 10
198.47
 20
54.42000000000002
 30
0.0
 40
1.0
100
AcDbArc
 50
89.99989071699933
 51
269.9999999999993
  0
LINE
  5
2B4
330
1F
100
AcDbEntity
  8
プラグ
100
AcDbLine
 10
220.47
 20
53.42000000000002
 30
0.0
 11
212.47
 21
53.42000000000002
 31
0.0
  0
LINE
  5
2B5
330
1F
100
AcDbEntity
  8
プラグ
100
AcDbLine
 10
221.47
 20
54.42000000000002
 30
0.0
 11
221.47
 21
54.47000000000003
 31
0.0
  0
LINE
  5
2B6
330
1F
100
AcDbEntity
  8
プラグ
100
AcDbLine
 10
211.47
 20
54.42000000000002
 30
0.0
 11
211.47
 21
54.47000000000003
 31
0.0
  0
ARC
  5
2B7
330
1F
100
AcDbEntity
  8
プラグ
100
AcDbCircle
 10
212.47
 20
54.42000000000002
 30
0.0
 40
1.0
100
AcDbArc
 50
90.0
 51
270.0
  0
LINE
  5
2B8
330
1F
100
AcDbEntity
  8
プラグ
100
AcDbLine
 10
212.47
 20
55.42000000000002
 30
0.0
 11
220.469998093
 21
55.42000000000002
 31
0.0
  0
ARC
  5
2B9
330
1F
100
AcDbEntity
  8
プラグ
100
AcDbCircle
 10
220.47
 20
54.42000000000002
 30
0.0
 40
1.0
100
AcDbArc
 50
270.0
 51
90.00010928300001
  0
ARC
  5
2BA
330
1F
100
AcDbEntity
  8
プラグ
100
AcDbCircle
 10
205.97
 20
60.42000000000002
 30
0.0
 40
1.5
100
AcDbArc
 50
0.0
 51
90.0
  0
LINE
  5
2BB
330
1F
100
AcDbEntity
  8
プラグ
100
AcDbLine
 10
198.97
 20
61.92000000000002
 30
0.0
 11
205.97
 21
61.92000000000002
 31
0.0
  0
ARC
  5
2BC
330
1F
100
AcDbEntity
  8
プラグ
100
AcDbCircle
 10
198.97
 20
60.42000000000002
 30
0.0
 40
1.5
100
AcDbArc
 50
90.0
 51
180.0
  0
ARC
  5
2BD
330
1F
100
AcDbEntity
  8
プラグ
100
AcDbCircle
 10
205.97
 20
60.42000000000002
 30
0.0
 40
1.5
100
AcDbArc
 50
270.0
 51
0.0
  0
LINE
  5
2BE
330
1F
100
AcDbEntity
  8
プラグ
100
AcDbLine
 10
198.97
 20
58.92000000000002
 30
0.0
 11
205.97
 21
58.92000000000002
 31
0.0
  0
ARC
  5
2BF
330
1F
100
AcDbEntity
  8
プラグ
100
AcDbCircle
 10
198.97
 20
60.42000000000002
 30
0.0
 40
1.5
100
AcDbArc
 50
180.0
 51
270.0
  0
ARC
  5
2C0
330
1F
100
AcDbEntity
  8
プラグ
100
AcDbCircle
 10
212.97
 20
60.42000000000002
 30
0.0
 40
1.5
100
AcDbArc
 50
90.0
 51
180.0
  0
LINE
  5
2C1
330
1F
100
AcDbEntity
  8
プラグ
100
AcDbLine
 10
219.97
 20
61.92000000000002
 30
0.0
 11
212.97
 21
61.92000000000002
 31
0.0
  0
ARC
  5
2C2
330
1F
100
AcDbEntity
  8
プラグ
100
AcDbCircle
 10
219.97
 20
60.42000000000002
 30
0.0
 40
1.5
100
AcDbArc
 50
0.0
 51
90.0
  0
ARC
  5
2C3
330
1F
100
AcDbEntity
  8
プラグ
100
AcDbCircle
 10
212.97
 20
60.42000000000002
 30
0.0
 40
1.5
100
AcDbArc
 50
180.0
 51
270.0
  0
LINE
  5
2C4
330
1F
100
AcDbEntity
  8
プラグ
100
AcDbLine
 10
219.97
 20
58.92000000000002
 30
0.0
 11
212.97
 21
58.92000000000002
 31
0.0
  0
ARC
  5
2C5
330
1F
100
AcDbEntity
  8
プラグ
100
AcDbCircle
 10
219.97
 20
60.42000000000002
 30
0.0
 40
1.5
100
AcDbArc
 50
270.0
 51
0.0
  0
LINE
  5
2C6
330
1F
100
AcDbEntity
  8
プラグ
100
AcDbLine
 10
211.47
 20
66.42000000000002
 30
0.0
 11
207.47
 21
66.42000000000002
 31
0.0
  0
LINE
  5
2C7
330
1F
100
AcDbEntity
  8
プラグ
100
AcDbLine
 10
215.47
 20
61.92000000000002
 30
0.0
 11
215.47
 21
65.42000000000002
 31
0.0
  0
LINE
  5
2C8
330
1F
100
AcDbEntity
  8
プラグ
100
AcDbLine
 10
215.47
 20
55.42000000000002
 30
0.0
 11
215.47
 21
58.92000000000002
 31
0.0
  0
LINE
  5
2C9
330
1F
100
AcDbEntity
  8
プラグ
100
AcDbLine
 10
207.47
 20
54.42000000000002
 30
0.0
 11
211.47
 21
54.42000000000002
 31
0.0
  0
LINE
  5
2CA
330
1F
100
AcDbEntity
  8
プラグ
100
AcDbLine
 10
203.47
 20
58.92000000000002
 30
0.0
 11
203.47
 21
55.42000000000002
 31
0.0
  0
LINE
  5
2CB
330
1F
100
AcDbEntity
  8
プラグ
100
AcDbLine
 10
203.47
 20
65.42000000000002
 30
0.0
 11
203.47
 21
61.92000000000002
 31
0.0
  0
ARC
  5
2CC
330
1F
100
AcDbEntity
  8
プラグ
100
AcDbCircle
 10
254.47
 20
50.42000000000002
 30
0.0
 40
1.0
100
AcDbArc
 50
270.0
 51
0.0
  0
ARC
  5
2CD
330
1F
100
AcDbEntity
  8
プラグ
100
AcDbCircle
 10
254.47
 20
70.42000000000002
 30
0.0
 40
1.0
100
AcDbArc
 50
0.0
 51
90.0
  0
LINE
  5
2CE
330
1F
100
AcDbEntity
  8
プラグ
100
AcDbLine
 10
164.47
 20
49.42000000000002
 30
0.0
 11
254.47
 21
49.42000000000002
 31
0.0
  0
LINE
  5
2CF
330
1F
100
AcDbEntity
  8
プラグ
100
AcDbLine
 10
254.47
 20
71.42000000000002
 30
0.0
 11
164.47
 21
71.42000000000002
 31
0.0
  0
LINE
  5
2D0
330
1F
100
AcDbEntity
  8
プラグ
100
AcDbLine
 10
227.07
 20
54.67000000000002
 30
0.0
 11
247.97
 21
54.67000000000002
 31
0.0
  0
LINE
  5
2D1
330
1F
100
AcDbEntity
  8
プラグ
100
AcDbLine
 10
227.07
 20
55.47000000000003
 30
0.0
 11
227.07
 21
49.42000000000002
 31
0.0
  0
LINE
  5
2D2
330
1F
100
AcDbEntity
  8
プラグ
100
AcDbLine
 10
227.57
 20
49.42000000000002
 30
0.0
 11
227.57
 21
54.67000000000002
 31
0.0
  0
LINE
  5
2D3
330
1F
100
AcDbEntity
  8
プラグ
100
AcDbLine
 10
252.22
 20
54.67000000000002
 30
0.0
 11
255.47
 21
54.67000000000002
 31
0.0
  0
LINE
  5
2D4
330
1F
100
AcDbEntity
  8
プラグ
100
AcDbLine
 10
250.97
 20
53.42000000000002
 30
0.0
 11
252.22
 21
54.67000000000002
 31
0.0
  0
LINE
  5
2D5
330
1F
100
AcDbEntity
  8
プラグ
100
AcDbLine
 10
247.97
 20
53.42000000000002
 30
0.0
 11
250.97
 21
53.42000000000002
 31
0.0
  0
LINE
  5
2D6
330
1F
100
AcDbEntity
  8
プラグ
100
AcDbLine
 10
227.07
 20
66.17000000000002
 30
0.0
 11
247.97
 21
66.17000000000002
 31
0.0
  0
LINE
  5
2D7
330
1F
100
AcDbEntity
  8
プラグ
100
AcDbLine
 10
227.07
 20
65.37
 30
0.0
 11
227.07
 21
71.42000000000002
 31
0.0
  0
LINE
  5
2D8
330
1F
100
AcDbEntity
  8
プラグ
100
AcDbLine
 10
227.57
 20
71.42000000000002
 30
0.0
 11
227.57
 21
66.17000000000002
 31
0.0
  0
LINE
  5
2D9
330
1F
100
AcDbEntity
  8
プラグ
100
AcDbLine
 10
252.22
 20
66.17000000000002
 30
0.0
 11
255.47
 21
66.17000000000002
 31
0.0
  0
LINE
  5
2DA
330
1F
100
AcDbEntity
  8
プラグ
100
AcDbLine
 10
250.97
 20
67.42000000000002
 30
0.0
 11
252.22
 21
66.17000000000002
 31
0.0
  0
LINE
  5
2DB
330
1F
100
AcDbEntity
  8
プラグ
100
AcDbLine
 10
247.97
 20
67.42000000000002
 30
0.0
 11
250.97
 21
67.42000000000002
 31
0.0
  0
LINE
  5
2DC
330
1F
100
AcDbEntity
  8
プラグ
100
AcDbLine
 10
235.92
 20
56.87000000000001
 30
0.0
 11
235.92
 21
55.47000000000003
 31
0.0
  0
LINE
  5
2DD
330
1F
100
AcDbEntity
  8
プラグ
100
AcDbLine
 10
238.22
 20
56.87000000000001
 30
0.0
 11
238.22
 21
55.47000000000003
 31
0.0
  0
CIRCLE
  5
2DE
330
1F
100
AcDbEntity
  8
プラグ
100
AcDbCircle
 10
247.97
 20
60.42000000000002
 30
0.0
 40
1.75
  0
LINE
  5
2DF
330
1F
100
AcDbEntity
  8
プラグ
100
AcDbLine
 10
246.47
 20
70.22000000000003
 30
0.0
 11
253.47
 21
70.22000000000003
 31
0.0
  0
LINE
  5
2E0
330
1F
100
AcDbEntity
  8
プラグ
100
AcDbLine
 10
246.47
 20
69.02000000000001
 30
0.0
 11
253.47
 21
69.02000000000001
 31
0.0
  0
LINE
  5
2E1
330
1F
100
AcDbEntity
  8
プラグ
100
AcDbLine
 10
246.47
 20
70.22000000000003
 30
0.0
 11
246.47
 21
69.02000000000001
 31
0.0
  0
LINE
  5
2E2
330
1F
100
AcDbEntity
  8
プラグ
100
AcDbLine
 10
253.47
 20
70.22000000000003
 30
0.0
 11
253.47
 21
69.02000000000001
 31
0.0
  0
LINE
  5
2E3
330
1F
100
AcDbEntity
  8
プラグ
100
AcDbLine
 10
246.47
 20
50.62000000000001
 30
0.0
 11
253.47
 21
50.62000000000001
 31
0.0
  0
LINE
  5
2E4
330
1F
100
AcDbEntity
  8
プラグ
100
AcDbLine
 10
246.47
 20
51.82000000000001
 30
0.0
 11
253.47
 21
51.82000000000001
 31
0.0
  0
LINE
  5
2E5
330
1F
100
AcDbEntity
  8
プラグ
100
AcDbLine
 10
246.47
 20
50.62000000000001
 30
0.0
 11
246.47
 21
51.82000000000001
 31
0.0
  0
LINE
  5
2E6
330
1F
100
AcDbEntity
  8
プラグ
100
AcDbLine
 10
253.47
 20
50.62000000000001
 30
0.0
 11
253.47
 21
51.82000000000001
 31
0.0
  0
LINE
  5
2E7
330
1F
100
AcDbEntity
  8
プラグ
100
AcDbLine
 10
238.12
 20
70.22000000000003
 30
0.0
 11
245.12
 21
70.22000000000003
 31
0.0
  0
LINE
  5
2E8
330
1F
100
AcDbEntity
  8
プラグ
100
AcDbLine
 10
238.12
 20
69.02000000000001
 30
0.0
 11
245.12
 21
69.02000000000001
 31
0.0
  0
LINE
  5
2E9
330
1F
100
AcDbEntity
  8
プラグ
100
AcDbLine
 10
245.12
 20
70.22000000000003
 30
0.0
 11
245.12
 21
68.87
 31
0.0
  0
LINE
  5
2EA
330
1F
100
AcDbEntity
  8
プラグ
100
AcDbLine
 10
238.12
 20
70.22000000000003
 30
0.0
 11
238.12
 21
69.02000000000001
 31
0.0
  0
LINE
  5
2EB
330
1F
100
AcDbEntity
  8
プラグ
100
AcDbLine
 10
229.77
 20
70.22000000000003
 30
0.0
 11
236.77
 21
70.22000000000003
 31
0.0
  0
LINE
  5
2EC
330
1F
100
AcDbEntity
  8
プラグ
100
AcDbLine
 10
229.77
 20
69.02000000000001
 30
0.0
 11
236.77
 21
69.02000000000001
 31
0.0
  0
LINE
  5
2ED
330
1F
100
AcDbEntity
  8
プラグ
100
AcDbLine
 10
236.77
 20
70.22000000000003
 30
0.0
 11
236.77
 21
69.02000000000001
 31
0.0
  0
LINE
  5
2EE
330
1F
100
AcDbEntity
  8
プラグ
100
AcDbLine
 10
229.77
 20
70.22000000000003
 30
0.0
 11
229.77
 21
69.02000000000001
 31
0.0
  0
LINE
  5
2EF
330
1F
100
AcDbEntity
  8
プラグ
100
AcDbLine
 10
238.12
 20
50.62000000000001
 30
0.0
 11
245.12
 21
50.62000000000001
 31
0.0
  0
LINE
  5
2F0
330
1F
100
AcDbEntity
  8
プラグ
100
AcDbLine
 10
238.12
 20
51.82000000000001
 30
0.0
 11
245.12
 21
51.82000000000001
 31
0.0
  0
LINE
  5
2F1
330
1F
100
AcDbEntity
  8
プラグ
100
AcDbLine
 10
245.12
 20
50.62000000000001
 30
0.0
 11
245.12
 21
51.97000000000003
 31
0.0
  0
LINE
  5
2F2
330
1F
100
AcDbEntity
  8
プラグ
100
AcDbLine
 10
238.12
 20
50.62000000000001
 30
0.0
 11
238.12
 21
51.82000000000001
 31
0.0
  0
LINE
  5
2F3
330
1F
100
AcDbEntity
  8
プラグ
100
AcDbLine
 10
229.77
 20
50.62000000000001
 30
0.0
 11
236.77
 21
50.62000000000001
 31
0.0
  0
LINE
  5
2F4
330
1F
100
AcDbEntity
  8
プラグ
100
AcDbLine
 10
229.77
 20
51.82000000000001
 30
0.0
 11
236.77
 21
51.82000000000001
 31
0.0
  0
LINE
  5
2F5
330
1F
100
AcDbEntity
  8
プラグ
100
AcDbLine
 10
236.77
 20
50.62000000000001
 30
0.0
 11
236.77
 21
51.82000000000001
 31
0.0
  0
LINE
  5
2F6
330
1F
100
AcDbEntity
  8
プラグ
100
AcDbLine
 10
229.77
 20
50.62000000000001
 30
0.0
 11
229.77
 21
51.82000000000001
 31
0.0
  0
LINE
  5
2F7
330
1F
100
AcDbEntity
  8
プラグ
100
AcDbLine
 10
226.47
 20
67.32000000000002
 30
0.0
 11
226.47
 21
53.52000000000001
 31
0.0
  0
LINE
  5
2F8
330
1F
100
AcDbEntity
  8
プラグ
100
AcDbLine
 10
226.47
 20
54.72000000000003
 30
0.0
 11
258.97
 21
54.72000000000003
 31
0.0
  0
LINE
  5
2F9
330
1F
100
AcDbEntity
  8
プラグ
100
AcDbLine
 10
226.47
 20
66.12
 30
0.0
 11
258.97
 21
66.12
 31
0.0
  0
LINE
  5
2FA
330
1F
100
AcDbEntity
  8
プラグ
100
AcDbLine
 10
229.47
 20
54.72000000000003
 30
0.0
 11
229.47
 21
66.12
 31
0.0
  0
ARC
  5
2FB
330
1F
100
AcDbEntity
  8
プラグ
100
AcDbCircle
 10
259.57
 20
55.72000000000003
 30
0.0
 40
1.0
100
AcDbArc
 50
270.0
 51
0.0
  0
ARC
  5
2FC
330
1F
100
AcDbEntity
  8
プラグ
100
AcDbCircle
 10
259.57
 20
65.12
 30
0.0
 40
1.0
100
AcDbArc
 50
0.0
 51
90.0
  0
LINE
  5
2FD
330
1F
100
AcDbEntity
  8
プラグ
100
AcDbLine
 10
260.57
 20
65.12
 30
0.0
 11
260.57
 21
55.72000000000003
 31
0.0
  0
LINE
  5
2FE
330
1F
100
AcDbEntity
  8
プラグ
100
AcDbLine
 10
259.57
 20
54.72000000000003
 30
0.0
 11
258.97
 21
54.72000000000003
 31
0.0
  0
LINE
  5
2FF
330
1F
100
AcDbEntity
  8
プラグ
100
AcDbLine
 10
258.97
 20
66.12
 30
0.0
 11
259.57
 21
66.12
 31
0.0
  0
ARC
  5
300
330
1F
100
AcDbEntity
  8
プラグ
100
AcDbCircle
 10
232.07
 20
60.42000000000002
 30
0.0
 40
2.0
100
AcDbArc
 50
90.0
 51
270.0
  0
LINE
  5
301
330
1F
100
AcDbEntity
  8
プラグ
100
AcDbLine
 10
233.27
 20
55.32000000000001
 30
0.0
 11
233.27
 21
58.42000000000002
 31
0.0
  0
ARC
  5
302
330
1F
100
AcDbEntity
  8
プラグ
100
AcDbCircle
 10
237.07
 20
60.42000000000002
 30
0.0
 40
5.099999999999994
100
AcDbArc
 50
270.0
 51
90.0
  0
LINE
  5
303
330
1F
100
AcDbEntity
  8
プラグ
100
AcDbLine
 10
237.07
 20
55.32000000000001
 30
0.0
 11
233.27
 21
55.32000000000001
 31
0.0
  0
LINE
  5
304
330
1F
100
AcDbEntity
  8
プラグ
100
AcDbLine
 10
233.27
 20
62.42000000000002
 30
0.0
 11
232.07
 21
62.42000000000002
 31
0.0
  0
LINE
  5
305
330
1F
100
AcDbEntity
  8
プラグ
100
AcDbLine
 10
232.07
 20
58.42000000000002
 30
0.0
 11
233.27
 21
58.42000000000002
 31
0.0
  0
LINE
  5
306
330
1F
100
AcDbEntity
  8
プラグ
100
AcDbLine
 10
232.07
 20
58.42000000000002
 30
0.0
 11
233.27
 21
58.42000000000002
 31
0.0
  0
ARC
  5
307
330
1F
100
AcDbEntity
  8
プラグ
100
AcDbCircle
 10
239.77
 20
61.92000000000002
 30
0.0
 40
1.999999999999992
100
AcDbArc
 50
30.00000000000014
 51
180.0000000000001
  0
LINE
  5
308
330
1F
100
AcDbEntity
  8
プラグ
100
AcDbLine
 10
234.27
 20
62.42000000000002
 30
0.0
 11
233.27
 21
62.42000000000002
 31
0.0
  0
LINE
  5
309
330
1F
100
AcDbEntity
  8
プラグ
100
AcDbLine
 10
234.27
 20
62.42000000000002
 30
0.0
 11
234.27
 21
65.52000000000001
 31
0.0
  0
LINE
  5
30A
330
1F
100
AcDbEntity
  8
プラグ
100
AcDbLine
 10
234.27
 20
65.52000000000001
 30
0.0
 11
237.07
 21
65.52000000000001
 31
0.0
  0
POINT
  5
30B
330
1F
100
AcDbEntity
  8
プラグ
100
AcDbPoint
 10
233.27
 20
62.42000000000002
 30
0.0
  0
ARC
  5
30C
330
1F
100
AcDbEntity
  8
プラグ
100
AcDbCircle
 10
234.37
 20
61.92000000000002
 30
0.0
 40
2.0
100
AcDbArc
 50
0.0
 51
91.99999999999997
  0
LINE
  5
30D
330
1F
100
AcDbEntity
  8
プラグ
100
AcDbLine
 10
236.37
 20
61.92000000000002
 30
0.0
 11
236.37
 21
57.72000000000003
 31
0.0
  0
LINE
  5
30E
330
1F
100
AcDbEntity
  8
プラグ
100
AcDbLine
 10
237.77
 20
57.72000000000003
 30
0.0
 11
237.77
 21
61.92000000000002
 31
0.0
  0
ARC
  5
30F
330
1F
100
AcDbEntity
  8
プラグ
100
AcDbCircle
 10
237.07
 20
56.92000000000002
 30
0.0
 40
1.100000000000008
100
AcDbArc
 50
131.1859251660004
 51
48.81407483400042
  0
ARC
  5
310
330
1F
100
AcDbEntity
  8
プラグ
100
AcDbCircle
 10
247.97
 20
60.42000000000002
 30
0.0
 40
1.900000000000006
100
AcDbArc
 50
270.0
 51
90.0
  0
ARC
  5
311
330
1F
100
AcDbEntity
  8
プラグ
100
AcDbCircle
 10
246.27
 20
60.42000000000002
 30
0.0
 40
1.900000000000006
100
AcDbArc
 50
90.0
 51
270.0
  0
LINE
  5
312
330
1F
100
AcDbEntity
  8
プラグ
100
AcDbLine
 10
246.27
 20
58.52000000000001
 30
0.0
 11
247.97
 21
58.52000000000001
 31
0.0
  0
LINE
  5
313
330
1F
100
AcDbEntity
  8
プラグ
100
AcDbLine
 10
247.97
 20
62.32000000000001
 30
0.0
 11
246.27
 21
62.32000000000001
 31
0.0
  0
LINE
  5
314
330
1F
100
AcDbEntity
  8
プラグ
100
AcDbLine
 10
255.47
 20
66.17000000000002
 30
0.0
 11
255.47
 21
70.42000000000002
 31
0.0
  0
LINE
  5
315
330
1F
100
AcDbEntity
  8
プラグ
100
AcDbLine
 10
255.47
 20
50.42000000000002
 30
0.0
 11
255.47
 21
54.67000000000002
 31
0.0
  0
ARC
  5
316
330
1F
100
AcDbEntity
  8
プラグ
100
AcDbCircle
 10
237.07
 20
56.87000000000001
 30
0.0
 40
1.150000000000005
100
AcDbArc
 50
129.4724598480001
 51
180.0000000000001
  0
ARC
  5
317
330
1F
100
AcDbEntity
  8
プラグ
100
AcDbCircle
 10
237.07
 20
56.87000000000001
 30
0.0
 40
1.150000000000006
100
AcDbArc
 50
0.0
 51
50.52754015199999
  0
LINE
  5
318
330
1F
100
AcDbEntity
  8
プラグ
100
AcDbLine
 10
247.97
 20
54.67000000000002
 30
0.0
 11
247.97
 21
53.42000000000002
 31
0.0
  0
LINE
  5
319
330
1F
100
AcDbEntity
  8
プラグ
100
AcDbLine
 10
233.27
 20
55.47000000000003
 30
0.0
 11
235.92
 21
55.47000000000003
 31
0.0
  0
LINE
  5
31A
330
1F
100
AcDbEntity
  8
プラグ
100
AcDbLine
 10
227.07
 20
54.67000000000002
 30
0.0
 11
227.07
 21
67.32000000000002
 31
0.0
  0
LINE
  5
31B
330
1F
100
AcDbEntity
  8
プラグ
100
AcDbLine
 10
227.07
 20
53.52000000000001
 30
0.0
 11
226.47
 21
53.52000000000001
 31
0.0
  0
LINE
  5
31C
330
1F
100
AcDbEntity
  8
プラグ
100
AcDbLine
 10
247.97
 20
54.72000000000003
 30
0.0
 11
247.92
 21
54.67000000000002
 31
0.0
  0
LINE
  5
31D
330
1F
100
AcDbEntity
  8
プラグ
100
AcDbLine
 10
247.97
 20
66.17000000000002
 30
0.0
 11
247.97
 21
67.42000000000002
 31
0.0
  0
LINE
  5
31E
330
1F
100
AcDbEntity
  8
プラグ
100
AcDbLine
 10
247.97
 20
66.12
 30
0.0
 11
247.92
 21
66.17000000000002
 31
0.0
  0
LINE
  5
31F
330
1F
100
AcDbEntity
  8
プラグ
100
AcDbLine
 10
227.07
 20
67.32000000000002
 30
0.0
 11
226.47
 21
67.32000000000002
 31
0.0
  0
LINE
  5
320
330
1F
100
AcDbEntity
  8
プラグ
100
AcDbLine
 10
351.44
 20
200.67
 30
0.0
 11
351.44
 21
225.67
 31
0.0
  0
LINE
  5
321
330
1F
100
AcDbEntity
  8
プラグ
100
AcDbLine
 10
325.390002697
 20
202.67
 30
0.0
 11
332.64
 21
202.67
 31
0.0
  0
LINE
  5
322
330
1F
100
AcDbEntity
  8
プラグ
100
AcDbLine
 10
311.64
 20
200.67
 30
0.0
 11
351.44
 21
200.67
 31
0.0
  0
LINE
  5
323
330
1F
100
AcDbEntity
  8
プラグ
100
AcDbLine
 10
324.390002697
 20
202.67
 30
0.0
 11
310.64
 21
202.67
 31
0.0
  0
LINE
  5
324
330
1F
100
AcDbEntity
  8
プラグ
100
AcDbLine
 10
310.64
 20
202.67
 30
0.0
 11
325.477250994
 21
202.67
 31
0.0
  0
LINE
  5
325
330
1F
100
AcDbEntity
  8
プラグ
100
AcDbLine
 10
351.44
 20
225.67
 30
0.0
 11
311.64
 21
225.67
 31
0.0
  0
LINE
  5
326
330
1F
100
AcDbEntity
  8
プラグ
100
AcDbLine
 10
351.44
 20
218.92
 30
0.0
 11
346.94
 21
218.92
 31
0.0
  0
LINE
  5
327
330
1F
100
AcDbEntity
  8
プラグ
100
AcDbLine
 10
346.94
 20
218.92
 30
0.0
 11
346.94
 21
213.17
 31
0.0
  0
LINE
  5
328
330
1F
100
AcDbEntity
  8
プラグ
100
AcDbLine
 10
351.44
 20
207.42
 30
0.0
 11
346.94
 21
207.42
 31
0.0
  0
LINE
  5
329
330
1F
100
AcDbEntity
  8
プラグ
100
AcDbLine
 10
346.94
 20
207.42
 30
0.0
 11
346.94
 21
213.17
 31
0.0
  0
LINE
  5
32A
330
1F
100
AcDbEntity
  8
プラグ
100
AcDbLine
 10
325.390002697
 20
202.67
 30
0.0
 11
332.64
 21
202.67
 31
0.0
  0
LINE
  5
32B
330
1F
100
AcDbEntity
  8
プラグ
100
AcDbLine
 10
313.89
 20
202.67
 30
0.0
 11
325.390002697
 21
202.67
 31
0.0
  0
LINE
  5
32C
330
1F
100
AcDbEntity
  8
プラグ
100
AcDbLine
 10
324.390002697
 20
202.67
 30
0.0
 11
310.64
 21
202.67
 31
0.0
  0
LINE
  5
32D
330
1F
100
AcDbEntity
  8
プラグ
100
AcDbLine
 10
332.64
 20
202.77
 30
0.0
 11
332.64
 21
208.22
 31
0.0
  0
LINE
  5
32E
330
1F
100
AcDbEntity
  8
プラグ
100
AcDbLine
 10
332.64
 20
211.77
 30
0.0
 11
332.64
 21
214.57
 31
0.0
  0
LINE
  5
32F
330
1F
100
AcDbEntity
  8
プラグ
100
AcDbLine
 10
332.64
 20
208.22
 30
0.0
 11
332.64
 21
210.07
 31
0.0
  0
LINE
  5
330
330
1F
100
AcDbEntity
  8
プラグ
100
AcDbLine
 10
323.64
 20
207.27
 30
0.0
 11
317.14
 21
207.27
 31
0.0
  0
LINE
  5
331
330
1F
100
AcDbEntity
  8
プラグ
100
AcDbLine
 10
332.64
 20
219.07
 30
0.0
 11
332.64
 21
214.57
 31
0.0
  0
LINE
  5
332
330
1F
100
AcDbEntity
  8
プラグ
100
AcDbLine
 10
326.14
 20
225.67
 30
0.0
 11
326.14
 21
223.67
 31
0.0
  0
LINE
  5
333
330
1F
100
AcDbEntity
  8
プラグ
100
AcDbLine
 10
326.14
 20
223.67
 30
0.0
 11
310.64
 21
223.67
 31
0.0
  0
LINE
  5
334
330
1F
100
AcDbEntity
  8
プラグ
100
AcDbLine
 10
332.64
 20
219.07
 30
0.0
 11
326.14
 21
219.07
 31
0.0
  0
LINE
  5
335
330
1F
100
AcDbEntity
  8
プラグ
100
AcDbLine
 10
326.14
 20
219.07
 30
0.0
 11
326.14
 21
223.67
 31
0.0
  0
LINE
  5
336
330
1F
100
AcDbEntity
  8
プラグ
100
AcDbLine
 10
326.14
 20
202.67
 30
0.0
 11
326.14
 21
200.67
 31
0.0
  0
LINE
  5
337
330
1F
100
AcDbEntity
  8
プラグ
100
AcDbLine
 10
332.64
 20
211.77
 30
0.0
 11
326.14
 21
211.77
 31
0.0
  0
LINE
  5
338
330
1F
100
AcDbEntity
  8
プラグ
100
AcDbLine
 10
332.64
 20
210.07
 30
0.0
 11
326.14
 21
210.07
 31
0.0
  0
LINE
  5
339
330
1F
100
AcDbEntity
  8
プラグ
100
AcDbLine
 10
326.14
 20
210.07
 30
0.0
 11
326.14
 21
211.77
 31
0.0
  0
LINE
  5
33A
330
1F
100
AcDbEntity
  8
プラグ
100
AcDbLine
 10
323.64
 20
223.67
 30
0.0
 11
323.64
 21
216.27
 31
0.0
  0
LINE
  5
33B
330
1F
100
AcDbEntity
  8
プラグ
100
AcDbLine
 10
323.64
 20
214.57
 30
0.0
 11
323.64
 21
207.27
 31
0.0
  0
LINE
  5
33C
330
1F
100
AcDbEntity
  8
プラグ
100
AcDbLine
 10
331.640004988
 20
211.92
 30
0.0
 11
331.640004988
 21
218.92
 31
0.0
  0
LINE
  5
33D
330
1F
100
AcDbEntity
  8
プラグ
100
AcDbLine
 10
331.640004988
 20
211.92
 30
0.0
 11
331.640004988
 21
218.92
 31
0.0
  0
LINE
  5
33E
330
1F
100
AcDbEntity
  8
プラグ
100
AcDbLine
 10
329.140004988
 20
212.52
 30
0.0
 11
328.140004988
 21
212.52
 31
0.0
  0
LINE
  5
33F
330
1F
100
AcDbEntity
  8
プラグ
100
AcDbLine
 10
329.140004988
 20
215.42
 30
0.0
 11
330.040004988
 21
214.82
 31
0.0
  0
LINE
  5
340
330
1F
100
AcDbEntity
  8
プラグ
100
AcDbLine
 10
329.140004988
 20
216.02
 30
0.0
 11
330.040004988
 21
215.42
 31
0.0
  0
LINE
  5
341
330
1F
100
AcDbEntity
  8
プラグ
100
AcDbLine
 10
329.140004988
 20
212.52
 30
0.0
 11
330.040004988
 21
212.52
 31
0.0
  0
LINE
  5
342
330
1F
100
AcDbEntity
  8
プラグ
100
AcDbLine
 10
329.140004988
 20
218.32
 30
0.0
 11
330.040004988
 21
218.32
 31
0.0
  0
LINE
  5
343
330
1F
100
AcDbEntity
  8
プラグ
100
AcDbLine
 10
329.140004988
 20
212.52
 30
0.0
 11
329.140004988
 21
218.32
 31
0.0
  0
LINE
  5
344
330
1F
100
AcDbEntity
  8
プラグ
100
AcDbLine
 10
327.140004988
 20
213.52
 30
0.0
 11
327.140004988
 21
215.42
 31
0.0
  0
ARC
  5
345
330
1F
100
AcDbEntity
  8
プラグ
100
AcDbCircle
 10
328.140004988
 20
213.52
 30
0.0
 40
1.0
100
AcDbArc
 50
180.0
 51
270.0
  0
LINE
  5
346
330
1F
100
AcDbEntity
  8
プラグ
100
AcDbLine
 10
327.140004988
 20
217.32
 30
0.0
 11
327.140004988
 21
215.42
 31
0.0
  0
ARC
  5
347
330
1F
100
AcDbEntity
  8
プラグ
100
AcDbCircle
 10
328.140004988
 20
217.32
 30
0.0
 40
1.0
100
AcDbArc
 50
90.0
 51
180.0
  0
LINE
  5
348
330
1F
100
AcDbEntity
  8
プラグ
100
AcDbLine
 10
329.140004988
 20
218.32
 30
0.0
 11
328.140004988
 21
218.32
 31
0.0
  0
LINE
  5
349
330
1F
100
AcDbEntity
  8
プラグ
100
AcDbLine
 10
327.140004988
 20
217.32
 30
0.0
 11
327.140004988
 21
215.42
 31
0.0
  0
ARC
  5
34A
330
1F
100
AcDbEntity
  8
プラグ
100
AcDbCircle
 10
328.140004988
 20
217.32
 30
0.0
 40
1.0
100
AcDbArc
 50
90.0
 51
180.0
  0
LINE
  5
34B
330
1F
100
AcDbEntity
  8
プラグ
100
AcDbLine
 10
327.140004988
 20
213.52
 30
0.0
 11
327.140004988
 21
215.42
 31
0.0
  0
ARC
  5
34C
330
1F
100
AcDbEntity
  8
プラグ
100
AcDbCircle
 10
328.140004988
 20
213.52
 30
0.0
 40
1.0
100
AcDbArc
 50
180.0
 51
270.0
  0
LINE
  5
34D
330
1F
100
AcDbEntity
  8
プラグ
100
AcDbLine
 10
331.040004988
 20
218.92
 30
0.0
 11
331.640004988
 21
218.92
 31
0.0
  0
LINE
  5
34E
330
1F
100
AcDbEntity
  8
プラグ
100
AcDbLine
 10
331.640004988
 20
218.92
 30
0.0
 11
331.040004988
 21
216.77
 31
0.0
  0
LINE
  5
34F
330
1F
100
AcDbEntity
  8
プラグ
100
AcDbLine
 10
331.040004988
 20
218.02
 30
0.0
 11
331.640004988
 21
218.92
 31
0.0
  0
LINE
  5
350
330
1F
100
AcDbEntity
  8
プラグ
100
AcDbLine
 10
331.040004988
 20
211.92
 30
0.0
 11
331.640004988
 21
211.92
 31
0.0
  0
LINE
  5
351
330
1F
100
AcDbEntity
  8
プラグ
100
AcDbLine
 10
331.640004988
 20
211.92
 30
0.0
 11
331.040004988
 21
214.07
 31
0.0
  0
LINE
  5
352
330
1F
100
AcDbEntity
  8
プラグ
100
AcDbLine
 10
331.040004988
 20
212.82
 30
0.0
 11
331.640004988
 21
211.92
 31
0.0
  0
LINE
  5
353
330
1F
100
AcDbEntity
  8
プラグ
100
AcDbLine
 10
330.040004988
 20
218.52
 30
0.0
 11
330.040004988
 21
215.42
 31
0.0
  0
POLYLINE
  5
354
330
1F
100
AcDbEntity
  8
プラグ
100
AcDb2dPolyline
 66
     1
 10
0.0
 20
0.0
 30
0.0
  0
VERTEX
  5
355
330
354
100
AcDbEntity
  8
0
100
AcDbVertex
100
AcDb2dVertex
 10
331.040004988
 20
218.92
 30
0.0
  0
VERTEX
  5
356
330
354
100
AcDbEntity
  8
0
100
AcDbVertex
100
AcDb2dVertex
 10
330.540004988
 20
218.92
 30
0.0
  0
VERTEX
  5
357
330
354
100
AcDbEntity
  8
0
100
AcDbVertex
100
AcDb2dVertex
 10
330.040004988
 20
218.52
 30
0.0
  0
SEQEND
  5
358
330
354
100
AcDbEntity
  8
プラグ
  0
LINE
  5
359
330
1F
100
AcDbEntity
  8
プラグ
100
AcDbLine
 10
331.040004988
 20
211.92
 30
0.0
 11
330.540004988
 21
211.92
 31
0.0
  0
LINE
  5
35A
330
1F
100
AcDbEntity
  8
プラグ
100
AcDbLine
 10
330.040004988
 20
212.32
 30
0.0
 11
330.040004988
 21
215.42
 31
0.0
  0
LINE
  5
35B
330
1F
100
AcDbEntity
  8
プラグ
100
AcDbLine
 10
330.540004988
 20
211.92
 30
0.0
 11
330.040004988
 21
212.32
 31
0.0
  0
LINE
  5
35C
330
1F
100
AcDbEntity
  8
プラグ
100
AcDbLine
 10
331.040004988
 20
215.92
 30
0.0
 11
331.540004988
 21
215.92
 31
0.0
  0
LINE
  5
35D
330
1F
100
AcDbEntity
  8
プラグ
100
AcDbLine
 10
331.540004988
 20
215.92
 30
0.0
 11
331.540004988
 21
214.92
 31
0.0
  0
LINE
  5
35E
330
1F
100
AcDbEntity
  8
プラグ
100
AcDbLine
 10
331.540004988
 20
214.92
 30
0.0
 11
331.040004988
 21
214.92
 31
0.0
  0
LINE
  5
35F
330
1F
100
AcDbEntity
  8
プラグ
100
AcDbLine
 10
331.040004988
 20
215.92
 30
0.0
 11
331.040004988
 21
218.02
 31
0.0
  0
LINE
  5
360
330
1F
100
AcDbEntity
  8
プラグ
100
AcDbLine
 10
331.040004988
 20
212.82
 30
0.0
 11
331.040004988
 21
214.92
 31
0.0
  0
LINE
  5
361
330
1F
100
AcDbEntity
  8
プラグ
100
AcDbLine
 10
323.64
 20
216.37
 30
0.0
 11
323.64
 21
219.17
 31
0.0
  0
LINE
  5
362
330
1F
100
AcDbEntity
  8
プラグ
100
AcDbLine
 10
323.64
 20
223.67
 30
0.0
 11
323.64
 21
219.17
 31
0.0
  0
LINE
  5
363
330
1F
100
AcDbEntity
  8
プラグ
100
AcDbLine
 10
322.640004988
 20
216.52
 30
0.0
 11
322.640004988
 21
223.52
 31
0.0
  0
LINE
  5
364
330
1F
100
AcDbEntity
  8
プラグ
100
AcDbLine
 10
322.640004988
 20
216.52
 30
0.0
 11
322.640004988
 21
223.52
 31
0.0
  0
LINE
  5
365
330
1F
100
AcDbEntity
  8
プラグ
100
AcDbLine
 10
320.140004988
 20
217.12
 30
0.0
 11
319.140004988
 21
217.12
 31
0.0
  0
LINE
  5
366
330
1F
100
AcDbEntity
  8
プラグ
100
AcDbLine
 10
320.140004988
 20
220.02
 30
0.0
 11
321.040004988
 21
219.42
 31
0.0
  0
LINE
  5
367
330
1F
100
AcDbEntity
  8
プラグ
100
AcDbLine
 10
320.140004988
 20
220.62
 30
0.0
 11
321.040004988
 21
220.02
 31
0.0
  0
LINE
  5
368
330
1F
100
AcDbEntity
  8
プラグ
100
AcDbLine
 10
320.140004988
 20
217.12
 30
0.0
 11
321.040004988
 21
217.12
 31
0.0
  0
LINE
  5
369
330
1F
100
AcDbEntity
  8
プラグ
100
AcDbLine
 10
320.140004988
 20
222.92
 30
0.0
 11
321.040004988
 21
222.92
 31
0.0
  0
LINE
  5
36A
330
1F
100
AcDbEntity
  8
プラグ
100
AcDbLine
 10
320.140004988
 20
217.12
 30
0.0
 11
320.140004988
 21
222.92
 31
0.0
  0
LINE
  5
36B
330
1F
100
AcDbEntity
  8
プラグ
100
AcDbLine
 10
318.140004988
 20
218.12
 30
0.0
 11
318.140004988
 21
220.02
 31
0.0
  0
ARC
  5
36C
330
1F
100
AcDbEntity
  8
プラグ
100
AcDbCircle
 10
319.140004988
 20
218.12
 30
0.0
 40
1.0
100
AcDbArc
 50
180.0
 51
270.0
  0
LINE
  5
36D
330
1F
100
AcDbEntity
  8
プラグ
100
AcDbLine
 10
318.140004988
 20
221.92
 30
0.0
 11
318.140004988
 21
220.02
 31
0.0
  0
ARC
  5
36E
330
1F
100
AcDbEntity
  8
プラグ
100
AcDbCircle
 10
319.140004988
 20
221.92
 30
0.0
 40
1.0
100
AcDbArc
 50
90.0
 51
180.0
  0
LINE
  5
36F
330
1F
100
AcDbEntity
  8
プラグ
100
AcDbLine
 10
320.140004988
 20
222.92
 30
0.0
 11
319.140004988
 21
222.92
 31
0.0
  0
LINE
  5
370
330
1F
100
AcDbEntity
  8
プラグ
100
AcDbLine
 10
318.140004988
 20
221.92
 30
0.0
 11
318.140004988
 21
220.02
 31
0.0
  0
ARC
  5
371
330
1F
100
AcDbEntity
  8
プラグ
100
AcDbCircle
 10
319.140004988
 20
221.92
 30
0.0
 40
1.0
100
AcDbArc
 50
90.0
 51
180.0
  0
LINE
  5
372
330
1F
100
AcDbEntity
  8
プラグ
100
AcDbLine
 10
318.140004988
 20
218.12
 30
0.0
 11
318.140004988
 21
220.02
 31
0.0
  0
ARC
  5
373
330
1F
100
AcDbEntity
  8
プラグ
100
AcDbCircle
 10
319.140004988
 20
218.12
 30
0.0
 40
1.0
100
AcDbArc
 50
180.0
 51
270.0
  0
LINE
  5
374
330
1F
100
AcDbEntity
  8
プラグ
100
AcDbLine
 10
322.040004988
 20
223.52
 30
0.0
 11
322.640004988
 21
223.52
 31
0.0
  0
LINE
  5
375
330
1F
100
AcDbEntity
  8
プラグ
100
AcDbLine
 10
322.640004988
 20
223.52
 30
0.0
 11
322.040004988
 21
221.37
 31
0.0
  0
LINE
  5
376
330
1F
100
AcDbEntity
  8
プラグ
100
AcDbLine
 10
322.040004988
 20
222.62
 30
0.0
 11
322.640004988
 21
223.52
 31
0.0
  0
LINE
  5
377
330
1F
100
AcDbEntity
  8
プラグ
100
AcDbLine
 10
322.040004988
 20
216.52
 30
0.0
 11
322.640004988
 21
216.52
 31
0.0
  0
LINE
  5
378
330
1F
100
AcDbEntity
  8
プラグ
100
AcDbLine
 10
322.640004988
 20
216.52
 30
0.0
 11
322.040004988
 21
218.67
 31
0.0
  0
LINE
  5
379
330
1F
100
AcDbEntity
  8
プラグ
100
AcDbLine
 10
322.040004988
 20
217.42
 30
0.0
 11
322.640004988
 21
216.52
 31
0.0
  0
LINE
  5
37A
330
1F
100
AcDbEntity
  8
プラグ
100
AcDbLine
 10
321.040004988
 20
223.12
 30
0.0
 11
321.040004988
 21
220.02
 31
0.0
  0
POLYLINE
  5
37B
330
1F
100
AcDbEntity
  8
プラグ
100
AcDb2dPolyline
 66
     1
 10
0.0
 20
0.0
 30
0.0
  0
VERTEX
  5
37C
330
37B
100
AcDbEntity
  8
0
100
AcDbVertex
100
AcDb2dVertex
 10
322.040004988
 20
223.52
 30
0.0
  0
VERTEX
  5
37D
330
37B
100
AcDbEntity
  8
0
100
AcDbVertex
100
AcDb2dVertex
 10
321.540004988
 20
223.52
 30
0.0
  0
VERTEX
  5
37E
330
37B
100
AcDbEntity
  8
0
100
AcDbVertex
100
AcDb2dVertex
 10
321.040004988
 20
223.12
 30
0.0
  0
SEQEND
  5
37F
330
37B
100
AcDbEntity
  8
プラグ
  0
LINE
  5
380
330
1F
100
AcDbEntity
  8
プラグ
100
AcDbLine
 10
322.040004988
 20
216.52
 30
0.0
 11
321.540004988
 21
216.52
 31
0.0
  0
LINE
  5
381
330
1F
100
AcDbEntity
  8
プラグ
100
AcDbLine
 10
321.040004988
 20
216.92
 30
0.0
 11
321.040004988
 21
220.02
 31
0.0
  0
LINE
  5
382
330
1F
100
AcDbEntity
  8
プラグ
100
AcDbLine
 10
321.540004988
 20
216.52
 30
0.0
 11
321.040004988
 21
216.92
 31
0.0
  0
LINE
  5
383
330
1F
100
AcDbEntity
  8
プラグ
100
AcDbLine
 10
322.040004988
 20
220.52
 30
0.0
 11
322.540004988
 21
220.52
 31
0.0
  0
LINE
  5
384
330
1F
100
AcDbEntity
  8
プラグ
100
AcDbLine
 10
322.540004988
 20
220.52
 30
0.0
 11
322.540004988
 21
219.52
 31
0.0
  0
LINE
  5
385
330
1F
100
AcDbEntity
  8
プラグ
100
AcDbLine
 10
322.540004988
 20
219.52
 30
0.0
 11
322.040004988
 21
219.52
 31
0.0
  0
LINE
  5
386
330
1F
100
AcDbEntity
  8
プラグ
100
AcDbLine
 10
322.040004988
 20
220.52
 30
0.0
 11
322.040004988
 21
222.62
 31
0.0
  0
LINE
  5
387
330
1F
100
AcDbEntity
  8
プラグ
100
AcDbLine
 10
322.040004988
 20
217.42
 30
0.0
 11
322.040004988
 21
219.52
 31
0.0
  0
LINE
  5
388
330
1F
100
AcDbEntity
  8
プラグ
100
AcDbLine
 10
323.64
 20
214.57
 30
0.0
 11
323.64
 21
207.17
 31
0.0
  0
LINE
  5
389
330
1F
100
AcDbEntity
  8
プラグ
100
AcDbLine
 10
323.64
 20
207.27
 30
0.0
 11
323.64
 21
210.07
 31
0.0
  0
LINE
  5
38A
330
1F
100
AcDbEntity
  8
プラグ
100
AcDbLine
 10
323.64
 20
214.57
 30
0.0
 11
323.64
 21
210.07
 31
0.0
  0
LINE
  5
38B
330
1F
100
AcDbEntity
  8
プラグ
100
AcDbLine
 10
322.640004988
 20
207.42
 30
0.0
 11
322.640004988
 21
214.42
 31
0.0
  0
LINE
  5
38C
330
1F
100
AcDbEntity
  8
プラグ
100
AcDbLine
 10
322.640004988
 20
207.42
 30
0.0
 11
322.640004988
 21
214.42
 31
0.0
  0
LINE
  5
38D
330
1F
100
AcDbEntity
  8
プラグ
100
AcDbLine
 10
320.140004988
 20
208.02
 30
0.0
 11
319.140004988
 21
208.02
 31
0.0
  0
LINE
  5
38E
330
1F
100
AcDbEntity
  8
プラグ
100
AcDbLine
 10
320.140004988
 20
210.92
 30
0.0
 11
321.040004988
 21
210.32
 31
0.0
  0
LINE
  5
38F
330
1F
100
AcDbEntity
  8
プラグ
100
AcDbLine
 10
320.140004988
 20
211.52
 30
0.0
 11
321.040004988
 21
210.92
 31
0.0
  0
LINE
  5
390
330
1F
100
AcDbEntity
  8
プラグ
100
AcDbLine
 10
320.140004988
 20
208.02
 30
0.0
 11
321.040004988
 21
208.02
 31
0.0
  0
LINE
  5
391
330
1F
100
AcDbEntity
  8
プラグ
100
AcDbLine
 10
320.140004988
 20
213.82
 30
0.0
 11
321.040004988
 21
213.82
 31
0.0
  0
LINE
  5
392
330
1F
100
AcDbEntity
  8
プラグ
100
AcDbLine
 10
320.140004988
 20
208.02
 30
0.0
 11
320.140004988
 21
213.82
 31
0.0
  0
LINE
  5
393
330
1F
100
AcDbEntity
  8
プラグ
100
AcDbLine
 10
318.140004988
 20
209.02
 30
0.0
 11
318.140004988
 21
210.92
 31
0.0
  0
ARC
  5
394
330
1F
100
AcDbEntity
  8
プラグ
100
AcDbCircle
 10
319.140004988
 20
209.02
 30
0.0
 40
1.0
100
AcDbArc
 50
180.0
 51
270.0
  0
LINE
  5
395
330
1F
100
AcDbEntity
  8
プラグ
100
AcDbLine
 10
318.140004988
 20
212.82
 30
0.0
 11
318.140004988
 21
210.92
 31
0.0
  0
ARC
  5
396
330
1F
100
AcDbEntity
  8
プラグ
100
AcDbCircle
 10
319.140004988
 20
212.82
 30
0.0
 40
1.0
100
AcDbArc
 50
90.0
 51
180.0
  0
LINE
  5
397
330
1F
100
AcDbEntity
  8
プラグ
100
AcDbLine
 10
320.140004988
 20
213.82
 30
0.0
 11
319.140004988
 21
213.82
 31
0.0
  0
LINE
  5
398
330
1F
100
AcDbEntity
  8
プラグ
100
AcDbLine
 10
318.140004988
 20
212.82
 30
0.0
 11
318.140004988
 21
210.92
 31
0.0
  0
ARC
  5
399
330
1F
100
AcDbEntity
  8
プラグ
100
AcDbCircle
 10
319.140004988
 20
212.82
 30
0.0
 40
1.0
100
AcDbArc
 50
90.0
 51
180.0
  0
LINE
  5
39A
330
1F
100
AcDbEntity
  8
プラグ
100
AcDbLine
 10
318.140004988
 20
209.02
 30
0.0
 11
318.140004988
 21
210.92
 31
0.0
  0
ARC
  5
39B
330
1F
100
AcDbEntity
  8
プラグ
100
AcDbCircle
 10
319.140004988
 20
209.02
 30
0.0
 40
1.0
100
AcDbArc
 50
180.0
 51
270.0
  0
LINE
  5
39C
330
1F
100
AcDbEntity
  8
プラグ
100
AcDbLine
 10
322.040004988
 20
214.42
 30
0.0
 11
322.640004988
 21
214.42
 31
0.0
  0
LINE
  5
39D
330
1F
100
AcDbEntity
  8
プラグ
100
AcDbLine
 10
322.640004988
 20
214.42
 30
0.0
 11
322.040004988
 21
212.27
 31
0.0
  0
LINE
  5
39E
330
1F
100
AcDbEntity
  8
プラグ
100
AcDbLine
 10
322.040004988
 20
213.52
 30
0.0
 11
322.640004988
 21
214.42
 31
0.0
  0
LINE
  5
39F
330
1F
100
AcDbEntity
  8
プラグ
100
AcDbLine
 10
322.040004988
 20
207.42
 30
0.0
 11
322.640004988
 21
207.42
 31
0.0
  0
LINE
  5
3A0
330
1F
100
AcDbEntity
  8
プラグ
100
AcDbLine
 10
322.640004988
 20
207.42
 30
0.0
 11
322.040004988
 21
209.57
 31
0.0
  0
LINE
  5
3A1
330
1F
100
AcDbEntity
  8
プラグ
100
AcDbLine
 10
322.040004988
 20
208.32
 30
0.0
 11
322.640004988
 21
207.42
 31
0.0
  0
LINE
  5
3A2
330
1F
100
AcDbEntity
  8
プラグ
100
AcDbLine
 10
321.040004988
 20
214.02
 30
0.0
 11
321.040004988
 21
210.92
 31
0.0
  0
POLYLINE
  5
3A3
330
1F
100
AcDbEntity
  8
プラグ
100
AcDb2dPolyline
 66
     1
 10
0.0
 20
0.0
 30
0.0
  0
VERTEX
  5
3A4
330
3A3
100
AcDbEntity
  8
0
100
AcDbVertex
100
AcDb2dVertex
 10
322.040004988
 20
214.42
 30
0.0
  0
VERTEX
  5
3A5
330
3A3
100
AcDbEntity
  8
0
100
AcDbVertex
100
AcDb2dVertex
 10
321.540004988
 20
214.42
 30
0.0
  0
VERTEX
  5
3A6
330
3A3
100
AcDbEntity
  8
0
100
AcDbVertex
100
AcDb2dVertex
 10
321.040004988
 20
214.02
 30
0.0
  0
SEQEND
  5
3A7
330
3A3
100
AcDbEntity
  8
プラグ
  0
LINE
  5
3A8
330
1F
100
AcDbEntity
  8
プラグ
100
AcDbLine
 10
322.040004988
 20
207.42
 30
0.0
 11
321.540004988
 21
207.42
 31
0.0
  0
LINE
  5
3A9
330
1F
100
AcDbEntity
  8
プラグ
100
AcDbLine
 10
321.040004988
 20
207.82
 30
0.0
 11
321.040004988
 21
210.92
 31
0.0
  0
LINE
  5
3AA
330
1F
100
AcDbEntity
  8
プラグ
100
AcDbLine
 10
321.540004988
 20
207.42
 30
0.0
 11
321.040004988
 21
207.82
 31
0.0
  0
LINE
  5
3AB
330
1F
100
AcDbEntity
  8
プラグ
100
AcDbLine
 10
322.040004988
 20
211.42
 30
0.0
 11
322.540004988
 21
211.42
 31
0.0
  0
LINE
  5
3AC
330
1F
100
AcDbEntity
  8
プラグ
100
AcDbLine
 10
322.540004988
 20
211.42
 30
0.0
 11
322.540004988
 21
210.42
 31
0.0
  0
LINE
  5
3AD
330
1F
100
AcDbEntity
  8
プラグ
100
AcDbLine
 10
322.540004988
 20
210.42
 30
0.0
 11
322.040004988
 21
210.42
 31
0.0
  0
LINE
  5
3AE
330
1F
100
AcDbEntity
  8
プラグ
100
AcDbLine
 10
322.040004988
 20
211.42
 30
0.0
 11
322.040004988
 21
213.52
 31
0.0
  0
LINE
  5
3AF
330
1F
100
AcDbEntity
  8
プラグ
100
AcDbLine
 10
322.040004988
 20
208.32
 30
0.0
 11
322.040004988
 21
210.42
 31
0.0
  0
LINE
  5
3B0
330
1F
100
AcDbEntity
  8
プラグ
100
AcDbLine
 10
332.64
 20
202.77
 30
0.0
 11
332.64
 21
205.57
 31
0.0
  0
LINE
  5
3B1
330
1F
100
AcDbEntity
  8
プラグ
100
AcDbLine
 10
332.64
 20
210.07
 30
0.0
 11
332.64
 21
205.57
 31
0.0
  0
LINE
  5
3B2
330
1F
100
AcDbEntity
  8
プラグ
100
AcDbLine
 10
331.640004988
 20
202.92
 30
0.0
 11
331.640004988
 21
209.92
 31
0.0
  0
LINE
  5
3B3
330
1F
100
AcDbEntity
  8
プラグ
100
AcDbLine
 10
331.640004988
 20
202.92
 30
0.0
 11
331.640004988
 21
209.92
 31
0.0
  0
LINE
  5
3B4
330
1F
100
AcDbEntity
  8
プラグ
100
AcDbLine
 10
329.140004988
 20
203.52
 30
0.0
 11
328.140004988
 21
203.52
 31
0.0
  0
LINE
  5
3B5
330
1F
100
AcDbEntity
  8
プラグ
100
AcDbLine
 10
329.140004988
 20
206.42
 30
0.0
 11
330.040004988
 21
205.82
 31
0.0
  0
LINE
  5
3B6
330
1F
100
AcDbEntity
  8
プラグ
100
AcDbLine
 10
329.140004988
 20
207.02
 30
0.0
 11
330.040004988
 21
206.42
 31
0.0
  0
LINE
  5
3B7
330
1F
100
AcDbEntity
  8
プラグ
100
AcDbLine
 10
329.140004988
 20
203.52
 30
0.0
 11
330.040004988
 21
203.52
 31
0.0
  0
LINE
  5
3B8
330
1F
100
AcDbEntity
  8
プラグ
100
AcDbLine
 10
329.140004988
 20
209.32
 30
0.0
 11
330.040004988
 21
209.32
 31
0.0
  0
LINE
  5
3B9
330
1F
100
AcDbEntity
  8
プラグ
100
AcDbLine
 10
329.140004988
 20
203.52
 30
0.0
 11
329.140004988
 21
209.32
 31
0.0
  0
LINE
  5
3BA
330
1F
100
AcDbEntity
  8
プラグ
100
AcDbLine
 10
327.140004988
 20
204.52
 30
0.0
 11
327.140004988
 21
206.42
 31
0.0
  0
ARC
  5
3BB
330
1F
100
AcDbEntity
  8
プラグ
100
AcDbCircle
 10
328.140004988
 20
204.52
 30
0.0
 40
1.0
100
AcDbArc
 50
180.0
 51
270.0
  0
LINE
  5
3BC
330
1F
100
AcDbEntity
  8
プラグ
100
AcDbLine
 10
327.140004988
 20
208.32
 30
0.0
 11
327.140004988
 21
206.42
 31
0.0
  0
ARC
  5
3BD
330
1F
100
AcDbEntity
  8
プラグ
100
AcDbCircle
 10
328.140004988
 20
208.32
 30
0.0
 40
1.0
100
AcDbArc
 50
90.0
 51
180.0
  0
LINE
  5
3BE
330
1F
100
AcDbEntity
  8
プラグ
100
AcDbLine
 10
329.140004988
 20
209.32
 30
0.0
 11
328.140004988
 21
209.32
 31
0.0
  0
LINE
  5
3BF
330
1F
100
AcDbEntity
  8
プラグ
100
AcDbLine
 10
327.140004988
 20
208.32
 30
0.0
 11
327.140004988
 21
206.42
 31
0.0
  0
ARC
  5
3C0
330
1F
100
AcDbEntity
  8
プラグ
100
AcDbCircle
 10
328.140004988
 20
208.32
 30
0.0
 40
1.0
100
AcDbArc
 50
90.0
 51
180.0
  0
LINE
  5
3C1
330
1F
100
AcDbEntity
  8
プラグ
100
AcDbLine
 10
327.140004988
 20
204.52
 30
0.0
 11
327.140004988
 21
206.42
 31
0.0
  0
ARC
  5
3C2
330
1F
100
AcDbEntity
  8
プラグ
100
AcDbCircle
 10
328.140004988
 20
204.52
 30
0.0
 40
1.0
100
AcDbArc
 50
180.0
 51
270.0
  0
LINE
  5
3C3
330
1F
100
AcDbEntity
  8
プラグ
100
AcDbLine
 10
331.040004988
 20
209.92
 30
0.0
 11
331.640004988
 21
209.92
 31
0.0
  0
LINE
  5
3C4
330
1F
100
AcDbEntity
  8
プラグ
100
AcDbLine
 10
331.640004988
 20
209.92
 30
0.0
 11
331.040004988
 21
207.77
 31
0.0
  0
LINE
  5
3C5
330
1F
100
AcDbEntity
  8
プラグ
100
AcDbLine
 10
331.040004988
 20
209.02
 30
0.0
 11
331.640004988
 21
209.92
 31
0.0
  0
LINE
  5
3C6
330
1F
100
AcDbEntity
  8
プラグ
100
AcDbLine
 10
331.040004988
 20
202.92
 30
0.0
 11
331.640004988
 21
202.92
 31
0.0
  0
LINE
  5
3C7
330
1F
100
AcDbEntity
  8
プラグ
100
AcDbLine
 10
331.640004988
 20
202.92
 30
0.0
 11
331.040004988
 21
205.07
 31
0.0
  0
LINE
  5
3C8
330
1F
100
AcDbEntity
  8
プラグ
100
AcDbLine
 10
331.040004988
 20
203.82
 30
0.0
 11
331.640004988
 21
202.92
 31
0.0
  0
LINE
  5
3C9
330
1F
100
AcDbEntity
  8
プラグ
100
AcDbLine
 10
330.040004988
 20
209.52
 30
0.0
 11
330.040004988
 21
206.42
 31
0.0
  0
POLYLINE
  5
3CA
330
1F
100
AcDbEntity
  8
プラグ
100
AcDb2dPolyline
 66
     1
 10
0.0
 20
0.0
 30
0.0
  0
VERTEX
  5
3CB
330
3CA
100
AcDbEntity
  8
0
100
AcDbVertex
100
AcDb2dVertex
 10
331.040004988
 20
209.92
 30
0.0
  0
VERTEX
  5
3CC
330
3CA
100
AcDbEntity
  8
0
100
AcDbVertex
100
AcDb2dVertex
 10
330.540004988
 20
209.92
 30
0.0
  0
VERTEX
  5
3CD
330
3CA
100
AcDbEntity
  8
0
100
AcDbVertex
100
AcDb2dVertex
 10
330.040004988
 20
209.52
 30
0.0
  0
SEQEND
  5
3CE
330
3CA
100
AcDbEntity
  8
プラグ
  0
LINE
  5
3CF
330
1F
100
AcDbEntity
  8
プラグ
100
AcDbLine
 10
331.040004988
 20
202.92
 30
0.0
 11
330.540004988
 21
202.92
 31
0.0
  0
LINE
  5
3D0
330
1F
100
AcDbEntity
  8
プラグ
100
AcDbLine
 10
330.040004988
 20
203.32
 30
0.0
 11
330.040004988
 21
206.42
 31
0.0
  0
LINE
  5
3D1
330
1F
100
AcDbEntity
  8
プラグ
100
AcDbLine
 10
330.540004988
 20
202.92
 30
0.0
 11
330.040004988
 21
203.32
 31
0.0
  0
LINE
  5
3D2
330
1F
100
AcDbEntity
  8
プラグ
100
AcDbLine
 10
331.040004988
 20
206.92
 30
0.0
 11
331.540004988
 21
206.92
 31
0.0
  0
LINE
  5
3D3
330
1F
100
AcDbEntity
  8
プラグ
100
AcDbLine
 10
331.540004988
 20
206.92
 30
0.0
 11
331.540004988
 21
205.92
 31
0.0
  0
LINE
  5
3D4
330
1F
100
AcDbEntity
  8
プラグ
100
AcDbLine
 10
331.540004988
 20
205.92
 30
0.0
 11
331.040004988
 21
205.92
 31
0.0
  0
LINE
  5
3D5
330
1F
100
AcDbEntity
  8
プラグ
100
AcDbLine
 10
331.040004988
 20
206.92
 30
0.0
 11
331.040004988
 21
209.02
 31
0.0
  0
LINE
  5
3D6
330
1F
100
AcDbEntity
  8
プラグ
100
AcDbLine
 10
331.040004988
 20
203.82
 30
0.0
 11
331.040004988
 21
205.92
 31
0.0
  0
ARC
  5
3D7
330
1F
100
AcDbEntity
  8
プラグ
100
AcDbCircle
 10
311.64
 20
201.67
 30
0.0
 40
1.0
100
AcDbArc
 50
180.0
 51
270.0
  0
ARC
  5
3D8
330
1F
100
AcDbEntity
  8
プラグ
100
AcDbCircle
 10
311.64
 20
224.67
 30
0.0
 40
1.0
100
AcDbArc
 50
90.0
 51
180.0
  0
LINE
  5
3D9
330
1F
100
AcDbEntity
  8
プラグ
100
AcDbLine
 10
312.64
 20
203.67
 30
0.0
 11
312.64
 21
205.17
 31
0.0
  0
LINE
  5
3DA
330
1F
100
AcDbEntity
  8
プラグ
100
AcDbLine
 10
312.64
 20
206.17
 30
0.0
 11
312.64
 21
207.67
 31
0.0
  0
LINE
  5
3DB
330
1F
100
AcDbEntity
  8
プラグ
100
AcDbLine
 10
312.64
 20
208.67
 30
0.0
 11
312.64
 21
210.17
 31
0.0
  0
LINE
  5
3DC
330
1F
100
AcDbEntity
  8
プラグ
100
AcDbLine
 10
312.64
 20
211.17
 30
0.0
 11
312.64
 21
212.67
 31
0.0
  0
LINE
  5
3DD
330
1F
100
AcDbEntity
  8
プラグ
100
AcDbLine
 10
312.64
 20
222.67
 30
0.0
 11
312.64
 21
221.17
 31
0.0
  0
LINE
  5
3DE
330
1F
100
AcDbEntity
  8
プラグ
100
AcDbLine
 10
312.64
 20
220.17
 30
0.0
 11
312.64
 21
218.67
 31
0.0
  0
LINE
  5
3DF
330
1F
100
AcDbEntity
  8
プラグ
100
AcDbLine
 10
312.64
 20
215.17
 30
0.0
 11
312.64
 21
213.67
 31
0.0
  0
LINE
  5
3E0
330
1F
100
AcDbEntity
  8
プラグ
100
AcDbLine
 10
312.64
 20
217.67
 30
0.0
 11
312.64
 21
216.22
 31
0.0
  0
LINE
  5
3E1
330
1F
100
AcDbEntity
  8
プラグ
100
AcDbLine
 10
314.439
 20
223.67
 30
0.0
 11
314.439
 21
225.67
 31
0.0
  0
LINE
  5
3E2
330
1F
100
AcDbEntity
  8
プラグ
100
AcDbLine
 10
314.439
 20
202.67
 30
0.0
 11
314.439
 21
200.67
 31
0.0
  0
LINE
  5
3E3
330
1F
100
AcDbEntity
  8
プラグ
100
AcDbLine
 10
311.24
 20
222.659526961
 30
0.0
 11
311.24
 21
221.180473039
 31
0.0
  0
LINE
  5
3E4
330
1F
100
AcDbEntity
  8
プラグ
100
AcDbLine
 10
311.24
 20
220.159526961
 30
0.0
 11
311.24
 21
218.680473039
 31
0.0
  0
LINE
  5
3E5
330
1F
100
AcDbEntity
  8
プラグ
100
AcDbLine
 10
311.24
 20
217.659526961
 30
0.0
 11
311.24
 21
216.180473039
 31
0.0
  0
LINE
  5
3E6
330
1F
100
AcDbEntity
  8
プラグ
100
AcDbLine
 10
311.24
 20
215.159526961
 30
0.0
 11
311.24
 21
213.680473039
 31
0.0
  0
LINE
  5
3E7
330
1F
100
AcDbEntity
  8
プラグ
100
AcDbLine
 10
311.24
 20
212.659526961
 30
0.0
 11
311.24
 21
211.180473039
 31
0.0
  0
LINE
  5
3E8
330
1F
100
AcDbEntity
  8
プラグ
100
AcDbLine
 10
311.24
 20
210.159526961
 30
0.0
 11
311.24
 21
208.680473039
 31
0.0
  0
LINE
  5
3E9
330
1F
100
AcDbEntity
  8
プラグ
100
AcDbLine
 10
311.24
 20
207.659526961
 30
0.0
 11
311.24
 21
206.180473039
 31
0.0
  0
LINE
  5
3EA
330
1F
100
AcDbEntity
  8
プラグ
100
AcDbLine
 10
311.24
 20
205.159526961
 30
0.0
 11
311.24
 21
203.680473039
 31
0.0
  0
LINE
  5
3EB
330
1F
100
AcDbEntity
  8
プラグ
100
AcDbLine
 10
310.64
 20
203.67
 30
0.0
 11
310.64
 21
201.67
 31
0.0
  0
LINE
  5
3EC
330
1F
100
AcDbEntity
  8
プラグ
100
AcDbLine
 10
310.64
 20
206.17
 30
0.0
 11
310.64
 21
205.17
 31
0.0
  0
LINE
  5
3ED
330
1F
100
AcDbEntity
  8
プラグ
100
AcDbLine
 10
310.64
 20
208.67
 30
0.0
 11
310.64
 21
207.67
 31
0.0
  0
LINE
  5
3EE
330
1F
100
AcDbEntity
  8
プラグ
100
AcDbLine
 10
310.64
 20
211.17
 30
0.0
 11
310.64
 21
210.17
 31
0.0
  0
LINE
  5
3EF
330
1F
100
AcDbEntity
  8
プラグ
100
AcDbLine
 10
310.64
 20
213.67
 30
0.0
 11
310.64
 21
212.67
 31
0.0
  0
LINE
  5
3F0
330
1F
100
AcDbEntity
  8
プラグ
100
AcDbLine
 10
310.64
 20
216.17
 30
0.0
 11
310.64
 21
215.17
 31
0.0
  0
LINE
  5
3F1
330
1F
100
AcDbEntity
  8
プラグ
100
AcDbLine
 10
310.64
 20
218.67
 30
0.0
 11
310.64
 21
217.67
 31
0.0
  0
LINE
  5
3F2
330
1F
100
AcDbEntity
  8
プラグ
100
AcDbLine
 10
310.64
 20
221.17
 30
0.0
 11
310.64
 21
220.17
 31
0.0
  0
LINE
  5
3F3
330
1F
100
AcDbEntity
  8
プラグ
100
AcDbLine
 10
310.64
 20
224.67
 30
0.0
 11
310.64
 21
222.67
 31
0.0
  0
ARC
  5
3F4
330
1F
100
AcDbEntity
  8
プラグ
100
AcDbCircle
 10
314.689
 20
223.17
 30
0.0
 40
0.25
100
AcDbArc
 50
89.99984544999512
 51
179.9999999999951
  0
LINE
  5
3F5
330
1F
100
AcDbEntity
  8
プラグ
100
AcDbLine
 10
314.795835223
 20
223.42
 30
0.0
 11
314.689000674
 21
223.42
 31
0.0
  0
ARC
  5
3F6
330
1F
100
AcDbEntity
  8
プラグ
100
AcDbCircle
 10
314.689
 20
203.17
 30
0.0
 40
0.25
100
AcDbArc
 50
180.0
 51
270.0
  0
LINE
  5
3F7
330
1F
100
AcDbEntity
  8
プラグ
100
AcDbLine
 10
314.439
 20
203.17
 30
0.0
 11
314.439
 21
223.17
 31
0.0
  0
LINE
  5
3F8
330
1F
100
AcDbEntity
  8
プラグ
100
AcDbLine
 10
315.639
 20
223.42
 30
0.0
 11
315.639
 21
202.92
 31
0.0
  0
LINE
  5
3F9
330
1F
100
AcDbEntity
  8
プラグ
100
AcDbLine
 10
314.839
 20
202.67
 30
0.0
 11
314.839
 21
202.92
 31
0.0
  0
LINE
  5
3FA
330
1F
100
AcDbEntity
  8
プラグ
100
AcDbLine
 10
314.839
 20
223.67
 30
0.0
 11
314.839
 21
223.42
 31
0.0
  0
LINE
  5
3FB
330
1F
100
AcDbEntity
  8
プラグ
100
AcDbLine
 10
310.64
 20
205.17
 30
0.0
 11
314.439
 21
205.103688208
 31
0.0
  0
LINE
  5
3FC
330
1F
100
AcDbEntity
  8
プラグ
100
AcDbLine
 10
310.64
 20
205.17
 30
0.0
 11
314.439
 21
205.103688208
 31
0.0
  0
LINE
  5
3FD
330
1F
100
AcDbEntity
  8
プラグ
100
AcDbLine
 10
310.64
 20
203.67
 30
0.0
 11
314.439
 21
203.736311792
 31
0.0
  0
LINE
  5
3FE
330
1F
100
AcDbEntity
  8
プラグ
100
AcDbLine
 10
310.64
 20
203.67
 30
0.0
 11
314.439
 21
203.736311792
 31
0.0
  0
LINE
  5
3FF
330
1F
100
AcDbEntity
  8
プラグ
100
AcDbLine
 10
310.64
 20
206.17
 30
0.0
 11
314.439
 21
206.236311792
 31
0.0
  0
LINE
  5
400
330
1F
100
AcDbEntity
  8
プラグ
100
AcDbLine
 10
310.64
 20
206.17
 30
0.0
 11
314.439
 21
206.236311792
 31
0.0
  0
LINE
  5
401
330
1F
100
AcDbEntity
  8
プラグ
100
AcDbLine
 10
310.64
 20
207.67
 30
0.0
 11
314.439
 21
207.603688208
 31
0.0
  0
LINE
  5
402
330
1F
100
AcDbEntity
  8
プラグ
100
AcDbLine
 10
310.64
 20
207.67
 30
0.0
 11
314.439
 21
207.603688208
 31
0.0
  0
LINE
  5
403
330
1F
100
AcDbEntity
  8
プラグ
100
AcDbLine
 10
310.64
 20
208.67
 30
0.0
 11
314.439
 21
208.736311792
 31
0.0
  0
LINE
  5
404
330
1F
100
AcDbEntity
  8
プラグ
100
AcDbLine
 10
310.64
 20
208.67
 30
0.0
 11
314.439
 21
208.736311792
 31
0.0
  0
LINE
  5
405
330
1F
100
AcDbEntity
  8
プラグ
100
AcDbLine
 10
310.64
 20
210.17
 30
0.0
 11
314.439
 21
210.103688208
 31
0.0
  0
LINE
  5
406
330
1F
100
AcDbEntity
  8
プラグ
100
AcDbLine
 10
310.64
 20
210.17
 30
0.0
 11
314.439
 21
210.103688208
 31
0.0
  0
LINE
  5
407
330
1F
100
AcDbEntity
  8
プラグ
100
AcDbLine
 10
310.64
 20
211.17
 30
0.0
 11
314.439
 21
211.236311792
 31
0.0
  0
LINE
  5
408
330
1F
100
AcDbEntity
  8
プラグ
100
AcDbLine
 10
310.64
 20
211.17
 30
0.0
 11
314.439
 21
211.236311792
 31
0.0
  0
LINE
  5
409
330
1F
100
AcDbEntity
  8
プラグ
100
AcDbLine
 10
310.64
 20
212.67
 30
0.0
 11
314.439
 21
212.603688208
 31
0.0
  0
LINE
  5
40A
330
1F
100
AcDbEntity
  8
プラグ
100
AcDbLine
 10
310.64
 20
212.67
 30
0.0
 11
314.439
 21
212.603688208
 31
0.0
  0
LINE
  5
40B
330
1F
100
AcDbEntity
  8
プラグ
100
AcDbLine
 10
310.64
 20
213.67
 30
0.0
 11
314.439
 21
213.736311792
 31
0.0
  0
LINE
  5
40C
330
1F
100
AcDbEntity
  8
プラグ
100
AcDbLine
 10
310.64
 20
213.67
 30
0.0
 11
314.439
 21
213.736311792
 31
0.0
  0
LINE
  5
40D
330
1F
100
AcDbEntity
  8
プラグ
100
AcDbLine
 10
310.64
 20
215.17
 30
0.0
 11
314.439
 21
215.103688208
 31
0.0
  0
LINE
  5
40E
330
1F
100
AcDbEntity
  8
プラグ
100
AcDbLine
 10
310.64
 20
215.17
 30
0.0
 11
314.439
 21
215.103688208
 31
0.0
  0
LINE
  5
40F
330
1F
100
AcDbEntity
  8
プラグ
100
AcDbLine
 10
310.64
 20
216.17
 30
0.0
 11
314.439
 21
216.236311792
 31
0.0
  0
LINE
  5
410
330
1F
100
AcDbEntity
  8
プラグ
100
AcDbLine
 10
310.64
 20
216.17
 30
0.0
 11
314.439
 21
216.236311792
 31
0.0
  0
LINE
  5
411
330
1F
100
AcDbEntity
  8
プラグ
100
AcDbLine
 10
310.64
 20
217.67
 30
0.0
 11
314.439
 21
217.603688208
 31
0.0
  0
LINE
  5
412
330
1F
100
AcDbEntity
  8
プラグ
100
AcDbLine
 10
310.64
 20
217.67
 30
0.0
 11
314.439
 21
217.603688208
 31
0.0
  0
LINE
  5
413
330
1F
100
AcDbEntity
  8
プラグ
100
AcDbLine
 10
310.64
 20
218.67
 30
0.0
 11
314.439
 21
218.736311792
 31
0.0
  0
LINE
  5
414
330
1F
100
AcDbEntity
  8
プラグ
100
AcDbLine
 10
310.64
 20
218.67
 30
0.0
 11
314.439
 21
218.736311792
 31
0.0
  0
LINE
  5
415
330
1F
100
AcDbEntity
  8
プラグ
100
AcDbLine
 10
310.64
 20
220.17
 30
0.0
 11
314.439
 21
220.103688208
 31
0.0
  0
LINE
  5
416
330
1F
100
AcDbEntity
  8
プラグ
100
AcDbLine
 10
310.64
 20
220.17
 30
0.0
 11
314.439
 21
220.103688208
 31
0.0
  0
LINE
  5
417
330
1F
100
AcDbEntity
  8
プラグ
100
AcDbLine
 10
310.64
 20
221.17
 30
0.0
 11
314.439
 21
221.236311792
 31
0.0
  0
LINE
  5
418
330
1F
100
AcDbEntity
  8
プラグ
100
AcDbLine
 10
310.64
 20
221.17
 30
0.0
 11
314.439
 21
221.236311792
 31
0.0
  0
LINE
  5
419
330
1F
100
AcDbEntity
  8
プラグ
100
AcDbLine
 10
310.64
 20
222.67
 30
0.0
 11
314.439
 21
222.603688208
 31
0.0
  0
LINE
  5
41A
330
1F
100
AcDbEntity
  8
プラグ
100
AcDbLine
 10
310.64
 20
222.67
 30
0.0
 11
314.439
 21
222.603688208
 31
0.0
  0
LINE
  5
41B
330
1F
100
AcDbEntity
  8
プラグ
100
AcDbLine
 10
317.289
 20
222.42
 30
0.0
 11
315.639
 21
222.42
 31
0.0
  0
LINE
  5
41C
330
1F
100
AcDbEntity
  8
プラグ
100
AcDbLine
 10
317.289
 20
223.17
 30
0.0
 11
317.289
 21
222.42
 31
0.0
  0
ARC
  5
41D
330
1F
100
AcDbEntity
  8
プラグ
100
AcDbCircle
 10
317.039
 20
223.17
 30
0.0
 40
0.25
100
AcDbArc
 50
0.0
 51
90.0
  0
ARC
  5
41E
330
1F
100
AcDbEntity
  8
プラグ
100
AcDbCircle
 10
316.083221577
 20
223.12
 30
0.0
 40
0.7500000000000004
100
AcDbArc
 50
23.57817847799902
 51
47.16657193499903
  0
ARC
  5
41F
330
1F
100
AcDbEntity
  8
プラグ
100
AcDbCircle
 10
316.083221577
 20
223.12
 30
0.0
 40
0.7500000000000063
100
AcDbArc
 50
132.8334280649998
 51
156.4218215219998
  0
LINE
  5
420
330
1F
100
AcDbEntity
  8
プラグ
100
AcDbLine
 10
317.039
 20
223.42
 30
0.0
 11
314.795835223
 21
223.42
 31
0.0
  0
LINE
  5
421
330
1F
100
AcDbEntity
  8
プラグ
100
AcDbLine
 10
317.289
 20
203.92
 30
0.0
 11
315.639
 21
203.92
 31
0.0
  0
LINE
  5
422
330
1F
100
AcDbEntity
  8
プラグ
100
AcDbLine
 10
317.289
 20
203.17
 30
0.0
 11
317.289
 21
203.92
 31
0.0
  0
ARC
  5
423
330
1F
100
AcDbEntity
  8
プラグ
100
AcDbCircle
 10
317.039
 20
203.17
 30
0.0
 40
0.25
100
AcDbArc
 50
270.0
 51
0.0
  0
ARC
  5
424
330
1F
100
AcDbEntity
  8
プラグ
100
AcDbCircle
 10
316.083221577
 20
203.22
 30
0.0
 40
0.7500000000000004
100
AcDbArc
 50
203.578178477999
 51
227.166571933999
  0
ARC
  5
425
330
1F
100
AcDbEntity
  8
プラグ
100
AcDbCircle
 10
316.083221577
 20
203.22
 30
0.0
 40
0.749999999999993
100
AcDbArc
 50
312.8334280660015
 51
336.4218215220015
  0
LINE
  5
426
330
1F
100
AcDbEntity
  8
プラグ
100
AcDbLine
 10
317.14
 20
202.941310254
 30
0.0
 11
317.14
 21
202.67
 31
0.0
  0
LINE
  5
427
330
1F
100
AcDbEntity
  8
プラグ
100
AcDbLine
 10
317.039
 20
202.92
 30
0.0
 11
314.689
 21
202.92
 31
0.0
  0
LINE
  5
428
330
1F
100
AcDbEntity
  8
プラグ
100
AcDbLine
 10
67.5
 20
200.67
 30
0.0
 11
67.5
 21
225.67
 31
0.0
  0
LINE
  5
429
330
1F
100
AcDbEntity
  8
プラグ
100
AcDbLine
 10
93.549997303
 20
202.67
 30
0.0
 11
86.3
 21
202.67
 31
0.0
  0
ARC
  5
42A
330
1F
100
AcDbEntity
  8
プラグ
100
AcDbCircle
 10
107.3
 20
201.67
 30
0.0
 40
1.0
100
AcDbArc
 50
270.0
 51
0.0
  0
ARC
  5
42B
330
1F
100
AcDbEntity
  8
プラグ
100
AcDbCircle
 10
107.3
 20
224.67
 30
0.0
 40
1.0
100
AcDbArc
 50
0.0
 51
90.0
  0
LINE
  5
42C
330
1F
100
AcDbEntity
  8
プラグ
100
AcDbLine
 10
107.3
 20
200.67
 30
0.0
 11
67.5
 21
200.67
 31
0.0
  0
LINE
  5
42D
330
1F
100
AcDbEntity
  8
プラグ
100
AcDbLine
 10
94.549997303
 20
202.67
 30
0.0
 11
108.3
 21
202.67
 31
0.0
  0
LINE
  5
42E
330
1F
100
AcDbEntity
  8
プラグ
100
AcDbLine
 10
108.3
 20
202.67
 30
0.0
 11
93.462749006
 21
202.67
 31
0.0
  0
LINE
  5
42F
330
1F
100
AcDbEntity
  8
プラグ
100
AcDbLine
 10
67.5
 20
225.67
 30
0.0
 11
107.3
 21
225.67
 31
0.0
  0
LINE
  5
430
330
1F
100
AcDbEntity
  8
プラグ
100
AcDbLine
 10
106.3
 20
203.67
 30
0.0
 11
106.3
 21
205.17
 31
0.0
  0
LINE
  5
431
330
1F
100
AcDbEntity
  8
プラグ
100
AcDbLine
 10
106.3
 20
206.17
 30
0.0
 11
106.3
 21
207.67
 31
0.0
  0
LINE
  5
432
330
1F
100
AcDbEntity
  8
プラグ
100
AcDbLine
 10
106.3
 20
208.67
 30
0.0
 11
106.3
 21
210.17
 31
0.0
  0
LINE
  5
433
330
1F
100
AcDbEntity
  8
プラグ
100
AcDbLine
 10
106.3
 20
211.17
 30
0.0
 11
106.3
 21
212.67
 31
0.0
  0
LINE
  5
434
330
1F
100
AcDbEntity
  8
プラグ
100
AcDbLine
 10
106.3
 20
222.67
 30
0.0
 11
106.3
 21
221.17
 31
0.0
  0
LINE
  5
435
330
1F
100
AcDbEntity
  8
プラグ
100
AcDbLine
 10
106.3
 20
220.17
 30
0.0
 11
106.3
 21
218.67
 31
0.0
  0
LINE
  5
436
330
1F
100
AcDbEntity
  8
プラグ
100
AcDbLine
 10
106.3
 20
215.17
 30
0.0
 11
106.3
 21
213.67
 31
0.0
  0
LINE
  5
437
330
1F
100
AcDbEntity
  8
プラグ
100
AcDbLine
 10
93.549997303
 20
202.67
 30
0.0
 11
86.3
 21
202.67
 31
0.0
  0
LINE
  5
438
330
1F
100
AcDbEntity
  8
プラグ
100
AcDbLine
 10
105.05
 20
202.67
 30
0.0
 11
93.549997303
 21
202.67
 31
0.0
  0
LINE
  5
439
330
1F
100
AcDbEntity
  8
プラグ
100
AcDbLine
 10
94.549997303
 20
202.67
 30
0.0
 11
108.3
 21
202.67
 31
0.0
  0
LINE
  5
43A
330
1F
100
AcDbEntity
  8
プラグ
100
AcDbLine
 10
86.3
 20
202.77
 30
0.0
 11
86.3
 21
208.22
 31
0.0
  0
LINE
  5
43B
330
1F
100
AcDbEntity
  8
プラグ
100
AcDbLine
 10
86.3
 20
211.77
 30
0.0
 11
86.3
 21
214.57
 31
0.0
  0
LINE
  5
43C
330
1F
100
AcDbEntity
  8
プラグ
100
AcDbLine
 10
86.3
 20
208.22
 30
0.0
 11
86.3
 21
210.07
 31
0.0
  0
LINE
  5
43D
330
1F
100
AcDbEntity
  8
プラグ
100
AcDbLine
 10
95.3
 20
207.27
 30
0.0
 11
101.8
 21
207.27
 31
0.0
  0
LINE
  5
43E
330
1F
100
AcDbEntity
  8
プラグ
100
AcDbLine
 10
86.3
 20
219.07
 30
0.0
 11
86.3
 21
214.57
 31
0.0
  0
LINE
  5
43F
330
1F
100
AcDbEntity
  8
プラグ
100
AcDbLine
 10
92.8
 20
225.67
 30
0.0
 11
92.8
 21
223.67
 31
0.0
  0
LINE
  5
440
330
1F
100
AcDbEntity
  8
プラグ
100
AcDbLine
 10
92.8
 20
223.67
 30
0.0
 11
108.3
 21
223.67
 31
0.0
  0
LINE
  5
441
330
1F
100
AcDbEntity
  8
プラグ
100
AcDbLine
 10
86.3
 20
219.07
 30
0.0
 11
92.8
 21
219.07
 31
0.0
  0
LINE
  5
442
330
1F
100
AcDbEntity
  8
プラグ
100
AcDbLine
 10
92.8
 20
219.07
 30
0.0
 11
92.8
 21
223.67
 31
0.0
  0
LINE
  5
443
330
1F
100
AcDbEntity
  8
プラグ
100
AcDbLine
 10
92.8
 20
202.67
 30
0.0
 11
92.8
 21
200.67
 31
0.0
  0
LINE
  5
444
330
1F
100
AcDbEntity
  8
プラグ
100
AcDbLine
 10
86.3
 20
211.77
 30
0.0
 11
92.8
 21
211.77
 31
0.0
  0
LINE
  5
445
330
1F
100
AcDbEntity
  8
プラグ
100
AcDbLine
 10
86.3
 20
210.07
 30
0.0
 11
92.8
 21
210.07
 31
0.0
  0
LINE
  5
446
330
1F
100
AcDbEntity
  8
プラグ
100
AcDbLine
 10
92.8
 20
210.07
 30
0.0
 11
92.8
 21
211.77
 31
0.0
  0
LINE
  5
447
330
1F
100
AcDbEntity
  8
プラグ
100
AcDbLine
 10
95.3
 20
223.67
 30
0.0
 11
95.3
 21
216.27
 31
0.0
  0
LINE
  5
448
330
1F
100
AcDbEntity
  8
プラグ
100
AcDbLine
 10
95.3
 20
214.57
 30
0.0
 11
95.3
 21
207.27
 31
0.0
  0
LINE
  5
449
330
1F
100
AcDbEntity
  8
プラグ
100
AcDbLine
 10
87.299995012
 20
211.92
 30
0.0
 11
87.299995012
 21
218.92
 31
0.0
  0
LINE
  5
44A
330
1F
100
AcDbEntity
  8
プラグ
100
AcDbLine
 10
87.299995012
 20
211.92
 30
0.0
 11
87.299995012
 21
218.92
 31
0.0
  0
LINE
  5
44B
330
1F
100
AcDbEntity
  8
プラグ
100
AcDbLine
 10
89.799995012
 20
212.52
 30
0.0
 11
90.799995012
 21
212.52
 31
0.0
  0
LINE
  5
44C
330
1F
100
AcDbEntity
  8
プラグ
100
AcDbLine
 10
89.799995012
 20
215.42
 30
0.0
 11
88.899995012
 21
214.82
 31
0.0
  0
LINE
  5
44D
330
1F
100
AcDbEntity
  8
プラグ
100
AcDbLine
 10
89.799995012
 20
216.02
 30
0.0
 11
88.899995012
 21
215.42
 31
0.0
  0
LINE
  5
44E
330
1F
100
AcDbEntity
  8
プラグ
100
AcDbLine
 10
89.799995012
 20
212.52
 30
0.0
 11
88.899995012
 21
212.52
 31
0.0
  0
LINE
  5
44F
330
1F
100
AcDbEntity
  8
プラグ
100
AcDbLine
 10
89.799995012
 20
218.32
 30
0.0
 11
88.899995012
 21
218.32
 31
0.0
  0
LINE
  5
450
330
1F
100
AcDbEntity
  8
プラグ
100
AcDbLine
 10
89.799995012
 20
212.52
 30
0.0
 11
89.799995012
 21
218.32
 31
0.0
  0
LINE
  5
451
330
1F
100
AcDbEntity
  8
プラグ
100
AcDbLine
 10
91.799995012
 20
213.52
 30
0.0
 11
91.799995012
 21
215.42
 31
0.0
  0
ARC
  5
452
330
1F
100
AcDbEntity
  8
プラグ
100
AcDbCircle
 10
90.799995012
 20
213.52
 30
0.0
 40
1.0
100
AcDbArc
 50
270.0
 51
0.0
  0
LINE
  5
453
330
1F
100
AcDbEntity
  8
プラグ
100
AcDbLine
 10
91.799995012
 20
217.32
 30
0.0
 11
91.799995012
 21
215.42
 31
0.0
  0
ARC
  5
454
330
1F
100
AcDbEntity
  8
プラグ
100
AcDbCircle
 10
90.799995012
 20
217.32
 30
0.0
 40
1.0
100
AcDbArc
 50
0.0
 51
90.0
  0
LINE
  5
455
330
1F
100
AcDbEntity
  8
プラグ
100
AcDbLine
 10
89.799995012
 20
218.32
 30
0.0
 11
90.799995012
 21
218.32
 31
0.0
  0
LINE
  5
456
330
1F
100
AcDbEntity
  8
プラグ
100
AcDbLine
 10
91.799995012
 20
217.32
 30
0.0
 11
91.799995012
 21
215.42
 31
0.0
  0
ARC
  5
457
330
1F
100
AcDbEntity
  8
プラグ
100
AcDbCircle
 10
90.799995012
 20
217.32
 30
0.0
 40
1.0
100
AcDbArc
 50
0.0
 51
90.0
  0
LINE
  5
458
330
1F
100
AcDbEntity
  8
プラグ
100
AcDbLine
 10
91.799995012
 20
213.52
 30
0.0
 11
91.799995012
 21
215.42
 31
0.0
  0
ARC
  5
459
330
1F
100
AcDbEntity
  8
プラグ
100
AcDbCircle
 10
90.799995012
 20
213.52
 30
0.0
 40
1.0
100
AcDbArc
 50
270.0
 51
0.0
  0
LINE
  5
45A
330
1F
100
AcDbEntity
  8
プラグ
100
AcDbLine
 10
87.899995012
 20
218.92
 30
0.0
 11
87.299995012
 21
218.92
 31
0.0
  0
LINE
  5
45B
330
1F
100
AcDbEntity
  8
プラグ
100
AcDbLine
 10
87.299995012
 20
218.92
 30
0.0
 11
87.899995012
 21
216.77
 31
0.0
  0
LINE
  5
45C
330
1F
100
AcDbEntity
  8
プラグ
100
AcDbLine
 10
87.899995012
 20
218.02
 30
0.0
 11
87.299995012
 21
218.92
 31
0.0
  0
LINE
  5
45D
330
1F
100
AcDbEntity
  8
プラグ
100
AcDbLine
 10
87.899995012
 20
211.92
 30
0.0
 11
87.299995012
 21
211.92
 31
0.0
  0
LINE
  5
45E
330
1F
100
AcDbEntity
  8
プラグ
100
AcDbLine
 10
87.299995012
 20
211.92
 30
0.0
 11
87.899995012
 21
214.07
 31
0.0
  0
LINE
  5
45F
330
1F
100
AcDbEntity
  8
プラグ
100
AcDbLine
 10
87.899995012
 20
212.82
 30
0.0
 11
87.299995012
 21
211.92
 31
0.0
  0
LINE
  5
460
330
1F
100
AcDbEntity
  8
プラグ
100
AcDbLine
 10
88.899995012
 20
218.52
 30
0.0
 11
88.899995012
 21
215.42
 31
0.0
  0
POLYLINE
  5
461
330
1F
100
AcDbEntity
  8
プラグ
100
AcDb2dPolyline
 66
     1
 10
0.0
 20
0.0
 30
0.0
  0
VERTEX
  5
462
330
461
100
AcDbEntity
  8
0
100
AcDbVertex
100
AcDb2dVertex
 10
87.899995012
 20
218.92
 30
0.0
  0
VERTEX
  5
463
330
461
100
AcDbEntity
  8
0
100
AcDbVertex
100
AcDb2dVertex
 10
88.399995012
 20
218.92
 30
0.0
  0
VERTEX
  5
464
330
461
100
AcDbEntity
  8
0
100
AcDbVertex
100
AcDb2dVertex
 10
88.899995012
 20
218.52
 30
0.0
  0
SEQEND
  5
465
330
461
100
AcDbEntity
  8
プラグ
  0
LINE
  5
466
330
1F
100
AcDbEntity
  8
プラグ
100
AcDbLine
 10
87.899995012
 20
211.92
 30
0.0
 11
88.399995012
 21
211.92
 31
0.0
  0
LINE
  5
467
330
1F
100
AcDbEntity
  8
プラグ
100
AcDbLine
 10
88.899995012
 20
212.32
 30
0.0
 11
88.899995012
 21
215.42
 31
0.0
  0
LINE
  5
468
330
1F
100
AcDbEntity
  8
プラグ
100
AcDbLine
 10
88.399995012
 20
211.92
 30
0.0
 11
88.899995012
 21
212.32
 31
0.0
  0
LINE
  5
469
330
1F
100
AcDbEntity
  8
プラグ
100
AcDbLine
 10
87.899995012
 20
215.92
 30
0.0
 11
87.399995012
 21
215.92
 31
0.0
  0
LINE
  5
46A
330
1F
100
AcDbEntity
  8
プラグ
100
AcDbLine
 10
87.399995012
 20
215.92
 30
0.0
 11
87.399995012
 21
214.92
 31
0.0
  0
LINE
  5
46B
330
1F
100
AcDbEntity
  8
プラグ
100
AcDbLine
 10
87.399995012
 20
214.92
 30
0.0
 11
87.899995012
 21
214.92
 31
0.0
  0
LINE
  5
46C
330
1F
100
AcDbEntity
  8
プラグ
100
AcDbLine
 10
87.899995012
 20
215.92
 30
0.0
 11
87.899995012
 21
218.02
 31
0.0
  0
LINE
  5
46D
330
1F
100
AcDbEntity
  8
プラグ
100
AcDbLine
 10
87.899995012
 20
212.82
 30
0.0
 11
87.899995012
 21
214.92
 31
0.0
  0
LINE
  5
46E
330
1F
100
AcDbEntity
  8
プラグ
100
AcDbLine
 10
95.3
 20
216.37
 30
0.0
 11
95.3
 21
219.17
 31
0.0
  0
LINE
  5
46F
330
1F
100
AcDbEntity
  8
プラグ
100
AcDbLine
 10
95.3
 20
223.67
 30
0.0
 11
95.3
 21
219.17
 31
0.0
  0
LINE
  5
470
330
1F
100
AcDbEntity
  8
プラグ
100
AcDbLine
 10
96.299995012
 20
216.52
 30
0.0
 11
96.299995012
 21
223.52
 31
0.0
  0
LINE
  5
471
330
1F
100
AcDbEntity
  8
プラグ
100
AcDbLine
 10
96.299995012
 20
216.52
 30
0.0
 11
96.299995012
 21
223.52
 31
0.0
  0
LINE
  5
472
330
1F
100
AcDbEntity
  8
プラグ
100
AcDbLine
 10
98.799995012
 20
217.12
 30
0.0
 11
99.799995012
 21
217.12
 31
0.0
  0
LINE
  5
473
330
1F
100
AcDbEntity
  8
プラグ
100
AcDbLine
 10
98.799995012
 20
220.02
 30
0.0
 11
97.899995012
 21
219.42
 31
0.0
  0
LINE
  5
474
330
1F
100
AcDbEntity
  8
プラグ
100
AcDbLine
 10
98.799995012
 20
220.62
 30
0.0
 11
97.899995012
 21
220.02
 31
0.0
  0
LINE
  5
475
330
1F
100
AcDbEntity
  8
プラグ
100
AcDbLine
 10
98.799995012
 20
217.12
 30
0.0
 11
97.899995012
 21
217.12
 31
0.0
  0
LINE
  5
476
330
1F
100
AcDbEntity
  8
プラグ
100
AcDbLine
 10
98.799995012
 20
222.92
 30
0.0
 11
97.899995012
 21
222.92
 31
0.0
  0
LINE
  5
477
330
1F
100
AcDbEntity
  8
プラグ
100
AcDbLine
 10
98.799995012
 20
217.12
 30
0.0
 11
98.799995012
 21
222.92
 31
0.0
  0
LINE
  5
478
330
1F
100
AcDbEntity
  8
プラグ
100
AcDbLine
 10
100.799995012
 20
218.12
 30
0.0
 11
100.799995012
 21
220.02
 31
0.0
  0
ARC
  5
479
330
1F
100
AcDbEntity
  8
プラグ
100
AcDbCircle
 10
99.799995012
 20
218.12
 30
0.0
 40
1.0
100
AcDbArc
 50
270.0
 51
0.0
  0
LINE
  5
47A
330
1F
100
AcDbEntity
  8
プラグ
100
AcDbLine
 10
100.799995012
 20
221.92
 30
0.0
 11
100.799995012
 21
220.02
 31
0.0
  0
ARC
  5
47B
330
1F
100
AcDbEntity
  8
プラグ
100
AcDbCircle
 10
99.799995012
 20
221.92
 30
0.0
 40
1.0
100
AcDbArc
 50
0.0
 51
90.0
  0
LINE
  5
47C
330
1F
100
AcDbEntity
  8
プラグ
100
AcDbLine
 10
98.799995012
 20
222.92
 30
0.0
 11
99.799995012
 21
222.92
 31
0.0
  0
LINE
  5
47D
330
1F
100
AcDbEntity
  8
プラグ
100
AcDbLine
 10
100.799995012
 20
221.92
 30
0.0
 11
100.799995012
 21
220.02
 31
0.0
  0
ARC
  5
47E
330
1F
100
AcDbEntity
  8
プラグ
100
AcDbCircle
 10
99.799995012
 20
221.92
 30
0.0
 40
1.0
100
AcDbArc
 50
0.0
 51
90.0
  0
LINE
  5
47F
330
1F
100
AcDbEntity
  8
プラグ
100
AcDbLine
 10
100.799995012
 20
218.12
 30
0.0
 11
100.799995012
 21
220.02
 31
0.0
  0
ARC
  5
480
330
1F
100
AcDbEntity
  8
プラグ
100
AcDbCircle
 10
99.799995012
 20
218.12
 30
0.0
 40
1.0
100
AcDbArc
 50
270.0
 51
0.0
  0
LINE
  5
481
330
1F
100
AcDbEntity
  8
プラグ
100
AcDbLine
 10
96.899995012
 20
223.52
 30
0.0
 11
96.299995012
 21
223.52
 31
0.0
  0
LINE
  5
482
330
1F
100
AcDbEntity
  8
プラグ
100
AcDbLine
 10
96.299995012
 20
223.52
 30
0.0
 11
96.899995012
 21
221.37
 31
0.0
  0
LINE
  5
483
330
1F
100
AcDbEntity
  8
プラグ
100
AcDbLine
 10
96.899995012
 20
222.62
 30
0.0
 11
96.299995012
 21
223.52
 31
0.0
  0
LINE
  5
484
330
1F
100
AcDbEntity
  8
プラグ
100
AcDbLine
 10
96.899995012
 20
216.52
 30
0.0
 11
96.299995012
 21
216.52
 31
0.0
  0
LINE
  5
485
330
1F
100
AcDbEntity
  8
プラグ
100
AcDbLine
 10
96.299995012
 20
216.52
 30
0.0
 11
96.899995012
 21
218.67
 31
0.0
  0
LINE
  5
486
330
1F
100
AcDbEntity
  8
プラグ
100
AcDbLine
 10
96.899995012
 20
217.42
 30
0.0
 11
96.299995012
 21
216.52
 31
0.0
  0
LINE
  5
487
330
1F
100
AcDbEntity
  8
プラグ
100
AcDbLine
 10
97.899995012
 20
223.12
 30
0.0
 11
97.899995012
 21
220.02
 31
0.0
  0
POLYLINE
  5
488
330
1F
100
AcDbEntity
  8
プラグ
100
AcDb2dPolyline
 66
     1
 10
0.0
 20
0.0
 30
0.0
  0
VERTEX
  5
489
330
488
100
AcDbEntity
  8
0
100
AcDbVertex
100
AcDb2dVertex
 10
96.899995012
 20
223.52
 30
0.0
  0
VERTEX
  5
48A
330
488
100
AcDbEntity
  8
0
100
AcDbVertex
100
AcDb2dVertex
 10
97.399995012
 20
223.52
 30
0.0
  0
VERTEX
  5
48B
330
488
100
AcDbEntity
  8
0
100
AcDbVertex
100
AcDb2dVertex
 10
97.899995012
 20
223.12
 30
0.0
  0
SEQEND
  5
48C
330
488
100
AcDbEntity
  8
プラグ
  0
LINE
  5
48D
330
1F
100
AcDbEntity
  8
プラグ
100
AcDbLine
 10
96.899995012
 20
216.52
 30
0.0
 11
97.399995012
 21
216.52
 31
0.0
  0
LINE
  5
48E
330
1F
100
AcDbEntity
  8
プラグ
100
AcDbLine
 10
97.899995012
 20
216.92
 30
0.0
 11
97.899995012
 21
220.02
 31
0.0
  0
LINE
  5
48F
330
1F
100
AcDbEntity
  8
プラグ
100
AcDbLine
 10
97.399995012
 20
216.52
 30
0.0
 11
97.899995012
 21
216.92
 31
0.0
  0
LINE
  5
490
330
1F
100
AcDbEntity
  8
プラグ
100
AcDbLine
 10
96.899995012
 20
220.52
 30
0.0
 11
96.399995012
 21
220.52
 31
0.0
  0
LINE
  5
491
330
1F
100
AcDbEntity
  8
プラグ
100
AcDbLine
 10
96.399995012
 20
220.52
 30
0.0
 11
96.399995012
 21
219.52
 31
0.0
  0
LINE
  5
492
330
1F
100
AcDbEntity
  8
プラグ
100
AcDbLine
 10
96.399995012
 20
219.52
 30
0.0
 11
96.899995012
 21
219.52
 31
0.0
  0
LINE
  5
493
330
1F
100
AcDbEntity
  8
プラグ
100
AcDbLine
 10
96.899995012
 20
220.52
 30
0.0
 11
96.899995012
 21
222.62
 31
0.0
  0
LINE
  5
494
330
1F
100
AcDbEntity
  8
プラグ
100
AcDbLine
 10
96.899995012
 20
217.42
 30
0.0
 11
96.899995012
 21
219.52
 31
0.0
  0
LINE
  5
495
330
1F
100
AcDbEntity
  8
プラグ
100
AcDbLine
 10
95.3
 20
214.57
 30
0.0
 11
95.3
 21
207.17
 31
0.0
  0
LINE
  5
496
330
1F
100
AcDbEntity
  8
プラグ
100
AcDbLine
 10
95.3
 20
207.27
 30
0.0
 11
95.3
 21
210.07
 31
0.0
  0
LINE
  5
497
330
1F
100
AcDbEntity
  8
プラグ
100
AcDbLine
 10
95.3
 20
214.57
 30
0.0
 11
95.3
 21
210.07
 31
0.0
  0
LINE
  5
498
330
1F
100
AcDbEntity
  8
プラグ
100
AcDbLine
 10
96.299995012
 20
207.42
 30
0.0
 11
96.299995012
 21
214.42
 31
0.0
  0
LINE
  5
499
330
1F
100
AcDbEntity
  8
プラグ
100
AcDbLine
 10
96.299995012
 20
207.42
 30
0.0
 11
96.299995012
 21
214.42
 31
0.0
  0
LINE
  5
49A
330
1F
100
AcDbEntity
  8
プラグ
100
AcDbLine
 10
98.799995012
 20
208.02
 30
0.0
 11
99.799995012
 21
208.02
 31
0.0
  0
LINE
  5
49B
330
1F
100
AcDbEntity
  8
プラグ
100
AcDbLine
 10
98.799995012
 20
210.92
 30
0.0
 11
97.899995012
 21
210.32
 31
0.0
  0
LINE
  5
49C
330
1F
100
AcDbEntity
  8
プラグ
100
AcDbLine
 10
98.799995012
 20
211.52
 30
0.0
 11
97.899995012
 21
210.92
 31
0.0
  0
LINE
  5
49D
330
1F
100
AcDbEntity
  8
プラグ
100
AcDbLine
 10
98.799995012
 20
208.02
 30
0.0
 11
97.899995012
 21
208.02
 31
0.0
  0
LINE
  5
49E
330
1F
100
AcDbEntity
  8
プラグ
100
AcDbLine
 10
98.799995012
 20
213.82
 30
0.0
 11
97.899995012
 21
213.82
 31
0.0
  0
LINE
  5
49F
330
1F
100
AcDbEntity
  8
プラグ
100
AcDbLine
 10
98.799995012
 20
208.02
 30
0.0
 11
98.799995012
 21
213.82
 31
0.0
  0
LINE
  5
4A0
330
1F
100
AcDbEntity
  8
プラグ
100
AcDbLine
 10
100.799995012
 20
209.02
 30
0.0
 11
100.799995012
 21
210.92
 31
0.0
  0
ARC
  5
4A1
330
1F
100
AcDbEntity
  8
プラグ
100
AcDbCircle
 10
99.799995012
 20
209.02
 30
0.0
 40
1.0
100
AcDbArc
 50
270.0
 51
0.0
  0
LINE
  5
4A2
330
1F
100
AcDbEntity
  8
プラグ
100
AcDbLine
 10
100.799995012
 20
212.82
 30
0.0
 11
100.799995012
 21
210.92
 31
0.0
  0
ARC
  5
4A3
330
1F
100
AcDbEntity
  8
プラグ
100
AcDbCircle
 10
99.799995012
 20
212.82
 30
0.0
 40
1.0
100
AcDbArc
 50
0.0
 51
90.0
  0
LINE
  5
4A4
330
1F
100
AcDbEntity
  8
プラグ
100
AcDbLine
 10
98.799995012
 20
213.82
 30
0.0
 11
99.799995012
 21
213.82
 31
0.0
  0
LINE
  5
4A5
330
1F
100
AcDbEntity
  8
プラグ
100
AcDbLine
 10
100.799995012
 20
212.82
 30
0.0
 11
100.799995012
 21
210.92
 31
0.0
  0
ARC
  5
4A6
330
1F
100
AcDbEntity
  8
プラグ
100
AcDbCircle
 10
99.799995012
 20
212.82
 30
0.0
 40
1.0
100
AcDbArc
 50
0.0
 51
90.0
  0
LINE
  5
4A7
330
1F
100
AcDbEntity
  8
プラグ
100
AcDbLine
 10
100.799995012
 20
209.02
 30
0.0
 11
100.799995012
 21
210.92
 31
0.0
  0
ARC
  5
4A8
330
1F
100
AcDbEntity
  8
プラグ
100
AcDbCircle
 10
99.799995012
 20
209.02
 30
0.0
 40
1.0
100
AcDbArc
 50
270.0
 51
0.0
  0
LINE
  5
4A9
330
1F
100
AcDbEntity
  8
プラグ
100
AcDbLine
 10
96.899995012
 20
214.42
 30
0.0
 11
96.299995012
 21
214.42
 31
0.0
  0
LINE
  5
4AA
330
1F
100
AcDbEntity
  8
プラグ
100
AcDbLine
 10
96.299995012
 20
214.42
 30
0.0
 11
96.899995012
 21
212.27
 31
0.0
  0
LINE
  5
4AB
330
1F
100
AcDbEntity
  8
プラグ
100
AcDbLine
 10
96.899995012
 20
213.52
 30
0.0
 11
96.299995012
 21
214.42
 31
0.0
  0
LINE
  5
4AC
330
1F
100
AcDbEntity
  8
プラグ
100
AcDbLine
 10
96.899995012
 20
207.42
 30
0.0
 11
96.299995012
 21
207.42
 31
0.0
  0
LINE
  5
4AD
330
1F
100
AcDbEntity
  8
プラグ
100
AcDbLine
 10
96.299995012
 20
207.42
 30
0.0
 11
96.899995012
 21
209.57
 31
0.0
  0
LINE
  5
4AE
330
1F
100
AcDbEntity
  8
プラグ
100
AcDbLine
 10
96.899995012
 20
208.32
 30
0.0
 11
96.299995012
 21
207.42
 31
0.0
  0
LINE
  5
4AF
330
1F
100
AcDbEntity
  8
プラグ
100
AcDbLine
 10
97.899995012
 20
214.02
 30
0.0
 11
97.899995012
 21
210.92
 31
0.0
  0
POLYLINE
  5
4B0
330
1F
100
AcDbEntity
  8
プラグ
100
AcDb2dPolyline
 66
     1
 10
0.0
 20
0.0
 30
0.0
  0
VERTEX
  5
4B1
330
4B0
100
AcDbEntity
  8
0
100
AcDbVertex
100
AcDb2dVertex
 10
96.899995012
 20
214.42
 30
0.0
  0
VERTEX
  5
4B2
330
4B0
100
AcDbEntity
  8
0
100
AcDbVertex
100
AcDb2dVertex
 10
97.399995012
 20
214.42
 30
0.0
  0
VERTEX
  5
4B3
330
4B0
100
AcDbEntity
  8
0
100
AcDbVertex
100
AcDb2dVertex
 10
97.899995012
 20
214.02
 30
0.0
  0
SEQEND
  5
4B4
330
4B0
100
AcDbEntity
  8
プラグ
  0
LINE
  5
4B5
330
1F
100
AcDbEntity
  8
プラグ
100
AcDbLine
 10
96.899995012
 20
207.42
 30
0.0
 11
97.399995012
 21
207.42
 31
0.0
  0
LINE
  5
4B6
330
1F
100
AcDbEntity
  8
プラグ
100
AcDbLine
 10
97.899995012
 20
207.82
 30
0.0
 11
97.899995012
 21
210.92
 31
0.0
  0
LINE
  5
4B7
330
1F
100
AcDbEntity
  8
プラグ
100
AcDbLine
 10
97.399995012
 20
207.42
 30
0.0
 11
97.899995012
 21
207.82
 31
0.0
  0
LINE
  5
4B8
330
1F
100
AcDbEntity
  8
プラグ
100
AcDbLine
 10
96.899995012
 20
211.42
 30
0.0
 11
96.399995012
 21
211.42
 31
0.0
  0
LINE
  5
4B9
330
1F
100
AcDbEntity
  8
プラグ
100
AcDbLine
 10
96.399995012
 20
211.42
 30
0.0
 11
96.399995012
 21
210.42
 31
0.0
  0
LINE
  5
4BA
330
1F
100
AcDbEntity
  8
プラグ
100
AcDbLine
 10
96.399995012
 20
210.42
 30
0.0
 11
96.899995012
 21
210.42
 31
0.0
  0
LINE
  5
4BB
330
1F
100
AcDbEntity
  8
プラグ
100
AcDbLine
 10
96.899995012
 20
211.42
 30
0.0
 11
96.899995012
 21
213.52
 31
0.0
  0
LINE
  5
4BC
330
1F
100
AcDbEntity
  8
プラグ
100
AcDbLine
 10
96.899995012
 20
208.32
 30
0.0
 11
96.899995012
 21
210.42
 31
0.0
  0
LINE
  5
4BD
330
1F
100
AcDbEntity
  8
プラグ
100
AcDbLine
 10
86.3
 20
202.77
 30
0.0
 11
86.3
 21
205.57
 31
0.0
  0
LINE
  5
4BE
330
1F
100
AcDbEntity
  8
プラグ
100
AcDbLine
 10
86.3
 20
210.07
 30
0.0
 11
86.3
 21
205.57
 31
0.0
  0
LINE
  5
4BF
330
1F
100
AcDbEntity
  8
プラグ
100
AcDbLine
 10
87.299995012
 20
202.92
 30
0.0
 11
87.299995012
 21
209.92
 31
0.0
  0
LINE
  5
4C0
330
1F
100
AcDbEntity
  8
プラグ
100
AcDbLine
 10
87.299995012
 20
202.92
 30
0.0
 11
87.299995012
 21
209.92
 31
0.0
  0
LINE
  5
4C1
330
1F
100
AcDbEntity
  8
プラグ
100
AcDbLine
 10
89.799995012
 20
203.52
 30
0.0
 11
90.799995012
 21
203.52
 31
0.0
  0
LINE
  5
4C2
330
1F
100
AcDbEntity
  8
プラグ
100
AcDbLine
 10
89.799995012
 20
206.42
 30
0.0
 11
88.899995012
 21
205.82
 31
0.0
  0
LINE
  5
4C3
330
1F
100
AcDbEntity
  8
プラグ
100
AcDbLine
 10
89.799995012
 20
207.02
 30
0.0
 11
88.899995012
 21
206.42
 31
0.0
  0
LINE
  5
4C4
330
1F
100
AcDbEntity
  8
プラグ
100
AcDbLine
 10
89.799995012
 20
203.52
 30
0.0
 11
88.899995012
 21
203.52
 31
0.0
  0
LINE
  5
4C5
330
1F
100
AcDbEntity
  8
プラグ
100
AcDbLine
 10
89.799995012
 20
209.32
 30
0.0
 11
88.899995012
 21
209.32
 31
0.0
  0
LINE
  5
4C6
330
1F
100
AcDbEntity
  8
プラグ
100
AcDbLine
 10
89.799995012
 20
203.52
 30
0.0
 11
89.799995012
 21
209.32
 31
0.0
  0
LINE
  5
4C7
330
1F
100
AcDbEntity
  8
プラグ
100
AcDbLine
 10
91.799995012
 20
204.52
 30
0.0
 11
91.799995012
 21
206.42
 31
0.0
  0
ARC
  5
4C8
330
1F
100
AcDbEntity
  8
プラグ
100
AcDbCircle
 10
90.799995012
 20
204.52
 30
0.0
 40
1.0
100
AcDbArc
 50
270.0
 51
0.0
  0
LINE
  5
4C9
330
1F
100
AcDbEntity
  8
プラグ
100
AcDbLine
 10
91.799995012
 20
208.32
 30
0.0
 11
91.799995012
 21
206.42
 31
0.0
  0
ARC
  5
4CA
330
1F
100
AcDbEntity
  8
プラグ
100
AcDbCircle
 10
90.799995012
 20
208.32
 30
0.0
 40
1.0
100
AcDbArc
 50
0.0
 51
90.0
  0
LINE
  5
4CB
330
1F
100
AcDbEntity
  8
プラグ
100
AcDbLine
 10
89.799995012
 20
209.32
 30
0.0
 11
90.799995012
 21
209.32
 31
0.0
  0
LINE
  5
4CC
330
1F
100
AcDbEntity
  8
プラグ
100
AcDbLine
 10
91.799995012
 20
208.32
 30
0.0
 11
91.799995012
 21
206.42
 31
0.0
  0
ARC
  5
4CD
330
1F
100
AcDbEntity
  8
プラグ
100
AcDbCircle
 10
90.799995012
 20
208.32
 30
0.0
 40
1.0
100
AcDbArc
 50
0.0
 51
90.0
  0
LINE
  5
4CE
330
1F
100
AcDbEntity
  8
プラグ
100
AcDbLine
 10
91.799995012
 20
204.52
 30
0.0
 11
91.799995012
 21
206.42
 31
0.0
  0
ARC
  5
4CF
330
1F
100
AcDbEntity
  8
プラグ
100
AcDbCircle
 10
90.799995012
 20
204.52
 30
0.0
 40
1.0
100
AcDbArc
 50
270.0
 51
0.0
  0
LINE
  5
4D0
330
1F
100
AcDbEntity
  8
プラグ
100
AcDbLine
 10
87.899995012
 20
209.92
 30
0.0
 11
87.299995012
 21
209.92
 31
0.0
  0
LINE
  5
4D1
330
1F
100
AcDbEntity
  8
プラグ
100
AcDbLine
 10
87.299995012
 20
209.92
 30
0.0
 11
87.899995012
 21
207.77
 31
0.0
  0
LINE
  5
4D2
330
1F
100
AcDbEntity
  8
プラグ
100
AcDbLine
 10
87.899995012
 20
209.02
 30
0.0
 11
87.299995012
 21
209.92
 31
0.0
  0
LINE
  5
4D3
330
1F
100
AcDbEntity
  8
プラグ
100
AcDbLine
 10
87.899995012
 20
202.92
 30
0.0
 11
87.299995012
 21
202.92
 31
0.0
  0
LINE
  5
4D4
330
1F
100
AcDbEntity
  8
プラグ
100
AcDbLine
 10
87.299995012
 20
202.92
 30
0.0
 11
87.899995012
 21
205.07
 31
0.0
  0
LINE
  5
4D5
330
1F
100
AcDbEntity
  8
プラグ
100
AcDbLine
 10
87.899995012
 20
203.82
 30
0.0
 11
87.299995012
 21
202.92
 31
0.0
  0
LINE
  5
4D6
330
1F
100
AcDbEntity
  8
プラグ
100
AcDbLine
 10
88.899995012
 20
209.52
 30
0.0
 11
88.899995012
 21
206.42
 31
0.0
  0
POLYLINE
  5
4D7
330
1F
100
AcDbEntity
  8
プラグ
100
AcDb2dPolyline
 66
     1
 10
0.0
 20
0.0
 30
0.0
  0
VERTEX
  5
4D8
330
4D7
100
AcDbEntity
  8
0
100
AcDbVertex
100
AcDb2dVertex
 10
87.899995012
 20
209.92
 30
0.0
  0
VERTEX
  5
4D9
330
4D7
100
AcDbEntity
  8
0
100
AcDbVertex
100
AcDb2dVertex
 10
88.399995012
 20
209.92
 30
0.0
  0
VERTEX
  5
4DA
330
4D7
100
AcDbEntity
  8
0
100
AcDbVertex
100
AcDb2dVertex
 10
88.899995012
 20
209.52
 30
0.0
  0
SEQEND
  5
4DB
330
4D7
100
AcDbEntity
  8
プラグ
  0
LINE
  5
4DC
330
1F
100
AcDbEntity
  8
プラグ
100
AcDbLine
 10
87.899995012
 20
202.92
 30
0.0
 11
88.399995012
 21
202.92
 31
0.0
  0
LINE
  5
4DD
330
1F
100
AcDbEntity
  8
プラグ
100
AcDbLine
 10
88.899995012
 20
203.32
 30
0.0
 11
88.899995012
 21
206.42
 31
0.0
  0
LINE
  5
4DE
330
1F
100
AcDbEntity
  8
プラグ
100
AcDbLine
 10
88.399995012
 20
202.92
 30
0.0
 11
88.899995012
 21
203.32
 31
0.0
  0
LINE
  5
4DF
330
1F
100
AcDbEntity
  8
プラグ
100
AcDbLine
 10
87.899995012
 20
206.92
 30
0.0
 11
87.399995012
 21
206.92
 31
0.0
  0
LINE
  5
4E0
330
1F
100
AcDbEntity
  8
プラグ
100
AcDbLine
 10
87.399995012
 20
206.92
 30
0.0
 11
87.399995012
 21
205.92
 31
0.0
  0
LINE
  5
4E1
330
1F
100
AcDbEntity
  8
プラグ
100
AcDbLine
 10
87.399995012
 20
205.92
 30
0.0
 11
87.899995012
 21
205.92
 31
0.0
  0
LINE
  5
4E2
330
1F
100
AcDbEntity
  8
プラグ
100
AcDbLine
 10
87.899995012
 20
206.92
 30
0.0
 11
87.899995012
 21
209.02
 31
0.0
  0
LINE
  5
4E3
330
1F
100
AcDbEntity
  8
プラグ
100
AcDbLine
 10
87.899995012
 20
203.82
 30
0.0
 11
87.899995012
 21
205.92
 31
0.0
  0
LINE
  5
4E4
330
1F
100
AcDbEntity
  8
プラグ
100
AcDbLine
 10
106.3
 20
217.67
 30
0.0
 11
106.3
 21
216.22
 31
0.0
  0
LINE
  5
4E5
330
1F
100
AcDbEntity
  8
プラグ
100
AcDbLine
 10
104.501
 20
223.67
 30
0.0
 11
104.501
 21
225.67
 31
0.0
  0
LINE
  5
4E6
330
1F
100
AcDbEntity
  8
プラグ
100
AcDbLine
 10
104.501
 20
202.67
 30
0.0
 11
104.501
 21
200.67
 31
0.0
  0
LINE
  5
4E7
330
1F
100
AcDbEntity
  8
プラグ
100
AcDbLine
 10
107.7
 20
222.659526961
 30
0.0
 11
107.7
 21
221.180473039
 31
0.0
  0
LINE
  5
4E8
330
1F
100
AcDbEntity
  8
プラグ
100
AcDbLine
 10
107.7
 20
220.159526961
 30
0.0
 11
107.7
 21
218.680473039
 31
0.0
  0
LINE
  5
4E9
330
1F
100
AcDbEntity
  8
プラグ
100
AcDbLine
 10
107.7
 20
217.659526961
 30
0.0
 11
107.7
 21
216.180473039
 31
0.0
  0
LINE
  5
4EA
330
1F
100
AcDbEntity
  8
プラグ
100
AcDbLine
 10
107.7
 20
215.159526961
 30
0.0
 11
107.7
 21
213.680473039
 31
0.0
  0
LINE
  5
4EB
330
1F
100
AcDbEntity
  8
プラグ
100
AcDbLine
 10
107.7
 20
212.659526961
 30
0.0
 11
107.7
 21
211.180473039
 31
0.0
  0
LINE
  5
4EC
330
1F
100
AcDbEntity
  8
プラグ
100
AcDbLine
 10
107.7
 20
210.159526961
 30
0.0
 11
107.7
 21
208.680473039
 31
0.0
  0
LINE
  5
4ED
330
1F
100
AcDbEntity
  8
プラグ
100
AcDbLine
 10
107.7
 20
207.659526961
 30
0.0
 11
107.7
 21
206.180473039
 31
0.0
  0
LINE
  5
4EE
330
1F
100
AcDbEntity
  8
プラグ
100
AcDbLine
 10
107.7
 20
205.159526961
 30
0.0
 11
107.7
 21
203.680473039
 31
0.0
  0
LINE
  5
4EF
330
1F
100
AcDbEntity
  8
プラグ
100
AcDbLine
 10
108.3
 20
203.67
 30
0.0
 11
108.3
 21
201.67
 31
0.0
  0
LINE
  5
4F0
330
1F
100
AcDbEntity
  8
プラグ
100
AcDbLine
 10
108.3
 20
206.17
 30
0.0
 11
108.3
 21
205.17
 31
0.0
  0
LINE
  5
4F1
330
1F
100
AcDbEntity
  8
プラグ
100
AcDbLine
 10
108.3
 20
208.67
 30
0.0
 11
108.3
 21
207.67
 31
0.0
  0
LINE
  5
4F2
330
1F
100
AcDbEntity
  8
プラグ
100
AcDbLine
 10
108.3
 20
211.17
 30
0.0
 11
108.3
 21
210.17
 31
0.0
  0
LINE
  5
4F3
330
1F
100
AcDbEntity
  8
プラグ
100
AcDbLine
 10
108.3
 20
213.67
 30
0.0
 11
108.3
 21
212.67
 31
0.0
  0
LINE
  5
4F4
330
1F
100
AcDbEntity
  8
プラグ
100
AcDbLine
 10
108.3
 20
216.17
 30
0.0
 11
108.3
 21
215.17
 31
0.0
  0
LINE
  5
4F5
330
1F
100
AcDbEntity
  8
プラグ
100
AcDbLine
 10
108.3
 20
218.67
 30
0.0
 11
108.3
 21
217.67
 31
0.0
  0
LINE
  5
4F6
330
1F
100
AcDbEntity
  8
プラグ
100
AcDbLine
 10
108.3
 20
221.17
 30
0.0
 11
108.3
 21
220.17
 31
0.0
  0
LINE
  5
4F7
330
1F
100
AcDbEntity
  8
プラグ
100
AcDbLine
 10
108.3
 20
224.67
 30
0.0
 11
108.3
 21
222.67
 31
0.0
  0
LINE
  5
4F8
330
1F
100
AcDbEntity
  8
プラグ
100
AcDbLine
 10
101.651
 20
203.92
 30
0.0
 11
103.301
 21
203.92
 31
0.0
  0
LINE
  5
4F9
330
1F
100
AcDbEntity
  8
プラグ
100
AcDbLine
 10
101.651
 20
222.42
 30
0.0
 11
103.301
 21
222.42
 31
0.0
  0
ARC
  5
4FA
330
1F
100
AcDbEntity
  8
プラグ
100
AcDbCircle
 10
104.251
 20
223.17
 30
0.0
 40
0.25
100
AcDbArc
 50
0.0
 51
90.00015455000002
  0
LINE
  5
4FB
330
1F
100
AcDbEntity
  8
プラグ
100
AcDbLine
 10
104.144164777
 20
223.42
 30
0.0
 11
104.250999326
 21
223.42
 31
0.0
  0
ARC
  5
4FC
330
1F
100
AcDbEntity
  8
プラグ
100
AcDbCircle
 10
104.251
 20
203.17
 30
0.0
 40
0.25
100
AcDbArc
 50
270.0
 51
0.0
  0
LINE
  5
4FD
330
1F
100
AcDbEntity
  8
プラグ
100
AcDbLine
 10
101.651
 20
203.17
 30
0.0
 11
101.651
 21
203.92
 31
0.0
  0
LINE
  5
4FE
330
1F
100
AcDbEntity
  8
プラグ
100
AcDbLine
 10
104.251
 20
202.92
 30
0.0
 11
101.901
 21
202.92
 31
0.0
  0
ARC
  5
4FF
330
1F
100
AcDbEntity
  8
プラグ
100
AcDbCircle
 10
101.901
 20
203.17
 30
0.0
 40
0.25
100
AcDbArc
 50
180.0
 51
270.0
  0
LINE
  5
500
330
1F
100
AcDbEntity
  8
プラグ
100
AcDbLine
 10
104.251
 20
223.42
 30
0.0
 11
101.901
 21
223.42
 31
0.0
  0
LINE
  5
501
330
1F
100
AcDbEntity
  8
プラグ
100
AcDbLine
 10
101.651
 20
223.17
 30
0.0
 11
101.651
 21
222.42
 31
0.0
  0
ARC
  5
502
330
1F
100
AcDbEntity
  8
プラグ
100
AcDbCircle
 10
101.901
 20
223.17
 30
0.0
 40
0.25
100
AcDbArc
 50
90.0
 51
180.0
  0
LINE
  5
503
330
1F
100
AcDbEntity
  8
プラグ
100
AcDbLine
 10
104.501
 20
203.17
 30
0.0
 11
104.501
 21
223.17
 31
0.0
  0
LINE
  5
504
330
1F
100
AcDbEntity
  8
プラグ
100
AcDbLine
 10
103.301
 20
223.42
 30
0.0
 11
103.301
 21
202.92
 31
0.0
  0
LINE
  5
505
330
1F
100
AcDbEntity
  8
プラグ
100
AcDbLine
 10
104.101
 20
202.67
 30
0.0
 11
104.101
 21
202.92
 31
0.0
  0
ARC
  5
506
330
1F
100
AcDbEntity
  8
プラグ
100
AcDbCircle
 10
102.856778423
 20
203.22
 30
0.0
 40
0.7499999999999832
100
AcDbArc
 50
312.8334280660007
 51
336.4218215220006
  0
ARC
  5
507
330
1F
100
AcDbEntity
  8
プラグ
100
AcDbCircle
 10
102.856778423
 20
203.22
 30
0.0
 40
0.7500000000000004
100
AcDbArc
 50
203.578178477999
 51
227.166571933999
  0
LINE
  5
508
330
1F
100
AcDbEntity
  8
プラグ
100
AcDbLine
 10
101.8
 20
202.941310254
 30
0.0
 11
101.8
 21
202.67
 31
0.0
  0
LINE
  5
509
330
1F
100
AcDbEntity
  8
プラグ
100
AcDbLine
 10
101.8
 20
207.27
 30
0.0
 11
101.8
 21
203.92
 31
0.0
  0
LINE
  5
50A
330
1F
100
AcDbEntity
  8
プラグ
100
AcDbLine
 10
104.101
 20
223.67
 30
0.0
 11
104.101
 21
223.42
 31
0.0
  0
ARC
  5
50B
330
1F
100
AcDbEntity
  8
プラグ
100
AcDbCircle
 10
102.856778423
 20
223.12
 30
0.0
 40
0.7500000000000063
100
AcDbArc
 50
132.8334280649998
 51
156.4218215219998
  0
ARC
  5
50C
330
1F
100
AcDbEntity
  8
プラグ
100
AcDbCircle
 10
102.856778423
 20
223.12
 30
0.0
 40
0.7500000000000004
100
AcDbArc
 50
23.57817847799902
 51
47.16657193499903
  0
LINE
  5
50D
330
1F
100
AcDbEntity
  8
プラグ
100
AcDbLine
 10
108.3
 20
205.17
 30
0.0
 11
104.501
 21
205.103688208
 31
0.0
  0
LINE
  5
50E
330
1F
100
AcDbEntity
  8
プラグ
100
AcDbLine
 10
108.3
 20
205.17
 30
0.0
 11
104.501
 21
205.103688208
 31
0.0
  0
LINE
  5
50F
330
1F
100
AcDbEntity
  8
プラグ
100
AcDbLine
 10
108.3
 20
203.67
 30
0.0
 11
104.501
 21
203.736311792
 31
0.0
  0
LINE
  5
510
330
1F
100
AcDbEntity
  8
プラグ
100
AcDbLine
 10
108.3
 20
203.67
 30
0.0
 11
104.501
 21
203.736311792
 31
0.0
  0
LINE
  5
511
330
1F
100
AcDbEntity
  8
プラグ
100
AcDbLine
 10
108.3
 20
206.17
 30
0.0
 11
104.501
 21
206.236311792
 31
0.0
  0
LINE
  5
512
330
1F
100
AcDbEntity
  8
プラグ
100
AcDbLine
 10
108.3
 20
206.17
 30
0.0
 11
104.501
 21
206.236311792
 31
0.0
  0
LINE
  5
513
330
1F
100
AcDbEntity
  8
プラグ
100
AcDbLine
 10
108.3
 20
207.67
 30
0.0
 11
104.501
 21
207.603688208
 31
0.0
  0
LINE
  5
514
330
1F
100
AcDbEntity
  8
プラグ
100
AcDbLine
 10
108.3
 20
207.67
 30
0.0
 11
104.501
 21
207.603688208
 31
0.0
  0
LINE
  5
515
330
1F
100
AcDbEntity
  8
プラグ
100
AcDbLine
 10
108.3
 20
208.67
 30
0.0
 11
104.501
 21
208.736311792
 31
0.0
  0
LINE
  5
516
330
1F
100
AcDbEntity
  8
プラグ
100
AcDbLine
 10
108.3
 20
208.67
 30
0.0
 11
104.501
 21
208.736311792
 31
0.0
  0
LINE
  5
517
330
1F
100
AcDbEntity
  8
プラグ
100
AcDbLine
 10
108.3
 20
210.17
 30
0.0
 11
104.501
 21
210.103688208
 31
0.0
  0
LINE
  5
518
330
1F
100
AcDbEntity
  8
プラグ
100
AcDbLine
 10
108.3
 20
210.17
 30
0.0
 11
104.501
 21
210.103688208
 31
0.0
  0
LINE
  5
519
330
1F
100
AcDbEntity
  8
プラグ
100
AcDbLine
 10
108.3
 20
211.17
 30
0.0
 11
104.501
 21
211.236311792
 31
0.0
  0
LINE
  5
51A
330
1F
100
AcDbEntity
  8
プラグ
100
AcDbLine
 10
108.3
 20
211.17
 30
0.0
 11
104.501
 21
211.236311792
 31
0.0
  0
LINE
  5
51B
330
1F
100
AcDbEntity
  8
プラグ
100
AcDbLine
 10
108.3
 20
212.67
 30
0.0
 11
104.501
 21
212.603688208
 31
0.0
  0
LINE
  5
51C
330
1F
100
AcDbEntity
  8
プラグ
100
AcDbLine
 10
108.3
 20
212.67
 30
0.0
 11
104.501
 21
212.603688208
 31
0.0
  0
LINE
  5
51D
330
1F
100
AcDbEntity
  8
プラグ
100
AcDbLine
 10
108.3
 20
213.67
 30
0.0
 11
104.501
 21
213.736311792
 31
0.0
  0
LINE
  5
51E
330
1F
100
AcDbEntity
  8
プラグ
100
AcDbLine
 10
108.3
 20
213.67
 30
0.0
 11
104.501
 21
213.736311792
 31
0.0
  0
LINE
  5
51F
330
1F
100
AcDbEntity
  8
プラグ
100
AcDbLine
 10
108.3
 20
215.17
 30
0.0
 11
104.501
 21
215.103688208
 31
0.0
  0
LINE
  5
520
330
1F
100
AcDbEntity
  8
プラグ
100
AcDbLine
 10
108.3
 20
215.17
 30
0.0
 11
104.501
 21
215.103688208
 31
0.0
  0
LINE
  5
521
330
1F
100
AcDbEntity
  8
プラグ
100
AcDbLine
 10
108.3
 20
216.17
 30
0.0
 11
104.501
 21
216.236311792
 31
0.0
  0
LINE
  5
522
330
1F
100
AcDbEntity
  8
プラグ
100
AcDbLine
 10
108.3
 20
216.17
 30
0.0
 11
104.501
 21
216.236311792
 31
0.0
  0
LINE
  5
523
330
1F
100
AcDbEntity
  8
プラグ
100
AcDbLine
 10
108.3
 20
217.67
 30
0.0
 11
104.501
 21
217.603688208
 31
0.0
  0
LINE
  5
524
330
1F
100
AcDbEntity
  8
プラグ
100
AcDbLine
 10
108.3
 20
217.67
 30
0.0
 11
104.501
 21
217.603688208
 31
0.0
  0
LINE
  5
525
330
1F
100
AcDbEntity
  8
プラグ
100
AcDbLine
 10
108.3
 20
218.67
 30
0.0
 11
104.501
 21
218.736311792
 31
0.0
  0
LINE
  5
526
330
1F
100
AcDbEntity
  8
プラグ
100
AcDbLine
 10
108.3
 20
218.67
 30
0.0
 11
104.501
 21
218.736311792
 31
0.0
  0
LINE
  5
527
330
1F
100
AcDbEntity
  8
プラグ
100
AcDbLine
 10
108.3
 20
220.17
 30
0.0
 11
104.501
 21
220.103688208
 31
0.0
  0
LINE
  5
528
330
1F
100
AcDbEntity
  8
プラグ
100
AcDbLine
 10
108.3
 20
220.17
 30
0.0
 11
104.501
 21
220.103688208
 31
0.0
  0
LINE
  5
529
330
1F
100
AcDbEntity
  8
プラグ
100
AcDbLine
 10
108.3
 20
221.17
 30
0.0
 11
104.501
 21
221.236311792
 31
0.0
  0
LINE
  5
52A
330
1F
100
AcDbEntity
  8
プラグ
100
AcDbLine
 10
108.3
 20
221.17
 30
0.0
 11
104.501
 21
221.236311792
 31
0.0
  0
LINE
  5
52B
330
1F
100
AcDbEntity
  8
プラグ
100
AcDbLine
 10
108.3
 20
222.67
 30
0.0
 11
104.501
 21
222.603688208
 31
0.0
  0
LINE
  5
52C
330
1F
100
AcDbEntity
  8
プラグ
100
AcDbLine
 10
108.3
 20
222.67
 30
0.0
 11
104.501
 21
222.603688208
 31
0.0
  0
LINE
  5
52D
330
1F
100
AcDbEntity
  8
プラグ
100
AcDbLine
 10
255.47
 20
71.42000000000002
 30
0.0
 11
255.47
 21
66.12
 31
0.0
  0
LINE
  5
52E
330
1F
100
AcDbEntity
  8
プラグ
100
AcDbLine
 10
255.47
 20
69.87
 30
0.0
 11
255.47
 21
66.12
 31
0.0
  0
LINE
  5
52F
330
1F
100
AcDbEntity
  8
プラグ
100
AcDbLine
 10
255.47
 20
54.72000000000003
 30
0.0
 11
255.47
 21
49.42000000000002
 31
0.0
  0
LINE
  5
530
330
1F
100
AcDbEntity
  8
プラグ
100
AcDbLine
 10
256.47
 20
54.72000000000003
 30
0.0
 11
256.47
 21
48.42000000000002
 31
0.0
  0
LINE
  5
531
330
1F
100
AcDbEntity
  8
プラグ
100
AcDbLine
 10
256.47
 20
72.42000000000002
 30
0.0
 11
256.47
 21
66.12
 31
0.0
  0
ARC
  5
532
330
1F
100
AcDbEntity
  8
プラグ
100
AcDbCircle
 10
259.57
 20
208.47
 30
0.0
 40
1.0
100
AcDbArc
 50
270.0
 51
0.0
  0
LINE
  5
533
330
1F
100
AcDbEntity
  8
プラグ
100
AcDbLine
 10
258.97
 20
207.47
 30
0.0
 11
259.57
 21
207.47
 31
0.0
  0
LINE
  5
534
330
1F
100
AcDbEntity
  8
プラグ
100
AcDbLine
 10
259.07
 20
209.17
 30
0.0
 11
257.87
 21
209.17
 31
0.0
  0
LINE
  5
535
330
1F
100
AcDbEntity
  8
プラグ
100
AcDbLine
 10
256.47
 20
207.47
 30
0.0
 11
258.97
 21
207.47
 31
0.0
  0
ARC
  5
536
330
1F
100
AcDbEntity
  8
プラグ
100
AcDbCircle
 10
259.57
 20
217.87
 30
0.0
 40
1.0
100
AcDbArc
 50
0.0
 51
90.0
  0
LINE
  5
537
330
1F
100
AcDbEntity
  8
プラグ
100
AcDbLine
 10
259.57
 20
218.87
 30
0.0
 11
258.97
 21
218.87
 31
0.0
  0
LINE
  5
538
330
1F
100
AcDbEntity
  8
プラグ
100
AcDbLine
 10
257.87
 20
217.17
 30
0.0
 11
259.07
 21
217.17
 31
0.0
  0
LINE
  5
539
330
1F
100
AcDbEntity
  8
プラグ
100
AcDbLine
 10
256.47
 20
218.87
 30
0.0
 11
258.97
 21
218.87
 31
0.0
  0
LINE
  5
53A
330
1F
100
AcDbEntity
  8
プラグ
100
AcDbLine
 10
260.57
 20
208.47
 30
0.0
 11
260.57
 21
217.87
 31
0.0
  0
LINE
  5
53B
330
1F
100
AcDbEntity
  8
プラグ
100
AcDbLine
 10
259.07
 20
217.17
 30
0.0
 11
259.07
 21
209.17
 31
0.0
  0
LINE
  5
53C
330
1F
100
AcDbEntity
  8
プラグ
100
AcDbLine
 10
257.87
 20
209.17
 30
0.0
 11
257.87
 21
217.17
 31
0.0
  0
CIRCLE
  5
53D
330
1F
100
AcDbEntity
  8
プラグ
100
AcDbCircle
 10
250.97
 20
215.42
 30
0.0
 40
2.900000000000006
  0
POINT
  5
53E
330
1F
100
AcDbEntity
  8
プラグ
100
AcDbPoint
 10
253.044827688
 20
214.335121806
 30
0.0
  0
LINE
  5
53F
330
1F
100
AcDbEntity
  8
プラグ
100
AcDbLine
 10
250.056741801
 20
213.559218714
 30
0.0
 11
249.109218714
 21
214.506741801
 31
0.0
  0
LINE
  5
540
330
1F
100
AcDbEntity
  8
プラグ
100
AcDbLine
 10
251.913456838
 20
213.486593668
 30
0.0
 11
252.903406332
 21
214.476543162
 31
0.0
  0
LINE
  5
541
330
1F
100
AcDbEntity
  8
プラグ
100
AcDbLine
 10
252.943918371
 20
216.446395284
 30
0.0
 11
251.996395284
 21
217.393918371
 31
0.0
  0
LINE
  5
542
330
1F
100
AcDbEntity
  8
プラグ
100
AcDbLine
 10
249.050735804
 20
216.349314702
 30
0.0
 11
250.040685298
 21
217.339264196
 31
0.0
  0
LINE
  5
543
330
1F
100
AcDbEntity
  8
プラグ
100
AcDbLine
 10
249.109218714
 20
214.506741801
 30
0.0
 11
250.00126371
 21
215.398786797
 31
0.0
  0
LINE
  5
544
330
1F
100
AcDbEntity
  8
プラグ
100
AcDbLine
 10
249.050735804
 20
216.349314702
 30
0.0
 11
250.00126371
 21
215.398786797
 31
0.0
  0
POLYLINE
  5
545
330
1F
100
AcDbEntity
  8
プラグ
100
AcDb2dPolyline
 66
     1
 10
0.0
 20
0.0
 30
0.0
  0
VERTEX
  5
546
330
545
100
AcDbEntity
  8
0
100
AcDbVertex
100
AcDb2dVertex
 10
250.040685298
 20
217.339264196
 30
0.0
  0
VERTEX
  5
547
330
545
100
AcDbEntity
  8
0
100
AcDbVertex
100
AcDb2dVertex
 10
250.991213203
 20
216.38873629
 30
0.0
  0
VERTEX
  5
548
330
545
100
AcDbEntity
  8
0
100
AcDbVertex
100
AcDb2dVertex
 10
251.996395284
 20
217.393918371
 30
0.0
  0
SEQEND
  5
549
330
545
100
AcDbEntity
  8
プラグ
  0
LINE
  5
54A
330
1F
100
AcDbEntity
  8
プラグ
100
AcDbLine
 10
251.93873629
 20
215.441213203
 30
0.0
 11
252.943918371
 21
216.446395284
 31
0.0
  0
LINE
  5
54B
330
1F
100
AcDbEntity
  8
プラグ
100
AcDbLine
 10
251.93873629
 20
215.441213203
 30
0.0
 11
252.903406332
 21
214.476543162
 31
0.0
  0
LINE
  5
54C
330
1F
100
AcDbEntity
  8
プラグ
100
AcDbLine
 10
250.948786797
 20
214.45126371
 30
0.0
 11
251.913456838
 21
213.486593668
 31
0.0
  0
LINE
  5
54D
330
1F
100
AcDbEntity
  8
プラグ
100
AcDbLine
 10
250.056741801
 20
213.559218714
 30
0.0
 11
250.948786797
 21
214.45126371
 31
0.0
  0
CIRCLE
  5
54E
330
1F
100
AcDbEntity
  8
プラグ
100
AcDbCircle
 10
250.97
 20
206.42
 30
0.0
 40
2.900000000000006
  0
POINT
  5
54F
330
1F
100
AcDbEntity
  8
プラグ
100
AcDbPoint
 10
253.044827688
 20
205.335121806
 30
0.0
  0
LINE
  5
550
330
1F
100
AcDbEntity
  8
プラグ
100
AcDbLine
 10
250.056741801
 20
204.559218714
 30
0.0
 11
249.109218714
 21
205.506741801
 31
0.0
  0
LINE
  5
551
330
1F
100
AcDbEntity
  8
プラグ
100
AcDbLine
 10
251.913456838
 20
204.486593668
 30
0.0
 11
252.903406332
 21
205.476543162
 31
0.0
  0
LINE
  5
552
330
1F
100
AcDbEntity
  8
プラグ
100
AcDbLine
 10
252.943918371
 20
207.446395284
 30
0.0
 11
251.996395284
 21
208.393918371
 31
0.0
  0
LINE
  5
553
330
1F
100
AcDbEntity
  8
プラグ
100
AcDbLine
 10
249.050735804
 20
207.349314702
 30
0.0
 11
250.040685298
 21
208.339264196
 31
0.0
  0
LINE
  5
554
330
1F
100
AcDbEntity
  8
プラグ
100
AcDbLine
 10
249.109218714
 20
205.506741801
 30
0.0
 11
250.00126371
 21
206.398786797
 31
0.0
  0
LINE
  5
555
330
1F
100
AcDbEntity
  8
プラグ
100
AcDbLine
 10
249.050735804
 20
207.349314702
 30
0.0
 11
250.00126371
 21
206.398786797
 31
0.0
  0
POLYLINE
  5
556
330
1F
100
AcDbEntity
  8
プラグ
100
AcDb2dPolyline
 66
     1
 10
0.0
 20
0.0
 30
0.0
  0
VERTEX
  5
557
330
556
100
AcDbEntity
  8
0
100
AcDbVertex
100
AcDb2dVertex
 10
250.040685298
 20
208.339264196
 30
0.0
  0
VERTEX
  5
558
330
556
100
AcDbEntity
  8
0
100
AcDbVertex
100
AcDb2dVertex
 10
250.991213203
 20
207.38873629
 30
0.0
  0
VERTEX
  5
559
330
556
100
AcDbEntity
  8
0
100
AcDbVertex
100
AcDb2dVertex
 10
251.996395284
 20
208.393918371
 30
0.0
  0
SEQEND
  5
55A
330
556
100
AcDbEntity
  8
プラグ
  0
LINE
  5
55B
330
1F
100
AcDbEntity
  8
プラグ
100
AcDbLine
 10
251.93873629
 20
206.441213203
 30
0.0
 11
252.943918371
 21
207.446395284
 31
0.0
  0
LINE
  5
55C
330
1F
100
AcDbEntity
  8
プラグ
100
AcDbLine
 10
251.93873629
 20
206.441213203
 30
0.0
 11
252.903406332
 21
205.476543162
 31
0.0
  0
LINE
  5
55D
330
1F
100
AcDbEntity
  8
プラグ
100
AcDbLine
 10
250.948786797
 20
205.45126371
 30
0.0
 11
251.913456838
 21
204.486593668
 31
0.0
  0
LINE
  5
55E
330
1F
100
AcDbEntity
  8
プラグ
100
AcDbLine
 10
250.056741801
 20
204.559218714
 30
0.0
 11
250.948786797
 21
205.45126371
 31
0.0
  0
CIRCLE
  5
55F
330
1F
100
AcDbEntity
  8
プラグ
100
AcDbCircle
 10
240.97
 20
219.92
 30
0.0
 40
2.900000000000006
  0
POINT
  5
560
330
1F
100
AcDbEntity
  8
プラグ
100
AcDbPoint
 10
243.044827688
 20
218.835121806
 30
0.0
  0
LINE
  5
561
330
1F
100
AcDbEntity
  8
プラグ
100
AcDbLine
 10
240.056741801
 20
218.059218714
 30
0.0
 11
239.109218714
 21
219.006741801
 31
0.0
  0
LINE
  5
562
330
1F
100
AcDbEntity
  8
プラグ
100
AcDbLine
 10
241.913456838
 20
217.986593668
 30
0.0
 11
242.903406332
 21
218.976543162
 31
0.0
  0
LINE
  5
563
330
1F
100
AcDbEntity
  8
プラグ
100
AcDbLine
 10
242.943918371
 20
220.946395284
 30
0.0
 11
241.996395284
 21
221.893918371
 31
0.0
  0
LINE
  5
564
330
1F
100
AcDbEntity
  8
プラグ
100
AcDbLine
 10
239.050735804
 20
220.849314702
 30
0.0
 11
240.040685298
 21
221.839264196
 31
0.0
  0
LINE
  5
565
330
1F
100
AcDbEntity
  8
プラグ
100
AcDbLine
 10
239.109218714
 20
219.006741801
 30
0.0
 11
240.00126371
 21
219.898786797
 31
0.0
  0
LINE
  5
566
330
1F
100
AcDbEntity
  8
プラグ
100
AcDbLine
 10
239.050735804
 20
220.849314702
 30
0.0
 11
240.00126371
 21
219.898786797
 31
0.0
  0
POLYLINE
  5
567
330
1F
100
AcDbEntity
  8
プラグ
100
AcDb2dPolyline
 66
     1
 10
0.0
 20
0.0
 30
0.0
  0
VERTEX
  5
568
330
567
100
AcDbEntity
  8
0
100
AcDbVertex
100
AcDb2dVertex
 10
240.040685298
 20
221.839264196
 30
0.0
  0
VERTEX
  5
569
330
567
100
AcDbEntity
  8
0
100
AcDbVertex
100
AcDb2dVertex
 10
240.991213203
 20
220.88873629
 30
0.0
  0
VERTEX
  5
56A
330
567
100
AcDbEntity
  8
0
100
AcDbVertex
100
AcDb2dVertex
 10
241.996395284
 20
221.893918371
 30
0.0
  0
SEQEND
  5
56B
330
567
100
AcDbEntity
  8
プラグ
  0
LINE
  5
56C
330
1F
100
AcDbEntity
  8
プラグ
100
AcDbLine
 10
241.93873629
 20
219.941213203
 30
0.0
 11
242.943918371
 21
220.946395284
 31
0.0
  0
LINE
  5
56D
330
1F
100
AcDbEntity
  8
プラグ
100
AcDbLine
 10
241.93873629
 20
219.941213203
 30
0.0
 11
242.903406332
 21
218.976543162
 31
0.0
  0
LINE
  5
56E
330
1F
100
AcDbEntity
  8
プラグ
100
AcDbLine
 10
240.948786797
 20
218.95126371
 30
0.0
 11
241.913456838
 21
217.986593668
 31
0.0
  0
LINE
  5
56F
330
1F
100
AcDbEntity
  8
プラグ
100
AcDbLine
 10
240.056741801
 20
218.059218714
 30
0.0
 11
240.948786797
 21
218.95126371
 31
0.0
  0
CIRCLE
  5
570
330
1F
100
AcDbEntity
  8
プラグ
100
AcDbCircle
 10
240.97
 20
210.92
 30
0.0
 40
2.900000000000006
  0
POINT
  5
571
330
1F
100
AcDbEntity
  8
プラグ
100
AcDbPoint
 10
243.044827688
 20
209.835121806
 30
0.0
  0
LINE
  5
572
330
1F
100
AcDbEntity
  8
プラグ
100
AcDbLine
 10
240.056741801
 20
209.059218714
 30
0.0
 11
239.109218714
 21
210.006741801
 31
0.0
  0
LINE
  5
573
330
1F
100
AcDbEntity
  8
プラグ
100
AcDbLine
 10
241.913456838
 20
208.986593668
 30
0.0
 11
242.903406332
 21
209.976543162
 31
0.0
  0
LINE
  5
574
330
1F
100
AcDbEntity
  8
プラグ
100
AcDbLine
 10
242.943918371
 20
211.946395284
 30
0.0
 11
241.996395284
 21
212.893918371
 31
0.0
  0
LINE
  5
575
330
1F
100
AcDbEntity
  8
プラグ
100
AcDbLine
 10
239.050735804
 20
211.849314702
 30
0.0
 11
240.040685298
 21
212.839264196
 31
0.0
  0
LINE
  5
576
330
1F
100
AcDbEntity
  8
プラグ
100
AcDbLine
 10
239.109218714
 20
210.006741801
 30
0.0
 11
240.00126371
 21
210.898786797
 31
0.0
  0
LINE
  5
577
330
1F
100
AcDbEntity
  8
プラグ
100
AcDbLine
 10
239.050735804
 20
211.849314702
 30
0.0
 11
240.00126371
 21
210.898786797
 31
0.0
  0
POLYLINE
  5
578
330
1F
100
AcDbEntity
  8
プラグ
100
AcDb2dPolyline
 66
     1
 10
0.0
 20
0.0
 30
0.0
  0
VERTEX
  5
579
330
578
100
AcDbEntity
  8
0
100
AcDbVertex
100
AcDb2dVertex
 10
240.040685298
 20
212.839264196
 30
0.0
  0
VERTEX
  5
57A
330
578
100
AcDbEntity
  8
0
100
AcDbVertex
100
AcDb2dVertex
 10
240.991213203
 20
211.88873629
 30
0.0
  0
VERTEX
  5
57B
330
578
100
AcDbEntity
  8
0
100
AcDbVertex
100
AcDb2dVertex
 10
241.996395284
 20
212.893918371
 30
0.0
  0
SEQEND
  5
57C
330
578
100
AcDbEntity
  8
プラグ
  0
LINE
  5
57D
330
1F
100
AcDbEntity
  8
プラグ
100
AcDbLine
 10
241.93873629
 20
210.941213203
 30
0.0
 11
242.943918371
 21
211.946395284
 31
0.0
  0
LINE
  5
57E
330
1F
100
AcDbEntity
  8
プラグ
100
AcDbLine
 10
241.93873629
 20
210.941213203
 30
0.0
 11
242.903406332
 21
209.976543162
 31
0.0
  0
LINE
  5
57F
330
1F
100
AcDbEntity
  8
プラグ
100
AcDbLine
 10
240.948786797
 20
209.95126371
 30
0.0
 11
241.913456838
 21
208.986593668
 31
0.0
  0
LINE
  5
580
330
1F
100
AcDbEntity
  8
プラグ
100
AcDbLine
 10
240.056741801
 20
209.059218714
 30
0.0
 11
240.948786797
 21
209.95126371
 31
0.0
  0
CIRCLE
  5
581
330
1F
100
AcDbEntity
  8
プラグ
100
AcDbCircle
 10
167.97
 20
215.42
 30
0.0
 40
2.900000000000006
  0
LINE
  5
582
330
1F
100
AcDbEntity
  8
プラグ
100
AcDbLine
 10
168.883258199
 20
213.559218714
 30
0.0
 11
169.830781286
 21
214.506741801
 31
0.0
  0
LINE
  5
583
330
1F
100
AcDbEntity
  8
プラグ
100
AcDbLine
 10
167.026543162
 20
213.486593668
 30
0.0
 11
166.036593668
 21
214.476543162
 31
0.0
  0
LINE
  5
584
330
1F
100
AcDbEntity
  8
プラグ
100
AcDbLine
 10
165.996081629
 20
216.446395284
 30
0.0
 11
166.943604716
 21
217.393918371
 31
0.0
  0
LINE
  5
585
330
1F
100
AcDbEntity
  8
プラグ
100
AcDbLine
 10
169.889264196
 20
216.349314702
 30
0.0
 11
168.899314702
 21
217.339264196
 31
0.0
  0
LINE
  5
586
330
1F
100
AcDbEntity
  8
プラグ
100
AcDbLine
 10
169.830781286
 20
214.506741801
 30
0.0
 11
168.93873629
 21
215.398786797
 31
0.0
  0
LINE
  5
587
330
1F
100
AcDbEntity
  8
プラグ
100
AcDbLine
 10
169.889264196
 20
216.349314702
 30
0.0
 11
168.93873629
 21
215.398786797
 31
0.0
  0
POLYLINE
  5
588
330
1F
100
AcDbEntity
  8
プラグ
100
AcDb2dPolyline
 66
     1
 10
0.0
 20
0.0
 30
0.0
  0
VERTEX
  5
589
330
588
100
AcDbEntity
  8
0
100
AcDbVertex
100
AcDb2dVertex
 10
168.899314702
 20
217.339264196
 30
0.0
  0
VERTEX
  5
58A
330
588
100
AcDbEntity
  8
0
100
AcDbVertex
100
AcDb2dVertex
 10
167.948786797
 20
216.38873629
 30
0.0
  0
VERTEX
  5
58B
330
588
100
AcDbEntity
  8
0
100
AcDbVertex
100
AcDb2dVertex
 10
166.943604716
 20
217.393918371
 30
0.0
  0
SEQEND
  5
58C
330
588
100
AcDbEntity
  8
プラグ
  0
LINE
  5
58D
330
1F
100
AcDbEntity
  8
プラグ
100
AcDbLine
 10
167.00126371
 20
215.441213203
 30
0.0
 11
165.996081629
 21
216.446395284
 31
0.0
  0
LINE
  5
58E
330
1F
100
AcDbEntity
  8
プラグ
100
AcDbLine
 10
167.00126371
 20
215.441213203
 30
0.0
 11
166.036593668
 21
214.476543162
 31
0.0
  0
LINE
  5
58F
330
1F
100
AcDbEntity
  8
プラグ
100
AcDbLine
 10
167.991213203
 20
214.45126371
 30
0.0
 11
167.026543162
 21
213.486593668
 31
0.0
  0
LINE
  5
590
330
1F
100
AcDbEntity
  8
プラグ
100
AcDbLine
 10
168.883258199
 20
213.559218714
 30
0.0
 11
167.991213203
 21
214.45126371
 31
0.0
  0
CIRCLE
  5
591
330
1F
100
AcDbEntity
  8
プラグ
100
AcDbCircle
 10
177.97
 20
219.92
 30
0.0
 40
2.900000000000006
  0
LINE
  5
592
330
1F
100
AcDbEntity
  8
プラグ
100
AcDbLine
 10
178.883258199
 20
218.059218714
 30
0.0
 11
179.830781286
 21
219.006741801
 31
0.0
  0
LINE
  5
593
330
1F
100
AcDbEntity
  8
プラグ
100
AcDbLine
 10
177.026543162
 20
217.986593668
 30
0.0
 11
176.036593668
 21
218.976543162
 31
0.0
  0
LINE
  5
594
330
1F
100
AcDbEntity
  8
プラグ
100
AcDbLine
 10
175.996081629
 20
220.946395284
 30
0.0
 11
176.943604716
 21
221.893918371
 31
0.0
  0
LINE
  5
595
330
1F
100
AcDbEntity
  8
プラグ
100
AcDbLine
 10
179.889264196
 20
220.849314702
 30
0.0
 11
178.899314702
 21
221.839264196
 31
0.0
  0
LINE
  5
596
330
1F
100
AcDbEntity
  8
プラグ
100
AcDbLine
 10
179.830781286
 20
219.006741801
 30
0.0
 11
178.93873629
 21
219.898786797
 31
0.0
  0
LINE
  5
597
330
1F
100
AcDbEntity
  8
プラグ
100
AcDbLine
 10
179.889264196
 20
220.849314702
 30
0.0
 11
178.93873629
 21
219.898786797
 31
0.0
  0
POLYLINE
  5
598
330
1F
100
AcDbEntity
  8
プラグ
100
AcDb2dPolyline
 66
     1
 10
0.0
 20
0.0
 30
0.0
  0
VERTEX
  5
599
330
598
100
AcDbEntity
  8
0
100
AcDbVertex
100
AcDb2dVertex
 10
178.899314702
 20
221.839264196
 30
0.0
  0
VERTEX
  5
59A
330
598
100
AcDbEntity
  8
0
100
AcDbVertex
100
AcDb2dVertex
 10
177.948786797
 20
220.88873629
 30
0.0
  0
VERTEX
  5
59B
330
598
100
AcDbEntity
  8
0
100
AcDbVertex
100
AcDb2dVertex
 10
176.943604716
 20
221.893918371
 30
0.0
  0
SEQEND
  5
59C
330
598
100
AcDbEntity
  8
プラグ
  0
LINE
  5
59D
330
1F
100
AcDbEntity
  8
プラグ
100
AcDbLine
 10
177.00126371
 20
219.941213203
 30
0.0
 11
175.996081629
 21
220.946395284
 31
0.0
  0
LINE
  5
59E
330
1F
100
AcDbEntity
  8
プラグ
100
AcDbLine
 10
177.00126371
 20
219.941213203
 30
0.0
 11
176.036593668
 21
218.976543162
 31
0.0
  0
LINE
  5
59F
330
1F
100
AcDbEntity
  8
プラグ
100
AcDbLine
 10
177.991213203
 20
218.95126371
 30
0.0
 11
177.026543162
 21
217.986593668
 31
0.0
  0
LINE
  5
5A0
330
1F
100
AcDbEntity
  8
プラグ
100
AcDbLine
 10
178.883258199
 20
218.059218714
 30
0.0
 11
177.991213203
 21
218.95126371
 31
0.0
  0
CIRCLE
  5
5A1
330
1F
100
AcDbEntity
  8
プラグ
100
AcDbCircle
 10
167.97
 20
206.42
 30
0.0
 40
2.900000000000006
  0
LINE
  5
5A2
330
1F
100
AcDbEntity
  8
プラグ
100
AcDbLine
 10
168.883258199
 20
204.559218714
 30
0.0
 11
169.830781286
 21
205.506741801
 31
0.0
  0
LINE
  5
5A3
330
1F
100
AcDbEntity
  8
プラグ
100
AcDbLine
 10
167.026543162
 20
204.486593668
 30
0.0
 11
166.036593668
 21
205.476543162
 31
0.0
  0
LINE
  5
5A4
330
1F
100
AcDbEntity
  8
プラグ
100
AcDbLine
 10
165.996081629
 20
207.446395284
 30
0.0
 11
166.943604716
 21
208.393918371
 31
0.0
  0
LINE
  5
5A5
330
1F
100
AcDbEntity
  8
プラグ
100
AcDbLine
 10
169.889264196
 20
207.349314702
 30
0.0
 11
168.899314702
 21
208.339264196
 31
0.0
  0
LINE
  5
5A6
330
1F
100
AcDbEntity
  8
プラグ
100
AcDbLine
 10
169.830781286
 20
205.506741801
 30
0.0
 11
168.93873629
 21
206.398786797
 31
0.0
  0
LINE
  5
5A7
330
1F
100
AcDbEntity
  8
プラグ
100
AcDbLine
 10
169.889264196
 20
207.349314702
 30
0.0
 11
168.93873629
 21
206.398786797
 31
0.0
  0
POLYLINE
  5
5A8
330
1F
100
AcDbEntity
  8
プラグ
100
AcDb2dPolyline
 66
     1
 10
0.0
 20
0.0
 30
0.0
  0
VERTEX
  5
5A9
330
5A8
100
AcDbEntity
  8
0
100
AcDbVertex
100
AcDb2dVertex
 10
168.899314702
 20
208.339264196
 30
0.0
  0
VERTEX
  5
5AA
330
5A8
100
AcDbEntity
  8
0
100
AcDbVertex
100
AcDb2dVertex
 10
167.948786797
 20
207.38873629
 30
0.0
  0
VERTEX
  5
5AB
330
5A8
100
AcDbEntity
  8
0
100
AcDbVertex
100
AcDb2dVertex
 10
166.943604716
 20
208.393918371
 30
0.0
  0
SEQEND
  5
5AC
330
5A8
100
AcDbEntity
  8
プラグ
  0
LINE
  5
5AD
330
1F
100
AcDbEntity
  8
プラグ
100
AcDbLine
 10
167.00126371
 20
206.441213203
 30
0.0
 11
165.996081629
 21
207.446395284
 31
0.0
  0
LINE
  5
5AE
330
1F
100
AcDbEntity
  8
プラグ
100
AcDbLine
 10
167.00126371
 20
206.441213203
 30
0.0
 11
166.036593668
 21
205.476543162
 31
0.0
  0
LINE
  5
5AF
330
1F
100
AcDbEntity
  8
プラグ
100
AcDbLine
 10
167.991213203
 20
205.45126371
 30
0.0
 11
167.026543162
 21
204.486593668
 31
0.0
  0
LINE
  5
5B0
330
1F
100
AcDbEntity
  8
プラグ
100
AcDbLine
 10
168.883258199
 20
204.559218714
 30
0.0
 11
167.991213203
 21
205.45126371
 31
0.0
  0
CIRCLE
  5
5B1
330
1F
100
AcDbEntity
  8
プラグ
100
AcDbCircle
 10
177.97
 20
210.92
 30
0.0
 40
2.900000000000006
  0
LINE
  5
5B2
330
1F
100
AcDbEntity
  8
プラグ
100
AcDbLine
 10
178.883258199
 20
209.059218714
 30
0.0
 11
179.830781286
 21
210.006741801
 31
0.0
  0
LINE
  5
5B3
330
1F
100
AcDbEntity
  8
プラグ
100
AcDbLine
 10
177.026543162
 20
208.986593668
 30
0.0
 11
176.036593668
 21
209.976543162
 31
0.0
  0
LINE
  5
5B4
330
1F
100
AcDbEntity
  8
プラグ
100
AcDbLine
 10
175.996081629
 20
211.946395284
 30
0.0
 11
176.943604716
 21
212.893918371
 31
0.0
  0
LINE
  5
5B5
330
1F
100
AcDbEntity
  8
プラグ
100
AcDbLine
 10
179.889264196
 20
211.849314702
 30
0.0
 11
178.899314702
 21
212.839264196
 31
0.0
  0
LINE
  5
5B6
330
1F
100
AcDbEntity
  8
プラグ
100
AcDbLine
 10
179.830781286
 20
210.006741801
 30
0.0
 11
178.93873629
 21
210.898786797
 31
0.0
  0
LINE
  5
5B7
330
1F
100
AcDbEntity
  8
プラグ
100
AcDbLine
 10
179.889264196
 20
211.849314702
 30
0.0
 11
178.93873629
 21
210.898786797
 31
0.0
  0
POLYLINE
  5
5B8
330
1F
100
AcDbEntity
  8
プラグ
100
AcDb2dPolyline
 66
     1
 10
0.0
 20
0.0
 30
0.0
  0
VERTEX
  5
5B9
330
5B8
100
AcDbEntity
  8
0
100
AcDbVertex
100
AcDb2dVertex
 10
178.899314702
 20
212.839264196
 30
0.0
  0
VERTEX
  5
5BA
330
5B8
100
AcDbEntity
  8
0
100
AcDbVertex
100
AcDb2dVertex
 10
177.948786797
 20
211.88873629
 30
0.0
  0
VERTEX
  5
5BB
330
5B8
100
AcDbEntity
  8
0
100
AcDbVertex
100
AcDb2dVertex
 10
176.943604716
 20
212.893918371
 30
0.0
  0
SEQEND
  5
5BC
330
5B8
100
AcDbEntity
  8
プラグ
  0
LINE
  5
5BD
330
1F
100
AcDbEntity
  8
プラグ
100
AcDbLine
 10
177.00126371
 20
210.941213203
 30
0.0
 11
175.996081629
 21
211.946395284
 31
0.0
  0
LINE
  5
5BE
330
1F
100
AcDbEntity
  8
プラグ
100
AcDbLine
 10
177.00126371
 20
210.941213203
 30
0.0
 11
176.036593668
 21
209.976543162
 31
0.0
  0
LINE
  5
5BF
330
1F
100
AcDbEntity
  8
プラグ
100
AcDbLine
 10
177.991213203
 20
209.95126371
 30
0.0
 11
177.026543162
 21
208.986593668
 31
0.0
  0
LINE
  5
5C0
330
1F
100
AcDbEntity
  8
プラグ
100
AcDbLine
 10
178.883258199
 20
209.059218714
 30
0.0
 11
177.991213203
 21
209.95126371
 31
0.0
  0
LINE
  5
5C1
330
1F
100
AcDbEntity
  8
プラグ
100
AcDbLine
 10
317.14
 20
207.27
 30
0.0
 11
317.14
 21
203.92
 31
0.0
  0
LINE
  5
5C2
330
1F
100
AcDbEntity
  8
プラグ
100
AcDbLine
 10
323.64
 20
216.27
 30
0.0
 11
315.64
 21
216.27
 31
0.0
  0
LINE
  5
5C3
330
1F
100
AcDbEntity
  8
プラグ
100
AcDbLine
 10
315.64
 20
214.57
 30
0.0
 11
323.64
 21
214.57
 31
0.0
  0
LINE
  5
5C4
330
1F
100
AcDbEntity
  8
プラグ
100
AcDbLine
 10
316.14
 20
216.27
 30
0.0
 11
316.14
 21
222.42
 31
0.0
  0
LINE
  5
5C5
330
1F
100
AcDbEntity
  8
プラグ
100
AcDbLine
 10
316.14
 20
203.92
 30
0.0
 11
316.14
 21
214.57
 31
0.0
  0
LINE
  5
5C6
330
1F
100
AcDbEntity
  8
プラグ
100
AcDbLine
 10
103.3
 20
216.27
 30
0.0
 11
95.3
 21
216.27
 31
0.0
  0
LINE
  5
5C7
330
1F
100
AcDbEntity
  8
プラグ
100
AcDbLine
 10
95.3
 20
214.57
 30
0.0
 11
103.3
 21
214.57
 31
0.0
  0
LINE
  5
5C8
330
1F
100
AcDbEntity
  8
プラグ
100
AcDbLine
 10
102.8
 20
216.27
 30
0.0
 11
102.8
 21
222.42
 31
0.0
  0
LINE
  5
5C9
330
1F
100
AcDbEntity
  8
プラグ
100
AcDbLine
 10
102.8
 20
203.92
 30
0.0
 11
102.8
 21
214.57
 31
0.0
  0
LINE
  5
5CA
330
1F
100
AcDbEntity
  8
寸法
  6
ACAD_ISO04W100
100
AcDbLine
 10
149.8
 20
60.42000000000002
 30
0.0
 11
275.17
 21
60.42000000000002
 31
0.0
  0
LINE
  5
5CB
330
1F
100
AcDbEntity
  8
寸法
  6
ACAD_ISO04W100
100
AcDbLine
 10
209.47
 20
40.2
 30
0.0
 11
209.47
 21
234.87
 31
0.0
  0
LINE
  5
5CC
330
1F
100
AcDbEntity
  8
アレスタ
100
AcDbLine
 10
185.47
 20
203.17
 30
0.0
 11
233.47
 21
203.17
 31
0.0
  0
LINE
  5
5CD
330
1F
100
AcDbEntity
  8
アレスタ
100
AcDbLine
 10
185.47
 20
223.17
 30
0.0
 11
233.47
 21
223.17
 31
0.0
  0
POLYLINE
  5
5CE
330
1F
100
AcDbEntity
  8
アレスタ
100
AcDb2dPolyline
 66
     1
 10
0.0
 20
0.0
 30
0.0
  0
VERTEX
  5
5CF
330
5CE
100
AcDbEntity
  8
0
100
AcDbVertex
100
AcDb2dVertex
 10
201.07
 20
203.8699999999999
 30
0.0
  0
VERTEX
  5
5D0
330
5CE
100
AcDbEntity
  8
0
100
AcDbVertex
100
AcDb2dVertex
 10
201.07
 20
222.4699999999999
 30
0.0
  0
VERTEX
  5
5D1
330
5CE
100
AcDbEntity
  8
0
100
AcDbVertex
100
AcDb2dVertex
 10
188.47
 20
222.4699999999999
 30
0.0
  0
VERTEX
  5
5D2
330
5CE
100
AcDbEntity
  8
0
100
AcDbVertex
100
AcDb2dVertex
 10
188.47
 20
203.8699999999999
 30
0.0
  0
VERTEX
  5
5D3
330
5CE
100
AcDbEntity
  8
0
100
AcDbVertex
100
AcDb2dVertex
 10
201.07
 20
203.8699999999999
 30
0.0
  0
SEQEND
  5
5D4
330
5CE
100
AcDbEntity
  8
アレスタ
  0
CIRCLE
  5
5D5
330
1F
100
AcDbEntity
  8
アレスタ
100
AcDbCircle
 10
191.47
 20
207.6699999999998
 30
0.0
 40
1.5
  0
POLYLINE
  5
5D6
330
1F
100
AcDbEntity
  8
アレスタ
100
AcDb2dPolyline
 66
     1
 10
0.0
 20
0.0
 30
0.0
  0
VERTEX
  5
5D7
330
5D6
100
AcDbEntity
  8
0
100
AcDbVertex
100
AcDb2dVertex
 10
230.47
 20
203.87
 30
0.0
  0
VERTEX
  5
5D8
330
5D6
100
AcDbEntity
  8
0
100
AcDbVertex
100
AcDb2dVertex
 10
230.47
 20
222.47
 30
0.0
  0
VERTEX
  5
5D9
330
5D6
100
AcDbEntity
  8
0
100
AcDbVertex
100
AcDb2dVertex
 10
208.87
 20
222.47
 30
0.0
  0
VERTEX
  5
5DA
330
5D6
100
AcDbEntity
  8
0
100
AcDbVertex
100
AcDb2dVertex
 10
208.87
 20
203.87
 30
0.0
  0
VERTEX
  5
5DB
330
5D6
100
AcDbEntity
  8
0
100
AcDbVertex
100
AcDb2dVertex
 10
230.47
 20
203.87
 30
0.0
  0
SEQEND
  5
5DC
330
5D6
100
AcDbEntity
  8
アレスタ
  0
LINE
  5
5DD
330
1F
100
AcDbEntity
  8
アレスタ
100
AcDbLine
 10
184.47
 20
205.17
 30
0.0
 11
185.47
 21
205.17
 31
0.0
  0
LINE
  5
5DE
330
1F
100
AcDbEntity
  8
アレスタ
100
AcDbLine
 10
184.47
 20
221.17
 30
0.0
 11
185.47
 21
221.17
 31
0.0
  0
LINE
  5
5DF
330
1F
100
AcDbEntity
  8
アレスタ
100
AcDbLine
 10
184.47
 20
221.17
 30
0.0
 11
184.47
 21
205.17
 31
0.0
  0
LINE
  5
5E0
330
1F
100
AcDbEntity
  8
アレスタ
100
AcDbLine
 10
185.47
 20
223.17
 30
0.0
 11
185.47
 21
221.17
 31
0.0
  0
LINE
  5
5E1
330
1F
100
AcDbEntity
  8
アレスタ
100
AcDbLine
 10
185.47
 20
205.17
 30
0.0
 11
185.47
 21
203.17
 31
0.0
  0
LINE
  5
5E2
330
1F
100
AcDbEntity
  8
アレスタ
100
AcDbLine
 10
234.47
 20
205.17
 30
0.0
 11
233.47
 21
205.17
 31
0.0
  0
LINE
  5
5E3
330
1F
100
AcDbEntity
  8
アレスタ
100
AcDbLine
 10
234.47
 20
221.17
 30
0.0
 11
233.47
 21
221.17
 31
0.0
  0
LINE
  5
5E4
330
1F
100
AcDbEntity
  8
アレスタ
100
AcDbLine
 10
234.47
 20
221.17
 30
0.0
 11
234.47
 21
205.17
 31
0.0
  0
LINE
  5
5E5
330
1F
100
AcDbEntity
  8
アレスタ
100
AcDbLine
 10
233.47
 20
223.17
 30
0.0
 11
233.47
 21
221.17
 31
0.0
  0
LINE
  5
5E6
330
1F
100
AcDbEntity
  8
アレスタ
100
AcDbLine
 10
233.47
 20
205.17
 30
0.0
 11
233.47
 21
203.17
 31
0.0
  0
LINE
  5
5E7
330
1F
100
AcDbEntity
  8
プラグ
100
AcDbLine
 10
260.57
 20
107.072250994
 30
0.0
 11
256.47
 21
107.072250994
 31
0.0
  0
LINE
  5
5E8
330
1F
100
AcDbEntity
  8
プラグ
100
AcDbLine
 10
260.57
 20
111.572250994
 30
0.0
 11
256.4700632996893
 21
111.5561412230791
 31
0.0
  0
LINE
  5
5E9
330
1F
100
AcDbEntity
  8
プラグ
100
AcDbLine
 10
260.57
 20
111.572250994
 30
0.0
 11
260.57
 21
107.072250994
 31
0.0
  0
ARC
  5
5EA
330
1F
100
AcDbEntity
  8
アレスタ
100
AcDbCircle
 10
185.07
 20
168.272250994
 30
0.0
 40
0.6
100
AcDbArc
 50
90.0
 51
270.0
  0
LINE
  5
5EB
330
1F
100
AcDbEntity
  8
アレスタ
100
AcDbLine
 10
185.47
 20
167.672250994
 30
0.0
 11
185.47
 21
147.872250994
 31
0.0
  0
ARC
  5
5EC
330
1F
100
AcDbEntity
  8
アレスタ
100
AcDbCircle
 10
233.87
 20
168.272250994
 30
0.0
 40
0.6
100
AcDbArc
 50
270.0
 51
90.0
  0
LINE
  5
5ED
330
1F
100
AcDbEntity
  8
アレスタ
100
AcDbLine
 10
233.87
 20
168.872250994
 30
0.0
 11
185.07
 21
168.872250994
 31
0.0
  0
LINE
  5
5EE
330
1F
100
AcDbEntity
  8
アレスタ
100
AcDbLine
 10
233.47
 20
167.672250994
 30
0.0
 11
233.47
 21
147.872250994
 31
0.0
  0
LINE
  5
5EF
330
1F
100
AcDbEntity
  8
アレスタ
100
AcDbLine
 10
233.87
 20
167.672250994
 30
0.0
 11
233.47
 21
167.672250994
 31
0.0
  0
LINE
  5
5F0
330
1F
100
AcDbEntity
  8
アレスタ
100
AcDbLine
 10
185.47
 20
167.672250994
 30
0.0
 11
185.07
 21
167.672250994
 31
0.0
  0
POLYLINE
  5
5F1
330
1F
100
AcDbEntity
  8
アレスタ
100
AcDb2dPolyline
 66
     1
 10
0.0
 20
0.0
 30
0.0
  0
VERTEX
  5
5F2
330
5F1
100
AcDbEntity
  8
0
100
AcDbVertex
100
AcDb2dVertex
 10
230.47
 20
162.372250994
 30
0.0
  0
VERTEX
  5
5F3
330
5F1
100
AcDbEntity
  8
0
100
AcDbVertex
100
AcDb2dVertex
 10
230.47
 20
159.372250994
 30
0.0
  0
VERTEX
  5
5F4
330
5F1
100
AcDbEntity
  8
0
100
AcDbVertex
100
AcDb2dVertex
 10
232.47
 20
159.372250994
 30
0.0
  0
VERTEX
  5
5F5
330
5F1
100
AcDbEntity
  8
0
100
AcDbVertex
100
AcDb2dVertex
 10
232.47
 20
162.372250994
 30
0.0
  0
VERTEX
  5
5F6
330
5F1
100
AcDbEntity
  8
0
100
AcDbVertex
100
AcDb2dVertex
 10
230.47
 20
162.372250994
 30
0.0
  0
SEQEND
  5
5F7
330
5F1
100
AcDbEntity
  8
アレスタ
  0
POLYLINE
  5
5F8
330
1F
100
AcDbEntity
  8
アレスタ
100
AcDb2dPolyline
 66
     1
 10
0.0
 20
0.0
 30
0.0
  0
VERTEX
  5
5F9
330
5F8
100
AcDbEntity
  8
0
100
AcDbVertex
100
AcDb2dVertex
 10
188.47
 20
162.372250994
 30
0.0
  0
VERTEX
  5
5FA
330
5F8
100
AcDbEntity
  8
0
100
AcDbVertex
100
AcDb2dVertex
 10
188.47
 20
159.372250994
 30
0.0
  0
VERTEX
  5
5FB
330
5F8
100
AcDbEntity
  8
0
100
AcDbVertex
100
AcDb2dVertex
 10
186.47
 20
159.372250994
 30
0.0
  0
VERTEX
  5
5FC
330
5F8
100
AcDbEntity
  8
0
100
AcDbVertex
100
AcDb2dVertex
 10
186.47
 20
162.372250994
 30
0.0
  0
VERTEX
  5
5FD
330
5F8
100
AcDbEntity
  8
0
100
AcDbVertex
100
AcDb2dVertex
 10
188.47
 20
162.372250994
 30
0.0
  0
SEQEND
  5
5FE
330
5F8
100
AcDbEntity
  8
アレスタ
  0
POLYLINE
  5
5FF
330
1F
100
AcDbEntity
  8
プラグ
  6
CONTINUOUS
100
AcDb2dPolyline
 66
     1
 10
0.0
 20
0.0
 30
0.0
  0
VERTEX
  5
600
330
5FF
100
AcDbEntity
  8
0
100
AcDbVertex
100
AcDb2dVertex
 10
225.2700000000001
 20
109.972250994
 30
0.0
  0
VERTEX
  5
601
330
5FF
100
AcDbEntity
  8
0
100
AcDbVertex
100
AcDb2dVertex
 10
225.2700000000001
 20
110.472250994
 30
0.0
  0
SEQEND
  5
602
330
5FF
100
AcDbEntity
  8
プラグ
  6
CONTINUOUS
  0
POLYLINE
  5
603
330
1F
100
AcDbEntity
  8
プラグ
  6
CONTINUOUS
100
AcDb2dPolyline
 66
     1
 10
0.0
 20
0.0
 30
0.0
  0
VERTEX
  5
604
330
603
100
AcDbEntity
  8
0
100
AcDbVertex
100
AcDb2dVertex
 10
225.2700000000001
 20
110.472250994
 30
0.0
  0
VERTEX
  5
605
330
603
100
AcDbEntity
  8
0
100
AcDbVertex
100
AcDb2dVertex
 10
227.07
 20
110.472250994
 30
0.0
  0
SEQEND
  5
606
330
603
100
AcDbEntity
  8
プラグ
  6
CONTINUOUS
  0
POLYLINE
  5
607
330
1F
100
AcDbEntity
  8
プラグ
  6
CONTINUOUS
100
AcDb2dPolyline
 66
     1
 10
0.0
 20
0.0
 30
0.0
  0
VERTEX
  5
608
330
607
100
AcDbEntity
  8
0
100
AcDbVertex
100
AcDb2dVertex
 10
227.3263761085653
 20
108.2467465597388
 30
0.0
  0
VERTEX
  5
609
330
607
100
AcDbEntity
  8
0
100
AcDbVertex
100
AcDb2dVertex
 10
225.2700000000001
 20
109.972250994
 30
0.0
  0
SEQEND
  5
60A
330
607
100
AcDbEntity
  8
プラグ
  6
CONTINUOUS
  0
POLYLINE
  5
60B
330
1F
100
AcDbEntity
  8
プラグ
  6
CONTINUOUS
100
AcDb2dPolyline
 66
     1
 10
0.0
 20
0.0
 30
0.0
  0
VERTEX
  5
60C
330
60B
100
AcDbEntity
  8
0
100
AcDbVertex
100
AcDb2dVertex
 10
203.47
 20
111.272250994
 30
0.0
  0
VERTEX
  5
60D
330
60B
100
AcDbEntity
  8
0
100
AcDbVertex
100
AcDb2dVertex
 10
215.47
 20
111.272250994
 30
0.0
  0
SEQEND
  5
60E
330
60B
100
AcDbEntity
  8
プラグ
  6
CONTINUOUS
  0
POLYLINE
  5
60F
330
1F
100
AcDbEntity
  8
プラグ
  6
CONTINUOUS
100
AcDb2dPolyline
 66
     1
 10
0.0
 20
0.0
 30
0.0
  0
VERTEX
  5
610
330
60F
100
AcDbEntity
  8
0
100
AcDbVertex
100
AcDb2dVertex
 10
203.47
 20
111.572250994
 30
0.0
  0
VERTEX
  5
611
330
60F
100
AcDbEntity
  8
0
100
AcDbVertex
100
AcDb2dVertex
 10
203.47
 20
111.272250994
 30
0.0
  0
SEQEND
  5
612
330
60F
100
AcDbEntity
  8
プラグ
  6
CONTINUOUS
  0
POLYLINE
  5
613
330
1F
100
AcDbEntity
  8
プラグ
  6
CONTINUOUS
100
AcDb2dPolyline
 66
     1
 10
0.0
 20
0.0
 30
0.0
  0
VERTEX
  5
614
330
613
100
AcDbEntity
  8
0
100
AcDbVertex
100
AcDb2dVertex
 10
207.47
 20
111.572250994
 30
0.0
  0
VERTEX
  5
615
330
613
100
AcDbEntity
  8
0
100
AcDbVertex
100
AcDb2dVertex
 10
207.47
 20
111.272250994
 30
0.0
  0
SEQEND
  5
616
330
613
100
AcDbEntity
  8
プラグ
  6
CONTINUOUS
  0
POLYLINE
  5
617
330
1F
100
AcDbEntity
  8
プラグ
  6
CONTINUOUS
100
AcDb2dPolyline
 66
     1
 10
0.0
 20
0.0
 30
0.0
  0
VERTEX
  5
618
330
617
100
AcDbEntity
  8
0
100
AcDbVertex
100
AcDb2dVertex
 10
215.47
 20
111.572250994
 30
0.0
  0
VERTEX
  5
619
330
617
100
AcDbEntity
  8
0
100
AcDbVertex
100
AcDb2dVertex
 10
215.47
 20
111.272250994
 30
0.0
  0
SEQEND
  5
61A
330
617
100
AcDbEntity
  8
プラグ
  6
CONTINUOUS
  0
POLYLINE
  5
61B
330
1F
100
AcDbEntity
  8
プラグ
  6
CONTINUOUS
100
AcDb2dPolyline
 66
     1
 10
0.0
 20
0.0
 30
0.0
  0
VERTEX
  5
61C
330
61B
100
AcDbEntity
  8
0
100
AcDbVertex
100
AcDb2dVertex
 10
211.47
 20
111.572250994
 30
0.0
  0
VERTEX
  5
61D
330
61B
100
AcDbEntity
  8
0
100
AcDbVertex
100
AcDb2dVertex
 10
211.47
 20
111.272250994
 30
0.0
  0
SEQEND
  5
61E
330
61B
100
AcDbEntity
  8
プラグ
  6
CONTINUOUS
  0
POLYLINE
  5
61F
330
1F
100
AcDbEntity
  8
プラグ
  6
CONTINUOUS
100
AcDb2dPolyline
 66
     1
 10
0.0
 20
0.0
 30
0.0
  0
VERTEX
  5
620
330
61F
100
AcDbEntity
  8
0
100
AcDbVertex
100
AcDb2dVertex
 10
191.87
 20
111.572250994
 30
0.0
  0
VERTEX
  5
621
330
61F
100
AcDbEntity
  8
0
100
AcDbVertex
100
AcDb2dVertex
 10
227.07
 20
111.572250994
 30
0.0
  0
SEQEND
  5
622
330
61F
100
AcDbEntity
  8
プラグ
  6
CONTINUOUS
  0
POLYLINE
  5
623
330
1F
100
AcDbEntity
  8
プラグ
  6
CONTINUOUS
100
AcDb2dPolyline
 66
     1
 10
0.0
 20
0.0
 30
0.0
  0
VERTEX
  5
624
330
623
100
AcDbEntity
  8
0
100
AcDbVertex
100
AcDb2dVertex
 10
191.87
 20
111.572250994
 30
0.0
  0
VERTEX
  5
625
330
623
100
AcDbEntity
  8
0
100
AcDbVertex
100
AcDb2dVertex
 10
191.87
 20
107.272250994
 30
0.0
  0
SEQEND
  5
626
330
623
100
AcDbEntity
  8
プラグ
  6
CONTINUOUS
  0
POLYLINE
  5
627
330
1F
100
AcDbEntity
  8
プラグ
  6
CONTINUOUS
100
AcDb2dPolyline
 66
     1
 10
0.0
 20
0.0
 30
0.0
  0
VERTEX
  5
628
330
627
100
AcDbEntity
  8
0
100
AcDbVertex
100
AcDb2dVertex
 10
191.87
 20
110.372250994
 30
0.0
  0
VERTEX
  5
629
330
627
100
AcDbEntity
  8
0
100
AcDbVertex
100
AcDb2dVertex
 10
193.27
 20
110.372250994
 30
0.0
  0
SEQEND
  5
62A
330
627
100
AcDbEntity
  8
プラグ
  6
CONTINUOUS
  0
POLYLINE
  5
62B
330
1F
100
AcDbEntity
  8
プラグ
  6
CONTINUOUS
100
AcDb2dPolyline
 66
     1
 10
0.0
 20
0.0
 30
0.0
  0
VERTEX
  5
62C
330
62B
100
AcDbEntity
  8
0
100
AcDbVertex
100
AcDb2dVertex
 10
191.87
 20
107.272250994
 30
0.0
  0
VERTEX
  5
62D
330
62B
100
AcDbEntity
  8
0
100
AcDbVertex
100
AcDb2dVertex
 10
193.27
 20
110.372250994
 30
0.0
  0
SEQEND
  5
62E
330
62B
100
AcDbEntity
  8
プラグ
  6
CONTINUOUS
  0
POLYLINE
  5
62F
330
1F
100
AcDbEntity
  8
プラグ
  6
CONTINUOUS
100
AcDb2dPolyline
 66
     1
 10
0.0
 20
0.0
 30
0.0
  0
VERTEX
  5
630
330
62F
100
AcDbEntity
  8
0
100
AcDbVertex
100
AcDb2dVertex
 10
227.07
 20
111.572250994
 30
0.0
  0
VERTEX
  5
631
330
62F
100
AcDbEntity
  8
0
100
AcDbVertex
100
AcDb2dVertex
 10
227.07
 20
109.272250994
 30
0.0
  0
SEQEND
  5
632
330
62F
100
AcDbEntity
  8
プラグ
  6
CONTINUOUS
  0
ARC
  5
633
330
1F
100
AcDbEntity
  8
プラグ
  6
CONTINUOUS
100
AcDbCircle
 10
195.9199999999999
 20
111.572250994
 30
0.0
 40
0.5
100
AcDbArc
 50
180.0
 51
0.0
  0
POLYLINE
  5
634
330
1F
100
AcDbEntity
  8
プラグ
  6
CONTINUOUS
100
AcDb2dPolyline
 66
     1
 10
0.0
 20
0.0
 30
0.0
  0
VERTEX
  5
635
330
634
100
AcDbEntity
  8
0
100
AcDbVertex
100
AcDb2dVertex
 10
191.4877777777778
 20
107.272250994
 30
0.0
  0
VERTEX
  5
636
330
634
100
AcDbEntity
  8
0
100
AcDbVertex
100
AcDb2dVertex
 10
191.87
 20
107.272250994
 30
0.0
  0
SEQEND
  5
637
330
634
100
AcDbEntity
  8
プラグ
  6
CONTINUOUS
  0
POLYLINE
  5
638
330
1F
100
AcDbEntity
  8
プラグ
  6
CONTINUOUS
100
AcDb2dPolyline
 66
     1
 10
0.0
 20
0.0
 30
0.0
  0
VERTEX
  5
639
330
638
100
AcDbEntity
  8
0
100
AcDbVertex
100
AcDb2dVertex
 10
227.07
 20
109.272250994
 30
0.0
  0
VERTEX
  5
63A
330
638
100
AcDbEntity
  8
0
100
AcDbVertex
100
AcDb2dVertex
 10
227.3872413793104
 20
108.0032854767587
 30
0.0
  0
SEQEND
  5
63B
330
638
100
AcDbEntity
  8
プラグ
  6
CONTINUOUS
  0
LINE
  5
63C
330
1F
100
AcDbEntity
  8
アレスタ
100
AcDbLine
 10
289.64
 20
223.17
 30
0.0
 11
289.64
 21
203.17
 31
0.0
  0
LINE
  5
63D
330
1F
100
AcDbEntity
  8
アレスタ
100
AcDbLine
 10
289.64
 20
203.17
 30
0.0
 11
310.64
 21
203.17
 31
0.0
  0
LINE
  5
63E
330
1F
100
AcDbEntity
  8
アレスタ
100
AcDbLine
 10
289.64
 20
223.17
 30
0.0
 11
310.64
 21
223.17
 31
0.0
  0
LINE
  5
63F
330
1F
100
AcDbEntity
  8
アレスタ
100
AcDbLine
 10
290.84
 20
221.17
 30
0.0
 11
290.84
 21
205.17
 31
0.0
  0
LINE
  5
640
330
1F
100
AcDbEntity
  8
アレスタ
100
AcDbLine
 10
289.64
 20
205.17
 30
0.0
 11
290.84
 21
205.17
 31
0.0
  0
LINE
  5
641
330
1F
100
AcDbEntity
  8
アレスタ
100
AcDbLine
 10
289.64
 20
221.17
 30
0.0
 11
290.84
 21
221.17
 31
0.0
  0
LINE
  5
642
330
1F
100
AcDbEntity
  8
アレスタ
100
AcDbLine
 10
129.3
 20
223.17
 30
0.0
 11
108.3
 21
223.17
 31
0.0
  0
LINE
  5
643
330
1F
100
AcDbEntity
  8
アレスタ
100
AcDbLine
 10
128.1
 20
221.17
 30
0.0
 11
128.1
 21
205.17
 31
0.0
  0
LINE
  5
644
330
1F
100
AcDbEntity
  8
アレスタ
100
AcDbLine
 10
129.3
 20
205.17
 30
0.0
 11
128.1
 21
205.17
 31
0.0
  0
LINE
  5
645
330
1F
100
AcDbEntity
  8
アレスタ
100
AcDbLine
 10
129.3
 20
221.17
 30
0.0
 11
128.1
 21
221.17
 31
0.0
  0
LINE
  5
646
330
1F
100
AcDbEntity
  8
アレスタ
100
AcDbLine
 10
129.3
 20
223.17
 30
0.0
 11
129.3
 21
203.17
 31
0.0
  0
LINE
  5
647
330
1F
100
AcDbEntity
  8
アレスタ
100
AcDbLine
 10
129.3
 20
203.17
 30
0.0
 11
108.3
 21
203.17
 31
0.0
  0
LINE
  5
648
330
1F
100
AcDbEntity
  8
寸法
  6
ACAD_ISO04W100
100
AcDbLine
 10
52.2
 20
213.17
 30
0.0
 11
363.8
 21
213.17
 31
0.0
  0
DIMENSION
  5
64A
330
1F
100
AcDbEntity
  8
寸法
100
AcDbDimension
  2
*D1
 10
275.7
 20
147.872250994
 30
0.0
 11
274.2
 21
158.372250994
 31
0.0
 70
    32
  3
STANDARD
100
AcDbAlignedDimension
 13
233.87
 23
168.872250994
 33
0.0
 14
237.77
 24
147.872250994
 34
0.0
 50
90.0
100
AcDbRotatedDimension
1001
ACAD
1000
DSTYLE
1002
{
1070
   287
1070
     1
1070
    41
1040
3.0
1070
   289
1070
     1
1070
   271
1070
     2
1070
    44
1040
1.0
1070
    42
1040
0.5
1070
   147
1040
0.5
1070
    77
1070
     1
1070
   272
1070
     2
1070
   146
1040
0.5
1070
    73
1070
     0
1070
   174
1070
     1
1070
   172
1070
     1
1070
    74
1070
     0
1070
   283
1070
     0
1070
   340
1005
649
1070
   140
1040
1.538599426386233
1070
   284
1070
     1
1070
    78
1070
     1
1070
   345
1005
15
1070
   346
1005
14
1002
}
  0
DIMENSION
  5
652
330
1F
100
AcDbEntity
  8
寸法
100
AcDbDimension
  2
*D2
 10
275.7
 20
107.072250994
 30
0.0
 11
274.2
 21
127.472250994
 31
0.0
 70
    32
  1
41.00
  3
STANDARD
100
AcDbAlignedDimension
 13
237.77
 23
147.872250994
 33
0.0
 14
260.57
 24
107.072250994
 34
0.0
 50
90.0
100
AcDbRotatedDimension
1001
ACAD
1000
DSTYLE
1002
{
1070
   287
1070
     1
1070
    41
1040
3.0
1070
   289
1070
     1
1070
   271
1070
     2
1070
    44
1040
1.0
1070
    42
1040
0.5
1070
   147
1040
0.5
1070
    77
1070
     1
1070
   272
1070
     2
1070
   146
1040
0.5
1070
    73
1070
     0
1070
   174
1070
     1
1070
   172
1070
     1
1070
    74
1070
     0
1070
   283
1070
     0
1070
   340
1005
649
1070
   140
1040
1.538750791640279
1070
   284
1070
     1
1070
    78
1070
     1
1070
   345
1005
15
1070
   346
1005
14
1002
}
  0
DIMENSION
  5
65A
330
1F
100
AcDbEntity
  8
寸法
100
AcDbDimension
  2
*D3
 10
234.47
 20
178.53
 30
0.0
 11
209.47
 21
180.03
 31
0.0
 70
    32
  3
STANDARD
100
AcDbAlignedDimension
 13
184.47
 23
168.272250994
 33
0.0
 14
234.47
 24
168.272250994
 34
0.0
100
AcDbRotatedDimension
1001
ACAD
1000
DSTYLE
1002
{
1070
   287
1070
     1
1070
    41
1040
3.0
1070
   289
1070
     1
1070
   271
1070
     2
1070
    44
1040
1.0
1070
    42
1040
0.5
1070
   147
1040
0.5
1070
    77
1070
     1
1070
   272
1070
     2
1070
   146
1040
0.5
1070
    73
1070
     0
1070
   174
1070
     1
1070
   172
1070
     1
1070
    74
1070
     0
1070
   283
1070
     0
1070
   340
1005
649
1070
   140
1040
1.538637448297805
1070
   284
1070
     1
1070
    78
1070
     1
1070
   345
1005
15
1070
   346
1005
14
1002
}
  0
DIMENSION
  5
662
330
1F
100
AcDbEntity
  8
寸法
100
AcDbDimension
  2
*D4
 10
256.4700632996893
 20
96.46999999999994
 30
0.0
 11
209.470424577153
 21
97.96999999999994
 31
0.0
 70
    32
  3
STANDARD
100
AcDbAlignedDimension
 13
162.4707858546167
 23
107.272250994
 33
0.0
 14
256.4700632996893
 24
107.0722512427218
 34
0.0
100
AcDbRotatedDimension
1001
ACAD
1000
DSTYLE
1002
{
1070
   287
1070
     1
1070
    41
1040
3.0
1070
   289
1070
     1
1070
   271
1070
     2
1070
    44
1040
1.0
1070
    42
1040
0.5
1070
   147
1040
0.5
1070
    77
1070
     1
1070
   272
1070
     2
1070
   146
1040
0.5
1070
    73
1070
     0
1070
   174
1070
     1
1070
   172
1070
     1
1070
    74
1070
     0
1070
   283
1070
     0
1070
   340
1005
649
1070
   140
1040
1.538561283115225
1070
   284
1070
     1
1070
    78
1070
     1
1070
   345
1005
15
1070
   346
1005
14
1002
}
  0
DIMENSION
  5
66A
330
1F
100
AcDbEntity
  8
寸法
100
AcDbDimension
  2
*D5
 10
260.5699367003107
 20
96.47000000000003
 30
0.0
 11
265.5699367003107
 21
97.97000000000003
 31
0.0
 70
    32
  1
4.00
  3
STANDARD
100
AcDbAlignedDimension
 13
256.4700632996893
 23
107.0722512427218
 33
0.0
 14
260.5699367003107
 24
107.088360764921
 34
0.0
100
AcDbRotatedDimension
1001
ACAD
1000
DSTYLE
1002
{
1070
   287
1070
     1
1070
    41
1040
3.0
1070
   289
1070
     1
1070
   271
1070
     2
1070
    44
1040
1.0
1070
    42
1040
0.5
1070
   147
1040
0.5
1070
    77
1070
     1
1070
   272
1070
     2
1070
   146
1040
0.5
1070
    73
1070
     0
1070
   174
1070
     1
1070
   172
1070
     1
1070
    74
1070
     0
1070
   283
1070
     0
1070
   340
1005
649
1070
   140
1040
1.538825757575757
1070
   284
1070
     1
1070
    78
1070
     1
1070
   345
1005
15
1070
   346
1005
14
1002
}
  0
DIMENSION
  5
674
330
1F
100
AcDbEntity
  8
寸法
100
AcDbDimension
  2
*D6
 10
275.7
 20
225.67
 30
0.0
 11
274.1999999999999
 21
213.17
 31
0.0
 70
    32
  3
STANDARD
100
AcDbAlignedDimension
 13
255.97
 23
200.67
 33
0.0
 14
255.97
 24
225.67
 34
0.0
 50
270.0
100
AcDbRotatedDimension
1001
ACAD
1000
DSTYLE
1002
{
1070
   287
1070
     1
1070
    41
1040
3.0
1070
   289
1070
     1
1070
   271
1070
     2
1070
    44
1040
1.0
1070
    42
1040
0.5
1070
   147
1040
0.5
1070
    77
1070
     1
1070
   272
1070
     2
1070
   146
1040
0.5
1070
    73
1070
     0
1070
   174
1070
     1
1070
   172
1070
     1
1070
    74
1070
     0
1070
   283
1070
     0
1070
   340
1005
649
1070
   140
1040
1.538599426386233
1070
   284
1070
     1
1070
    78
1070
     1
1070
   345
1005
15
1070
   346
1005
14
1002
}
  0
VIEWPORT
  5
67C
330
1B
100
AcDbEntity
 67
     1
  8
0
100
AcDbViewport
 68
     1
 10
0.0
 20
0.0
 30
0.0
 40
325.7778
 41
203.527485
 68
     1
 69
     1
1001
ACAD
1000
MVIEW
1002
{
1070
    16
1010
0.0
1020
0.0
1030
0.0
1010
0.0
1020
0.0
1030
1.0
1040
0.0
1040
203.527485
1040
208.0
1040
137.535
1040
50.0
1040
0.0
1040
0.0
1070
     0
1070
   100
1070
     0
1070
     3
1070
     0
1070
     0
1070
     0
1070
     0
1040
0.0
1040
0.0
1040
0.0
1040
0.5
1040
0.5
1040
0.5
1040
0.5
1070
     0
1002
{
1002
}
1002
}
  0
POLYLINE
  5
67E
102
{ACAD_REACTORS
102
}
330
1B
100
AcDbEntity
 67
     1
  8
RCVIEWPORTFRAME
100
AcDb2dPolyline
 66
     1
 10
0.0
 20
0.0
 30
0.0
 70
     1
  0
VERTEX
  5
67F
330
67E
100
AcDbEntity
 67
     1
  8
RCVIEWPORTFRAME
100
AcDbVertex
100
AcDb2dVertex
 10
48.30500000000001
 20
37.76662500000002
 30
0.0
  0
VERTEX
  5
680
330
67E
100
AcDbEntity
 67
     1
  8
RCVIEWPORTFRAME
100
AcDbVertex
100
AcDb2dVertex
 10
367.695
 20
37.76662500000002
 30
0.0
  0
VERTEX
  5
681
330
67E
100
AcDbEntity
 67
     1
  8
RCVIEWPORTFRAME
100
AcDbVertex
100
AcDb2dVertex
 10
367.695
 20
237.303375
 30
0.0
  0
VERTEX
  5
682
330
67E
100
AcDbEntity
 67
     1
  8
RCVIEWPORTFRAME
100
AcDbVertex
100
AcDb2dVertex
 10
48.30500000000001
 20
237.303375
 30
0.0
  0
SEQEND
  5
683
330
67E
100
AcDbEntity
 67
     1
  8
RCVIEWPORTFRAME
  0
VIEWPORT
  5
684
330
1B
100
AcDbEntity
 67
     1
  8
新しいレイヤ_1
100
AcDbViewport
 68
     2
 10
208.0
 20
137.535
 30
0.0
 40
319.39
 41
199.53675
 68
     2
 69
     2
1001
ACAD
1000
MVIEW
1002
{
1070
    16
1010
0.0
1020
0.0
1030
0.0
1010
0.0
1020
0.0
1030
1.0
1040
0.0
1040
199.53675
1040
208.0
1040
137.535
1040
50.0
1040
0.0
1040
0.0
1070
     0
1070
   100
1070
     0
1070
     3
1070
     0
1070
     0
1070
     0
1070
     0
1040
0.0
1040
0.0
1040
0.0
1040
0.5
1040
0.5
1040
0.5
1040
0.5
1070
     0
1002
{
1002
}
1002
}
  0
ENDSEC
  0
SECTION
  2
OBJECTS
  0
DICTIONARY
  5
C
330
0
100
AcDbDictionary
  3
ACAD_GROUP
350
D
  3
ACAD_IMAGE_VARS
350
6B
  3
ACAD_LAYOUT
350
1A
  3
ACAD_MATERIAL
350
43
  3
ACAD_MLEADERSTYLE
350
688
  3
ACAD_MLINESTYLE
350
17
  3
ACAD_PLOTSETTINGS
350
19
  3
ACAD_SCALELIST
350
47
  3
ACAD_VISUALSTYLE
350
2A
  3
ACDBVARIABLEDICTIONARY
350
686
1001
ACAD
1000
TREAT_AS_HARD
1070
     0
  0
DICTIONARY
  5
D
102
{ACAD_REACTORS
330
C
102
}
330
C
100
AcDbDictionary
1001
ACAD
1000
TREAT_AS_HARD
1070
     0
  0
RASTERVARIABLES
  5
6B
102
{ACAD_REACTORS
330
C
102
}
330
C
100
AcDbRasterVariables
 90
        0
 70
     0
 71
     1
 72
     0
  0
DICTIONARY
  5
1A
102
{ACAD_REACTORS
330
C
102
}
330
C
100
AcDbDictionary
1001
ACAD
1000
TREAT_AS_HARD
1070
     0
  0
DICTIONARY
  5
43
102
{ACAD_REACTORS
330
C
102
}
330
C
100
AcDbDictionary
  3
BYBLOCK
350
45
  3
BYLAYER
350
44
  3
GLOBAL
350
46
1001
ACAD
1000
TREAT_AS_HARD
1070
     0
  0
DICTIONARY
  5
688
102
{ACAD_REACTORS
330
C
102
}
330
C
100
AcDbDictionary
1001
ACAD
1000
TREAT_AS_HARD
1070
     0
  0
DICTIONARY
  5
17
102
{ACAD_REACTORS
330
C
102
}
330
C
100
AcDbDictionary
  3
STANDARD
350
18
1001
ACAD
1000
TREAT_AS_HARD
1070
     0
  0
DICTIONARY
  5
19
102
{ACAD_REACTORS
330
C
102
}
330
C
100
AcDbDictionary
1001
ACAD
1000
TREAT_AS_HARD
1070
     0
  0
DICTIONARY
  5
47
102
{ACAD_REACTORS
330
C
102
}
330
C
100
AcDbDictionary
  3
A0
350
48
  3
A1
350
49
  3
A2
350
4A
  3
A3
350
4B
  3
A4
350
4C
  3
A5
350
4D
  3
A6
350
4E
  3
A7
350
4F
  3
A8
350
50
  3
A9
350
51
  3
B0
350
52
  3
B1
350
53
  3
B2
350
54
  3
B3
350
55
  3
B4
350
56
  3
B5
350
57
  3
B6
350
58
  3
B7
350
59
  3
B8
350
5A
  3
B9
350
5B
  3
C0
350
5C
  3
C1
350
5D
  3
C2
350
5E
  3
C3
350
5F
  3
C4
350
60
  3
C5
350
61
  3
C6
350
62
  3
C7
350
63
  3
C8
350
64
  3
C9
350
65
  3
D0
350
66
  3
D1
350
67
  3
D2
350
68
1001
ACAD
1000
TREAT_AS_HARD
1070
     0
  0
DICTIONARY
  5
2A
102
{ACAD_REACTORS
330
C
102
}
330
C
100
AcDbDictionary
  3
2DWIREFRAME
350
2F
  3
BASIC
350
32
  3
BRIGHTEN
350
36
  3
COLORCHANGE
350
3A
  3
CONCEPTUAL
350
34
  3
DIM
350
35
  3
EDGECOLOROFF
350
3D
  3
FACEPATTERN
350
39
  3
FLAT
350
2B
  3
FLATWITHEDGES
350
2C
  3
GOURAUD
350
2D
  3
GOURAUDWITHEDGES
350
2E
  3
HIDDEN
350
31
  3
JITTEROFF
350
3B
  3
LINEPATTERN
350
38
  3
OVERHANGOFF
350
3C
  3
REALISTIC
350
33
  3
SHADED
350
42
  3
SHADED_WITH_EDGES
350
41
  3
SHADES_OF_GRAY
350
3E
  3
SKETCHY
350
3F
  3
THICKEN
350
37
  3
WIREFRAME
350
30
  3
X-RAY
350
40
1001
ACAD
1000
TREAT_AS_HARD
1070
     0
  0
DICTIONARY
  5
686
102
{ACAD_REACTORS
330
C
102
}
330
C
100
AcDbDictionary
  3
CANNOSCALE
350
68D
  3
DIMASSOC
350
68B
  3
HIDETEXT
350
68C
  3
MSLTSCALE
350
68E
1001
ACAD
1000
TREAT_AS_HARD
1070
     0
  0
MATERIAL
  5
45
102
{ACAD_REACTORS
330
43
102
}
102
{ACAD_XDICTIONARY
360
691
102
}
330
43
100
AcDbMaterial
  1
BYBLOCK
  0
MATERIAL
  5
44
102
{ACAD_REACTORS
330
43
102
}
102
{ACAD_XDICTIONARY
360
68F
102
}
330
43
100
AcDbMaterial
  1
BYLAYER
  0
MATERIAL
  5
46
102
{ACAD_REACTORS
330
43
102
}
102
{ACAD_XDICTIONARY
360
693
102
}
330
43
100
AcDbMaterial
  1
GLOBAL
  0
MLINESTYLE
  5
18
102
{ACAD_REACTORS
330
17
102
}
330
17
100
AcDbMlineStyle
  2
Standard
 70
     0
  3

 62
   256
 51
90.0
 52
90.0
 71
     2
 49
0.5
 62
   256
  6
BYLAYER
 49
-0.5
 62
   256
  6
BYLAYER
  0
ACAD_PROXY_OBJECT
  5
48
102
{ACAD_REACTORS
330
47
102
}
330
47
100
AcDbZombieObject
 90
      499
 91
      503
 93
       41
310
903313A31580
  0
ACAD_PROXY_OBJECT
  5
49
102
{ACAD_REACTORS
330
47
102
}
330
47
100
AcDbZombieObject
 90
      499
 91
      503
 93
      105
310
903313A324000000000000004000
  0
ACAD_PROXY_OBJECT
  5
4A
102
{ACAD_REACTORS
330
47
102
}
330
47
100
AcDbZombieObject
 90
      499
 91
      503
 93
      105
310
903313A344000000000000104000
  0
ACAD_PROXY_OBJECT
  5
4B
102
{ACAD_REACTORS
330
47
102
}
330
47
100
AcDbZombieObject
 90
      499
 91
      503
 93
      105
310
903313A354000000000000144000
  0
ACAD_PROXY_OBJECT
  5
4C
102
{ACAD_REACTORS
330
47
102
}
330
47
100
AcDbZombieObject
 90
      499
 91
      503
 93
      105
310
903313A384000000000000204000
  0
ACAD_PROXY_OBJECT
  5
4D
102
{ACAD_REACTORS
330
47
102
}
330
47
100
AcDbZombieObject
 90
      499
 91
      503
 93
      113
310
904313A31304000000000000244000
  0
ACAD_PROXY_OBJECT
  5
4E
102
{ACAD_REACTORS
330
47
102
}
330
47
100
AcDbZombieObject
 90
      499
 91
      503
 93
      113
310
904313A31364000000000000304000
  0
ACAD_PROXY_OBJECT
  5
4F
102
{ACAD_REACTORS
330
47
102
}
330
47
100
AcDbZombieObject
 90
      499
 91
      503
 93
      113
310
904313A32304000000000000344000
  0
ACAD_PROXY_OBJECT
  5
50
102
{ACAD_REACTORS
330
47
102
}
330
47
100
AcDbZombieObject
 90
      499
 91
      503
 93
      113
310
904313A333040000000000003E4000
  0
ACAD_PROXY_OBJECT
  5
51
102
{ACAD_REACTORS
330
47
102
}
330
47
100
AcDbZombieObject
 90
      499
 91
      503
 93
      113
310
904313A34304000000000000444000
  0
ACAD_PROXY_OBJECT
  5
52
102
{ACAD_REACTORS
330
47
102
}
330
47
100
AcDbZombieObject
 90
      499
 91
      503
 93
      113
310
904313A35304000000000000494000
  0
ACAD_PROXY_OBJECT
  5
53
102
{ACAD_REACTORS
330
47
102
}
330
47
100
AcDbZombieObject
 90
      499
 91
      503
 93
      121
310
905313A3130304000000000000594000
  0
ACAD_PROXY_OBJECT
  5
54
102
{ACAD_REACTORS
330
47
102
}
330
47
100
AcDbZombieObject
 90
      499
 91
      503
 93
      105
310
903323A310000000000000010100
  0
ACAD_PROXY_OBJECT
  5
55
102
{ACAD_REACTORS
330
47
102
}
330
47
100
AcDbZombieObject
 90
      499
 91
      503
 93
      105
310
903343A310000000000000410100
  0
ACAD_PROXY_OBJECT
  5
56
102
{ACAD_REACTORS
330
47
102
}
330
47
100
AcDbZombieObject
 90
      499
 91
      503
 93
      105
310
903383A310000000000000810100
  0
ACAD_PROXY_OBJECT
  5
57
102
{ACAD_REACTORS
330
47
102
}
330
47
100
AcDbZombieObject
 90
      499
 91
      503
 93
      113
310
90431303A310000000000000910100
  0
ACAD_PROXY_OBJECT
  5
58
102
{ACAD_REACTORS
330
47
102
}
330
47
100
AcDbZombieObject
 90
      499
 91
      503
 93
      121
310
9053130303A310000000000001650100
  0
ACAD_PROXY_OBJECT
  5
59
102
{ACAD_REACTORS
330
47
102
}
330
47
100
AcDbZombieObject
 90
      499
 91
      503
 93
      257
310
90E312F31323822203D2031272D3022000000000000200FC000000000000284000
  0
ACAD_PROXY_OBJECT
  5
5A
102
{ACAD_REACTORS
330
47
102
}
330
47
100
AcDbZombieObject
 90
      499
 91
      503
 93
      249
310
90D312F363422203D2031272D3022000000000000240FC000000000000284000
  0
ACAD_PROXY_OBJECT
  5
5B
102
{ACAD_REACTORS
330
47
102
}
330
47
100
AcDbZombieObject
 90
      499
 91
      503
 93
      249
310
90D312F333222203D2031272D3022000000000000280FC000000000000284000
  0
ACAD_PROXY_OBJECT
  5
5C
102
{ACAD_REACTORS
330
47
102
}
330
47
100
AcDbZombieObject
 90
      499
 91
      503
 93
      249
310
90D312F313622203D2031272D30220000000000002C0FC000000000000284000
  0
ACAD_PROXY_OBJECT
  5
5D
102
{ACAD_REACTORS
330
47
102
}
330
47
100
AcDbZombieObject
 90
      499
 91
      503
 93
      249
310
90D332F333222203D2031272D30220000000000002E0FC000000000000284000
  0
ACAD_PROXY_OBJECT
  5
5E
102
{ACAD_REACTORS
330
47
102
}
330
47
100
AcDbZombieObject
 90
      499
 91
      503
 93
      241
310
90C312F3822203D2031272D3022000000000000300FC000000000000284000
  0
ACAD_PROXY_OBJECT
  5
5F
102
{ACAD_REACTORS
330
47
102
}
330
47
100
AcDbZombieObject
 90
      499
 91
      503
 93
      249
310
90D332F313622203D2031272D3022000000000000320FC000000000000284000
  0
ACAD_PROXY_OBJECT
  5
60
102
{ACAD_REACTORS
330
47
102
}
330
47
100
AcDbZombieObject
 90
      499
 91
      503
 93
      241
310
90C312F3422203D2031272D3022000000000000340FC000000000000284000
  0
ACAD_PROXY_OBJECT
  5
61
102
{ACAD_REACTORS
330
47
102
}
330
47
100
AcDbZombieObject
 90
      499
 91
      503
 93
      241
310
90C332F3822203D2031272D3022000000000000360FC000000000000284000
  0
ACAD_PROXY_OBJECT
  5
62
102
{ACAD_REACTORS
330
47
102
}
330
47
100
AcDbZombieObject
 90
      499
 91
      503
 93
      241
310
90C312F3222203D2031272D3022000000000000380FC000000000000284000
  0
ACAD_PROXY_OBJECT
  5
63
102
{ACAD_REACTORS
330
47
102
}
330
47
100
AcDbZombieObject
 90
      499
 91
      503
 93
      241
310
90C332F3422203D2031272D30220000000000003A0FC000000000000284000
  0
ACAD_PROXY_OBJECT
  5
64
102
{ACAD_REACTORS
330
47
102
}
330
47
100
AcDbZombieObject
 90
      499
 91
      503
 93
      161
310
90A3122203D2031272D30224000000000000284000
  0
ACAD_PROXY_OBJECT
  5
65
102
{ACAD_REACTORS
330
47
102
}
330
47
100
AcDbZombieObject
 90
      499
 91
      503
 93
      257
310
90E312D312F3222203D2031272D30220000000000003E0FC000000000000284000
  0
ACAD_PROXY_OBJECT
  5
66
102
{ACAD_REACTORS
330
47
102
}
330
47
100
AcDbZombieObject
 90
      499
 91
      503
 93
      225
310
90A3322203D2031272D302200000000000002100000000000000284000
  0
ACAD_PROXY_OBJECT
  5
67
102
{ACAD_REACTORS
330
47
102
}
330
47
100
AcDbZombieObject
 90
      499
 91
      503
 93
      225
310
90A3622203D2031272D302200000000000006100000000000000284000
  0
ACAD_PROXY_OBJECT
  5
68
102
{ACAD_REACTORS
330
47
102
}
330
47
100
AcDbZombieObject
 90
      499
 91
      503
 93
      249
310
90D31272D3022203D2031272D30220000000000000A100000000000000284000
  0
ACAD_PROXY_OBJECT
  5
2F
102
{ACAD_REACTORS
330
2A
102
}
330
2A
100
AcDbZombieObject
 90
      499
 91
      501
 93
      436
310
42CC9915DA5C99599C985B595049028333333333333E33F0000000000000F90107901411070040501600405405064090741402480A0340
1001
ACAD
1000
AcDbSavedByObjectVersion
1070
     0
  0
ACAD_PROXY_OBJECT
  5
32
102
{ACAD_REACTORS
330
2A
102
}
330
2A
100
AcDbZombieObject
 90
      499
 91
      501
 93
      388
310
4150985CDA58D07406404333333333333E33F0000000000000F90107A41107004050150841D405064090741402480A0350
1001
ACAD
1000
AcDbSavedByObjectVersion
1070
     0
  0
ACAD_PROXY_OBJECT
  5
36
102
{ACAD_REACTORS
330
2A
102
}
330
2A
100
AcDbZombieObject
 90
      499
 91
      501
 93
      428
310
42109C9A59DA1D195B90C409028333333333333E33F0000000000000F9010790141107004050150841D405064090741402480A029950
1001
ACAD
1000
AcDbSavedByObjectVersion
1070
     0
  0
ACAD_PROXY_OBJECT
  5
3A
102
{ACAD_REACTORS
330
2A
102
}
330
2A
100
AcDbZombieObject
 90
      499
 91
      501
 93
      452
310
42D0DBDB1BDC90DA185B99D95104090240C333333333333E33F0000000000000F90108901411070040501508421405064090741402480A0350
1001
ACAD
1000
AcDbSavedByObjectVersion
1070
     0
  0
ACAD_PROXY_OBJECT
  5
34
102
{ACAD_REACTORS
330
2A
102
}
330
2A
100
AcDbZombieObject
 90
      499
 91
      501
 93
      500
310
4290DBDB98D95C1D1D585B10940D028333333333333E33F0000000000000F90107902409070040501000000000018199010841D405064090740C02480A0340
1001
ACAD
1000
AcDbSavedByObjectVersion
1070
     0
  0
ACAD_PROXY_OBJECT
  5
35
102
{ACAD_REACTORS
330
2A
102
}
330
2A
100
AcDbZombieObject
 90
      499
 91
      501
 93
      412
310
40D11A5B50B409028333333333333E33F0000000000000F9010790141107004050150841D405064090741402480A02677FFFFFD0
1001
ACAD
1000
AcDbSavedByObjectVersion
1070
     0
  0
ACAD_PROXY_OBJECT
  5
3D
102
{ACAD_REACTORS
330
2A
102
}
330
2A
100
AcDbZombieObject
 90
      499
 91
      501
 93
      452
310
43115919D950DBDB1BDC93D999916409028333333333333E33F0000000000000F9010790141107004050150841D405064090741402480A0350
1001
ACAD
1000
AcDbSavedByObjectVersion
1070
     0
  0
ACAD_PROXY_OBJECT
  5
39
102
{ACAD_REACTORS
330
2A
102
}
330
2A
100
AcDbZombieObject
 90
      499
 91
      501
 93
      444
310
42D19858D95C185D1D195C9B90F409028333333333333E33F0000000000000F9010790141107004050150841D405064090741402480A0350
1001
ACAD
1000
AcDbSavedByObjectVersion
1070
     0
  0
ACAD_PROXY_OBJECT
  5
2B
102
{ACAD_REACTORS
330
2A
102
}
330
2A
100
AcDbZombieObject
 90
      499
 91
      501
 93
      380
310
41119B185D240901404333333333333E33F0000000000000F9010740A907004050150841D405064090741402480A1B50
1001
ACAD
1000
AcDbSavedByObjectVersion
1070
     0
  0
ACAD_PROXY_OBJECT
  5
2C
102
{ACAD_REACTORS
330
2A
102
}
330
2A
100
AcDbZombieObject
 90
      499
 91
      501
 93
      468
310
43519B185D15DA5D1A115919D95CD0140901404333333333333E33F0000000000000F90107409019070040501600405405064090741402480A1B50
1001
ACAD
1000
AcDbSavedByObjectVersion
1070
     0
  0
ACAD_PROXY_OBJECT
  5
2D
102
{ACAD_REACTORS
330
2A
102
}
330
2A
100
AcDbZombieObject
 90
      499
 91
      501
 93
      404
310
41D1DBDD5C985D5910240902404333333333333E33F0000000000000F9010740A9070040501641D405064090741402480A1B50
1001
ACAD
1000
AcDbSavedByObjectVersion
1070
     0
  0
ACAD_PROXY_OBJECT
  5
2E
102
{ACAD_REACTORS
330
2A
102
}
330
2A
100
AcDbZombieObject
 90
      499
 91
      501
 93
      492
310
4411DBDD5C985D5915DA5D1A115919D95CD0340902404333333333333E33F0000000000000F90107409019070040501600405405064090741402480A1B50
1001
ACAD
1000
AcDbSavedByObjectVersion
1070
     0
  0
ACAD_PROXY_OBJECT
  5
31
102
{ACAD_REACTORS
330
2A
102
}
330
2A
100
AcDbZombieObject
 90
      499
 91
      501
 93
      476
310
41921A5919195B90640502408333333333333E33F0000000000000F901079024090700405020000000000001110200405405064090740C02480A0340
1001
ACAD
1000
AcDbSavedByObjectVersion
1070
     0
  0
ACAD_PROXY_OBJECT
  5
3B
102
{ACAD_REACTORS
330
2A
102
}
330
2A
100
AcDbZombieObject
 90
      499
 91
      501
 93
      428
310
42529A5D1D195C93D999914409028333333333333E33F0000000000000F9010790141107004050150A41D405064090741402480A0350
1001
ACAD
1000
AcDbSavedByObjectVersion
1070
     0
  0
ACAD_PROXY_OBJECT
  5
38
102
{ACAD_REACTORS
330
2A
102
}
330
2A
100
AcDbZombieObject
 90
      499
 91
      501
 93
      444
310
42D31A5B995C185D1D195C9B90E409028333333333333E33F0000000000000F9010790141107004050750841D405064090741402483A0350
1001
ACAD
1000
AcDbSavedByObjectVersion
1070
     0
  0
ACAD_PROXY_OBJECT
  5
3C
102
{ACAD_REACTORS
330
2A
102
}
330
2A
100
AcDbZombieObject
 90
      499
 91
      501
 93
      444
310
42D3DD995C9A185B99D3D999915409028333333333333E33F0000000000000F9010790141107004050150941D405064090741402480A0350
1001
ACAD
1000
AcDbSavedByObjectVersion
1070
     0
  0
ACAD_PROXY_OBJECT
  5
33
102
{ACAD_REACTORS
330
2A
102
}
330
2A
100
AcDbZombieObject
 90
      499
 91
      501
 93
      428
310
425499585B1A5CDD1A58D08409038333333333333E33F0000000000000F9010740A907004050150800405405064090740C02480A1B40
1001
ACAD
1000
AcDbSavedByObjectVersion
1070
     0
  0
ACAD_PROXY_OBJECT
  5
42
102
{ACAD_REACTORS
330
2A
102
}
330
2A
100
AcDbZombieObject
 90
      499
 91
      501
 93
      420
310
4194DA1859195911B40902404333333333333E33F0000000000000F9010740A41107004050150800405405064090840C02480A0B40
1001
ACAD
1000
AcDbSavedByObjectVersion
1070
     0
  0
ACAD_PROXY_OBJECT
  5
41
102
{ACAD_REACTORS
330
2A
102
}
330
2A
100
AcDbZombieObject
 90
      499
 91
      501
 93
      516
310
4454DA18591959081DDA5D1A08195919D95CD1A40902404333333333333E33F0000000000000F901074090142907004050250800405405064090740C02480A0B40
1001
ACAD
1000
AcDbSavedByObjectVersion
1070
     0
  0
ACAD_PROXY_OBJECT
  5
3E
102
{ACAD_REACTORS
330
2A
102
}
330
2A
100
AcDbZombieObject
 90
      499
 91
      501
 93
      532
310
4394DA1859195CC81BD98811DC985E5174090240C333333333333E33F0000000000000F901079024090741D01000000000000111010841D405064090740C02480A0340
1001
ACAD
1000
AcDbSavedByObjectVersion
1070
     0
  0
ACAD_PROXY_OBJECT
  5
3F
102
{ACAD_REACTORS
330
2A
102
}
330
2A
100
AcDbZombieObject
 90
      499
 91
      501
 93
      476
310
41D4DAD95D18DA1E51840502408333333333333E33F0000000000000F901079024090741D01000000000000111010B41D405064090741802480A0340
1001
ACAD
1000
AcDbSavedByObjectVersion
1070
     0
  0
ACAD_PROXY_OBJECT
  5
37
102
{ACAD_REACTORS
330
2A
102
}
330
2A
100
AcDbZombieObject
 90
      499
 91
      501
 93
      412
310
41D51A1A58DAD95B90D409028333333333333E33F0000000000000F9010790141107004050150C41D405064090741402480A0350
1001
ACAD
1000
AcDbSavedByObjectVersion
1070
     0
  0
ACAD_PROXY_OBJECT
  5
30
102
{ACAD_REACTORS
330
2A
102
}
330
2A
100
AcDbZombieObject
 90
      499
 91
      501
 93
      420
310
4255DA5C99599C985B595059028333333333333E33F0000000000000F90107901411070040501600405405064090740C02480A0340
1001
ACAD
1000
AcDbSavedByObjectVersion
1070
     0
  0
ACAD_PROXY_OBJECT
  5
40
102
{ACAD_REACTORS
330
2A
102
}
330
2A
100
AcDbZombieObject
 90
      499
 91
      501
 93
      404
310
41560B54985E51940902404000000000000E03F0000000000000F9010740501907004050150841D405064090740C02480A1B40
1001
ACAD
1000
AcDbSavedByObjectVersion
1070
     0
  0
DICTIONARYVAR
  5
68D
102
{ACAD_REACTORS
330
686
102
}
330
686
100
DictionaryVariables
280
     0
  1
1:1
  0
DICTIONARYVAR
  5
68B
102
{ACAD_REACTORS
330
686
102
}
330
686
100
DictionaryVariables
280
     0
  1
2
  0
DICTIONARYVAR
  5
68C
102
{ACAD_REACTORS
330
686
102
}
330
686
100
DictionaryVariables
280
     0
  1
1
  0
DICTIONARYVAR
  5
68E
102
{ACAD_REACTORS
330
686
102
}
330
686
100
DictionaryVariables
280
     0
  1
1
  0
DICTIONARY
  5
691
330
45
100
AcDbDictionary
  3
ACAD_XREC_ROUNDTRIP
360
692
1001
ACAD
1000
TREAT_AS_HARD
1070
     1
  0
DICTIONARY
  5
68F
330
44
100
AcDbDictionary
  3
ACAD_XREC_ROUNDTRIP
360
690
1001
ACAD
1000
TREAT_AS_HARD
1070
     1
  0
DICTIONARY
  5
693
330
46
100
AcDbDictionary
  3
ACAD_XREC_ROUNDTRIP
360
694
1001
ACAD
1000
TREAT_AS_HARD
1070
     1
  0
XRECORD
  5
692
102
{ACAD_REACTORS
330
691
102
}
330
691
100
AcDbXrecord
102
MATERIAL
148
0.0
149
0.0
149
0.0
 93
        0
 94
      127
282
     0
 72
     1
 77
     1
171
     1
175
     1
179
     1
273
     0
  0
XRECORD
  5
690
102
{ACAD_REACTORS
330
68F
102
}
330
68F
100
AcDbXrecord
102
MATERIAL
148
0.0
149
0.0
149
0.0
 93
        0
 94
      127
282
     0
 72
     1
 77
     1
171
     1
175
     1
179
     1
273
     0
  0
XRECORD
  5
694
102
{ACAD_REACTORS
330
693
102
}
330
693
100
AcDbXrecord
102
MATERIAL
148
0.0
149
0.0
149
0.0
 93
        0
 94
      127
282
     0
 72
     1
 77
     1
171
     1
175
     1
179
     1
273
     0
  0
ENDSEC
  0
EOF
