  0
SECTION
  2
HEADER
  9
$ACADVER
  1
AC1015
  9
$ACADMAINTVER
 70
    20
  9
$DWGCODEPAGE
  3
ANSI_932
  9
$INSBASE
 10
0.0
 20
0.0
 30
0.0
  9
$EXTMIN
 10
25.5
 20
6.0
 30
0.0
  9
$EXTMAX
 10
292.5
 20
387.0
 30
0.0
  9
$LIMMIN
 10
0.0
 20
0.0
  9
$LIMMAX
 10
297.0
 20
427.5
  9
$ORTHOMODE
 70
     0
  9
$REGENMODE
 70
     1
  9
$FILLMODE
 70
     1
  9
$QTEXTMODE
 70
     0
  9
$MIRRTEXT
 70
     0
  9
$LTSCALE
 40
12.0
  9
$ATTMODE
 70
     1
  9
$TEXTSIZE
 40
4.5
  9
$TRACEWID
 40
0.05
  9
$TEXTSTYLE
  7
STANDARD
  9
$CLAYER
  8
0
  9
$CELTYPE
  6
BYLAYER
  9
$CECOLOR
 62
   256
  9
$CELTSCALE
 40
1.0
  9
$DISPSILH
 70
     0
  9
$DIMSCALE
 40
1.5
  9
$DIMASZ
 40
2.0
  9
$DIMEXO
 40
1.0
  9
$DIMDLI
 40
10.0
  9
$DIMRND
 40
0.0
  9
$DIMDLE
 40
0.0
  9
$DIMEXE
 40
1.5
  9
$DIMTP
 40
0.0
  9
$DIMTM
 40
0.0
  9
$DIMTXT
 40
3.0
  9
$DIMCEN
 40
0.1
  9
$DIMTSZ
 40
0.0
  9
$DIMTOL
 70
     0
  9
$DIMLIM
 70
     0
  9
$DIMTIH
 70
     0
  9
$DIMTOH
 70
     0
  9
$DIMSE1
 70
     0
  9
$DIMSE2
 70
     0
  9
$DIMTAD
 70
     1
  9
$DIMZIN
 70
     8
  9
$DIMBLK
  1
OPEN
  9
$DIMASO
 70
     1
  9
$DIMSHO
 70
     0
  9
$DIMPOST
  1

  9
$DIMAPOST
  1

  9
$DIMALT
 70
     0
  9
$DIMALTD
 70
     2
  9
$DIMALTF
 40
25.4
  9
$DIMLFAC
 40
1.0
  9
$DIMTOFL
 70
     1
  9
$DIMTVP
 40
1.0
  9
$DIMTIX
 70
     0
  9
$DIMSOXD
 70
     0
  9
$DIMSAH
 70
     1
  9
$DIMBLK1
  1
OPEN
  9
$DIMBLK2
  1
OPEN
  9
$DIMSTYLE
  2
STANDARD
  9
$DIMCLRD
 70
   256
  9
$DIMCLRE
 70
   256
  9
$DIMCLRT
 70
   256
  9
$DIMTFAC
 40
1.0
  9
$DIMGAP
 40
1.0
  9
$DIMJUST
 70
     0
  9
$DIMSD1
 70
     0
  9
$DIMSD2
 70
     0
  9
$DIMTOLJ
 70
     1
  9
$DIMTZIN
 70
     8
  9
$DIMALTZ
 70
     0
  9
$DIMALTTZ
 70
     0
  9
$DIMUPT
 70
     0
  9
$DIMDEC
 70
     2
  9
$DIMTDEC
 70
     2
  9
$DIMALTU
 70
     2
  9
$DIMALTTD
 70
     2
  9
$DIMTXSTY
  7
STANDARD
  9
$DIMAUNIT
 70
     0
  9
$DIMADEC
 70
     0
  9
$DIMALTRND
 40
0.0
  9
$DIMAZIN
 70
     0
  9
$DIMDSEP
 70
    46
  9
$DIMATFIT
 70
     3
  9
$DIMFRAC
 70
     0
  9
$DIMLDRBLK
  1
OPEN
  9
$DIMLUNIT
 70
     2
  9
$DIMLWD
 70
    -2
  9
$DIMLWE
 70
    -2
  9
$DIMTMOVE
 70
     0
  9
$LUNITS
 70
     2
  9
$LUPREC
 70
     2
  9
$SKETCHINC
 40
0.1
  9
$FILLETRAD
 40
0.0
  9
$AUNITS
 70
     0
  9
$AUPREC
 70
     1
  9
$MENU
  1
amecex
  9
$ELEVATION
 40
0.0
  9
$PELEVATION
 40
0.0
  9
$THICKNESS
 40
0.0
  9
$LIMCHECK
 70
     0
  9
$CHAMFERA
 40
0.0
  9
$CHAMFERB
 40
0.0
  9
$CHAMFERC
 40
0.0
  9
$CHAMFERD
 40
0.0
  9
$SKPOLY
 70
     0
  9
$TDCREATE
 40
2454735.685861840
  9
$TDUCREATE
 40
2454735.310861841
  9
$TDUPDATE
 40
2456289.502857014
  9
$TDUUPDATE
 40
2456289.127857014
  9
$TDINDWG
 40
0.0886810880
  9
$TDUSRTIMER
 40
0.0886809259
  9
$USRTIMER
 70
     1
  9
$ANGBASE
 50
0.0
  9
$ANGDIR
 70
     0
  9
$PDMODE
 70
     0
  9
$PDSIZE
 40
3.0
  9
$PLINEWID
 40
0.0
  9
$SPLFRAME
 70
     0
  9
$SPLINETYPE
 70
     6
  9
$SPLINESEGS
 70
     8
  9
$HANDSEED
  5
CE9
  9
$SURFTAB1
 70
     6
  9
$SURFTAB2
 70
     6
  9
$SURFTYPE
 70
     6
  9
$SURFU
 70
     6
  9
$SURFV
 70
     6
  9
$UCSBASE
  2

  9
$UCSNAME
  2
AM_UNA
  9
$UCSORG
 10
0.0
 20
0.0
 30
0.0
  9
$UCSXDIR
 10
1.0
 20
0.0
 30
0.0
  9
$UCSYDIR
 10
0.0
 20
1.0
 30
0.0
  9
$UCSORTHOREF
  2

  9
$UCSORTHOVIEW
 70
     0
  9
$UCSORGTOP
 10
0.0
 20
0.0
 30
0.0
  9
$UCSORGBOTTOM
 10
0.0
 20
0.0
 30
0.0
  9
$UCSORGLEFT
 10
0.0
 20
0.0
 30
0.0
  9
$UCSORGRIGHT
 10
0.0
 20
0.0
 30
0.0
  9
$UCSORGFRONT
 10
0.0
 20
0.0
 30
0.0
  9
$UCSORGBACK
 10
0.0
 20
0.0
 30
0.0
  9
$PUCSBASE
  2

  9
$PUCSNAME
  2

  9
$PUCSORG
 10
0.0
 20
0.0
 30
0.0
  9
$PUCSXDIR
 10
1.0
 20
0.0
 30
0.0
  9
$PUCSYDIR
 10
0.0
 20
1.0
 30
0.0
  9
$PUCSORTHOREF
  2

  9
$PUCSORTHOVIEW
 70
     0
  9
$PUCSORGTOP
 10
0.0
 20
0.0
 30
0.0
  9
$PUCSORGBOTTOM
 10
0.0
 20
0.0
 30
0.0
  9
$PUCSORGLEFT
 10
0.0
 20
0.0
 30
0.0
  9
$PUCSORGRIGHT
 10
0.0
 20
0.0
 30
0.0
  9
$PUCSORGFRONT
 10
0.0
 20
0.0
 30
0.0
  9
$PUCSORGBACK
 10
0.0
 20
0.0
 30
0.0
  9
$USERI1
 70
     1
  9
$USERI2
 70
     1
  9
$USERI3
 70
     0
  9
$USERI4
 70
     1
  9
$USERI5
 70
     0
  9
$USERR1
 40
3.0
  9
$USERR2
 40
2.0
  9
$USERR3
 40
3.0
  9
$USERR4
 40
1.5
  9
$USERR5
 40
0.0
  9
$WORLDVIEW
 70
     1
  9
$SHADEDGE
 70
     3
  9
$SHADEDIF
 70
    70
  9
$TILEMODE
 70
     1
  9
$MAXACTVP
 70
    16
  9
$PINSBASE
 10
0.0
 20
0.0
 30
0.0
  9
$PLIMCHECK
 70
     0
  9
$PEXTMIN
 10
1.000000000000000E+20
 20
1.000000000000000E+20
 30
1.000000000000000E+20
  9
$PEXTMAX
 10
-1.000000000000000E+20
 20
-1.000000000000000E+20
 30
-1.000000000000000E+20
  9
$PLIMMIN
 10
0.0
 20
0.0
  9
$PLIMMAX
 10
12.0
 20
9.0
  9
$UNITMODE
 70
     0
  9
$VISRETAIN
 70
     0
  9
$PLINEGEN
 70
     0
  9
$PSLTSCALE
 70
     1
  9
$TREEDEPTH
 70
  3020
  9
$CMLSTYLE
  2
STANDARD
  9
$CMLJUST
 70
     0
  9
$CMLSCALE
 40
1.0
  9
$PROXYGRAPHICS
 70
     1
  9
$MEASUREMENT
 70
     1
  9
$CELWEIGHT
370
    -1
  9
$ENDCAPS
280
     0
  9
$JOINSTYLE
280
     0
  9
$LWDISPLAY
290
     0
  9
$INSUNITS
 70
     0
  9
$HYPERLINKBASE
  1

  9
$STYLESHEET
  1

  9
$XEDIT
290
     1
  9
$CEPSNTYPE
380
     0
  9
$PSTYLEMODE
290
     1
  9
$FINGERPRINTGUID
  2
{27C2F713-C0CA-4AC8-A9B8-34B56359564C}
  9
$VERSIONGUID
  2
{20E243CC-1ED3-469E-AFF2-3E38497B8674}
  9
$EXTNAMES
290
     1
  9
$PSVPSCALE
 40
0.0
  9
$OLESTARTUP
290
     0
  0
ENDSEC
  0
SECTION
  2
CLASSES
  0
CLASS
  1
DICTIONARYVAR
  2
AcDbDictionaryVar
  3
ObjectDBX Classes
 90
        0
280
     0
281
     0
  0
CLASS
  1
ACDBDICTIONARYWDFLT
  2
AcDbDictionaryWithDefault
  3
ObjectDBX Classes
 90
        0
280
     0
281
     0
  0
CLASS
  1
MATERIAL
  2
AcDbMaterial
  3
ObjectDBX Classes
 90
     1153
280
     0
281
     0
  0
CLASS
  1
VISUALSTYLE
  2
AcDbVisualStyle
  3
ObjectDBX Classes
 90
     4095
280
     0
281
     0
  0
CLASS
  1
TABLESTYLE
  2
AcDbTableStyle
  3
ObjectDBX Classes
 90
     4095
280
     0
281
     0
  0
CLASS
  1
SCALE
  2
AcDbScale
  3
ObjectDBX Classes
 90
     1153
280
     0
281
     0
  0
CLASS
  1
MLEADERSTYLE
  2
AcDbMLeaderStyle
  3
ACDB_MLEADERSTYLE_CLASS
 90
     4095
280
     0
281
     0
  0
CLASS
  1
CELLSTYLEMAP
  2
AcDbCellStyleMap
  3
ObjectDBX Classes
 90
     1152
280
     0
281
     0
  0
CLASS
  1
ACDBPLACEHOLDER
  2
AcDbPlaceHolder
  3
ObjectDBX Classes
 90
        0
280
     0
281
     0
  0
CLASS
  1
LAYOUT
  2
AcDbLayout
  3
ObjectDBX Classes
 90
        0
280
     0
281
     0
  0
ENDSEC
  0
SECTION
  2
TABLES
  0
TABLE
  2
VPORT
  5
8
330
0
100
AcDbSymbolTable
 70
     1
  0
VPORT
  5
C27
330
8
100
AcDbSymbolTableRecord
100
AcDbViewportTableRecord
  2
*ACTIVE
 70
     0
 10
0.0
 20
0.0
 11
1.0
 21
1.0
 12
156.5072236830787
 22
232.2225940241586
 13
0.0
 23
0.0
 14
1.0
 24
1.0
 15
0.0
 25
0.0
 16
0.0
 26
0.0
 36
1.0
 17
0.0
 27
0.0
 37
0.0
 40
302.0652328442495
 41
0.743879472693032
 42
50.0
 43
0.0
 44
0.0
 50
0.0
 51
0.0
 71
     0
 72
   100
 73
     1
 74
     1
 75
     0
 76
     0
 77
     0
 78
     2
281
     0
 65
     1
110
0.0
120
0.0
130
0.0
111
1.0
121
0.0
131
0.0
112
0.0
122
1.0
132
0.0
 79
     0
146
0.0
  0
ENDTAB
  0
TABLE
  2
LTYPE
  5
5
330
0
100
AcDbSymbolTable
 70
    26
  0
LTYPE
  5
12
330
5
100
AcDbSymbolTableRecord
100
AcDbLinetypeTableRecord
  2
BYBLOCK
 70
     0
  3

 72
    65
 73
     0
 40
0.0
  0
LTYPE
  5
13
330
5
100
AcDbSymbolTableRecord
100
AcDbLinetypeTableRecord
  2
BYLAYER
 70
     0
  3

 72
    65
 73
     0
 40
0.0
  0
LTYPE
  5
14
330
5
100
AcDbSymbolTableRecord
100
AcDbLinetypeTableRecord
  2
CONTINUOUS
 70
     0
  3
実線
 72
    65
 73
     0
 40
0.0
  0
LTYPE
  5
30
330
5
100
AcDbSymbolTableRecord
100
AcDbLinetypeTableRecord
  2
HIDDEN
 70
     0
  3
_ _ _ _ _ _ _ _ _ _ _ _ _ _ _ _ _ _ _ _ _ _ _
 72
    65
 73
     2
 40
0.375
 49
0.25
 74
     0
 49
-0.125
 74
     0
  0
LTYPE
  5
31
330
5
100
AcDbSymbolTableRecord
100
AcDbLinetypeTableRecord
  2
DASHDOT
 70
     0
  3
__ . __ . __ . __ . __ . __ . __ . __ . __ . __
 72
    65
 73
     4
 40
1.0
 49
0.5
 74
     0
 49
-0.25
 74
     0
 49
0.0
 74
     0
 49
-0.25
 74
     0
  0
LTYPE
  5
32
330
5
100
AcDbSymbolTableRecord
100
AcDbLinetypeTableRecord
  2
CENTER
 70
     0
  3
____ _ ____ _ ____ _ ____ _ ____ _ ____ _ ____
 72
    65
 73
     4
 40
2.0
 49
1.25
 74
     0
 49
-0.25
 74
     0
 49
0.25
 74
     0
 49
-0.25
 74
     0
  0
LTYPE
  5
33
330
5
100
AcDbSymbolTableRecord
100
AcDbLinetypeTableRecord
  2
DOT
 70
     0
  3
...............................................
 72
    65
 73
     2
 40
0.25
 49
0.0
 74
     0
 49
-0.25
 74
     0
  0
LTYPE
  5
34
330
5
100
AcDbSymbolTableRecord
100
AcDbLinetypeTableRecord
  2
DASHED
 70
     0
  3
__ __ __ __ __ __ __ __ __ __ __ __ __ __ __
 72
    65
 73
     2
 40
0.75
 49
0.5
 74
     0
 49
-0.25
 74
     0
  0
LTYPE
  5
35
330
5
100
AcDbSymbolTableRecord
100
AcDbLinetypeTableRecord
  2
BORDER
 70
     0
  3
__ __ . __ __ . __ __ . __ __ . __ __ . __ __ .
 72
    65
 73
     6
 40
1.75
 49
0.5
 74
     0
 49
-0.25
 74
     0
 49
0.5
 74
     0
 49
-0.25
 74
     0
 49
0.0
 74
     0
 49
-0.25
 74
     0
  0
LTYPE
  5
36
330
5
100
AcDbSymbolTableRecord
100
AcDbLinetypeTableRecord
  2
BORDER2
 70
     0
  3
__.__.__.__.__.__.__.__.__.__.__.__.__.__.__.__
 72
    65
 73
     6
 40
0.875
 49
0.25
 74
     0
 49
-0.125
 74
     0
 49
0.25
 74
     0
 49
-0.125
 74
     0
 49
0.0
 74
     0
 49
-0.125
 74
     0
  0
LTYPE
  5
37
330
5
100
AcDbSymbolTableRecord
100
AcDbLinetypeTableRecord
  2
BORDERX2
 70
     0
  3
____  ____  .  ____  ____  .  ____  ____  .  __
 72
    65
 73
     6
 40
3.5
 49
1.0
 74
     0
 49
-0.5
 74
     0
 49
1.0
 74
     0
 49
-0.5
 74
     0
 49
0.0
 74
     0
 49
-0.5
 74
     0
  0
LTYPE
  5
38
330
5
100
AcDbSymbolTableRecord
100
AcDbLinetypeTableRecord
  2
CENTER2
 70
     0
  3
___ _ ___ _ ___ _ ___ _ ___ _ ___ _ ___ _ ___ _
 72
    65
 73
     4
 40
1.125
 49
0.75
 74
     0
 49
-0.125
 74
     0
 49
0.125
 74
     0
 49
-0.125
 74
     0
  0
LTYPE
  5
39
330
5
100
AcDbSymbolTableRecord
100
AcDbLinetypeTableRecord
  2
CENTERX2
 70
     0
  3
________  __  ________  __  ________  __  _____
 72
    65
 73
     4
 40
4.0
 49
2.5
 74
     0
 49
-0.5
 74
     0
 49
0.5
 74
     0
 49
-0.5
 74
     0
  0
LTYPE
  5
3A
330
5
100
AcDbSymbolTableRecord
100
AcDbLinetypeTableRecord
  2
DASHDOT2
 70
     0
  3
_._._._._._._._._._._._._._._._._._._._._._._._
 72
    65
 73
     4
 40
0.5
 49
0.25
 74
     0
 49
-0.125
 74
     0
 49
0.0
 74
     0
 49
-0.125
 74
     0
  0
LTYPE
  5
3B
330
5
100
AcDbSymbolTableRecord
100
AcDbLinetypeTableRecord
  2
DASHDOTX2
 70
     0
  3
____  .  ____  .  ____  .  ____  .  ____  .  __
 72
    65
 73
     4
 40
2.0
 49
1.0
 74
     0
 49
-0.5
 74
     0
 49
0.0
 74
     0
 49
-0.5
 74
     0
  0
LTYPE
  5
3C
330
5
100
AcDbSymbolTableRecord
100
AcDbLinetypeTableRecord
  2
DASHED2
 70
     0
  3
_ _ _ _ _ _ _ _ _ _ _ _ _ _ _ _ _ _ _ _ _ _ _ _
 72
    65
 73
     2
 40
0.375
 49
0.25
 74
     0
 49
-0.125
 74
     0
  0
LTYPE
  5
3D
330
5
100
AcDbSymbolTableRecord
100
AcDbLinetypeTableRecord
  2
DASHEDX2
 70
     0
  3
____  ____  ____  ____  ____  ____  ____  ____ 
 72
    65
 73
     2
 40
1.5
 49
1.0
 74
     0
 49
-0.5
 74
     0
  0
LTYPE
  5
3E
330
5
100
AcDbSymbolTableRecord
100
AcDbLinetypeTableRecord
  2
DIVIDE
 70
     0
  3
____ . . ____ . . ____ . . ____ . . ____ . . __
 72
    65
 73
     6
 40
1.25
 49
0.5
 74
     0
 49
-0.25
 74
     0
 49
0.0
 74
     0
 49
-0.25
 74
     0
 49
0.0
 74
     0
 49
-0.25
 74
     0
  0
LTYPE
  5
3F
330
5
100
AcDbSymbolTableRecord
100
AcDbLinetypeTableRecord
  2
DIVIDE2
 70
     0
  3
__..__..__..__..__..__..__..__..__..__..__..__.
 72
    65
 73
     6
 40
0.625
 49
0.25
 74
     0
 49
-0.125
 74
     0
 49
0.0
 74
     0
 49
-0.125
 74
     0
 49
0.0
 74
     0
 49
-0.125
 74
     0
  0
LTYPE
  5
40
330
5
100
AcDbSymbolTableRecord
100
AcDbLinetypeTableRecord
  2
DIVIDEX2
 70
     0
  3
________  .  .  ________  .  .  ________  .  . 
 72
    65
 73
     6
 40
2.5
 49
1.0
 74
     0
 49
-0.5
 74
     0
 49
0.0
 74
     0
 49
-0.5
 74
     0
 49
0.0
 74
     0
 49
-0.5
 74
     0
  0
LTYPE
  5
41
330
5
100
AcDbSymbolTableRecord
100
AcDbLinetypeTableRecord
  2
DOT2
 70
     0
  3
...............................................
 72
    65
 73
     2
 40
0.125
 49
0.0
 74
     0
 49
-0.125
 74
     0
  0
LTYPE
  5
42
330
5
100
AcDbSymbolTableRecord
100
AcDbLinetypeTableRecord
  2
DOTX2
 70
     0
  3
.  .  .  .  .  .  .  .  .  .  .  .  .  .  .  . 
 72
    65
 73
     2
 40
0.5
 49
0.0
 74
     0
 49
-0.5
 74
     0
  0
LTYPE
  5
43
330
5
100
AcDbSymbolTableRecord
100
AcDbLinetypeTableRecord
  2
HIDDEN2
 70
     0
  3
_ _ _ _ _ _ _ _ _ _ _ _ _ _ _ _ _ _ _ _ _ _ _ _
 72
    65
 73
     2
 40
0.1875
 49
0.125
 74
     0
 49
-0.0625
 74
     0
  0
LTYPE
  5
44
330
5
100
AcDbSymbolTableRecord
100
AcDbLinetypeTableRecord
  2
HIDDENX2
 70
     0
  3
____ ____ ____ ____ ____ ____ ____ ____ ____ __
 72
    65
 73
     2
 40
0.75
 49
0.5
 74
     0
 49
-0.25
 74
     0
  0
LTYPE
  5
45
330
5
100
AcDbSymbolTableRecord
100
AcDbLinetypeTableRecord
  2
PHANTOM
 70
     0
  3
______  __  __  ______  __  __  ______  __  __ 
 72
    65
 73
     6
 40
2.5
 49
1.25
 74
     0
 49
-0.25
 74
     0
 49
0.25
 74
     0
 49
-0.25
 74
     0
 49
0.25
 74
     0
 49
-0.25
 74
     0
  0
LTYPE
  5
46
330
5
100
AcDbSymbolTableRecord
100
AcDbLinetypeTableRecord
  2
PHANTOM2
 70
     0
  3
___ _ _ ___ _ _ ___ _ _ ___ _ _ ___ _ _ ___ _ _
 72
    65
 73
     6
 40
1.25
 49
0.625
 74
     0
 49
-0.125
 74
     0
 49
0.125
 74
     0
 49
-0.125
 74
     0
 49
0.125
 74
     0
 49
-0.125
 74
     0
  0
LTYPE
  5
47
330
5
100
AcDbSymbolTableRecord
100
AcDbLinetypeTableRecord
  2
PHANTOMX2
 70
     0
  3
____________    ____    ____    ____________   
 72
    65
 73
     6
 40
5.0
 49
2.5
 74
     0
 49
-0.5
 74
     0
 49
0.5
 74
     0
 49
-0.5
 74
     0
 49
0.5
 74
     0
 49
-0.5
 74
     0
  0
ENDTAB
  0
TABLE
  2
LAYER
  5
2
330
0
100
AcDbSymbolTable
 70
    14
  0
LAYER
  5
F
102
{ACAD_XDICTIONARY
360
C80
102
}
330
2
100
AcDbSymbolTableRecord
100
AcDbLayerTableRecord
  2
0
 70
     0
 62
     7
  6
CONTINUOUS
370
    -3
390
C2E
  0
LAYER
  5
53
102
{ACAD_XDICTIONARY
360
C82
102
}
330
2
100
AcDbSymbolTableRecord
100
AcDbLayerTableRecord
  2
1
 70
     0
 62
     4
  6
CONTINUOUS
370
    -3
390
C2E
  0
LAYER
  5
54
102
{ACAD_XDICTIONARY
360
C84
102
}
330
2
100
AcDbSymbolTableRecord
100
AcDbLayerTableRecord
  2
HIDDEN
 70
     0
 62
     7
  6
HIDDEN2
370
    -3
390
C2E
  0
LAYER
  5
55
102
{ACAD_XDICTIONARY
360
C86
102
}
330
2
100
AcDbSymbolTableRecord
100
AcDbLayerTableRecord
  2
CENTER
 70
     0
 62
     1
  6
CENTER2
370
    -3
390
C2E
  0
LAYER
  5
57
102
{ACAD_XDICTIONARY
360
C88
102
}
330
2
100
AcDbSymbolTableRecord
100
AcDbLayerTableRecord
  2
HOJYO
 70
     0
 62
     6
  6
CONTINUOUS
370
    -3
390
C2E
  0
LAYER
  5
58
102
{ACAD_XDICTIONARY
360
C8A
102
}
330
2
100
AcDbSymbolTableRecord
100
AcDbLayerTableRecord
  2
SCALE
 70
     0
 62
     4
  6
CONTINUOUS
370
    -3
390
C2E
  0
LAYER
  5
65
330
2
100
AcDbSymbolTableRecord
100
AcDbLayerTableRecord
  2
DEFPOINTS
 70
     1
 62
    -7
  6
CONTINUOUS
290
     0
370
    -3
390
C2E
  0
LAYER
  5
66
102
{ACAD_XDICTIONARY
360
C8C
102
}
330
2
100
AcDbSymbolTableRecord
100
AcDbLayerTableRecord
  2
KARISEN
 70
     0
 62
     5
  6
DASHED2
370
    -3
390
C2E
  0
LAYER
  5
74
102
{ACAD_XDICTIONARY
360
C8E
102
}
330
2
100
AcDbSymbolTableRecord
100
AcDbLayerTableRecord
  2
SOUZOU
 70
     0
 62
     3
  6
PHANTOM2
370
    -3
390
C2E
  0
LAYER
  5
75
102
{ACAD_XDICTIONARY
360
C90
102
}
330
2
100
AcDbSymbolTableRecord
100
AcDbLayerTableRecord
  2
TXT1
 70
     0
 62
     4
  6
CONTINUOUS
370
    -3
390
C2E
  0
LAYER
  5
EF
102
{ACAD_XDICTIONARY
360
C92
102
}
330
2
100
AcDbSymbolTableRecord
100
AcDbLayerTableRecord
  2
GAWA
 70
     0
 62
     2
  6
CONTINUOUS
370
    -3
390
C2E
  0
LAYER
  5
1DE
102
{ACAD_XDICTIONARY
360
C94
102
}
330
2
100
AcDbSymbolTableRecord
100
AcDbLayerTableRecord
  2
CHECK
 70
     0
 62
     1
  6
CONTINUOUS
370
    -3
390
C2E
  0
LAYER
  5
1DF
102
{ACAD_XDICTIONARY
360
C96
102
}
330
2
100
AcDbSymbolTableRecord
100
AcDbLayerTableRecord
  2
VIEWPORT
 70
     0
 62
     3
  6
DOT2
370
    -3
390
C2E
  0
LAYER
  5
1E0
102
{ACAD_XDICTIONARY
360
C98
102
}
330
2
100
AcDbSymbolTableRecord
100
AcDbLayerTableRecord
  2
VIEWPORTTXT
 70
     0
 62
     3
  6
CONTINUOUS
370
    -3
390
C2E
  0
ENDTAB
  0
TABLE
  2
STYLE
  5
3
330
0
100
AcDbSymbolTable
 70
     6
  0
STYLE
  5
10
330
3
100
AcDbSymbolTableRecord
100
AcDbTextStyleTableRecord
  2
STANDARD
 70
     0
 40
0.0
 41
1.0
 50
0.0
 71
     0
 42
4.5
  3
simplex.shx
  4
BIGFONT.shx
  0
STYLE
  5
D1
330
3
100
AcDbSymbolTableRecord
100
AcDbTextStyleTableRecord
  2
DIMENSION
 70
     0
 40
0.0
 41
1.0
 50
0.0
 71
     0
 42
3.0
  3
simplex.shx
  4
BIGFONT.shx
  0
STYLE
  5
137
330
3
100
AcDbSymbolTableRecord
100
AcDbTextStyleTableRecord
  2
SMP-SET
 70
     0
 40
0.0
 41
1.0
 50
0.0
 71
     0
 42
0.2
  3
SIMPLEX
  4
BIGFONT
  0
STYLE
  5
138
330
3
100
AcDbSymbolTableRecord
100
AcDbTextStyleTableRecord
  2
CMP-SET
 70
     0
 40
0.0
 41
1.0
 50
0.0
 71
     0
 42
0.2
  3
COMPLEX
  4
BIGFONT
  0
STYLE
  5
139
330
3
100
AcDbSymbolTableRecord
100
AcDbTextStyleTableRecord
  2
ITL-SET
 70
     0
 40
0.0
 41
1.0
 50
0.0
 71
     0
 42
0.2
  3
ITALIC
  4
BIGFONT
  0
STYLE
  5
13A
330
3
100
AcDbSymbolTableRecord
100
AcDbTextStyleTableRecord
  2
MONO-SET
 70
     0
 40
0.0
 41
1.0
 50
0.0
 71
     0
 42
0.2
  3
MONOTXT
  4
BIGFONT
  0
ENDTAB
  0
TABLE
  2
VIEW
  5
6
330
0
100
AcDbSymbolTable
 70
     1
  0
VIEW
  5
48
330
6
100
AcDbSymbolTableRecord
100
AcDbViewTableRecord
  2
ZOOM_ALL
 70
     0
 40
42.534005
 10
3.310725
 20
2.454452999999999
 41
69.627094
 11
0.0
 21
0.0
 31
1.0
 12
0.0
 22
0.0
 32
0.0
 42
50.0
 43
0.0
 44
0.0
 50
0.0
 71
     0
281
     0
 72
     0
  0
ENDTAB
  0
TABLE
  2
UCS
  5
7
330
0
100
AcDbSymbolTable
 70
     2
  0
UCS
  5
49
330
7
100
AcDbSymbolTableRecord
100
AcDbUCSTableRecord
  2
UNA
 70
     0
 10
0.0
 20
0.0
 30
0.0
 11
1.0
 21
0.0
 31
0.0
 12
0.0
 22
1.0
 32
0.0
 79
     0
146
0.0
  0
UCS
  5
4A
330
7
100
AcDbSymbolTableRecord
100
AcDbUCSTableRecord
  2
AM_UNA
 70
     0
 10
0.0
 20
0.0
 30
0.0
 11
1.0
 21
0.0
 31
0.0
 12
0.0
 22
1.0
 32
0.0
 79
     0
146
0.0
  0
ENDTAB
  0
TABLE
  2
APPID
  5
9
330
0
100
AcDbSymbolTable
 70
     3
  0
APPID
  5
11
330
9
100
AcDbSymbolTableRecord
100
AcDbRegAppTableRecord
  2
ACAD
 70
     0
  0
APPID
  5
C7E
330
9
100
AcDbSymbolTableRecord
100
AcDbRegAppTableRecord
  2
ACAD_EXEMPT_FROM_CAD_STANDARDS
 70
     0
  0
APPID
  5
CE4
330
9
100
AcDbSymbolTableRecord
100
AcDbRegAppTableRecord
  2
ACAD_MLEADERVER
 70
     0
  0
ENDTAB
  0
TABLE
  2
DIMSTYLE
  5
A
330
0
100
AcDbSymbolTable
 70
     2
100
AcDbDimStyleTable
 71
     0
  0
DIMSTYLE
105
4D
102
{ACAD_REACTORS
330
81A
330
824
330
825
330
82F
330
830
330
876
330
8B4
330
8C8
330
A79
330
B5C
330
B80
330
C13
330
33C
330
341
330
342
330
343
330
348
330
34C
330
34D
330
351
330
396
330
3D3
330
3E7
330
756
330
760
330
761
330
764
330
765
330
766
330
76B
330
76C
330
7B2
330
7F0
330
804
102
}
330
A
100
AcDbSymbolTableRecord
100
AcDbDimStyleTableRecord
  2
STANDARD
 70
     0
 40
1.5
 41
2.0
 42
1.0
 43
10.0
 44
1.5
 73
     0
 74
     0
 77
     1
 78
     8
140
3.0
141
0.1
145
1.0
147
1.0
172
     1
173
     1
176
   256
177
   256
178
   256
271
     2
272
     2
284
     8
340
10
341
10E
342
10E
343
10E
344
10E
  0
DIMSTYLE
105
174
330
A
100
AcDbSymbolTableRecord
100
AcDbDimStyleTableRecord
  2
MELT_STANDARD
 70
     0
 40
1.5
 41
2.0
 42
1.0
 43
10.0
 44
1.5
 73
     0
 74
     0
 77
     1
 78
     8
140
3.0
141
0.1
145
1.0
147
1.0
172
     1
173
     1
176
   256
177
   256
178
   256
271
     2
272
     2
284
     8
340
10
341
10E
342
10E
343
10E
344
10E
  0
ENDTAB
  0
TABLE
  2
BLOCK_RECORD
  5
1
330
0
100
AcDbSymbolTable
 70
    48
  0
BLOCK_RECORD
  5
18
330
1
100
AcDbSymbolTableRecord
100
AcDbBlockTableRecord
  2
*MODEL_SPACE
340
C7A
  0
BLOCK_RECORD
  5
15
330
1
100
AcDbSymbolTableRecord
100
AcDbBlockTableRecord
  2
*PAPER_SPACE
340
C7B
  0
BLOCK_RECORD
  5
1C
330
1
100
AcDbSymbolTableRecord
100
AcDbBlockTableRecord
  2
YAZ1
340
0
  0
BLOCK_RECORD
  5
1D
330
1
100
AcDbSymbolTableRecord
100
AcDbBlockTableRecord
  2
YAZ3
340
0
  0
BLOCK_RECORD
  5
1E
330
1
100
AcDbSymbolTableRecord
100
AcDbBlockTableRecord
  2
DOT1
340
0
  0
BLOCK_RECORD
  5
1F
330
1
100
AcDbSymbolTableRecord
100
AcDbBlockTableRecord
  2
TICK
340
0
  0
BLOCK_RECORD
  5
20
330
1
100
AcDbSymbolTableRecord
100
AcDbBlockTableRecord
  2
YAZ0
340
0
  0
BLOCK_RECORD
  5
21
330
1
100
AcDbSymbolTableRecord
100
AcDbBlockTableRecord
  2
YAZ6
340
0
  0
BLOCK_RECORD
  5
22
330
1
100
AcDbSymbolTableRecord
100
AcDbBlockTableRecord
  2
YAZ8
340
0
  0
BLOCK_RECORD
  5
F8
330
1
100
AcDbSymbolTableRecord
100
AcDbBlockTableRecord
  2
AM_DUMMY
340
0
  0
BLOCK_RECORD
  5
10E
330
1
100
AcDbSymbolTableRecord
100
AcDbBlockTableRecord
  2
_OPEN
340
0
102
{BLKREFS
331
2BD
331
2C7
331
2C8
331
2D3
331
2D4
331
2DF
331
2E0
331
2EB
331
2EC
331
2F7
331
2F8
331
303
331
304
331
30F
331
310
331
31B
331
31C
331
327
331
328
331
333
331
334
331
6D5
331
6DF
331
6E0
331
6EB
331
6EC
331
6F7
331
6F8
331
703
331
704
331
70F
331
710
331
71B
331
71C
331
727
331
728
331
733
331
734
331
73F
331
740
331
74D
331
74E
331
967
331
968
331
972
331
973
331
97D
331
97E
331
BF1
331
BF2
331
9B4
331
9B5
331
9BF
331
9C0
331
BCA
331
BCB
331
9D7
331
B1D
331
B1E
331
B78
331
B79
331
B9C
331
B9D
331
C19
331
C1A
102
}
  0
BLOCK_RECORD
  5
1FC
330
1
100
AcDbSymbolTableRecord
100
AcDbBlockTableRecord
  2
A$C23EA580B
340
0
  0
BLOCK_RECORD
  5
25A
330
1
100
AcDbSymbolTableRecord
100
AcDbBlockTableRecord
  2
R04A4R
340
0
  0
BLOCK_RECORD
  5
2B9
330
1
100
AcDbSymbolTableRecord
100
AcDbBlockTableRecord
  2
*D11
340
0
  0
BLOCK_RECORD
  5
2C3
330
1
100
AcDbSymbolTableRecord
100
AcDbBlockTableRecord
  2
*D12
340
0
  0
BLOCK_RECORD
  5
2CF
330
1
100
AcDbSymbolTableRecord
100
AcDbBlockTableRecord
  2
*D13
340
0
  0
BLOCK_RECORD
  5
2DB
330
1
100
AcDbSymbolTableRecord
100
AcDbBlockTableRecord
  2
*D14
340
0
  0
BLOCK_RECORD
  5
2E7
330
1
100
AcDbSymbolTableRecord
100
AcDbBlockTableRecord
  2
*D15
340
0
  0
BLOCK_RECORD
  5
2F3
330
1
100
AcDbSymbolTableRecord
100
AcDbBlockTableRecord
  2
*D16
340
0
  0
BLOCK_RECORD
  5
2FF
330
1
100
AcDbSymbolTableRecord
100
AcDbBlockTableRecord
  2
*D17
340
0
  0
BLOCK_RECORD
  5
30B
330
1
100
AcDbSymbolTableRecord
100
AcDbBlockTableRecord
  2
*D18
340
0
  0
BLOCK_RECORD
  5
317
330
1
100
AcDbSymbolTableRecord
100
AcDbBlockTableRecord
  2
*D19
340
0
  0
BLOCK_RECORD
  5
323
330
1
100
AcDbSymbolTableRecord
100
AcDbBlockTableRecord
  2
*D20
340
0
  0
BLOCK_RECORD
  5
32F
330
1
100
AcDbSymbolTableRecord
100
AcDbBlockTableRecord
  2
*D21
340
0
  0
BLOCK_RECORD
  5
33B
330
1
100
AcDbSymbolTableRecord
100
AcDbBlockTableRecord
  2
A$C0FB72336
340
0
  0
BLOCK_RECORD
  5
6D1
330
1
100
AcDbSymbolTableRecord
100
AcDbBlockTableRecord
  2
*D23
340
0
  0
BLOCK_RECORD
  5
6DB
330
1
100
AcDbSymbolTableRecord
100
AcDbBlockTableRecord
  2
*D24
340
0
  0
BLOCK_RECORD
  5
6E7
330
1
100
AcDbSymbolTableRecord
100
AcDbBlockTableRecord
  2
*D25
340
0
  0
BLOCK_RECORD
  5
6F3
330
1
100
AcDbSymbolTableRecord
100
AcDbBlockTableRecord
  2
*D26
340
0
  0
BLOCK_RECORD
  5
6FF
330
1
100
AcDbSymbolTableRecord
100
AcDbBlockTableRecord
  2
*D27
340
0
  0
BLOCK_RECORD
  5
70B
330
1
100
AcDbSymbolTableRecord
100
AcDbBlockTableRecord
  2
*D28
340
0
  0
BLOCK_RECORD
  5
717
330
1
100
AcDbSymbolTableRecord
100
AcDbBlockTableRecord
  2
*D29
340
0
  0
BLOCK_RECORD
  5
723
330
1
100
AcDbSymbolTableRecord
100
AcDbBlockTableRecord
  2
*D30
340
0
  0
BLOCK_RECORD
  5
72F
330
1
100
AcDbSymbolTableRecord
100
AcDbBlockTableRecord
  2
*D31
340
0
  0
BLOCK_RECORD
  5
73B
330
1
100
AcDbSymbolTableRecord
100
AcDbBlockTableRecord
  2
*D32
340
0
  0
BLOCK_RECORD
  5
747
330
1
100
AcDbSymbolTableRecord
100
AcDbBlockTableRecord
  2
*D33
340
0
  0
BLOCK_RECORD
  5
755
330
1
100
AcDbSymbolTableRecord
100
AcDbBlockTableRecord
  2
A$C19F720D7
340
0
  0
BLOCK_RECORD
  5
8DB
330
1
100
AcDbSymbolTableRecord
100
AcDbBlockTableRecord
  2
*D35
340
0
  0
BLOCK_RECORD
  5
8E9
330
1
100
AcDbSymbolTableRecord
100
AcDbBlockTableRecord
  2
*D36
340
0
  0
BLOCK_RECORD
  5
8F5
330
1
100
AcDbSymbolTableRecord
100
AcDbBlockTableRecord
  2
*D37
340
0
  0
BLOCK_RECORD
  5
925
330
1
100
AcDbSymbolTableRecord
100
AcDbBlockTableRecord
  2
*D38
340
0
  0
BLOCK_RECORD
  5
931
330
1
100
AcDbSymbolTableRecord
100
AcDbBlockTableRecord
  2
*D39
340
0
  0
BLOCK_RECORD
  5
93D
330
1
100
AcDbSymbolTableRecord
100
AcDbBlockTableRecord
  2
*D40
340
0
  0
BLOCK_RECORD
  5
949
330
1
100
AcDbSymbolTableRecord
100
AcDbBlockTableRecord
  2
*D41
340
0
  0
BLOCK_RECORD
  5
957
330
1
100
AcDbSymbolTableRecord
100
AcDbBlockTableRecord
  2
*D42
340
0
  0
BLOCK_RECORD
  5
9FF
330
1
100
AcDbSymbolTableRecord
100
AcDbBlockTableRecord
  2
A$C74B34F0A
340
0
  0
BLOCK_RECORD
  5
A7A
330
1
100
AcDbSymbolTableRecord
100
AcDbBlockTableRecord
  2
*D44
340
0
  0
BLOCK_RECORD
  5
B5D
330
1
100
AcDbSymbolTableRecord
100
AcDbBlockTableRecord
  2
*D45
340
0
  0
BLOCK_RECORD
  5
B81
330
1
100
AcDbSymbolTableRecord
100
AcDbBlockTableRecord
  2
*D46
340
0
  0
BLOCK_RECORD
  5
C08
330
1
100
AcDbSymbolTableRecord
100
AcDbBlockTableRecord
  2
*D47
340
0
  0
ENDTAB
  0
ENDSEC
  0
SECTION
  2
BLOCKS
  0
BLOCK
  5
79
330
18
100
AcDbEntity
  8
0
100
AcDbBlockBegin
  2
*MODEL_SPACE
 70
     0
 10
0.0
 20
0.0
 30
0.0
  3
*MODEL_SPACE
  1

  0
ENDBLK
  5
7A
330
18
100
AcDbEntity
  8
0
100
AcDbBlockEnd
  0
BLOCK
  5
77
330
15
100
AcDbEntity
 67
     1
  8
0
100
AcDbBlockBegin
  2
*PAPER_SPACE
 70
     0
 10
0.0
 20
0.0
 30
0.0
  3
*PAPER_SPACE
  1

  0
ENDBLK
  5
78
330
15
100
AcDbEntity
 67
     1
  8
0
100
AcDbBlockEnd
  0
BLOCK
  5
7B
330
1C
100
AcDbEntity
  8
0
100
AcDbBlockBegin
  2
YAZ1
 70
     0
 10
0.0
 20
0.0
 30
0.0
  3
YAZ1
  1

  0
LINE
  5
7C
330
1C
100
AcDbEntity
  8
0
 62
     0
100
AcDbLine
 10
-1.0
 20
0.0
 30
0.0
 11
0.0
 21
0.0
 31
0.0
  0
LINE
  5
7D
330
1C
100
AcDbEntity
  8
0
 62
     0
100
AcDbLine
 10
0.0
 20
0.0
 30
0.0
 11
-1.0
 21
0.267949
 31
0.0
  0
LINE
  5
7E
330
1C
100
AcDbEntity
  8
0
 62
     0
100
AcDbLine
 10
0.0
 20
0.0
 30
0.0
 11
-1.0
 21
-0.267949
 31
0.0
  0
ENDBLK
  5
7F
330
1C
100
AcDbEntity
  8
0
100
AcDbBlockEnd
  0
BLOCK
  5
80
330
1D
100
AcDbEntity
  8
0
100
AcDbBlockBegin
  2
YAZ3
 70
     0
 10
0.0
 20
0.0
 30
0.0
  3
YAZ3
  1

  0
LINE
  5
81
330
1D
100
AcDbEntity
  8
0
 62
     0
100
AcDbLine
 10
-1.0
 20
0.0
 30
0.0
 11
0.0
 21
0.0
 31
0.0
  0
LINE
  5
82
330
1D
100
AcDbEntity
  8
0
 62
     0
100
AcDbLine
 10
0.0
 20
0.0
 30
0.0
 11
-1.0
 21
0.267949
 31
0.0
  0
LINE
  5
83
330
1D
100
AcDbEntity
  8
0
 62
     0
100
AcDbLine
 10
0.0
 20
0.0
 30
0.0
 11
-1.0
 21
-0.267949
 31
0.0
  0
SOLID
  5
84
330
1D
100
AcDbEntity
  8
0
 62
     0
100
AcDbTrace
 10
0.0
 20
0.0
 30
0.0
 11
-1.0
 21
0.267949
 31
0.0
 12
-1.0
 22
-0.267949
 32
0.0
 13
-1.0
 23
-0.267949
 33
0.0
  0
ENDBLK
  5
85
330
1D
100
AcDbEntity
  8
0
100
AcDbBlockEnd
  0
BLOCK
  5
86
330
1E
100
AcDbEntity
  8
0
100
AcDbBlockBegin
  2
DOT1
 70
     0
 10
0.0
 20
0.0
 30
0.0
  3
DOT1
  1

  0
LWPOLYLINE
  5
87
330
1E
100
AcDbEntity
  8
0
 62
     0
100
AcDbPolyline
 90
        2
 70
     1
 43
0.25
 10
-0.125
 20
0.0
 42
1.0
 10
0.125
 20
0.0
 42
1.0
  0
LINE
  5
8B
330
1E
100
AcDbEntity
  8
0
 62
     0
100
AcDbLine
 10
-1.0
 20
0.0
 30
0.0
 11
0.0
 21
0.0
 31
0.0
  0
ENDBLK
  5
8C
330
1E
100
AcDbEntity
  8
0
100
AcDbBlockEnd
  0
BLOCK
  5
8D
330
1F
100
AcDbEntity
  8
0
100
AcDbBlockBegin
  2
TICK
 70
     0
 10
0.0
 20
0.0
 30
0.0
  3
TICK
  1

  0
LINE
  5
8E
330
1F
100
AcDbEntity
  8
0
 62
     0
100
AcDbLine
 10
0.5
 20
0.5
 30
0.0
 11
-0.5
 21
-0.5
 31
0.0
  0
LINE
  5
8F
330
1F
100
AcDbEntity
  8
0
 62
     0
100
AcDbLine
 10
0.0
 20
0.0
 30
0.0
 11
-1.0
 21
0.0
 31
0.0
  0
ENDBLK
  5
90
330
1F
100
AcDbEntity
  8
0
100
AcDbBlockEnd
  0
BLOCK
  5
91
330
20
100
AcDbEntity
  8
0
100
AcDbBlockBegin
  2
YAZ0
 70
     0
 10
0.0
 20
0.0
 30
0.0
  3
YAZ0
  1

  0
LINE
  5
92
330
20
100
AcDbEntity
  8
0
 62
     0
100
AcDbLine
 10
0.0
 20
0.0
 30
0.0
 11
-1.0
 21
0.0
 31
0.0
  0
ENDBLK
  5
93
330
20
100
AcDbEntity
  8
0
100
AcDbBlockEnd
  0
BLOCK
  5
94
330
21
100
AcDbEntity
  8
0
100
AcDbBlockBegin
  2
YAZ6
 70
     0
 10
0.0
 20
0.0
 30
0.0
  3
YAZ6
  1

  0
LINE
  5
95
330
21
100
AcDbEntity
  8
0
 62
     0
100
AcDbLine
 10
0.0
 20
0.0
 30
0.0
 11
1.0
 21
-0.267949
 31
0.0
  0
LINE
  5
96
330
21
100
AcDbEntity
  8
0
 62
     0
100
AcDbLine
 10
1.0
 20
0.0
 30
0.0
 11
0.0
 21
0.0
 31
0.0
  0
LINE
  5
97
330
21
100
AcDbEntity
  8
0
 62
     0
100
AcDbLine
 10
0.0
 20
0.0
 30
0.0
 11
1.0
 21
0.267949
 31
0.0
  0
LINE
  5
98
330
21
100
AcDbEntity
  8
0
 62
     0
100
AcDbLine
 10
-1.0
 20
0.0
 30
0.0
 11
0.0
 21
0.0
 31
0.0
  0
ENDBLK
  5
99
330
21
100
AcDbEntity
  8
0
100
AcDbBlockEnd
  0
BLOCK
  5
9A
330
22
100
AcDbEntity
  8
0
100
AcDbBlockBegin
  2
YAZ8
 70
     0
 10
0.0
 20
0.0
 30
0.0
  3
YAZ8
  1

  0
SOLID
  5
9B
330
22
100
AcDbEntity
  8
0
 62
     0
100
AcDbTrace
 10
0.0
 20
0.0
 30
0.0
 11
1.0
 21
0.267949
 31
0.0
 12
1.0
 22
-0.267949
 32
0.0
 13
1.0
 23
0.267949
 33
0.0
  0
LINE
  5
9C
330
22
100
AcDbEntity
  8
0
 62
     0
100
AcDbLine
 10
0.0
 20
0.0
 30
0.0
 11
1.0
 21
-0.267949
 31
0.0
  0
LINE
  5
9D
330
22
100
AcDbEntity
  8
0
 62
     0
100
AcDbLine
 10
0.0
 20
0.0
 30
0.0
 11
1.0
 21
0.267949
 31
0.0
  0
LINE
  5
9E
330
22
100
AcDbEntity
  8
0
 62
     0
100
AcDbLine
 10
-1.0
 20
0.0
 30
0.0
 11
0.0
 21
0.0
 31
0.0
  0
ENDBLK
  5
9F
330
22
100
AcDbEntity
  8
0
100
AcDbBlockEnd
  0
BLOCK
  5
FF
330
F8
100
AcDbEntity
  8
0
100
AcDbBlockBegin
  2
AM_DUMMY
 70
     0
 10
0.0
 20
0.0
 30
0.0
  3
AM_DUMMY
  1

  0
LWPOLYLINE
  5
F9
330
F8
100
AcDbEntity
  8
0
100
AcDbPolyline
 90
        4
 70
     1
 43
0.0
 10
0.5
 20
-0.5
 10
0.5
 20
0.5
 10
-0.5
 20
0.5
 10
-0.5
 20
-0.5
  0
ENDBLK
  5
100
330
F8
100
AcDbEntity
  8
0
100
AcDbBlockEnd
  0
BLOCK
  5
10F
330
10E
100
AcDbEntity
  8
0
100
AcDbBlockBegin
  2
_OPEN
 70
     0
 10
0.0
 20
0.0
 30
0.0
  3
_OPEN
  1

  0
LINE
  5
110
330
10E
100
AcDbEntity
  8
0
  6
ByBlock
 62
     0
100
AcDbLine
 10
-1.0
 20
0.166667
 30
0.0
 11
0.0
 21
0.0
 31
0.0
  0
LINE
  5
111
330
10E
100
AcDbEntity
  8
0
  6
ByBlock
 62
     0
100
AcDbLine
 10
0.0
 20
0.0
 30
0.0
 11
-1.0
 21
-0.166667
 31
0.0
  0
LINE
  5
112
330
10E
100
AcDbEntity
  8
0
  6
ByBlock
 62
     0
100
AcDbLine
 10
0.0
 20
0.0
 30
0.0
 11
-1.0
 21
0.0
 31
0.0
  0
ENDBLK
  5
113
330
10E
100
AcDbEntity
  8
0
100
AcDbBlockEnd
  0
BLOCK
  5
258
330
1FC
100
AcDbEntity
  8
0
100
AcDbBlockBegin
  2
A$C23EA580B
 70
     0
 10
0.0
 20
0.0
 30
0.0
  3
A$C23EA580B
  1

  0
LINE
  5
1FD
330
1FC
100
AcDbEntity
  8
0
100
AcDbLine
 10
127.857765
 20
62.06204
 30
0.0
 11
-50.14223499999999
 21
62.06204
 31
0.0
  0
LINE
  5
1FE
330
1FC
100
AcDbEntity
  8
0
100
AcDbLine
 10
-50.14223499999999
 20
62.06204
 30
0.0
 11
-50.14223499999999
 21
-191.93796
 31
0.0
  0
LINE
  5
1FF
330
1FC
100
AcDbEntity
  8
0
100
AcDbLine
 10
127.857765
 20
-191.93796
 30
0.0
 11
127.857765
 21
62.06204
 31
0.0
  0
LINE
  5
200
330
1FC
100
AcDbEntity
  8
0
100
AcDbLine
 10
127.857765
 20
-156.93796
 30
0.0
 11
-50.14223499999999
 21
-156.93796
 31
0.0
  0
TEXT
  5
201
330
1FC
100
AcDbEntity
  8
0
100
AcDbText
 10
38.249663
 20
58.56204
 30
0.0
 40
3.0
  1
改          訂
100
AcDbText
  0
TEXT
  5
202
330
1FC
100
AcDbEntity
  8
0
100
AcDbText
 10
78.41382299999999
 20
58.56204
 30
0.0
 40
3.0
  1
CHANGE
100
AcDbText
  0
LINE
  5
203
330
1FC
100
AcDbEntity
  8
0
100
AcDbLine
 10
17.796083
 20
58.06204000000001
 30
0.0
 11
127.796083
 21
58.06204000000001
 31
0.0
  0
LINE
  5
204
330
1FC
100
AcDbEntity
  8
0
100
AcDbLine
 10
113.796083
 20
58.06204000000001
 30
0.0
 11
113.796083
 21
45.06204
 31
0.0
  0
LINE
  5
205
330
1FC
100
AcDbEntity
  8
0
100
AcDbLine
 10
101.796083
 20
58.06204000000001
 30
0.0
 11
101.796083
 21
45.06204
 31
0.0
  0
LINE
  5
206
330
1FC
100
AcDbEntity
  8
0
100
AcDbLine
 10
89.796083
 20
58.06204000000001
 30
0.0
 11
89.796083
 21
45.06204
 31
0.0
  0
LINE
  5
207
330
1FC
100
AcDbEntity
  8
0
100
AcDbLine
 10
77.79608299999999
 20
58.06204000000001
 30
0.0
 11
77.79608299999999
 21
45.06204
 31
0.0
  0
LINE
  5
208
330
1FC
100
AcDbEntity
  8
0
100
AcDbLine
 10
27.796083
 20
58.06204000000001
 30
0.0
 11
27.796083
 21
45.06204
 31
0.0
  0
LINE
  5
209
330
1FC
100
AcDbEntity
  8
0
100
AcDbLine
 10
17.796083
 20
62.06204
 30
0.0
 11
17.796083
 21
45.06204
 31
0.0
  0
LINE
  5
20A
330
1FC
100
AcDbEntity
  8
0
100
AcDbLine
 10
127.796083
 20
50.06204
 30
0.0
 11
17.796083
 21
50.06204
 31
0.0
  0
LINE
  5
20B
330
1FC
100
AcDbEntity
  8
0
100
AcDbLine
 10
17.796083
 20
45.06204
 30
0.0
 11
127.796083
 21
45.06204
 31
0.0
  0
TEXT
  5
20C
330
1FC
100
AcDbEntity
  8
0
100
AcDbText
 10
116.796083
 20
54.56204
 30
0.0
 40
2.5
  1
年月日
 72
     1
 11
120.796083
 21
54.56204
 31
0.0
100
AcDbText
  0
TEXT
  5
20D
330
1FC
100
AcDbEntity
  8
0
100
AcDbText
 10
117.2722734761905
 20
51.06204
 30
0.0
 40
2.0
  1
DATE
 72
     1
 11
120.796083
 21
51.06204
 31
0.0
100
AcDbText
  0
TEXT
  5
20E
330
1FC
100
AcDbEntity
  8
0
100
AcDbText
 10
105.1294163333333
 20
54.56204
 30
0.0
 40
2.5
  1
承認
 72
     1
 11
107.796083
 21
54.56204
 31
0.0
100
AcDbText
  0
TEXT
  5
20F
330
1FC
100
AcDbEntity
  8
0
100
AcDbText
 10
102.4627496666667
 20
51.06204
 30
0.0
 40
2.0
  1
APPROVED
 41
0.7
 72
     1
 11
107.796083
 21
51.06204
 31
0.0
100
AcDbText
  0
TEXT
  5
210
330
1FC
100
AcDbEntity
  8
0
100
AcDbText
 10
93.21274966666667
 20
54.56204
 30
0.0
 40
2.5
  1
検図
 72
     1
 11
95.796083
 21
54.56204
 31
0.0
100
AcDbText
  0
TEXT
  5
211
330
1FC
100
AcDbEntity
  8
0
100
AcDbText
 10
90.57703538095237
 20
51.06204
 30
0.0
 40
2.0
  1
CHECKED
 41
0.8
 72
     1
 11
95.796083
 21
51.06204
 31
0.0
100
AcDbText
  0
TEXT
  5
212
330
1FC
100
AcDbEntity
  8
0
100
AcDbText
 10
81.21274966666666
 20
54.56204
 30
0.0
 40
2.5
  1
担当
 72
     1
 11
83.79608299999999
 21
54.56204
 31
0.0
100
AcDbText
  0
TEXT
  5
213
330
1FC
100
AcDbEntity
  8
0
100
AcDbText
 10
78.8913210952381
 20
51.06204
 30
0.0
 40
2.0
  1
DESIGN
 72
     1
 11
83.79608299999999
 21
51.06204
 31
0.0
100
AcDbText
  0
TEXT
  5
214
330
1FC
100
AcDbEntity
  8
0
100
AcDbText
 10
59.559573
 20
52.56204
 30
0.0
 40
3.0
  1
NOTE
100
AcDbText
  0
TEXT
  5
215
330
1FC
100
AcDbEntity
  8
0
100
AcDbText
 10
36.56303
 20
52.56204
 30
0.0
 40
3.0
  1
記    事
100
AcDbText
  0
TEXT
  5
216
330
1FC
100
AcDbEntity
  8
0
100
AcDbText
 10
20.12941633333333
 20
54.56204
 30
0.0
 40
2.5
  1
符号
 72
     1
 11
22.796083
 21
54.56204
 31
0.0
100
AcDbText
  0
TEXT
  5
217
330
1FC
100
AcDbEntity
  8
0
100
AcDbText
 10
18.93894014285714
 20
51.06204
 30
0.0
 40
2.0
  1
MARK
 72
     1
 11
22.796083
 21
51.06204
 31
0.0
100
AcDbText
  0
TEXT
  5
218
330
1FC
100
AcDbEntity
  8
0
100
AcDbText
 10
70.901267
 20
-161.43796
 30
0.0
 40
3.0
  1
TITLE
100
AcDbText
  0
TEXT
  5
219
330
1FC
100
AcDbEntity
  8
0
100
AcDbText
 10
56.692773
 20
-161.43796
 30
0.0
 40
3.0
  1
名称
100
AcDbText
  0
LINE
  5
21A
330
1FC
100
AcDbEntity
  8
0
100
AcDbLine
 10
127.857765
 20
-176.93796
 30
0.0
 11
-50.14223499999999
 21
-176.93796
 31
0.0
  0
TEXT
  5
21B
330
1FC
100
AcDbEntity
  8
0
100
AcDbText
 10
68.342392
 20
-181.1016
 30
0.0
 40
3.0
  1
DWG,No.
100
AcDbText
  0
TEXT
  5
21C
330
1FC
100
AcDbEntity
  8
0
100
AcDbText
 10
56.692773
 20
-181.1016
 30
0.0
 40
3.0
  1
図番
100
AcDbText
  0
LINE
  5
21D
330
1FC
100
AcDbEntity
  8
0
100
AcDbLine
 10
54.857765
 20
-156.93796
 30
0.0
 11
54.857765
 21
-191.93796
 31
0.0
  0
LINE
  5
21E
330
1FC
100
AcDbEntity
  8
0
100
AcDbLine
 10
-50.14223499999999
 20
-191.93796
 30
0.0
 11
127.857765
 21
-191.93796
 31
0.0
  0
TEXT
  5
21F
330
1FC
100
AcDbEntity
  8
0
100
AcDbText
 10
35.40062214285715
 20
-186.160578
 30
0.0
 40
1.5
  1
3RD   ANGLE
 72
     1
 11
42.357765
 21
-186.160578
 31
0.0
100
AcDbText
  0
TEXT
  5
220
330
1FC
100
AcDbEntity
  8
0
100
AcDbText
 10
35.857765
 20
-190.017508
 30
0.0
 40
1.5
  1
PROJECTION
 72
     1
 11
42.357765
 21
-190.017508
 31
0.0
100
AcDbText
  0
TEXT
  5
221
330
1FC
100
AcDbEntity
  8
0
100
AcDbText
 10
35.557765
 20
-181.253332
 30
0.0
 40
3.0
  1
第三角法
 72
     1
 11
42.357765
 21
-181.253332
 31
0.0
100
AcDbText
  0
LINE
  5
222
330
1FC
100
AcDbEntity
  8
0
100
AcDbLine
 10
-50.14223499999999
 20
-166.93796
 30
0.0
 11
54.857765
 21
-166.93796
 31
0.0
  0
TEXT
  5
223
330
1FC
100
AcDbEntity
  8
0
100
AcDbText
 10
41.71490785714285
 20
-165.43796
 30
0.0
 40
1.5
  1
DATE
 72
     1
 11
44.357765
 21
-165.43796
 31
0.0
100
AcDbText
  0
TEXT
  5
224
330
1FC
100
AcDbEntity
  8
0
100
AcDbText
 10
38.757765
 20
-162.43796
 30
0.0
 40
3.5
  1
年月日
 72
     1
 11
44.357765
 21
-162.43796
 31
0.0
100
AcDbText
  0
LINE
  5
225
330
1FC
100
AcDbEntity
  8
0
100
AcDbLine
 10
33.857765
 20
-156.93796
 30
0.0
 11
33.857765
 21
-176.93796
 31
0.0
  0
TEXT
  5
226
330
1FC
100
AcDbEntity
  8
0
100
AcDbText
 10
23.12443166666667
 20
-162.43796
 30
0.0
 40
3.5
  1
尺度
 72
     1
 11
26.857765
 21
-162.43796
 31
0.0
100
AcDbText
  0
TEXT
  5
227
330
1FC
100
AcDbEntity
  8
0
100
AcDbText
 10
23.53633642857143
 20
-165.43796
 30
0.0
 40
1.5
  1
SCALE
 72
     1
 11
26.857765
 21
-165.43796
 31
0.0
100
AcDbText
  0
LINE
  5
228
330
1FC
100
AcDbEntity
  8
0
100
AcDbLine
 10
29.857765
 20
-168.923431
 30
0.0
 11
23.857765
 21
-174.923431
 31
0.0
  0
LINE
  5
229
330
1FC
100
AcDbEntity
  8
0
100
AcDbLine
 10
29.857765
 20
-176.93796
 30
0.0
 11
29.857765
 21
-191.93796
 31
0.0
  0
TEXT
  5
22A
330
1FC
100
AcDbEntity
  8
0
100
AcDbText
 10
9.124431666666664
 20
-162.43796
 30
0.0
 40
3.5
  1
単位
 72
     1
 11
12.857765
 21
-162.43796
 31
0.0
100
AcDbText
  0
TEXT
  5
22B
330
1FC
100
AcDbEntity
  8
0
100
AcDbText
 10
10.50062214285714
 20
-165.43796
 30
0.0
 40
1.5
  1
UNIT
 72
     1
 11
12.857765
 21
-165.43796
 31
0.0
100
AcDbText
  0
TEXT
  5
22C
330
1FC
100
AcDbEntity
  8
0
100
AcDbText
 10
-4.758901666666666
 20
-162.43796
 30
0.0
 40
3.5
  1
製図
 72
     1
 11
-1.142235
 21
-162.43796
 31
0.0
100
AcDbText
  0
TEXT
  5
22D
330
1FC
100
AcDbEntity
  8
0
100
AcDbText
 10
-4.785092142857141
 20
-165.43796
 30
0.0
 40
1.5
  1
DRAWN
 72
     1
 11
-1.142235
 21
-165.43796
 31
0.0
100
AcDbText
  0
TEXT
  5
22E
330
1FC
100
AcDbEntity
  8
0
100
AcDbText
 10
-18.87556833333333
 20
-162.43796
 30
0.0
 40
3.5
  1
設計
 72
     1
 11
-15.142235
 21
-162.43796
 31
0.0
100
AcDbText
  0
TEXT
  5
22F
330
1FC
100
AcDbEntity
  8
0
100
AcDbText
 10
-20.28509214285715
 20
-165.43796
 30
0.0
 40
1.5
  1
DESIGNED
 72
     1
 11
-15.142235
 21
-165.43796
 31
0.0
100
AcDbText
  0
TEXT
  5
230
330
1FC
100
AcDbEntity
  8
0
100
AcDbText
 10
-32.75890166666667
 20
-162.43796
 30
0.0
 40
3.5
  1
検図
 72
     1
 11
-29.142235
 21
-162.43796
 31
0.0
100
AcDbText
  0
TEXT
  5
231
330
1FC
100
AcDbEntity
  8
0
100
AcDbText
 10
-34.03509214285714
 20
-165.43796
 30
0.0
 40
1.5
  1
CHECKED
 72
     1
 11
-29.142235
 21
-165.43796
 31
0.0
100
AcDbText
  0
TEXT
  5
232
330
1FC
100
AcDbEntity
  8
0
100
AcDbText
 10
-46.87556833333333
 20
-162.43796
 30
0.0
 40
3.5
  1
承認
 72
     1
 11
-43.14223499999999
 21
-162.43796
 31
0.0
100
AcDbText
  0
TEXT
  5
233
330
1FC
100
AcDbEntity
  8
0
100
AcDbText
 10
-48.85652071428571
 20
-165.43796
 30
0.0
 40
1.5
  1
APPROVED
 72
     1
 11
-43.14223499999999
 21
-165.43796
 31
0.0
100
AcDbText
  0
LINE
  5
234
330
1FC
100
AcDbEntity
  8
0
100
AcDbLine
 10
-36.142235
 20
-156.93796
 30
0.0
 11
-36.142235
 21
-176.93796
 31
0.0
  0
LINE
  5
235
330
1FC
100
AcDbEntity
  8
0
100
AcDbLine
 10
-22.142235
 20
-156.93796
 30
0.0
 11
-22.142235
 21
-176.93796
 31
0.0
  0
LINE
  5
236
330
1FC
100
AcDbEntity
  8
0
100
AcDbLine
 10
-8.142235000000001
 20
-156.93796
 30
0.0
 11
-8.142235000000001
 21
-176.93796
 31
0.0
  0
LINE
  5
237
330
1FC
100
AcDbEntity
  8
0
100
AcDbLine
 10
5.857765
 20
-156.93796
 30
0.0
 11
5.857765
 21
-176.93796
 31
0.0
  0
LINE
  5
238
330
1FC
100
AcDbEntity
  8
0
100
AcDbLine
 10
19.857765
 20
-156.93796
 30
0.0
 11
19.857765
 21
-176.93796
 31
0.0
  0
TEXT
  5
239
330
1FC
100
AcDbEntity
  8
0
100
AcDbText
 10
9.143479285714285
 20
-173.43796
 30
0.0
 40
3.0
  1
mm
 72
     1
 11
12.857765
 21
-173.43796
 31
0.0
100
AcDbText
  0
TEXT
  5
23A
330
1FC
100
AcDbEntity
  8
0
100
AcDbText
 10
-26.07425
 20
-184.93933
 30
0.0
 40
4.0
  1
利昌工業株式会社
100
AcDbText
  0
LINE
  5
23B
330
1FC
100
AcDbEntity
  8
0
100
AcDbLine
 10
16.992014
 20
-186.093663
 30
0.0
 11
-27.227228
 21
-186.093663
 31
0.0
  0
TEXT
  5
23C
330
1FC
100
AcDbEntity
  8
0
100
AcDbText
 10
-6.577155
 20
-189.954864
 30
0.0
 40
2.0
  1
KOGYO
100
AcDbText
  0
TEXT
  5
23D
330
1FC
100
AcDbEntity
  8
0
100
AcDbText
 10
-17.084719
 20
-189.954864
 30
0.0
 40
2.0
  1
RISHO
100
AcDbText
  0
TEXT
  5
23E
330
1FC
100
AcDbEntity
  8
0
100
AcDbText
 10
4.926178
 20
-189.954864
 30
0.0
 40
2.0
  1
CO.,LTD
100
AcDbText
  0
TEXT
  5
23F
330
1FC
100
AcDbEntity
  8
0
100
AcDbText
 10
-39.032586
 20
-189.931978
 30
0.0
 40
1.5
  1
SINCE 1921
100
AcDbText
  0
LINE
  5
240
330
1FC
100
AcDbEntity
  8
0
100
AcDbLine
 10
-26.330026
 20
-190.832408
 30
0.0
 11
-40.0444
 21
-190.832408
 31
0.0
  0
LINE
  5
241
330
1FC
100
AcDbEntity
  8
0
100
AcDbLine
 10
-29.149804
 20
-187.502479
 30
0.0
 11
-40.0444
 21
-187.502479
 31
0.0
  0
LINE
  5
242
330
1FC
100
AcDbEntity
  8
0
100
AcDbLine
 10
-29.149804
 20
-187.502479
 30
0.0
 11
-27.227227
 21
-186.093663
 31
0.0
  0
ARC
  5
243
330
1FC
100
AcDbEntity
  8
0
100
AcDbCircle
 10
-33.95666
 20
-183.251217
 30
0.0
 40
3.25
100
AcDbArc
 50
319.4
 51
40.6
  0
TEXT
  5
244
330
1FC
100
AcDbEntity
  8
0
100
AcDbText
 10
-34.28937
 20
-185.006913
 30
0.0
 40
1.0
  1
H
100
AcDbText
  0
ARC
  5
245
330
1FC
100
AcDbEntity
  8
0
100
AcDbCircle
 10
-33.95666
 20
-183.251217
 30
0.0
 40
3.25
100
AcDbArc
 50
139.4
 51
220.6
  0
ARC
  5
246
330
1FC
100
AcDbEntity
  8
0
100
AcDbCircle
 10
-33.95666
 20
-183.251217
 30
0.0
 40
3.25
100
AcDbArc
 50
229.4
 51
310.6
  0
LINE
  5
247
330
1FC
100
AcDbEntity
  8
0
100
AcDbLine
 10
-34.95666
 20
-184.251217
 30
0.0
 11
-37.048989
 21
-184.251217
 31
0.0
  0
LINE
  5
248
330
1FC
100
AcDbEntity
  8
0
100
AcDbLine
 10
-34.95666
 20
-186.343546
 30
0.0
 11
-34.95666
 21
-184.251217
 31
0.0
  0
LINE
  5
249
330
1FC
100
AcDbEntity
  8
0
100
AcDbLine
 10
-32.95666
 20
-184.251217
 30
0.0
 11
-30.864331
 21
-184.251217
 31
0.0
  0
TEXT
  5
24A
330
1FC
100
AcDbEntity
  8
0
100
AcDbText
 10
-34.339426
 20
-186.250688
 30
0.0
 40
1.0
  1
O
100
AcDbText
  0
LINE
  5
24B
330
1FC
100
AcDbEntity
  8
0
100
AcDbLine
 10
-32.95666
 20
-186.343546
 30
0.0
 11
-32.95666
 21
-184.251217
 31
0.0
  0
ARC
  5
24C
330
1FC
100
AcDbEntity
  8
0
100
AcDbCircle
 10
-33.95666
 20
-183.251217
 30
0.0
 40
3.25
100
AcDbArc
 50
49.4
 51
130.6
  0
TEXT
  5
24D
330
1FC
100
AcDbEntity
  8
0
100
AcDbText
 10
-36.690935
 20
-183.742476
 30
0.0
 40
1.0
  1
R
100
AcDbText
  0
LINE
  5
24E
330
1FC
100
AcDbEntity
  8
0
100
AcDbLine
 10
-34.95666
 20
-182.251217
 30
0.0
 11
-37.048989
 21
-182.251217
 31
0.0
  0
TEXT
  5
24F
330
1FC
100
AcDbEntity
  8
0
100
AcDbText
 10
-35.18670200000001
 20
-183.742476
 30
0.0
 40
1.0
  1
I
100
AcDbText
  0
LINE
  5
250
330
1FC
100
AcDbEntity
  8
0
100
AcDbLine
 10
-34.95666
 20
-180.158888
 30
0.0
 11
-34.95666
 21
-182.251217
 31
0.0
  0
TEXT
  5
251
330
1FC
100
AcDbEntity
  8
0
100
AcDbText
 10
-32.997358
 20
-183.742476
 30
0.0
 40
1.0
  1
H
100
AcDbText
  0
LINE
  5
252
330
1FC
100
AcDbEntity
  8
0
100
AcDbLine
 10
-32.95666
 20
-182.251217
 30
0.0
 11
-30.864331
 21
-182.251217
 31
0.0
  0
TEXT
  5
253
330
1FC
100
AcDbEntity
  8
0
100
AcDbText
 10
-34.288463
 20
-183.742476
 30
0.0
 40
1.0
  1
S
100
AcDbText
  0
TEXT
  5
254
330
1FC
100
AcDbEntity
  8
0
100
AcDbText
 10
-34.288806
 20
-181.242515
 30
0.0
 40
1.0
  1
R
100
AcDbText
  0
TEXT
  5
255
330
1FC
100
AcDbEntity
  8
0
100
AcDbText
 10
-33.956127
 20
-182.381111
 30
0.0
 40
1.0
  1
I
100
AcDbText
  0
LINE
  5
256
330
1FC
100
AcDbEntity
  8
0
100
AcDbLine
 10
-32.95666
 20
-180.158888
 30
0.0
 11
-32.95666
 21
-182.251217
 31
0.0
  0
TEXT
  5
257
330
1FC
100
AcDbEntity
  8
0
100
AcDbText
 10
-31.870019
 20
-183.742476
 30
0.0
 40
1.0
  1
O
100
AcDbText
  0
ENDBLK
  5
259
330
1FC
100
AcDbEntity
  8
0
100
AcDbBlockEnd
  0
BLOCK
  5
2B6
330
25A
100
AcDbEntity
  8
0
100
AcDbBlockBegin
  2
R04A4R
 70
     0
 10
0.0
 20
0.0
 30
0.0
  3
R04A4R
  1

  0
LINE
  5
25B
330
25A
100
AcDbEntity
  8
0
100
AcDbLine
 10
195.0
 20
258.0
 30
0.0
 11
17.0
 21
258.0
 31
0.0
  0
LINE
  5
25C
330
25A
100
AcDbEntity
  8
0
100
AcDbLine
 10
17.0
 20
258.0
 30
0.0
 11
17.0
 21
4.0
 31
0.0
  0
LINE
  5
25D
330
25A
100
AcDbEntity
  8
0
100
AcDbLine
 10
195.0
 20
4.0
 30
0.0
 11
195.0
 21
258.0
 31
0.0
  0
LINE
  5
25E
330
25A
100
AcDbEntity
  8
0
100
AcDbLine
 10
195.0
 20
39.0
 30
0.0
 11
17.0
 21
39.0
 31
0.0
  0
TEXT
  5
25F
330
25A
100
AcDbEntity
  8
0
100
AcDbText
 10
105.391898
 20
254.5
 30
0.0
 40
3.0
  1
改          訂
100
AcDbText
  0
TEXT
  5
260
330
25A
100
AcDbEntity
  8
0
100
AcDbText
 10
145.556058
 20
254.5
 30
0.0
 40
3.0
  1
CHANGE
100
AcDbText
  0
LINE
  5
261
330
25A
100
AcDbEntity
  8
0
100
AcDbLine
 10
84.93831699999999
 20
254.0
 30
0.0
 11
194.938317
 21
254.0
 31
0.0
  0
LINE
  5
262
330
25A
100
AcDbEntity
  8
0
100
AcDbLine
 10
180.938317
 20
254.0
 30
0.0
 11
180.938317
 21
241.0
 31
0.0
  0
LINE
  5
263
330
25A
100
AcDbEntity
  8
0
100
AcDbLine
 10
168.938317
 20
254.0
 30
0.0
 11
168.938317
 21
241.0
 31
0.0
  0
LINE
  5
264
330
25A
100
AcDbEntity
  8
0
100
AcDbLine
 10
156.938317
 20
254.0
 30
0.0
 11
156.938317
 21
241.0
 31
0.0
  0
LINE
  5
265
330
25A
100
AcDbEntity
  8
0
100
AcDbLine
 10
144.938317
 20
254.0
 30
0.0
 11
144.938317
 21
241.0
 31
0.0
  0
LINE
  5
266
330
25A
100
AcDbEntity
  8
0
100
AcDbLine
 10
94.93831699999999
 20
254.0
 30
0.0
 11
94.93831699999999
 21
241.0
 31
0.0
  0
LINE
  5
267
330
25A
100
AcDbEntity
  8
0
100
AcDbLine
 10
84.93831699999999
 20
258.0
 30
0.0
 11
84.93831699999999
 21
241.0
 31
0.0
  0
LINE
  5
268
330
25A
100
AcDbEntity
  8
0
100
AcDbLine
 10
194.938317
 20
246.0
 30
0.0
 11
84.93831699999999
 21
246.0
 31
0.0
  0
LINE
  5
269
330
25A
100
AcDbEntity
  8
0
100
AcDbLine
 10
84.93831699999999
 20
241.0
 30
0.0
 11
194.938317
 21
241.0
 31
0.0
  0
TEXT
  5
26A
330
25A
100
AcDbEntity
  8
0
100
AcDbText
 10
183.9383169999999
 20
250.5
 30
0.0
 40
2.5
  1
年月日
 72
     1
 11
187.938317
 21
250.5
 31
0.0
100
AcDbText
  0
TEXT
  5
26B
330
25A
100
AcDbEntity
  8
0
100
AcDbText
 10
184.4145074761904
 20
247.0
 30
0.0
 40
2.0
  1
DATE
 72
     1
 11
187.938317
 21
247.0
 31
0.0
100
AcDbText
  0
TEXT
  5
26C
330
25A
100
AcDbEntity
  8
0
100
AcDbText
 10
172.2716503333333
 20
250.5
 30
0.0
 40
2.5
  1
承認
 72
     1
 11
174.9383169999999
 21
250.5
 31
0.0
100
AcDbText
  0
TEXT
  5
26D
330
25A
100
AcDbEntity
  8
0
100
AcDbText
 10
169.6049836666666
 20
247.0
 30
0.0
 40
2.0
  1
APPROVED
 41
0.7
 72
     1
 11
174.9383169999999
 21
247.0
 31
0.0
100
AcDbText
  0
TEXT
  5
26E
330
25A
100
AcDbEntity
  8
0
100
AcDbText
 10
160.3549836666666
 20
250.5
 30
0.0
 40
2.5
  1
検図
 72
     1
 11
162.938317
 21
250.5
 31
0.0
100
AcDbText
  0
TEXT
  5
26F
330
25A
100
AcDbEntity
  8
0
100
AcDbText
 10
157.7192693809523
 20
247.0
 30
0.0
 40
2.0
  1
CHECKED
 41
0.8
 72
     1
 11
162.938317
 21
247.0
 31
0.0
100
AcDbText
  0
TEXT
  5
270
330
25A
100
AcDbEntity
  8
0
100
AcDbText
 10
148.3549836666666
 20
250.5
 30
0.0
 40
2.5
  1
担当
 72
     1
 11
150.9383169999999
 21
250.5
 31
0.0
100
AcDbText
  0
TEXT
  5
271
330
25A
100
AcDbEntity
  8
0
100
AcDbText
 10
146.0335550952381
 20
247.0
 30
0.0
 40
2.0
  1
DESIGN
 72
     1
 11
150.9383169999999
 21
247.0
 31
0.0
100
AcDbText
  0
TEXT
  5
272
330
25A
100
AcDbEntity
  8
0
100
AcDbText
 10
126.701808
 20
248.5
 30
0.0
 40
3.0
  1
NOTE
100
AcDbText
  0
TEXT
  5
273
330
25A
100
AcDbEntity
  8
0
100
AcDbText
 10
103.705265
 20
248.5
 30
0.0
 40
3.0
  1
記    事
100
AcDbText
  0
TEXT
  5
274
330
25A
100
AcDbEntity
  8
0
100
AcDbText
 10
87.27165033333333
 20
250.5
 30
0.0
 40
2.5
  1
符号
 72
     1
 11
89.93831699999999
 21
250.5
 31
0.0
100
AcDbText
  0
TEXT
  5
275
330
25A
100
AcDbEntity
  8
0
100
AcDbText
 10
86.08117414285713
 20
247.0
 30
0.0
 40
2.0
  1
MARK
 72
     1
 11
89.93831699999999
 21
247.0
 31
0.0
100
AcDbText
  0
TEXT
  5
276
330
25A
100
AcDbEntity
  8
0
100
AcDbText
 10
138.043502
 20
34.5
 30
0.0
 40
3.0
  1
TITLE
100
AcDbText
  0
TEXT
  5
277
330
25A
100
AcDbEntity
  8
0
100
AcDbText
 10
123.835008
 20
34.5
 30
0.0
 40
3.0
  1
名称
100
AcDbText
  0
LINE
  5
278
330
25A
100
AcDbEntity
  8
0
100
AcDbLine
 10
195.0
 20
19.0
 30
0.0
 11
17.0
 21
19.0
 31
0.0
  0
TEXT
  5
279
330
25A
100
AcDbEntity
  8
0
100
AcDbText
 10
135.484626
 20
14.83636
 30
0.0
 40
3.0
  1
DWG,No.
100
AcDbText
  0
TEXT
  5
27A
330
25A
100
AcDbEntity
  8
0
100
AcDbText
 10
123.835008
 20
14.83636
 30
0.0
 40
3.0
  1
図番
100
AcDbText
  0
LINE
  5
27B
330
25A
100
AcDbEntity
  8
0
100
AcDbLine
 10
122.0
 20
39.0
 30
0.0
 11
122.0
 21
4.0
 31
0.0
  0
LINE
  5
27C
330
25A
100
AcDbEntity
  8
0
100
AcDbLine
 10
17.0
 20
4.0
 30
0.0
 11
195.0
 21
4.0
 31
0.0
  0
TEXT
  5
27D
330
25A
100
AcDbEntity
  8
0
100
AcDbText
 10
102.5428571428571
 20
9.777382000000001
 30
0.0
 40
1.5
  1
3RD   ANGLE
 72
     1
 11
109.5
 21
9.777382000000001
 31
0.0
100
AcDbText
  0
TEXT
  5
27E
330
25A
100
AcDbEntity
  8
0
100
AcDbText
 10
103.0
 20
5.920452
 30
0.0
 40
1.5
  1
PROJECTION
 72
     1
 11
109.5
 21
5.920452
 31
0.0
100
AcDbText
  0
TEXT
  5
27F
330
25A
100
AcDbEntity
  8
0
100
AcDbText
 10
102.7
 20
14.684628
 30
0.0
 40
3.0
  1
第三角法
 72
     1
 11
109.5
 21
14.684628
 31
0.0
100
AcDbText
  0
LINE
  5
280
330
25A
100
AcDbEntity
  8
0
100
AcDbLine
 10
17.0
 20
29.0
 30
0.0
 11
122.0
 21
29.0
 31
0.0
  0
TEXT
  5
281
330
25A
100
AcDbEntity
  8
0
100
AcDbText
 10
108.8571428571428
 20
30.5
 30
0.0
 40
1.5
  1
DATE
 72
     1
 11
111.5
 21
30.5
 31
0.0
100
AcDbText
  0
TEXT
  5
282
330
25A
100
AcDbEntity
  8
0
100
AcDbText
 10
105.9
 20
33.5
 30
0.0
 40
3.5
  1
年月日
 72
     1
 11
111.5
 21
33.5
 31
0.0
100
AcDbText
  0
LINE
  5
283
330
25A
100
AcDbEntity
  8
0
100
AcDbLine
 10
101.0
 20
39.0
 30
0.0
 11
101.0
 21
19.0
 31
0.0
  0
TEXT
  5
284
330
25A
100
AcDbEntity
  8
0
100
AcDbText
 10
90.26666666666667
 20
33.5
 30
0.0
 40
3.5
  1
尺度
 72
     1
 11
94.0
 21
33.5
 31
0.0
100
AcDbText
  0
TEXT
  5
285
330
25A
100
AcDbEntity
  8
0
100
AcDbText
 10
90.67857142857143
 20
30.5
 30
0.0
 40
1.5
  1
SCALE
 72
     1
 11
94.0
 21
30.5
 31
0.0
100
AcDbText
  0
LINE
  5
286
330
25A
100
AcDbEntity
  8
0
100
AcDbLine
 10
97.0
 20
27.01453
 30
0.0
 11
91.0
 21
21.01453
 31
0.0
  0
LINE
  5
287
330
25A
100
AcDbEntity
  8
0
100
AcDbLine
 10
97.0
 20
19.0
 30
0.0
 11
97.0
 21
4.0
 31
0.0
  0
TEXT
  5
288
330
25A
100
AcDbEntity
  8
0
100
AcDbText
 10
76.26666666666666
 20
33.5
 30
0.0
 40
3.5
  1
単位
 72
     1
 11
80.0
 21
33.5
 31
0.0
100
AcDbText
  0
TEXT
  5
289
330
25A
100
AcDbEntity
  8
0
100
AcDbText
 10
77.64285714285714
 20
30.5
 30
0.0
 40
1.5
  1
UNIT
 72
     1
 11
80.0
 21
30.5
 31
0.0
100
AcDbText
  0
TEXT
  5
28A
330
25A
100
AcDbEntity
  8
0
100
AcDbText
 10
62.38333333333333
 20
33.5
 30
0.0
 40
3.5
  1
製図
 72
     1
 11
66.0
 21
33.5
 31
0.0
100
AcDbText
  0
TEXT
  5
28B
330
25A
100
AcDbEntity
  8
0
100
AcDbText
 10
62.35714285714286
 20
30.5
 30
0.0
 40
1.5
  1
DRAWN
 72
     1
 11
66.0
 21
30.5
 31
0.0
100
AcDbText
  0
TEXT
  5
28C
330
25A
100
AcDbEntity
  8
0
100
AcDbText
 10
48.26666666666667
 20
33.5
 30
0.0
 40
3.5
  1
設計
 72
     1
 11
52.0
 21
33.5
 31
0.0
100
AcDbText
  0
TEXT
  5
28D
330
25A
100
AcDbEntity
  8
0
100
AcDbText
 10
46.85714285714285
 20
30.5
 30
0.0
 40
1.5
  1
DESIGNED
 72
     1
 11
52.0
 21
30.5
 31
0.0
100
AcDbText
  0
TEXT
  5
28E
330
25A
100
AcDbEntity
  8
0
100
AcDbText
 10
34.38333333333333
 20
33.5
 30
0.0
 40
3.5
  1
検図
 72
     1
 11
38.0
 21
33.5
 31
0.0
100
AcDbText
  0
TEXT
  5
28F
330
25A
100
AcDbEntity
  8
0
100
AcDbText
 10
33.10714285714286
 20
30.5
 30
0.0
 40
1.5
  1
CHECKED
 72
     1
 11
38.0
 21
30.5
 31
0.0
100
AcDbText
  0
TEXT
  5
290
330
25A
100
AcDbEntity
  8
0
100
AcDbText
 10
20.26666666666667
 20
33.5
 30
0.0
 40
3.5
  1
承認
 72
     1
 11
24.0
 21
33.5
 31
0.0
100
AcDbText
  0
TEXT
  5
291
330
25A
100
AcDbEntity
  8
0
100
AcDbText
 10
18.28571428571428
 20
30.5
 30
0.0
 40
1.5
  1
APPROVED
 72
     1
 11
24.0
 21
30.5
 31
0.0
100
AcDbText
  0
LINE
  5
292
330
25A
100
AcDbEntity
  8
0
100
AcDbLine
 10
31.0
 20
39.0
 30
0.0
 11
31.0
 21
19.0
 31
0.0
  0
LINE
  5
293
330
25A
100
AcDbEntity
  8
0
100
AcDbLine
 10
45.0
 20
39.0
 30
0.0
 11
45.0
 21
19.0
 31
0.0
  0
LINE
  5
294
330
25A
100
AcDbEntity
  8
0
100
AcDbLine
 10
59.0
 20
39.0
 30
0.0
 11
59.0
 21
19.0
 31
0.0
  0
LINE
  5
295
330
25A
100
AcDbEntity
  8
0
100
AcDbLine
 10
73.0
 20
39.0
 30
0.0
 11
73.0
 21
19.0
 31
0.0
  0
LINE
  5
296
330
25A
100
AcDbEntity
  8
0
100
AcDbLine
 10
87.0
 20
39.0
 30
0.0
 11
87.0
 21
19.0
 31
0.0
  0
TEXT
  5
297
330
25A
100
AcDbEntity
  8
0
100
AcDbText
 10
76.28571428571429
 20
22.5
 30
0.0
 40
3.0
  1
mm
 72
     1
 11
80.0
 21
22.5
 31
0.0
100
AcDbText
  0
TEXT
  5
298
330
25A
100
AcDbEntity
  8
0
100
AcDbText
 10
41.067985
 20
10.99863
 30
0.0
 40
4.0
  1
利昌工業株式会社
100
AcDbText
  0
LINE
  5
299
330
25A
100
AcDbEntity
  8
0
100
AcDbLine
 10
84.134249
 20
9.844298
 30
0.0
 11
39.915007
 21
9.844298
 31
0.0
  0
TEXT
  5
29A
330
25A
100
AcDbEntity
  8
0
100
AcDbText
 10
60.56508
 20
5.983096999999999
 30
0.0
 40
2.0
  1
KOGYO
100
AcDbText
  0
TEXT
  5
29B
330
25A
100
AcDbEntity
  8
0
100
AcDbText
 10
50.05751599999999
 20
5.983096999999999
 30
0.0
 40
2.0
  1
RISHO
100
AcDbText
  0
TEXT
  5
29C
330
25A
100
AcDbEntity
  8
0
100
AcDbText
 10
72.068413
 20
5.983096999999999
 30
0.0
 40
2.0
  1
CO.,LTD
100
AcDbText
  0
TEXT
  5
29D
330
25A
100
AcDbEntity
  8
0
100
AcDbText
 10
28.109649
 20
6.005982
 30
0.0
 40
1.5
  1
SINCE 1921
100
AcDbText
  0
LINE
  5
29E
330
25A
100
AcDbEntity
  8
0
100
AcDbLine
 10
40.81220799999999
 20
5.105552999999999
 30
0.0
 11
27.097835
 21
5.105552999999999
 31
0.0
  0
LINE
  5
29F
330
25A
100
AcDbEntity
  8
0
100
AcDbLine
 10
37.992431
 20
8.435480999999999
 30
0.0
 11
27.097835
 21
8.435480999999999
 31
0.0
  0
LINE
  5
2A0
330
25A
100
AcDbEntity
  8
0
100
AcDbLine
 10
37.992431
 20
8.435482
 30
0.0
 11
39.915007
 21
9.844298
 31
0.0
  0
ARC
  5
2A1
330
25A
100
AcDbEntity
  8
0
100
AcDbCircle
 10
33.185575
 20
12.686744
 30
0.0
 40
3.25
100
AcDbArc
 50
319.4
 51
40.6
  0
TEXT
  5
2A2
330
25A
100
AcDbEntity
  8
0
100
AcDbText
 10
32.852865
 20
10.931048
 30
0.0
 40
1.0
  1
H
100
AcDbText
  0
ARC
  5
2A3
330
25A
100
AcDbEntity
  8
0
100
AcDbCircle
 10
33.185575
 20
12.686744
 30
0.0
 40
3.25
100
AcDbArc
 50
139.4
 51
220.6
  0
ARC
  5
2A4
330
25A
100
AcDbEntity
  8
0
100
AcDbCircle
 10
33.185575
 20
12.686744
 30
0.0
 40
3.25
100
AcDbArc
 50
229.4
 51
310.6
  0
LINE
  5
2A5
330
25A
100
AcDbEntity
  8
0
100
AcDbLine
 10
32.185575
 20
11.686744
 30
0.0
 11
30.093245
 21
11.686744
 31
0.0
  0
LINE
  5
2A6
330
25A
100
AcDbEntity
  8
0
100
AcDbLine
 10
32.185575
 20
9.594414
 30
0.0
 11
32.185575
 21
11.686744
 31
0.0
  0
LINE
  5
2A7
330
25A
100
AcDbEntity
  8
0
100
AcDbLine
 10
34.185575
 20
11.686744
 30
0.0
 11
36.277904
 21
11.686744
 31
0.0
  0
TEXT
  5
2A8
330
25A
100
AcDbEntity
  8
0
100
AcDbText
 10
32.802808
 20
9.687272999999999
 30
0.0
 40
1.0
  1
O
100
AcDbText
  0
LINE
  5
2A9
330
25A
100
AcDbEntity
  8
0
100
AcDbLine
 10
34.185575
 20
9.594414
 30
0.0
 11
34.185575
 21
11.686744
 31
0.0
  0
ARC
  5
2AA
330
25A
100
AcDbEntity
  8
0
100
AcDbCircle
 10
33.185575
 20
12.686744
 30
0.0
 40
3.25
100
AcDbArc
 50
49.4
 51
130.6
  0
TEXT
  5
2AB
330
25A
100
AcDbEntity
  8
0
100
AcDbText
 10
30.451299
 20
12.195485
 30
0.0
 40
1.0
  1
R
100
AcDbText
  0
LINE
  5
2AC
330
25A
100
AcDbEntity
  8
0
100
AcDbLine
 10
32.185575
 20
13.686744
 30
0.0
 11
30.093245
 21
13.686744
 31
0.0
  0
TEXT
  5
2AD
330
25A
100
AcDbEntity
  8
0
100
AcDbText
 10
31.955533
 20
12.195485
 30
0.0
 40
1.0
  1
I
100
AcDbText
  0
LINE
  5
2AE
330
25A
100
AcDbEntity
  8
0
100
AcDbLine
 10
32.185575
 20
15.779073
 30
0.0
 11
32.185575
 21
13.686744
 31
0.0
  0
TEXT
  5
2AF
330
25A
100
AcDbEntity
  8
0
100
AcDbText
 10
34.14487600000001
 20
12.195485
 30
0.0
 40
1.0
  1
H
100
AcDbText
  0
LINE
  5
2B0
330
25A
100
AcDbEntity
  8
0
100
AcDbLine
 10
34.185575
 20
13.686744
 30
0.0
 11
36.277904
 21
13.686744
 31
0.0
  0
TEXT
  5
2B1
330
25A
100
AcDbEntity
  8
0
100
AcDbText
 10
32.853772
 20
12.195485
 30
0.0
 40
1.0
  1
S
100
AcDbText
  0
TEXT
  5
2B2
330
25A
100
AcDbEntity
  8
0
100
AcDbText
 10
32.853428
 20
14.695446
 30
0.0
 40
1.0
  1
R
100
AcDbText
  0
TEXT
  5
2B3
330
25A
100
AcDbEntity
  8
0
100
AcDbText
 10
33.186108
 20
13.556849
 30
0.0
 40
1.0
  1
I
100
AcDbText
  0
LINE
  5
2B4
330
25A
100
AcDbEntity
  8
0
100
AcDbLine
 10
34.185575
 20
15.779073
 30
0.0
 11
34.185575
 21
13.686744
 31
0.0
  0
TEXT
  5
2B5
330
25A
100
AcDbEntity
  8
0
100
AcDbText
 10
35.272216
 20
12.195485
 30
0.0
 40
1.0
  1
O
100
AcDbText
  0
ENDBLK
  5
2B7
330
25A
100
AcDbEntity
  8
0
100
AcDbBlockEnd
  0
BLOCK
  5
2C1
330
2B9
100
AcDbEntity
  8
0
 48
10.0
100
AcDbBlockBegin
  2
*D11
 70
     1
 10
0.0
 20
0.0
 30
0.0
  3
*D11
  1

  0
LINE
  5
2BA
330
2B9
100
AcDbEntity
  8
0
  6
ByBlock
 48
10.0
100
AcDbLine
 10
158.475998
 20
244.746328
 30
0.0
 11
159.012107
 21
248.710239
 31
0.0
  0
LINE
  5
2BB
330
2B9
100
AcDbEntity
  8
0
  6
ByBlock
 48
10.0
100
AcDbLine
 10
159.012107
 20
248.710239
 30
0.0
 11
179.583535
 21
248.710239
 31
0.0
  0
LINE
  5
2BC
330
2B9
100
AcDbEntity
  8
0
  6
ByBlock
 48
10.0
100
AcDbLine
 10
157.403782
 20
236.818507
 30
0.0
 11
157.93989
 21
240.782418
 31
0.0
  0
INSERT
  5
2BD
330
2B9
100
AcDbEntity
  8
0
  6
ByBlock
 48
10.0
100
AcDbBlockReference
  2
_OPEN
 10
157.93989
 20
240.782418
 30
0.0
 41
4.0
 42
4.0
 43
4.0
 50
262.297638
  0
MTEXT
  5
2BE
330
2B9
100
AcDbEntity
  8
0
  6
ByBlock
 48
10.0
100
AcDbMText
 10
170.297821
 20
253.710239
 30
0.0
 40
6.0
 41
0.0
 71
     5
 72
     1
  1
\A1;R3.5
 73
     1
 44
1.0
1001
ACAD
1000
MTEXTBEGIN
1070
    73
1070
     1
1070
    44
1040
1.0
1070
    74
1070
     0
1000
MTEXTEND
  0
POINT
  5
2BF
330
2B9
100
AcDbEntity
  8
DEFPOINTS
  6
ByBlock
 62
     0
 48
10.0
100
AcDbPoint
 10
157.93989
 20
240.782418
 30
0.0
  0
POINT
  5
2C0
330
2B9
100
AcDbEntity
  8
DEFPOINTS
  6
ByBlock
 62
     0
 48
10.0
100
AcDbPoint
 10
157.403782
 20
236.818507
 30
0.0
  0
ENDBLK
  5
2C2
330
2B9
100
AcDbEntity
  8
0
 48
10.0
100
AcDbBlockEnd
  0
BLOCK
  5
2CD
330
2C3
100
AcDbEntity
  8
0
 48
10.0
100
AcDbBlockBegin
  2
*D12
 70
     1
 10
0.0
 20
0.0
 30
0.0
  3
*D12
  1

  0
LINE
  5
2C4
330
2C3
100
AcDbEntity
  8
0
  6
ByBlock
 48
10.0
100
AcDbLine
 10
236.903782
 20
240.818507
 30
0.0
 11
246.235387
 21
240.818507
 31
0.0
  0
LINE
  5
2C5
330
2C3
100
AcDbEntity
  8
0
  6
ByBlock
 48
10.0
100
AcDbLine
 10
236.903782
 20
232.818507
 30
0.0
 11
246.235387
 21
232.818507
 31
0.0
  0
LINE
  5
2C6
330
2C3
100
AcDbEntity
  8
0
  6
ByBlock
 48
10.0
100
AcDbLine
 10
243.235387
 20
232.818507
 30
0.0
 11
243.235387
 21
220.818507
 31
0.0
  0
INSERT
  5
2C7
330
2C3
100
AcDbEntity
  8
0
  6
ByBlock
 48
10.0
100
AcDbBlockReference
  2
_OPEN
 10
243.235387
 20
240.818507
 30
0.0
 41
4.0
 42
4.0
 43
4.0
 50
90.0
  0
INSERT
  5
2C8
330
2C3
100
AcDbEntity
  8
0
  6
ByBlock
 48
10.0
100
AcDbBlockReference
  2
_OPEN
 10
243.235387
 20
232.818507
 30
0.0
 41
4.0
 42
4.0
 43
4.0
 50
270.0
  0
MTEXT
  5
2C9
330
2C3
100
AcDbEntity
  8
0
  6
ByBlock
 48
10.0
100
AcDbMText
 10
238.235387
 20
224.818507
 30
0.0
 40
6.0
 41
0.0
 71
     5
 72
     1
  1
\A1;7
 11
0.0
 21
1.0
 31
0.0
 73
     1
 44
1.0
1001
ACAD
1000
MTEXTBEGIN
1070
    73
1070
     1
1070
    44
1040
1.0
1070
    74
1070
     0
1000
MTEXTEND
  0
POINT
  5
2CA
330
2C3
100
AcDbEntity
  8
DEFPOINTS
  6
ByBlock
 62
     0
 48
10.0
100
AcDbPoint
 10
234.903782
 20
240.818507
 30
0.0
  0
POINT
  5
2CB
330
2C3
100
AcDbEntity
  8
DEFPOINTS
  6
ByBlock
 62
     0
 48
10.0
100
AcDbPoint
 10
234.903782
 20
232.818507
 30
0.0
  0
POINT
  5
2CC
330
2C3
100
AcDbEntity
  8
DEFPOINTS
  6
ByBlock
 62
     0
 48
10.0
100
AcDbPoint
 10
243.235387
 20
232.818507
 30
0.0
  0
ENDBLK
  5
2CE
330
2C3
100
AcDbEntity
  8
0
 48
10.0
100
AcDbBlockEnd
  0
BLOCK
  5
2D9
330
2CF
100
AcDbEntity
  8
0
 48
10.0
100
AcDbBlockBegin
  2
*D13
 70
     1
 10
0.0
 20
0.0
 30
0.0
  3
*D13
  1

  0
LINE
  5
2D0
330
2CF
100
AcDbEntity
  8
0
  6
ByBlock
 48
10.0
100
AcDbLine
 10
364.183583
 20
426.684445
 30
0.0
 11
364.183583
 21
437.368999
 31
0.0
  0
LINE
  5
2D1
330
2CF
100
AcDbEntity
  8
0
  6
ByBlock
 48
10.0
100
AcDbLine
 10
389.183583
 20
426.684445
 30
0.0
 11
389.183583
 21
437.368999
 31
0.0
  0
LINE
  5
2D2
330
2CF
100
AcDbEntity
  8
0
  6
ByBlock
 48
10.0
100
AcDbLine
 10
368.183583
 20
434.368999
 30
0.0
 11
385.183583
 21
434.368999
 31
0.0
  0
INSERT
  5
2D3
330
2CF
100
AcDbEntity
  8
0
  6
ByBlock
 48
10.0
100
AcDbBlockReference
  2
_OPEN
 10
364.183583
 20
434.368999
 30
0.0
 41
4.0
 42
4.0
 43
4.0
 50
180.0
  0
INSERT
  5
2D4
330
2CF
100
AcDbEntity
  8
0
  6
ByBlock
 48
10.0
100
AcDbBlockReference
  2
_OPEN
 10
389.183583
 20
434.368999
 30
0.0
 41
4.0
 42
4.0
 43
4.0
  0
MTEXT
  5
2D5
330
2CF
100
AcDbEntity
  8
0
  6
ByBlock
 48
10.0
100
AcDbMText
 10
376.683583
 20
439.368999
 30
0.0
 40
6.0
 41
0.0
 71
     5
 72
     1
  1
\A1;25
 73
     1
 44
1.0
1001
ACAD
1000
MTEXTBEGIN
1070
    73
1070
     1
1070
    44
1040
1.0
1070
    74
1070
     0
1000
MTEXTEND
  0
POINT
  5
2D6
330
2CF
100
AcDbEntity
  8
DEFPOINTS
  6
ByBlock
 62
     0
 48
10.0
100
AcDbPoint
 10
364.183583
 20
424.684445
 30
0.0
  0
POINT
  5
2D7
330
2CF
100
AcDbEntity
  8
DEFPOINTS
  6
ByBlock
 62
     0
 48
10.0
100
AcDbPoint
 10
389.183583
 20
424.684445
 30
0.0
  0
POINT
  5
2D8
330
2CF
100
AcDbEntity
  8
DEFPOINTS
  6
ByBlock
 62
     0
 48
10.0
100
AcDbPoint
 10
389.183583
 20
434.368999
 30
0.0
  0
ENDBLK
  5
2DA
330
2CF
100
AcDbEntity
  8
0
 48
10.0
100
AcDbBlockEnd
  0
BLOCK
  5
2E5
330
2DB
100
AcDbEntity
  8
0
 48
10.0
100
AcDbBlockBegin
  2
*D14
 70
     1
 10
0.0
 20
0.0
 30
0.0
  3
*D14
  1

  0
LINE
  5
2DC
330
2DB
100
AcDbEntity
  8
0
  6
ByBlock
 48
10.0
100
AcDbLine
 10
236.588616
 20
264.318507
 30
0.0
 11
265.216167
 21
264.318507
 31
0.0
  0
LINE
  5
2DD
330
2DB
100
AcDbEntity
  8
0
  6
ByBlock
 48
10.0
100
AcDbLine
 10
236.588616
 20
209.318507
 30
0.0
 11
265.216167
 21
209.318507
 31
0.0
  0
LINE
  5
2DE
330
2DB
100
AcDbEntity
  8
0
  6
ByBlock
 48
10.0
100
AcDbLine
 10
262.216167
 20
260.318507
 30
0.0
 11
262.216167
 21
213.318507
 31
0.0
  0
INSERT
  5
2DF
330
2DB
100
AcDbEntity
  8
0
  6
ByBlock
 48
10.0
100
AcDbBlockReference
  2
_OPEN
 10
262.216167
 20
264.318507
 30
0.0
 41
4.0
 42
4.0
 43
4.0
 50
90.0
  0
INSERT
  5
2E0
330
2DB
100
AcDbEntity
  8
0
  6
ByBlock
 48
10.0
100
AcDbBlockReference
  2
_OPEN
 10
262.216167
 20
209.318507
 30
0.0
 41
4.0
 42
4.0
 43
4.0
 50
270.0
  0
MTEXT
  5
2E1
330
2DB
100
AcDbEntity
  8
0
  6
ByBlock
 48
10.0
100
AcDbMText
 10
257.216167
 20
237.258438
 30
0.0
 40
6.0
 41
0.0
 71
     5
 72
     1
  1
\A1;55
 11
0.0
 21
1.0
 31
0.0
 73
     1
 44
1.0
1001
ACAD
1000
MTEXTBEGIN
1070
    73
1070
     1
1070
    44
1040
1.0
1070
    74
1070
     0
1000
MTEXTEND
  0
POINT
  5
2E2
330
2DB
100
AcDbEntity
  8
DEFPOINTS
  6
ByBlock
 62
     0
 48
10.0
100
AcDbPoint
 10
234.588616
 20
264.318507
 30
0.0
  0
POINT
  5
2E3
330
2DB
100
AcDbEntity
  8
DEFPOINTS
  6
ByBlock
 62
     0
 48
10.0
100
AcDbPoint
 10
234.588616
 20
209.318507
 30
0.0
  0
POINT
  5
2E4
330
2DB
100
AcDbEntity
  8
DEFPOINTS
  6
ByBlock
 62
     0
 48
10.0
100
AcDbPoint
 10
262.216167
 20
209.318507
 30
0.0
  0
ENDBLK
  5
2E6
330
2DB
100
AcDbEntity
  8
0
 48
10.0
100
AcDbBlockEnd
  0
BLOCK
  5
2F1
330
2E7
100
AcDbEntity
  8
0
 48
10.0
100
AcDbBlockBegin
  2
*D15
 70
     1
 10
0.0
 20
0.0
 30
0.0
  3
*D15
  1

  0
LINE
  5
2E8
330
2E7
100
AcDbEntity
  8
0
  6
ByBlock
 48
10.0
100
AcDbLine
 10
157.403782
 20
249.152017
 30
0.0
 11
157.403782
 21
277.522092
 31
0.0
  0
LINE
  5
2E9
330
2E7
100
AcDbEntity
  8
0
  6
ByBlock
 48
10.0
100
AcDbLine
 10
227.403782
 20
249.152017
 30
0.0
 11
227.403782
 21
277.522092
 31
0.0
  0
LINE
  5
2EA
330
2E7
100
AcDbEntity
  8
0
  6
ByBlock
 48
10.0
100
AcDbLine
 10
161.403782
 20
274.522092
 30
0.0
 11
223.403782
 21
274.522092
 31
0.0
  0
INSERT
  5
2EB
330
2E7
100
AcDbEntity
  8
0
  6
ByBlock
 48
10.0
100
AcDbBlockReference
  2
_OPEN
 10
157.403782
 20
274.522092
 30
0.0
 41
4.0
 42
4.0
 43
4.0
 50
180.0
  0
INSERT
  5
2EC
330
2E7
100
AcDbEntity
  8
0
  6
ByBlock
 48
10.0
100
AcDbBlockReference
  2
_OPEN
 10
227.403782
 20
274.522092
 30
0.0
 41
4.0
 42
4.0
 43
4.0
  0
MTEXT
  5
2ED
330
2E7
100
AcDbEntity
  8
0
  6
ByBlock
 48
10.0
100
AcDbMText
 10
192.403782
 20
281.188758
 30
0.0
 40
6.0
 41
0.0
 71
     5
 72
     1
  1
\A1;取付寸法70{\H4.000000;\S+2^ -0;}
  7
DIMENSION
 73
     1
 44
1.0
1001
ACAD
1000
MTEXTBEGIN
1070
    73
1070
     1
1070
    44
1040
1.0
1070
    74
1070
     0
1000
MTEXTEND
  0
POINT
  5
2EE
330
2E7
100
AcDbEntity
  8
DEFPOINTS
  6
ByBlock
 62
     0
 48
10.0
100
AcDbPoint
 10
157.403782
 20
247.152017
 30
0.0
  0
POINT
  5
2EF
330
2E7
100
AcDbEntity
  8
DEFPOINTS
  6
ByBlock
 62
     0
 48
10.0
100
AcDbPoint
 10
227.403782
 20
247.152017
 30
0.0
  0
POINT
  5
2F0
330
2E7
100
AcDbEntity
  8
DEFPOINTS
  6
ByBlock
 62
     0
 48
10.0
100
AcDbPoint
 10
227.403782
 20
274.522092
 30
0.0
  0
ENDBLK
  5
2F2
330
2E7
100
AcDbEntity
  8
0
 48
10.0
100
AcDbBlockEnd
  0
BLOCK
  5
2FD
330
2F3
100
AcDbEntity
  8
0
 48
10.0
100
AcDbBlockBegin
  2
*D16
 70
     1
 10
0.0
 20
0.0
 30
0.0
  3
*D16
  1

  0
LINE
  5
2F4
330
2F3
100
AcDbEntity
  8
0
  6
ByBlock
 48
10.0
100
AcDbLine
 10
149.903782
 20
261.318507
 30
0.0
 11
149.903782
 21
290.5302680000001
 31
0.0
  0
LINE
  5
2F5
330
2F3
100
AcDbEntity
  8
0
  6
ByBlock
 48
10.0
100
AcDbLine
 10
234.903782
 20
261.318507
 30
0.0
 11
234.903782
 21
290.5302680000001
 31
0.0
  0
LINE
  5
2F6
330
2F3
100
AcDbEntity
  8
0
  6
ByBlock
 48
10.0
100
AcDbLine
 10
153.903782
 20
287.530268
 30
0.0
 11
230.903782
 21
287.530268
 31
0.0
  0
INSERT
  5
2F7
330
2F3
100
AcDbEntity
  8
0
  6
ByBlock
 48
10.0
100
AcDbBlockReference
  2
_OPEN
 10
149.903782
 20
287.530268
 30
0.0
 41
4.0
 42
4.0
 43
4.0
 50
180.0
  0
INSERT
  5
2F8
330
2F3
100
AcDbEntity
  8
0
  6
ByBlock
 48
10.0
100
AcDbBlockReference
  2
_OPEN
 10
234.903782
 20
287.530268
 30
0.0
 41
4.0
 42
4.0
 43
4.0
  0
MTEXT
  5
2F9
330
2F3
100
AcDbEntity
  8
0
  6
ByBlock
 48
10.0
100
AcDbMText
 10
192.403782
 20
292.5302680000001
 30
0.0
 40
6.0
 41
0.0
 71
     5
 72
     1
  1
\A1;85
 73
     1
 44
1.0
1001
ACAD
1000
MTEXTBEGIN
1070
    73
1070
     1
1070
    44
1040
1.0
1070
    74
1070
     0
1000
MTEXTEND
  0
POINT
  5
2FA
330
2F3
100
AcDbEntity
  8
DEFPOINTS
  6
ByBlock
 62
     0
 48
10.0
100
AcDbPoint
 10
149.903782
 20
259.318507
 30
0.0
  0
POINT
  5
2FB
330
2F3
100
AcDbEntity
  8
DEFPOINTS
  6
ByBlock
 62
     0
 48
10.0
100
AcDbPoint
 10
234.903782
 20
259.318507
 30
0.0
  0
POINT
  5
2FC
330
2F3
100
AcDbEntity
  8
DEFPOINTS
  6
ByBlock
 62
     0
 48
10.0
100
AcDbPoint
 10
234.903782
 20
287.530268
 30
0.0
  0
ENDBLK
  5
2FE
330
2F3
100
AcDbEntity
  8
0
 48
10.0
100
AcDbBlockEnd
  0
BLOCK
  5
309
330
2FF
100
AcDbEntity
  8
0
 48
10.0
100
AcDbBlockBegin
  2
*D17
 70
     1
 10
0.0
 20
0.0
 30
0.0
  3
*D17
  1

  0
LINE
  5
300
330
2FF
100
AcDbEntity
  8
0
  6
ByBlock
 48
10.0
100
AcDbLine
 10
354.351754
 20
423.3364739999999
 30
0.0
 11
354.351754
 21
449.6290259999999
 31
0.0
  0
LINE
  5
301
330
2FF
100
AcDbEntity
  8
0
  6
ByBlock
 48
10.0
100
AcDbLine
 10
409.351754
 20
423.3364739999999
 30
0.0
 11
409.351754
 21
449.6290259999999
 31
0.0
  0
LINE
  5
302
330
2FF
100
AcDbEntity
  8
0
  6
ByBlock
 48
10.0
100
AcDbLine
 10
358.351754
 20
446.629026
 30
0.0
 11
405.351754
 21
446.629026
 31
0.0
  0
INSERT
  5
303
330
2FF
100
AcDbEntity
  8
0
  6
ByBlock
 48
10.0
100
AcDbBlockReference
  2
_OPEN
 10
354.351754
 20
446.629026
 30
0.0
 41
4.0
 42
4.0
 43
4.0
 50
180.0
  0
INSERT
  5
304
330
2FF
100
AcDbEntity
  8
0
  6
ByBlock
 48
10.0
100
AcDbBlockReference
  2
_OPEN
 10
409.351754
 20
446.629026
 30
0.0
 41
4.0
 42
4.0
 43
4.0
  0
MTEXT
  5
305
330
2FF
100
AcDbEntity
  8
0
  6
ByBlock
 48
10.0
100
AcDbMText
 10
381.851754
 20
451.6290259999999
 30
0.0
 40
6.0
 41
0.0
 71
     5
 72
     1
  1
\A1;55
 73
     1
 44
1.0
1001
ACAD
1000
MTEXTBEGIN
1070
    73
1070
     1
1070
    44
1040
1.0
1070
    74
1070
     0
1000
MTEXTEND
  0
POINT
  5
306
330
2FF
100
AcDbEntity
  8
DEFPOINTS
  6
ByBlock
 62
     0
 48
10.0
100
AcDbPoint
 10
354.351754
 20
421.336474
 30
0.0
  0
POINT
  5
307
330
2FF
100
AcDbEntity
  8
DEFPOINTS
  6
ByBlock
 62
     0
 48
10.0
100
AcDbPoint
 10
409.351754
 20
421.336474
 30
0.0
  0
POINT
  5
308
330
2FF
100
AcDbEntity
  8
DEFPOINTS
  6
ByBlock
 62
     0
 48
10.0
100
AcDbPoint
 10
409.351754
 20
446.629026
 30
0.0
  0
ENDBLK
  5
30A
330
2FF
100
AcDbEntity
  8
0
 48
10.0
100
AcDbBlockEnd
  0
BLOCK
  5
315
330
30B
100
AcDbEntity
  8
0
 48
10.0
100
AcDbBlockBegin
  2
*D18
 70
     1
 10
0.0
 20
0.0
 30
0.0
  3
*D18
  1

  0
LINE
  5
30C
330
30B
100
AcDbEntity
  8
0
  6
ByBlock
 48
10.0
100
AcDbLine
 10
157.403782
 20
393.336474
 30
0.0
 11
157.403782
 21
469.0374709999999
 31
0.0
  0
LINE
  5
30D
330
30B
100
AcDbEntity
  8
0
  6
ByBlock
 48
10.0
100
AcDbLine
 10
227.403782
 20
418.660893
 30
0.0
 11
227.403782
 21
469.0374709999999
 31
0.0
  0
LINE
  5
30E
330
30B
100
AcDbEntity
  8
0
  6
ByBlock
 48
10.0
100
AcDbLine
 10
161.403782
 20
466.037471
 30
0.0
 11
223.403782
 21
466.037471
 31
0.0
  0
INSERT
  5
30F
330
30B
100
AcDbEntity
  8
0
  6
ByBlock
 48
10.0
100
AcDbBlockReference
  2
_OPEN
 10
157.403782
 20
466.037471
 30
0.0
 41
4.0
 42
4.0
 43
4.0
 50
180.0
  0
INSERT
  5
310
330
30B
100
AcDbEntity
  8
0
  6
ByBlock
 48
10.0
100
AcDbBlockReference
  2
_OPEN
 10
227.403782
 20
466.037471
 30
0.0
 41
4.0
 42
4.0
 43
4.0
  0
MTEXT
  5
311
102
{ACAD_XDICTIONARY
360
CA4
102
}
330
30B
100
AcDbEntity
  8
0
  6
ByBlock
 48
10.0
100
AcDbMText
 10
192.403782
 20
471.0374709999999
 30
0.0
 40
6.0
 41
0.0
 71
     5
 72
     1
  1
\A1;\U+220570\U+00B11
  7
DIMENSION
 73
     1
 44
1.0
1001
ACAD
1000
MTEXTBEGIN
1070
    73
1070
     1
1070
    44
1040
1.0
1070
    74
1070
     0
1000
MTEXTEND
  0
POINT
  5
312
330
30B
100
AcDbEntity
  8
DEFPOINTS
  6
ByBlock
 62
     0
 48
10.0
100
AcDbPoint
 10
157.403782
 20
391.336474
 30
0.0
  0
POINT
  5
313
330
30B
100
AcDbEntity
  8
DEFPOINTS
  6
ByBlock
 62
     0
 48
10.0
100
AcDbPoint
 10
227.403782
 20
416.660893
 30
0.0
  0
POINT
  5
314
330
30B
100
AcDbEntity
  8
DEFPOINTS
  6
ByBlock
 62
     0
 48
10.0
100
AcDbPoint
 10
227.403782
 20
466.037471
 30
0.0
  0
ENDBLK
  5
316
330
30B
100
AcDbEntity
  8
0
 48
10.0
100
AcDbBlockEnd
  0
BLOCK
  5
321
330
317
100
AcDbEntity
  8
0
 48
10.0
100
AcDbBlockBegin
  2
*D19
 70
     1
 10
0.0
 20
0.0
 30
0.0
  3
*D19
  1

  0
LINE
  5
318
330
317
100
AcDbEntity
  8
0
  6
ByBlock
 48
10.0
100
AcDbLine
 10
236.903782
 20
349.336474
 30
0.0
 11
248.536868
 21
349.336474
 31
0.0
  0
LINE
  5
319
330
317
100
AcDbEntity
  8
0
  6
ByBlock
 48
10.0
100
AcDbLine
 10
237.176272
 20
391.336474
 30
0.0
 11
248.536868
 21
391.336474
 31
0.0
  0
LINE
  5
31A
330
317
100
AcDbEntity
  8
0
  6
ByBlock
 48
10.0
100
AcDbLine
 10
245.536868
 20
353.336474
 30
0.0
 11
245.536868
 21
387.336474
 31
0.0
  0
INSERT
  5
31B
330
317
100
AcDbEntity
  8
0
  6
ByBlock
 48
10.0
100
AcDbBlockReference
  2
_OPEN
 10
245.536868
 20
349.336474
 30
0.0
 41
4.0
 42
4.0
 43
4.0
 50
270.0
  0
INSERT
  5
31C
330
317
100
AcDbEntity
  8
0
  6
ByBlock
 48
10.0
100
AcDbBlockReference
  2
_OPEN
 10
245.536868
 20
391.336474
 30
0.0
 41
4.0
 42
4.0
 43
4.0
 50
90.0
  0
MTEXT
  5
31D
330
317
100
AcDbEntity
  8
0
  6
ByBlock
 48
10.0
100
AcDbMText
 10
240.536868
 20
370.336474
 30
0.0
 40
6.0
 41
0.0
 71
     5
 72
     1
  1
\A1;42\U+00B11
  7
DIMENSION
 11
0.0
 21
1.0
 31
0.0
 73
     1
 44
1.0
1001
ACAD
1000
MTEXTBEGIN
1070
    73
1070
     1
1070
    44
1040
1.0
1070
    74
1070
     0
1000
MTEXTEND
  0
POINT
  5
31E
330
317
100
AcDbEntity
  8
DEFPOINTS
  6
ByBlock
 62
     0
 48
10.0
100
AcDbPoint
 10
234.903782
 20
349.336474
 30
0.0
  0
POINT
  5
31F
330
317
100
AcDbEntity
  8
DEFPOINTS
  6
ByBlock
 62
     0
 48
10.0
100
AcDbPoint
 10
235.176272
 20
391.336474
 30
0.0
  0
POINT
  5
320
330
317
100
AcDbEntity
  8
DEFPOINTS
  6
ByBlock
 62
     0
 48
10.0
100
AcDbPoint
 10
245.536868
 20
391.336474
 30
0.0
  0
ENDBLK
  5
322
330
317
100
AcDbEntity
  8
0
 48
10.0
100
AcDbBlockEnd
  0
BLOCK
  5
32D
330
323
100
AcDbEntity
  8
0
 48
10.0
100
AcDbBlockBegin
  2
*D20
 70
     1
 10
0.0
 20
0.0
 30
0.0
  3
*D20
  1

  0
LINE
  5
324
330
323
100
AcDbEntity
  8
0
  6
ByBlock
 48
10.0
100
AcDbLine
 10
231.831796
 20
426.336474
 30
0.0
 11
265.622695
 21
426.336474
 31
0.0
  0
LINE
  5
325
330
323
100
AcDbEntity
  8
0
  6
ByBlock
 48
10.0
100
AcDbLine
 10
249.786868
 20
349.336474
 30
0.0
 11
265.622695
 21
349.336474
 31
0.0
  0
LINE
  5
326
330
323
100
AcDbEntity
  8
0
  6
ByBlock
 48
10.0
100
AcDbLine
 10
262.622695
 20
422.336474
 30
0.0
 11
262.622695
 21
353.336474
 31
0.0
  0
INSERT
  5
327
330
323
100
AcDbEntity
  8
0
  6
ByBlock
 48
10.0
100
AcDbBlockReference
  2
_OPEN
 10
262.622695
 20
426.336474
 30
0.0
 41
4.0
 42
4.0
 43
4.0
 50
90.0
  0
INSERT
  5
328
330
323
100
AcDbEntity
  8
0
  6
ByBlock
 48
10.0
100
AcDbBlockReference
  2
_OPEN
 10
262.622695
 20
349.336474
 30
0.0
 41
4.0
 42
4.0
 43
4.0
 50
270.0
  0
MTEXT
  5
329
330
323
100
AcDbEntity
  8
0
  6
ByBlock
 48
10.0
100
AcDbMText
 10
257.622695
 20
387.836474
 30
0.0
 40
6.0
 41
0.0
 71
     5
 72
     1
  1
\A1;77\U+00B11
  7
DIMENSION
 11
0.0
 21
1.0
 31
0.0
 73
     1
 44
1.0
1001
ACAD
1000
MTEXTBEGIN
1070
    73
1070
     1
1070
    44
1040
1.0
1070
    74
1070
     0
1000
MTEXTEND
  0
POINT
  5
32A
330
323
100
AcDbEntity
  8
DEFPOINTS
  6
ByBlock
 62
     0
 48
10.0
100
AcDbPoint
 10
229.831796
 20
426.336474
 30
0.0
  0
POINT
  5
32B
330
323
100
AcDbEntity
  8
DEFPOINTS
  6
ByBlock
 62
     0
 48
10.0
100
AcDbPoint
 10
247.786868
 20
349.336474
 30
0.0
  0
POINT
  5
32C
330
323
100
AcDbEntity
  8
DEFPOINTS
  6
ByBlock
 62
     0
 48
10.0
100
AcDbPoint
 10
262.622695
 20
349.336474
 30
0.0
  0
ENDBLK
  5
32E
330
323
100
AcDbEntity
  8
0
 48
10.0
100
AcDbBlockEnd
  0
BLOCK
  5
339
330
32F
100
AcDbEntity
  8
0
 48
10.0
100
AcDbBlockBegin
  2
*D21
 70
     1
 10
0.0
 20
0.0
 30
0.0
  3
*D21
  1

  0
LINE
  5
330
330
32F
100
AcDbEntity
  8
0
  6
ByBlock
 48
10.0
100
AcDbLine
 10
176.403782
 20
389.336474
 30
0.0
 11
176.403782
 21
357.364291
 31
0.0
  0
LINE
  5
331
330
32F
100
AcDbEntity
  8
0
  6
ByBlock
 48
10.0
100
AcDbLine
 10
208.403782
 20
389.336474
 30
0.0
 11
208.403782
 21
357.364291
 31
0.0
  0
LINE
  5
332
330
32F
100
AcDbEntity
  8
0
  6
ByBlock
 48
10.0
100
AcDbLine
 10
180.403782
 20
360.364291
 30
0.0
 11
204.403782
 21
360.364291
 31
0.0
  0
INSERT
  5
333
330
32F
100
AcDbEntity
  8
0
  6
ByBlock
 48
10.0
100
AcDbBlockReference
  2
_OPEN
 10
176.403782
 20
360.364291
 30
0.0
 41
4.0
 42
4.0
 43
4.0
 50
180.0
  0
INSERT
  5
334
330
32F
100
AcDbEntity
  8
0
  6
ByBlock
 48
10.0
100
AcDbBlockReference
  2
_OPEN
 10
208.403782
 20
360.364291
 30
0.0
 41
4.0
 42
4.0
 43
4.0
  0
MTEXT
  5
335
102
{ACAD_XDICTIONARY
360
CA6
102
}
330
32F
100
AcDbEntity
  8
0
  6
ByBlock
 48
10.0
100
AcDbMText
 10
192.403782
 20
365.364291
 30
0.0
 40
6.0
 41
0.0
 71
     5
 72
     1
  1
\A1;\A1;\U+220532{\H2.25;\S+2^ -0.3;}
 73
     1
 44
1.0
1001
ACAD
1000
MTEXTBEGIN
1070
    73
1070
     1
1070
    44
1040
1.0
1070
    74
1070
     0
1000
MTEXTEND
  0
POINT
  5
336
330
32F
100
AcDbEntity
  8
DEFPOINTS
  6
ByBlock
 62
     0
 48
10.0
100
AcDbPoint
 10
176.403782
 20
391.336474
 30
0.0
  0
POINT
  5
337
330
32F
100
AcDbEntity
  8
DEFPOINTS
  6
ByBlock
 62
     0
 48
10.0
100
AcDbPoint
 10
208.403782
 20
391.336474
 30
0.0
  0
POINT
  5
338
330
32F
100
AcDbEntity
  8
DEFPOINTS
  6
ByBlock
 62
     0
 48
10.0
100
AcDbPoint
 10
208.403782
 20
360.364291
 30
0.0
  0
ENDBLK
  5
33A
330
32F
100
AcDbEntity
  8
0
 48
10.0
100
AcDbBlockEnd
  0
BLOCK
  5
3FA
330
33B
100
AcDbEntity
  8
0
100
AcDbBlockBegin
  2
A$C0FB72336
 70
     0
 10
0.0
 20
0.0
 30
0.0
  3
A$C0FB72336
  1

  0
DIMENSION
  5
33C
330
33B
100
AcDbEntity
  8
SCALE
 48
10.0
100
AcDbDimension
  2
*D21
 10
58.50000099999999
 20
157.045785
 30
0.0
 11
42.500001
 21
162.045785
 31
0.0
 12
-149.90378
 22
-203.318506
 32
0.0
  1
\A1;%%c<>{\H2.25;\S+2^ -0.3;}
 71
     5
 42
-1.0
  3
STANDARD
100
AcDbAlignedDimension
 13
26.500001
 23
188.017968
 33
0.0
 14
58.50000099999999
 24
188.017968
 34
0.0
100
AcDbRotatedDimension
1001
ACAD
1000
DSTYLE
1002
{
1070
    47
1040
2.0
1070
    48
1040
0.3
1070
   174
1070
     1
1070
   146
1040
0.5
1070
   287
1070
     2
1002
}
  0
CIRCLE
  5
33D
330
33B
100
AcDbEntity
  8
0
 48
10.0
100
AcDbCircle
 10
42.500001
 20
188.017968
 30
0.0
 40
16.0
  0
LINE
  5
33E
330
33B
100
AcDbEntity
  8
0
 48
10.0
100
AcDbLine
 10
259.4479740000001
 20
156.017968
 30
0.0
 11
259.4479740000001
 21
151.317968
 31
0.0
  0
ARC
  5
33F
330
33B
100
AcDbEntity
  8
0
 48
10.0
100
AcDbCircle
 10
256.447974
 20
220.017968
 30
0.0
 40
3.0
100
AcDbArc
 50
0.0
 51
90.0
  0
ARC
  5
340
330
33B
100
AcDbEntity
  8
0
 48
10.0
100
AcDbCircle
 10
42.500001
 20
188.017968
 30
0.0
 40
35.0
100
AcDbArc
 50
90.0
 51
218.213211
  0
DIMENSION
  5
341
330
33B
100
AcDbEntity
  8
SCALE
 48
10.0
100
AcDbDimension
  2
*D20
 10
112.718914
 20
146.017968
 30
0.0
 11
107.7189139999999
 21
184.517968
 31
0.0
 12
-149.90378
 22
-203.318506
 32
0.0
 71
     5
 42
-1.0
  3
STANDARD
100
AcDbAlignedDimension
 13
79.92801599999999
 23
223.017968
 33
0.0
 14
97.88308800000001
 24
146.017968
 34
0.0
 50
90.0
100
AcDbRotatedDimension
1001
ACAD
1000
DSTYLE
1002
{
1070
   340
1005
D1
1070
    47
1040
1.0
1070
    71
1070
     1
1070
    48
1040
1.0
1070
   174
1070
     1
1070
   287
1070
     2
1002
}
  0
DIMENSION
  5
342
330
33B
100
AcDbEntity
  8
SCALE
 48
10.0
100
AcDbDimension
  2
*D19
 10
95.63308799999999
 20
188.017968
 30
0.0
 11
90.63308799999999
 21
167.017968
 31
0.0
 12
-149.90378
 22
-203.318506
 32
0.0
 71
     5
 42
-1.0
  3
STANDARD
100
AcDbAlignedDimension
 13
85.00000099999999
 23
146.017968
 33
0.0
 14
85.27249199999999
 24
188.017968
 34
0.0
 50
90.0
100
AcDbRotatedDimension
1001
ACAD
1000
DSTYLE
1002
{
1070
   340
1005
D1
1070
    47
1040
1.0
1070
    71
1070
     1
1070
    48
1040
1.0
1070
   174
1070
     1
1070
   287
1070
     2
1002
}
  0
DIMENSION
  5
343
330
33B
100
AcDbEntity
  8
SCALE
 48
10.0
100
AcDbDimension
  2
*D18
 10
77.500001
 20
262.718965
 30
0.0
 11
42.500001
 21
267.718965
 31
0.0
 12
-149.90378
 22
-203.318506
 32
0.0
  1
%%c<>
 71
     5
 42
-1.0
  3
STANDARD
100
AcDbAlignedDimension
 13
7.500000999999999
 23
188.017968
 33
0.0
 14
77.500001
 24
213.342388
 34
0.0
100
AcDbRotatedDimension
1001
ACAD
1000
DSTYLE
1002
{
1070
   340
1005
D1
1070
    47
1040
1.0
1070
    71
1070
     1
1070
    48
1040
1.0
1070
   174
1070
     1
1070
   287
1070
     2
1002
}
  0
LINE
  5
344
330
33B
100
AcDbEntity
  8
0
 48
10.0
100
AcDbLine
 10
42.500001
 20
223.017968
 30
0.0
 11
65.396406
 21
223.017968
 31
0.0
  0
LINE
  5
345
330
33B
100
AcDbEntity
  8
0
 48
10.0
100
AcDbLine
 10
77.500001
 20
188.017968
 30
0.0
 11
77.500001
 21
210.914373
 31
0.0
  0
ARC
  5
346
330
33B
100
AcDbEntity
  8
0
 48
10.0
100
AcDbCircle
 10
42.500001
 20
188.017968
 30
0.0
 40
35.9
100
AcDbArc
 50
90.0
 51
112.276911
  0
ARC
  5
347
330
33B
100
AcDbEntity
  8
0
 48
10.0
100
AcDbCircle
 10
42.500001
 20
188.017968
 30
0.0
 40
35.0
100
AcDbArc
 50
321.786789
 51
360.0
  0
DIMENSION
  5
348
330
33B
100
AcDbEntity
  8
SCALE
 48
10.0
100
AcDbDimension
  2
*D17
 10
259.4479740000001
 20
243.31052
 30
0.0
 11
231.947974
 21
248.31052
 31
0.0
 12
-149.90378
 22
-203.318506
 32
0.0
 71
     5
 42
-1.0
  3
STANDARD
100
AcDbAlignedDimension
 13
204.447974
 23
218.017968
 33
0.0
 14
259.4479740000001
 24
218.017968
 34
0.0
100
AcDbRotatedDimension
1001
ACAD
1000
DSTYLE
1002
{
1070
   174
1070
     1
1070
   287
1070
     2
1002
}
  0
ARC
  5
349
330
33B
100
AcDbEntity
  8
0
 48
10.0
100
AcDbCircle
 10
256.447974
 20
151.317968
 30
0.0
 40
3.0
100
AcDbArc
 50
270.0
 51
0.0
  0
LINE
  5
34A
330
33B
100
AcDbEntity
  8
0
 48
10.0
100
AcDbLine
 10
259.4479740000001
 20
148.317968
 30
0.0
 11
259.4479740000001
 21
146.017968
 31
0.0
  0
LINE
  5
34B
330
33B
100
AcDbEntity
  8
0
 48
10.0
100
AcDbLine
 10
204.447974
 20
148.317968
 30
0.0
 11
204.447974
 21
146.017968
 31
0.0
  0
DIMENSION
  5
34C
330
33B
100
AcDbEntity
  8
SCALE
 48
10.0
100
AcDbDimension
  2
*D16
 10
85.00000099999999
 20
84.21176199999999
 30
0.0
 11
42.500001
 21
89.21176199999999
 31
0.0
 12
-149.90378
 22
-203.318506
 32
0.0
 71
     5
 42
-1.0
  3
STANDARD
100
AcDbAlignedDimension
 13
0.000001
 23
56.00000099999999
 33
0.0
 14
85.00000099999999
 24
56.00000099999999
 34
0.0
100
AcDbRotatedDimension
1001
ACAD
1000
DSTYLE
1002
{
1070
    74
1070
     1
1070
   174
1070
     1
1070
   287
1070
     0
1002
}
  0
DIMENSION
  5
34D
330
33B
100
AcDbEntity
  8
SCALE
 48
10.0
100
AcDbDimension
  2
*D15
 10
77.500001
 20
71.203586
 30
0.0
 11
42.500001
 21
77.87025200000001
 31
0.0
 12
-149.90378
 22
-203.318506
 32
0.0
  1
取付寸法<>
 71
     5
 42
-1.0
  3
STANDARD
100
AcDbAlignedDimension
 13
7.500000999999999
 23
43.833511
 33
0.0
 14
77.500001
 24
43.833511
 34
0.0
100
AcDbRotatedDimension
1001
ACAD
1000
DSTYLE
1002
{
1070
   340
1005
D1
1070
    47
1040
2.0
1070
    71
1070
     1
1070
    74
1070
     1
1070
   174
1070
     1
1070
   146
1040
0.666667
1070
   287
1070
     0
1002
}
  0
LINE
  5
34E
330
33B
100
AcDbEntity
  8
0
 48
10.0
100
AcDbLine
 10
0.000001
 20
146.017968
 30
0.0
 11
0.000001
 21
148.317968
 31
0.0
  0
LINE
  5
34F
330
33B
100
AcDbEntity
  8
0
 48
10.0
100
AcDbLine
 10
85.00000099999999
 20
146.017968
 30
0.0
 11
85.00000099999999
 21
148.317968
 31
0.0
  0
LINE
  5
350
330
33B
100
AcDbEntity
  8
0
 48
10.0
100
AcDbLine
 10
42.500001
 20
223.917968
 30
0.0
 11
63.625398
 21
223.917968
 31
0.0
  0
DIMENSION
  5
351
330
33B
100
AcDbEntity
  8
SCALE
 48
10.0
100
AcDbDimension
  2
*D14
 10
112.312387
 20
6.000001
 30
0.0
 11
112.312387
 21
33.939932
 31
0.0
 12
-149.90378
 22
-203.318506
 32
0.0
 70
   128
 71
     5
 42
-1.0
  3
STANDARD
100
AcDbAlignedDimension
 13
84.68483499999999
 23
61.00000099999999
 33
0.0
 14
84.68483499999999
 24
6.000001
 34
0.0
 50
90.0
100
AcDbRotatedDimension
1001
ACAD
1000
DSTYLE
1002
{
1070
   288
1070
     1
1070
    74
1070
     1
1070
   174
1070
     1
1070
   287
1070
     0
1002
}
  0
LINE
  5
352
330
33B
100
AcDbEntity
  8
0
 48
10.0
100
AcDbLine
 10
259.4479740000001
 20
156.017968
 30
0.0
 11
259.4479740000001
 21
220.017968
 31
0.0
  0
TEXT
  5
353
330
33B
100
AcDbEntity
  8
1
 48
10.0
100
AcDbText
 10
92.152811
 20
231.053342
 30
0.0
 40
4.5
  1
2-M5
  7
SMP-SET
100
AcDbText
  0
LINE
  5
354
330
33B
100
AcDbEntity
  8
0
 48
10.0
100
AcDbLine
 10
241.046944
 20
223.017968
 30
0.0
 11
256.447974
 21
223.017968
 31
0.0
  0
LINE
  5
355
330
33B
100
AcDbEntity
  8
0
 48
10.0
100
AcDbLine
 10
216.046944
 20
223.017968
 30
0.0
 11
237.51266
 21
223.017968
 31
0.0
  0
LINE
  5
356
330
33B
100
AcDbEntity
  8
0
 48
10.0
100
AcDbLine
 10
243.779802
 20
217.54488
 30
0.0
 11
243.779802
 21
219.666201
 31
0.0
  0
LINE
  5
357
330
33B
100
AcDbEntity
  8
0
 48
10.0
100
AcDbLine
 10
241.779802
 20
220.647572
 30
0.0
 11
239.529802
 21
220.647572
 31
0.0
  0
LINE
  5
358
330
33B
100
AcDbEntity
  8
0
 48
10.0
100
AcDbLine
 10
239.529802
 20
220.947572
 30
0.0
 11
241.779802
 21
220.947572
 31
0.0
  0
LINE
  5
359
330
33B
100
AcDbEntity
  8
0
 48
10.0
100
AcDbLine
 10
239.029802
 20
219.029805
 30
0.0
 11
239.029802
 21
220.647572
 31
0.0
  0
LINE
  5
35A
330
33B
100
AcDbEntity
  8
0
 48
10.0
100
AcDbLine
 10
239.529802
 20
220.647572
 30
0.0
 11
239.529802
 21
219.029805
 31
0.0
  0
LINE
  5
35B
330
33B
100
AcDbEntity
  8
0
 48
10.0
100
AcDbLine
 10
239.529802
 20
219.029805
 30
0.0
 11
239.029802
 21
219.029805
 31
0.0
  0
LINE
  5
35C
330
33B
100
AcDbEntity
  8
0
 48
10.0
100
AcDbLine
 10
239.029802
 20
222.565338
 30
0.0
 11
239.529802
 21
222.565338
 31
0.0
  0
LINE
  5
35D
330
33B
100
AcDbEntity
  8
0
 48
10.0
100
AcDbLine
 10
239.029802
 20
220.947572
 30
0.0
 11
239.029802
 21
222.565338
 31
0.0
  0
LINE
  5
35E
330
33B
100
AcDbEntity
  8
0
 48
10.0
100
AcDbLine
 10
239.529802
 20
222.565338
 30
0.0
 11
239.529802
 21
220.947572
 31
0.0
  0
LINE
  5
35F
330
33B
100
AcDbEntity
  8
0
 48
10.0
100
AcDbLine
 10
243.636908
 20
220.461696
 30
0.0
 11
242.883845
 21
221.655504
 31
0.0
  0
ELLIPSE
  5
360
330
33B
100
AcDbEntity
  8
0
 48
10.0
100
AcDbEllipse
 10
239.279802
 20
219.666201
 30
0.0
 11
4.5
 21
0.0
 31
0.0
210
0.0
220
0.0
230
1.0
 40
0.7071069999999999
 41
0.5864457446137627
 42
0.6002567364894062
  0
LINE
  5
361
330
33B
100
AcDbEntity
  8
0
 48
10.0
100
AcDbLine
 10
241.779802
 20
220.947572
 30
0.0
 11
241.779802
 21
220.647572
 31
0.0
  0
ELLIPSE
  5
362
330
33B
100
AcDbEntity
  8
0
 48
10.0
100
AcDbEllipse
 10
239.279802
 20
219.666201
 30
0.0
 11
4.5
 21
0.0
 31
0.0
210
0.0
220
0.0
230
1.0
 40
0.7071069999999999
 41
0.0
 42
0.2526802526318922
  0
ELLIPSE
  5
363
330
33B
100
AcDbEntity
  8
0
 48
10.0
100
AcDbEllipse
 10
239.279802
 20
219.666201
 30
0.0
 11
4.5
 21
0.0
 31
0.0
210
0.0
220
0.0
230
1.0
 40
0.7071069999999999
 41
2.888912400958298
 42
3.141592653589792
  0
LINE
  5
364
330
33B
100
AcDbEntity
  8
0
 48
10.0
100
AcDbLine
 10
234.779802
 20
217.54488
 30
0.0
 11
234.779802
 21
219.666201
 31
0.0
  0
LINE
  5
365
330
33B
100
AcDbEntity
  8
0
 48
10.0
100
AcDbLine
 10
236.779802
 20
220.647572
 30
0.0
 11
236.779802
 21
220.947572
 31
0.0
  0
ELLIPSE
  5
366
330
33B
100
AcDbEntity
  8
0
 48
10.0
100
AcDbEllipse
 10
239.279802
 20
219.666201
 30
0.0
 11
4.5
 21
0.0
 31
0.0
210
0.0
220
0.0
230
1.0
 40
0.7071069999999999
 41
2.541335917100336
 42
2.555146908976414
  0
LINE
  5
367
330
33B
100
AcDbEntity
  8
0
 48
10.0
100
AcDbLine
 10
234.922696
 20
220.461696
 30
0.0
 11
235.675759
 21
221.655504
 31
0.0
  0
ELLIPSE
  5
368
330
33B
100
AcDbEntity
  8
0
 48
10.0
100
AcDbEllipse
 10
239.279802
 20
217.54488
 30
0.0
 11
6.0
 21
0.0
 31
0.0
210
0.0
220
0.0
230
1.0
 40
0.7071070000000001
 41
2.383551888848217
 42
7.041226071921161
  0
ELLIPSE
  5
369
330
33B
100
AcDbEntity
  8
0
 48
10.0
100
AcDbEllipse
 10
239.279802
 20
218.464119
 30
0.0
 11
4.5
 21
0.0
 31
0.0
210
0.0
220
0.0
230
1.0
 40
0.7071069999999999
 41
3.141592653589792
 42
6.283185307179585
  0
ELLIPSE
  5
36A
330
33B
100
AcDbEntity
  8
0
 48
10.0
100
AcDbEllipse
 10
239.279802
 20
217.54488
 30
0.0
 11
4.5
 21
0.0
 31
0.0
210
0.0
220
0.0
230
1.0
 40
0.7071069999999999
 41
3.141592653589792
 42
6.283185307179585
  0
ELLIPSE
  5
36B
330
33B
100
AcDbEntity
  8
0
 48
10.0
100
AcDbEllipse
 10
239.279802
 20
217.191327
 30
0.0
 11
6.0
 21
0.0
 31
0.0
210
0.0
220
0.0
230
1.0
 40
0.7071070000000001
 41
3.099913921265481
 42
6.324864039503895
  0
ELLIPSE
  5
36C
330
33B
100
AcDbEntity
  8
0
 48
10.0
100
AcDbEllipse
 10
239.279802
 20
216.837774
 30
0.0
 11
6.0
 21
0.0
 31
0.0
210
0.0
220
0.0
230
1.0
 40
0.7071070000000001
 41
3.058162567176281
 42
6.366615393593098
  0
ELLIPSE
  5
36D
330
33B
100
AcDbEntity
  8
0
 48
10.0
100
AcDbEllipse
 10
239.279802
 20
220.505988
 30
0.0
 11
3.949999999999987
 21
0.0
 31
0.0
210
0.0
220
0.0
230
0.9999999999999998
 40
0.711073
 41
0.0
 42
6.283185307179585
  0
LINE
  5
36E
330
33B
100
AcDbEntity
  8
0
 48
10.0
100
AcDbLine
 10
236.779802
 20
220.947572
 30
0.0
 11
239.029802
 21
220.947572
 31
0.0
  0
LINE
  5
36F
330
33B
100
AcDbEntity
  8
0
 48
10.0
100
AcDbLine
 10
239.029802
 20
220.647572
 30
0.0
 11
236.779802
 21
220.647572
 31
0.0
  0
LINE
  5
370
330
33B
100
AcDbEntity
  8
0
 48
10.0
100
AcDbLine
 10
218.779802
 20
217.54488
 30
0.0
 11
218.779802
 21
219.666201
 31
0.0
  0
LINE
  5
371
330
33B
100
AcDbEntity
  8
0
 48
10.0
100
AcDbLine
 10
216.779802
 20
220.647572
 30
0.0
 11
214.529802
 21
220.647572
 31
0.0
  0
LINE
  5
372
330
33B
100
AcDbEntity
  8
0
 48
10.0
100
AcDbLine
 10
214.529802
 20
220.947572
 30
0.0
 11
216.779802
 21
220.947572
 31
0.0
  0
LINE
  5
373
330
33B
100
AcDbEntity
  8
0
 48
10.0
100
AcDbLine
 10
214.029802
 20
219.029805
 30
0.0
 11
214.029802
 21
220.647572
 31
0.0
  0
LINE
  5
374
330
33B
100
AcDbEntity
  8
0
 48
10.0
100
AcDbLine
 10
214.529802
 20
220.647572
 30
0.0
 11
214.529802
 21
219.029805
 31
0.0
  0
LINE
  5
375
330
33B
100
AcDbEntity
  8
0
 48
10.0
100
AcDbLine
 10
214.529802
 20
219.029805
 30
0.0
 11
214.029802
 21
219.029805
 31
0.0
  0
LINE
  5
376
330
33B
100
AcDbEntity
  8
0
 48
10.0
100
AcDbLine
 10
214.029802
 20
222.565338
 30
0.0
 11
214.529802
 21
222.565338
 31
0.0
  0
LINE
  5
377
330
33B
100
AcDbEntity
  8
0
 48
10.0
100
AcDbLine
 10
214.029802
 20
220.947572
 30
0.0
 11
214.029802
 21
222.565338
 31
0.0
  0
LINE
  5
378
330
33B
100
AcDbEntity
  8
0
 48
10.0
100
AcDbLine
 10
214.529802
 20
222.565338
 30
0.0
 11
214.529802
 21
220.947572
 31
0.0
  0
LINE
  5
379
330
33B
100
AcDbEntity
  8
0
 48
10.0
100
AcDbLine
 10
218.636908
 20
220.461696
 30
0.0
 11
217.883845
 21
221.655504
 31
0.0
  0
ELLIPSE
  5
37A
330
33B
100
AcDbEntity
  8
0
 48
10.0
100
AcDbEllipse
 10
214.279802
 20
219.666201
 30
0.0
 11
4.5
 21
0.0
 31
0.0
210
0.0
220
0.0
230
1.0
 40
0.7071069999999999
 41
0.5864457446137627
 42
0.6002567364894062
  0
LINE
  5
37B
330
33B
100
AcDbEntity
  8
0
 48
10.0
100
AcDbLine
 10
216.779802
 20
220.947572
 30
0.0
 11
216.779802
 21
220.647572
 31
0.0
  0
ELLIPSE
  5
37C
330
33B
100
AcDbEntity
  8
0
 48
10.0
100
AcDbEllipse
 10
214.279802
 20
219.666201
 30
0.0
 11
4.5
 21
0.0
 31
0.0
210
0.0
220
0.0
230
1.0
 40
0.7071069999999999
 41
0.0
 42
0.2526802526318922
  0
ELLIPSE
  5
37D
330
33B
100
AcDbEntity
  8
0
 48
10.0
100
AcDbEllipse
 10
214.279802
 20
219.666201
 30
0.0
 11
4.5
 21
0.0
 31
0.0
210
0.0
220
0.0
230
1.0
 40
0.7071069999999999
 41
2.888912400958298
 42
3.141592653589792
  0
LINE
  5
37E
330
33B
100
AcDbEntity
  8
0
 48
10.0
100
AcDbLine
 10
209.779802
 20
217.54488
 30
0.0
 11
209.779802
 21
219.666201
 31
0.0
  0
LINE
  5
37F
330
33B
100
AcDbEntity
  8
0
 48
10.0
100
AcDbLine
 10
211.779802
 20
220.647572
 30
0.0
 11
211.779802
 21
220.947572
 31
0.0
  0
ELLIPSE
  5
380
330
33B
100
AcDbEntity
  8
0
 48
10.0
100
AcDbEllipse
 10
214.279802
 20
219.666201
 30
0.0
 11
4.5
 21
0.0
 31
0.0
210
0.0
220
0.0
230
1.0
 40
0.7071069999999999
 41
2.541335917100336
 42
2.555146908976414
  0
LINE
  5
381
330
33B
100
AcDbEntity
  8
0
 48
10.0
100
AcDbLine
 10
209.922696
 20
220.461696
 30
0.0
 11
210.675759
 21
221.655504
 31
0.0
  0
ELLIPSE
  5
382
330
33B
100
AcDbEntity
  8
0
 48
10.0
100
AcDbEllipse
 10
214.279802
 20
217.54488
 30
0.0
 11
6.0
 21
0.0
 31
0.0
210
0.0
220
0.0
230
1.0
 40
0.7071070000000001
 41
2.383551888848217
 42
7.041226071921161
  0
ELLIPSE
  5
383
330
33B
100
AcDbEntity
  8
0
 48
10.0
100
AcDbEllipse
 10
214.279802
 20
218.464119
 30
0.0
 11
4.5
 21
0.0
 31
0.0
210
0.0
220
0.0
230
1.0
 40
0.7071069999999999
 41
3.141592653589792
 42
6.283185307179585
  0
ELLIPSE
  5
384
330
33B
100
AcDbEntity
  8
0
 48
10.0
100
AcDbEllipse
 10
214.279802
 20
217.54488
 30
0.0
 11
4.5
 21
0.0
 31
0.0
210
0.0
220
0.0
230
1.0
 40
0.7071069999999999
 41
3.141592653589792
 42
6.283185307179585
  0
ELLIPSE
  5
385
330
33B
100
AcDbEntity
  8
0
 48
10.0
100
AcDbEllipse
 10
214.279802
 20
217.191327
 30
0.0
 11
6.0
 21
0.0
 31
0.0
210
0.0
220
0.0
230
1.0
 40
0.7071070000000001
 41
3.099913921265481
 42
6.324864039503895
  0
ELLIPSE
  5
386
330
33B
100
AcDbEntity
  8
0
 48
10.0
100
AcDbEllipse
 10
214.279802
 20
216.837774
 30
0.0
 11
6.0
 21
0.0
 31
0.0
210
0.0
220
0.0
230
1.0
 40
0.7071070000000001
 41
3.058162567176281
 42
6.366615393593098
  0
ELLIPSE
  5
387
330
33B
100
AcDbEntity
  8
0
 48
10.0
100
AcDbEllipse
 10
214.279802
 20
220.505988
 30
0.0
 11
3.949999999999987
 21
0.0
 31
0.0
210
0.0
220
0.0
230
0.9999999999999998
 40
0.711073
 41
0.0
 42
6.283185307179585
  0
LINE
  5
388
330
33B
100
AcDbEntity
  8
0
 48
10.0
100
AcDbLine
 10
211.779802
 20
220.947572
 30
0.0
 11
214.029802
 21
220.947572
 31
0.0
  0
LINE
  5
389
330
33B
100
AcDbEntity
  8
0
 48
10.0
100
AcDbLine
 10
214.029802
 20
220.647572
 30
0.0
 11
211.779802
 21
220.647572
 31
0.0
  0
LINE
  5
38A
330
33B
100
AcDbEntity
  8
1
 48
10.0
100
AcDbLine
 10
259.425747
 20
212.230213
 30
0.0
 11
264.729734
 21
212.987317
 31
0.0
  0
LINE
  5
38B
330
33B
100
AcDbEntity
  8
0
 48
10.0
100
AcDbLine
 10
259.4479740000001
 20
198.517968
 30
0.0
 11
259.4479740000001
 21
218.017968
 31
0.0
  0
TEXT
  5
38C
330
33B
100
AcDbEntity
  8
0
 48
10.0
100
AcDbText
 10
270.8704331428572
 20
215.558355
 30
0.0
 40
10.0
  1
L
  7
SMP-SET
 72
     4
 11
273.727576
 21
220.558355
 31
0.0
100
AcDbText
  0
LINE
  5
38D
330
33B
100
AcDbEntity
  8
1
 48
10.0
100
AcDbLine
 10
280.641696
 20
212.230213
 30
0.0
 11
259.425747
 21
212.230213
 31
0.0
  0
LINE
  5
38E
330
33B
100
AcDbEntity
  8
CENTER
 48
10.0
100
AcDbLine
 10
239.279802
 20
221.365939
 30
0.0
 11
239.279802
 21
210.888202
 31
0.0
  0
LINE
  5
38F
330
33B
100
AcDbEntity
  8
CENTER
 48
10.0
100
AcDbLine
 10
229.657687
 20
216.130667
 30
0.0
 11
245.596651
 21
216.130667
 31
0.0
  0
ARC
  5
390
330
33B
100
AcDbEntity
  8
0
 48
10.0
100
AcDbCircle
 10
207.447974
 20
220.017968
 30
0.0
 40
3.0
100
AcDbArc
 50
90.0
 51
180.0
  0
LINE
  5
391
330
33B
100
AcDbEntity
  8
0
 48
10.0
100
AcDbLine
 10
207.240786
 20
224.467086
 30
0.0
 11
212.00446
 21
226.637123
 31
0.0
  0
LINE
  5
392
330
33B
100
AcDbEntity
  8
CENTER
 48
10.0
100
AcDbLine
 10
214.279802
 20
221.365939
 30
0.0
 11
214.279802
 21
210.888202
 31
0.0
  0
LINE
  5
393
330
33B
100
AcDbEntity
  8
0
 48
10.0
100
AcDbLine
 10
204.447974
 20
198.517968
 30
0.0
 11
204.447974
 21
218.017968
 31
0.0
  0
LINE
  5
394
330
33B
100
AcDbEntity
  8
0
 48
10.0
100
AcDbLine
 10
207.196163
 20
208.017968
 30
0.0
 11
246.031745
 21
208.017968
 31
0.0
  0
LINE
  5
395
330
33B
100
AcDbEntity
  8
CENTER
 48
10.0
100
AcDbLine
 10
206.168685
 20
216.130667
 30
0.0
 11
222.527098
 21
216.130667
 31
0.0
  0
DIMENSION
  5
396
330
33B
100
AcDbEntity
  8
SCALE
 48
10.0
100
AcDbDimension
  2
*D13
 10
239.279802
 20
231.050493
 30
0.0
 11
226.779802
 21
236.050493
 31
0.0
 12
-149.90378
 22
-203.318506
 32
0.0
 71
     5
 42
-1.0
  3
STANDARD
100
AcDbAlignedDimension
 13
214.279802
 23
221.365939
 33
0.0
 14
239.279802
 24
221.365939
 34
0.0
100
AcDbRotatedDimension
  0
LINE
  5
397
330
33B
100
AcDbEntity
  8
0
 48
10.0
100
AcDbLine
 10
207.240786
 20
224.467086
 30
0.0
 11
244.947242
 21
224.467086
 31
0.0
  0
TEXT
  5
398
330
33B
100
AcDbEntity
  8
1
 48
10.0
100
AcDbText
 10
92.152811
 20
241.40418
 30
0.0
 40
4.5
  1
二次端子
  7
SMP-SET
100
AcDbText
  0
LINE
  5
399
330
33B
100
AcDbEntity
  8
1
 48
10.0
100
AcDbLine
 10
116.399609
 20
237.997213
 30
0.0
 11
88.36424800000001
 21
237.997213
 31
0.0
  0
LINE
  5
39A
330
33B
100
AcDbEntity
  8
1
 48
10.0
100
AcDbLine
 10
77.75627199999999
 20
220.962376
 30
0.0
 11
78.51398499999999
 21
223.990792
 31
0.0
  0
LINE
  5
39B
330
33B
100
AcDbEntity
  8
0
 48
10.0
100
AcDbLine
 10
69.126677
 20
219.287697
 30
0.0
 11
69.83378399999999
 21
219.994804
 31
0.0
  0
LINE
  5
39C
330
33B
100
AcDbEntity
  8
0
 48
10.0
100
AcDbLine
 10
69.83378399999999
 20
219.994804
 30
0.0
 11
69.126677
 21
220.701911
 31
0.0
  0
LINE
  5
39D
330
33B
100
AcDbEntity
  8
0
 48
10.0
100
AcDbLine
 10
69.126677
 20
220.701911
 30
0.0
 11
69.48023
 21
221.055464
 31
0.0
  0
LINE
  5
39E
330
33B
100
AcDbEntity
  8
0
 48
10.0
100
AcDbLine
 10
69.83378399999999
 20
221.409018
 30
0.0
 11
69.48023
 21
221.055464
 31
0.0
  0
LINE
  5
39F
330
33B
100
AcDbEntity
  8
0
 48
10.0
100
AcDbLine
 10
70.89444399999999
 20
220.348358
 30
0.0
 11
71.81368299999999
 21
221.267596
 31
0.0
  0
LINE
  5
3A0
330
33B
100
AcDbEntity
  8
0
 48
10.0
100
AcDbLine
 10
71.81368299999999
 20
221.267596
 30
0.0
 11
73.015764
 21
222.469678
 31
0.0
  0
ARC
  5
3A1
330
33B
100
AcDbEntity
  8
0
 48
10.0
100
AcDbCircle
 10
74.14713499999999
 20
221.338307
 30
0.0
 40
1.6
100
AcDbArc
 50
45.0
 51
135.0
  0
LINE
  5
3A2
330
33B
100
AcDbEntity
  8
0
 48
10.0
100
AcDbLine
 10
76.90485200000001
 20
212.923736
 30
0.0
 11
76.197745
 21
212.21663
 31
0.0
  0
LINE
  5
3A3
330
33B
100
AcDbEntity
  8
0
 48
10.0
100
AcDbLine
 10
77.965512
 20
212.570183
 30
0.0
 11
77.611958
 21
212.21663
 31
0.0
  0
LINE
  5
3A4
330
33B
100
AcDbEntity
  8
0
 48
10.0
100
AcDbLine
 10
77.611958
 20
212.21663
 30
0.0
 11
76.90485200000001
 21
212.923736
 31
0.0
  0
LINE
  5
3A5
330
33B
100
AcDbEntity
  8
0
 48
10.0
100
AcDbLine
 10
77.965512
 20
212.570183
 30
0.0
 11
78.31906500000001
 21
212.923736
 31
0.0
  0
LINE
  5
3A6
330
33B
100
AcDbEntity
  8
0
 48
10.0
100
AcDbLine
 10
78.177644
 20
214.903635
 30
0.0
 11
77.25840500000001
 21
213.984397
 31
0.0
  0
LINE
  5
3A7
330
33B
100
AcDbEntity
  8
0
 48
10.0
100
AcDbLine
 10
79.37972499999999
 20
216.105717
 30
0.0
 11
78.177644
 21
214.903635
 31
0.0
  0
ARC
  5
3A8
330
33B
100
AcDbEntity
  8
0
 48
10.0
100
AcDbCircle
 10
78.248355
 20
217.237088
 30
0.0
 40
1.6
100
AcDbArc
 50
315.0
 51
45.0
  0
LINE
  5
3A9
330
33B
100
AcDbEntity
  8
0
 48
10.0
100
AcDbLine
 10
74.64211
 20
218.439169
 30
0.0
 11
74.429978
 21
216.8128240000001
 31
0.0
  0
LINE
  5
3AA
330
33B
100
AcDbEntity
  8
0
 48
10.0
100
AcDbLine
 10
69.83378399999999
 20
219.994804
 30
0.0
 11
76.90485200000001
 21
212.923736
 31
0.0
  0
LINE
  5
3AB
330
33B
100
AcDbEntity
  8
0
 48
10.0
100
AcDbLine
 10
69.48023
 20
221.055464
 30
0.0
 11
77.965512
 21
212.570183
 31
0.0
  0
LINE
  5
3AC
330
33B
100
AcDbEntity
  8
0
 48
10.0
100
AcDbLine
 10
78.31906500000001
 20
212.923736
 30
0.0
 11
69.83378399999999
 21
221.409018
 31
0.0
  0
LINE
  5
3AD
330
33B
100
AcDbEntity
  8
0
 48
10.0
100
AcDbLine
 10
71.81368299999999
 20
221.267596
 30
0.0
 11
78.177644
 21
214.903635
 31
0.0
  0
LINE
  5
3AE
330
33B
100
AcDbEntity
  8
0
 48
10.0
100
AcDbLine
 10
75.278506
 20
222.469678
 30
0.0
 11
79.37972499999999
 21
218.368459
 31
0.0
  0
LINE
  5
3AF
330
33B
100
AcDbEntity
  8
1
 48
10.0
100
AcDbLine
 10
88.36424800000001
 20
237.997213
 30
0.0
 11
77.75627199999999
 21
220.962376
 31
0.0
  0
TEXT
  5
3B0
330
33B
100
AcDbEntity
  8
0
 48
10.0
100
AcDbText
 10
64.98917857142856
 20
208.350342
 30
0.0
 40
6.0
  1
k
  7
ITL-SET
 72
     4
 11
67.41775
 21
211.350342
 31
0.0
100
AcDbText
  0
TEXT
  5
3B1
330
33B
100
AcDbEntity
  8
0
 48
10.0
100
AcDbText
 10
41.022166
 20
213.674168
 30
0.0
 40
6.0
  1
K
  7
SMP-SET
 72
     4
 11
43.022166
 21
216.674168
 31
0.0
100
AcDbText
  0
MTEXT
  5
3B2
102
{ACAD_REACTORS
330
3B3
102
}
330
33B
100
AcDbEntity
  8
SCALE
 48
10.0
100
AcDbMText
 10
41.754802
 20
240.489196
 30
0.0
 40
4.5
 41
0.0
 71
     6
 72
     1
  1
銘板
 11
-1.0
 21
0.0
 31
0.0
 73
     1
 44
1.0
1001
ACAD
1000
MTEXTBEGIN
1070
    73
1070
     1
1070
    44
1040
1.0
1070
    74
1070
     0
1000
MTEXTEND
  0
LEADER
  5
3B3
330
33B
100
AcDbEntity
  8
SCALE
 48
10.0
100
AcDbLeader
  3
STANDARD
 73
     0
 75
     1
 40
4.500000000000002
 41
9.599999999999999
 76
     3
 10
40.227589
 20
224.705041
 30
0.0
 10
37.25480200000001
 20
244.239196
 30
0.0
 10
40.254802
 20
244.239196
 30
0.0
340
3B2
211
-1.0
221
0.0000000000000001
231
0.0
1001
ACAD
1000
DSTYLE
1002
{
1070
     3
1000
%%c<>
1002
}
  0
LINE
  5
3B4
330
33B
100
AcDbEntity
  8
0
100
AcDbLine
 10
65.396406
 20
223.017968
 30
0.0
 11
77.500001
 21
210.914373
 31
0.0
  0
LINE
  5
3B5
330
33B
100
AcDbEntity
  8
CENTER
 48
10.0
100
AcDbLine
 10
69.178506
 20
212.268459
 30
0.0
 11
83.06463599999998
 21
226.154589
 31
0.0
  0
LINE
  5
3B6
330
33B
100
AcDbEntity
  8
0
 48
10.0
100
AcDbLine
 10
235.947974
 20
148.317968
 30
0.0
 11
235.947974
 21
146.017968
 31
0.0
  0
LINE
  5
3B7
330
33B
100
AcDbEntity
  8
0
 48
10.0
100
AcDbLine
 10
217.22701
 20
160.817968
 30
0.0
 11
217.22701
 21
155.817968
 31
0.0
  0
LINE
  5
3B8
330
33B
100
AcDbEntity
  8
0
 48
10.0
100
AcDbLine
 10
217.22701
 20
155.817968
 30
0.0
 11
219.22701
 21
155.817968
 31
0.0
  0
LINE
  5
3B9
330
33B
100
AcDbEntity
  8
0
 48
10.0
100
AcDbLine
 10
219.22701
 20
155.817968
 30
0.0
 11
219.22701
 21
160.817968
 31
0.0
  0
LINE
  5
3BA
330
33B
100
AcDbEntity
  8
0
 48
10.0
100
AcDbLine
 10
219.22701
 20
160.817968
 30
0.0
 11
217.22701
 21
160.817968
 31
0.0
  0
LINE
  5
3BB
330
33B
100
AcDbEntity
  8
0
 48
10.0
100
AcDbLine
 10
227.947974
 20
148.317968
 30
0.0
 11
227.947974
 21
146.017968
 31
0.0
  0
LINE
  5
3BC
330
33B
100
AcDbEntity
  8
CENTER
 48
10.0
100
AcDbLine
 10
231.947974
 20
155.652378
 30
0.0
 11
231.947974
 21
136.163787
 31
0.0
  0
ARC
  5
3BD
330
33B
100
AcDbEntity
  8
0
 48
10.0
100
AcDbCircle
 10
207.447974
 20
151.317968
 30
0.0
 40
3.0
100
AcDbArc
 50
180.0
 51
270.0
  0
LINE
  5
3BE
330
33B
100
AcDbEntity
  8
0
 48
10.0
100
AcDbLine
 10
204.447974
 20
151.317968
 30
0.0
 11
204.447974
 21
167.517968
 31
0.0
  0
LINE
  5
3BF
330
33B
100
AcDbEntity
  8
CENTER
 48
10.0
100
AcDbLine
 10
213.718112
 20
158.317968
 30
0.0
 11
222.589491
 21
158.317968
 31
0.0
  0
CIRCLE
  5
3C0
330
33B
100
AcDbEntity
  8
0
 48
10.0
100
AcDbCircle
 10
72.500001
 20
158.317968
 30
0.0
 40
1.0
  0
LINE
  5
3C1
330
33B
100
AcDbEntity
  8
0
 48
10.0
100
AcDbLine
 10
71.00000099999999
 20
160.817968
 30
0.0
 11
72.500001
 21
160.817968
 31
0.0
  0
LINE
  5
3C2
330
33B
100
AcDbEntity
  8
0
 48
10.0
100
AcDbLine
 10
71.00000099999999
 20
155.817968
 30
0.0
 11
72.500001
 21
155.817968
 31
0.0
  0
ARC
  5
3C3
330
33B
100
AcDbEntity
  8
0
 48
10.0
100
AcDbCircle
 10
71.00000099999999
 20
161.817968
 30
0.0
 40
1.0
100
AcDbArc
 50
180.0
 51
270.0
  0
ARC
  5
3C4
330
33B
100
AcDbEntity
  8
0
 48
10.0
100
AcDbCircle
 10
72.500001
 20
158.317968
 30
0.0
 40
2.5
100
AcDbArc
 50
270.0
 51
90.0
  0
LINE
  5
3C5
330
33B
100
AcDbEntity
  8
CENTER
 48
10.0
100
AcDbLine
 10
68.76674
 20
158.317968
 30
0.0
 11
76.370778
 21
158.317968
 31
0.0
  0
LINE
  5
3C6
330
33B
100
AcDbEntity
  8
0
 48
10.0
100
AcDbLine
 10
70.000001
 20
154.817968
 30
0.0
 11
70.000001
 21
151.317968
 31
0.0
  0
ARC
  5
3C7
330
33B
100
AcDbEntity
  8
0
 48
10.0
100
AcDbCircle
 10
71.00000099999999
 20
154.817968
 30
0.0
 40
1.0
100
AcDbArc
 50
90.0
 51
180.0
  0
LINE
  5
3C8
330
33B
100
AcDbEntity
  8
0
 48
10.0
100
AcDbLine
 10
70.000001
 20
166.367333
 30
0.0
 11
70.000001
 21
154.817968
 31
0.0
  0
LINE
  5
3C9
330
33B
100
AcDbEntity
  8
CENTER
 48
10.0
100
AcDbLine
 10
72.500001
 20
161.898
 30
0.0
 11
72.500001
 21
154.933246
 31
0.0
  0
LINE
  5
3CA
330
33B
100
AcDbEntity
  8
0
100
AcDbLine
 10
70.000001
 20
164.79298
 30
0.0
 11
70.000001
 21
161.817968
 31
0.0
  0
ARC
  5
3CB
330
33B
100
AcDbEntity
  8
0
 48
10.0
100
AcDbCircle
 10
67.000001
 20
151.317968
 30
0.0
 40
3.0
100
AcDbArc
 50
270.0
 51
0.0
  0
LINE
  5
3CC
330
33B
100
AcDbEntity
  8
0
 48
10.0
100
AcDbLine
 10
67.000001
 20
148.317968
 30
0.0
 11
85.00000099999999
 21
148.317968
 31
0.0
  0
ARC
  5
3CD
330
33B
100
AcDbEntity
  8
0
 48
10.0
100
AcDbCircle
 10
80.00000099999999
 20
56.00000099999999
 30
0.0
 40
5.0
100
AcDbArc
 50
0.0
 51
90.0
  0
LINE
  5
3CE
330
33B
100
AcDbEntity
  8
0
 48
10.0
100
AcDbLine
 10
77.500001
 20
37.500001
 30
0.0
 11
85.00000099999999
 21
37.500001
 31
0.0
  0
LINE
  5
3CF
330
33B
100
AcDbEntity
  8
0
 48
10.0
100
AcDbLine
 10
77.500001
 20
29.500001
 30
0.0
 11
85.00000099999999
 21
29.500001
 31
0.0
  0
LINE
  5
3D0
330
33B
100
AcDbEntity
  8
CENTER
 48
10.0
100
AcDbLine
 10
69.19769999999999
 20
33.500001
 30
0.0
 11
82.023877
 21
33.500001
 31
0.0
  0
ARC
  5
3D1
330
33B
100
AcDbEntity
  8
0
 48
10.0
100
AcDbCircle
 10
77.500001
 20
33.500001
 30
0.0
 40
4.0
100
AcDbArc
 50
90.0
 51
270.0
  0
LINE
  5
3D2
330
33B
100
AcDbEntity
  8
CENTER
 48
10.0
100
AcDbLine
 10
77.500001
 20
43.833511
 30
0.0
 11
77.500001
 21
22.206774
 31
0.0
  0
DIMENSION
  5
3D3
330
33B
100
AcDbEntity
  8
SCALE
 48
10.0
100
AcDbDimension
  2
*D12
 10
93.33160699999998
 20
29.500001
 30
0.0
 11
88.33160699999998
 21
21.500001
 31
0.0
 12
-149.90378
 22
-203.318506
 32
0.0
  1
7
 71
     5
 42
-1.0
  3
STANDARD
100
AcDbAlignedDimension
 13
85.000002
 23
37.500001
 33
0.0
 14
85.000002
 24
29.500001
 34
0.0
 50
90.0
100
AcDbRotatedDimension
  0
LINE
  5
3D4
330
33B
100
AcDbEntity
  8
0
 48
10.0
100
AcDbLine
 10
85.00000099999999
 20
37.500001
 30
0.0
 11
85.00000099999999
 21
56.00000099999999
 31
0.0
  0
CIRCLE
  5
3D5
330
33B
100
AcDbEntity
  8
0
 48
10.0
100
AcDbCircle
 10
60.000001
 20
33.500001
 30
0.0
 40
5.599999999999999
  0
LINE
  5
3D6
330
33B
100
AcDbEntity
  8
CENTER
 48
10.0
100
AcDbLine
 10
60.000001
 20
43.833511
 30
0.0
 11
60.000001
 21
22.60727
 31
0.0
  0
CIRCLE
  5
3D7
330
33B
100
AcDbEntity
  8
0
 48
10.0
100
AcDbCircle
 10
25.000001
 20
33.500001
 30
0.0
 40
5.599999999999999
  0
LINE
  5
3D8
330
33B
100
AcDbEntity
  8
CENTER
 48
10.0
100
AcDbLine
 10
25.000001
 20
43.833511
 30
0.0
 11
25.000001
 21
22.60727
 31
0.0
  0
LINE
  5
3D9
330
33B
100
AcDbEntity
  8
CENTER
 48
10.0
100
AcDbLine
 10
30.603628
 20
51.00000099999999
 30
0.0
 11
55.45434499999999
 21
51.00000099999999
 31
0.0
  0
CIRCLE
  5
3DA
330
33B
100
AcDbEntity
  8
0
 48
10.0
100
AcDbCircle
 10
42.500001
 20
51.00000099999999
 30
0.0
 40
5.599999999999999
  0
ARC
  5
3DB
330
33B
100
AcDbEntity
  8
0
 48
10.0
100
AcDbCircle
 10
80.00000099999999
 20
11.000001
 30
0.0
 40
5.0
100
AcDbArc
 50
270.0
 51
0.0
  0
LINE
  5
3DC
330
33B
100
AcDbEntity
  8
CENTER
 48
10.0
100
AcDbLine
 10
30.603628
 20
16.000001
 30
0.0
 11
55.45434499999999
 21
16.000001
 31
0.0
  0
LINE
  5
3DD
330
33B
100
AcDbEntity
  8
0
 48
10.0
100
AcDbLine
 10
85.00000099999999
 20
11.000001
 30
0.0
 11
85.00000099999999
 21
29.500001
 31
0.0
  0
LINE
  5
3DE
330
33B
100
AcDbEntity
  8
CENTER
 48
10.0
100
AcDbLine
 10
42.500001
 20
67.000001
 30
0.0
 11
42.500001
 21
0.000001
 31
0.0
  0
CIRCLE
  5
3DF
330
33B
100
AcDbEntity
  8
0
 48
10.0
100
AcDbCircle
 10
42.500001
 20
16.000001
 30
0.0
 40
5.599999999999999
  0
ARC
  5
3E0
330
33B
100
AcDbEntity
  8
0
 48
10.0
100
AcDbCircle
 10
18.000001
 20
151.317968
 30
0.0
 40
3.0
100
AcDbArc
 50
180.0
 51
270.0
  0
LINE
  5
3E1
330
33B
100
AcDbEntity
  8
0
 48
10.0
100
AcDbLine
 10
0.000001
 20
148.317968
 30
0.0
 11
18.000001
 21
148.317968
 31
0.0
  0
LINE
  5
3E2
330
33B
100
AcDbEntity
  8
0
100
AcDbLine
 10
15.000001
 20
166.367333
 30
0.0
 11
15.000001
 21
151.317968
 31
0.0
  0
ARC
  5
3E3
330
33B
100
AcDbEntity
  8
0
 48
10.0
100
AcDbCircle
 10
5.000001
 20
56.00000099999999
 30
0.0
 40
5.0
100
AcDbArc
 50
90.0
 51
180.0
  0
LINE
  5
3E4
330
33B
100
AcDbEntity
  8
CENTER
 48
10.0
100
AcDbLine
 10
3.232458999999999
 20
33.500001
 30
0.0
 11
16.058636
 21
33.500001
 31
0.0
  0
ARC
  5
3E5
330
33B
100
AcDbEntity
  8
0
 48
10.0
100
AcDbCircle
 10
7.500000999999999
 20
33.500001
 30
0.0
 40
4.0
100
AcDbArc
 50
270.0
 51
90.0
  0
LINE
  5
3E6
330
33B
100
AcDbEntity
  8
CENTER
 48
10.0
100
AcDbLine
 10
7.500000999999999
 20
43.833511
 30
0.0
 11
7.500000999999999
 21
22.206774
 31
0.0
  0
DIMENSION
  5
3E7
330
33B
100
AcDbEntity
  8
SCALE
 48
10.0
100
AcDbDimension
  2
*D11
 10
7.500002
 20
33.500001
 30
0.0
 11
20.39404
 21
45.391733
 31
0.0
 12
-149.90378
 22
-203.318506
 32
0.0
 70
   132
  1
R3.5
 71
     5
 42
-1.0
  3
STANDARD
100
AcDbRadialDimension
 15
8.03611
 25
37.463912
 35
0.0
 40
0.0
1001
ACAD
1000
DSTYLE
1002
{
1070
   288
1070
     1
1070
    74
1070
     1
1070
   174
1070
     1
1070
   287
1070
     0
1002
}
  0
LINE
  5
3E8
330
33B
100
AcDbEntity
  8
0
 48
10.0
100
AcDbLine
 10
0.000001
 20
37.500001
 30
0.0
 11
7.500000999999999
 21
37.500001
 31
0.0
  0
LINE
  5
3E9
330
33B
100
AcDbEntity
  8
0
 48
10.0
100
AcDbLine
 10
0.000001
 20
29.500001
 30
0.0
 11
7.500000999999999
 21
29.500001
 31
0.0
  0
LINE
  5
3EA
330
33B
100
AcDbEntity
  8
0
 48
10.0
100
AcDbLine
 10
0.000001
 20
56.00000099999999
 30
0.0
 11
0.000001
 21
37.500001
 31
0.0
  0
ARC
  5
3EB
330
33B
100
AcDbEntity
  8
0
 48
10.0
100
AcDbCircle
 10
5.000001
 20
11.000001
 30
0.0
 40
5.0
100
AcDbArc
 50
180.0
 51
270.0
  0
LINE
  5
3EC
330
33B
100
AcDbEntity
  8
0
 48
10.0
100
AcDbLine
 10
0.000001
 20
29.500001
 30
0.0
 11
0.000001
 21
11.000001
 31
0.0
  0
LINE
  5
3ED
330
33B
100
AcDbEntity
  8
0
100
AcDbLine
 10
0.000001
 20
146.017968
 30
0.0
 11
85.00000099999999
 21
146.017968
 31
0.0
  0
LINE
  5
3EE
330
33B
100
AcDbEntity
  8
CENTER
 48
10.0
100
AcDbLine
 10
0.6335100000000001
 20
188.017968
 30
0.0
 11
85.27249199999999
 21
188.017968
 31
0.0
  0
LINE
  5
3EF
330
33B
100
AcDbEntity
  8
0
 48
10.0
100
AcDbLine
 10
18.000001
 20
148.317968
 30
0.0
 11
67.000001
 21
148.317968
 31
0.0
  0
LINE
  5
3F0
330
33B
100
AcDbEntity
  8
0
 48
10.0
100
AcDbLine
 10
5.000001
 20
6.000001
 30
0.0
 11
80.00000099999999
 21
6.000001
 31
0.0
  0
LINE
  5
3F1
330
33B
100
AcDbEntity
  8
0
 48
10.0
100
AcDbLine
 10
80.00000099999999
 20
61.00000099999999
 30
0.0
 11
5.000001
 21
61.00000099999999
 31
0.0
  0
LINE
  5
3F2
330
33B
100
AcDbEntity
  8
CENTER
 48
10.0
100
AcDbLine
 10
8.558635999999999
 20
33.500001
 30
0.0
 11
76.69769999999999
 21
33.500001
 31
0.0
  0
LINE
  5
3F3
330
33B
100
AcDbEntity
  8
CENTER
 48
10.0
100
AcDbLine
 10
42.500001
 20
225.598465
 30
0.0
 11
42.500001
 21
133.416087
 31
0.0
  0
LINE
  5
3F4
330
33B
100
AcDbEntity
  8
0
 48
10.0
100
AcDbLine
 10
204.447974
 20
198.517968
 30
0.0
 11
204.447974
 21
167.517968
 31
0.0
  0
LINE
  5
3F5
330
33B
100
AcDbEntity
  8
0
 48
10.0
100
AcDbLine
 10
247.447974
 20
221.017968
 30
0.0
 11
247.447974
 21
183.017968
 31
0.0
  0
LINE
  5
3F6
330
33B
100
AcDbEntity
  8
0
 48
10.0
100
AcDbLine
 10
204.447974
 20
146.017968
 30
0.0
 11
259.4479740000001
 21
146.017968
 31
0.0
  0
LINE
  5
3F7
330
33B
100
AcDbEntity
  8
0
 48
10.0
100
AcDbLine
 10
259.4479740000001
 20
148.317968
 30
0.0
 11
204.447974
 21
148.317968
 31
0.0
  0
LINE
  5
3F8
330
33B
100
AcDbEntity
  8
CENTER
 48
10.0
100
AcDbLine
 10
165.261032
 20
183.017968
 30
0.0
 11
291.426574
 21
183.017968
 31
0.0
  0
LINE
  5
3F9
330
33B
100
AcDbEntity
  8
0
 48
10.0
100
AcDbLine
 10
207.447974
 20
223.017968
 30
0.0
 11
212.51266
 21
223.017968
 31
0.0
  0
ENDBLK
  5
3FB
330
33B
100
AcDbEntity
  8
0
100
AcDbBlockEnd
  0
BLOCK
  5
6D9
330
6D1
100
AcDbEntity
  8
0
 48
10.0
100
AcDbBlockBegin
  2
*D23
 70
     1
 10
0.0
 20
0.0
 30
0.0
  3
*D23
  1

  0
LINE
  5
6D2
330
6D1
100
AcDbEntity
  8
0
  6
ByBlock
 48
10.0
100
AcDbLine
 10
163.440631
 20
241.440381
 30
0.0
 11
163.976739
 21
245.404291
 31
0.0
  0
LINE
  5
6D3
330
6D1
100
AcDbEntity
  8
0
  6
ByBlock
 48
10.0
100
AcDbLine
 10
163.976739
 20
245.404291
 30
0.0
 11
184.548168
 21
245.404291
 31
0.0
  0
LINE
  5
6D4
330
6D1
100
AcDbEntity
  8
0
  6
ByBlock
 48
10.0
100
AcDbLine
 10
162.368415
 20
233.512559
 30
0.0
 11
162.904523
 21
237.47647
 31
0.0
  0
INSERT
  5
6D5
330
6D1
100
AcDbEntity
  8
0
  6
ByBlock
 48
10.0
100
AcDbBlockReference
  2
_OPEN
 10
162.904523
 20
237.47647
 30
0.0
 41
4.0
 42
4.0
 43
4.0
 50
262.297638
  0
MTEXT
  5
6D6
330
6D1
100
AcDbEntity
  8
0
  6
ByBlock
 48
10.0
100
AcDbMText
 10
175.262453
 20
250.404291
 30
0.0
 40
6.0
 41
0.0
 71
     5
 72
     1
  1
\A1;R3.5
 73
     1
 44
1.0
1001
ACAD
1000
MTEXTBEGIN
1070
    73
1070
     1
1070
    44
1040
1.0
1070
    74
1070
     0
1000
MTEXTEND
  0
POINT
  5
6D7
330
6D1
100
AcDbEntity
  8
DEFPOINTS
  6
ByBlock
 62
     0
 48
10.0
100
AcDbPoint
 10
162.904523
 20
237.47647
 30
0.0
  0
POINT
  5
6D8
330
6D1
100
AcDbEntity
  8
DEFPOINTS
  6
ByBlock
 62
     0
 48
10.0
100
AcDbPoint
 10
162.368415
 20
233.512559
 30
0.0
  0
ENDBLK
  5
6DA
330
6D1
100
AcDbEntity
  8
0
 48
10.0
100
AcDbBlockEnd
  0
BLOCK
  5
6E5
330
6DB
100
AcDbEntity
  8
0
 48
10.0
100
AcDbBlockBegin
  2
*D24
 70
     1
 10
0.0
 20
0.0
 30
0.0
  3
*D24
  1

  0
LINE
  5
6DC
330
6DB
100
AcDbEntity
  8
0
  6
ByBlock
 48
10.0
100
AcDbLine
 10
241.868415
 20
237.512559
 30
0.0
 11
251.20002
 21
237.512559
 31
0.0
  0
LINE
  5
6DD
330
6DB
100
AcDbEntity
  8
0
  6
ByBlock
 48
10.0
100
AcDbLine
 10
241.868415
 20
229.512559
 30
0.0
 11
251.20002
 21
229.512559
 31
0.0
  0
LINE
  5
6DE
330
6DB
100
AcDbEntity
  8
0
  6
ByBlock
 48
10.0
100
AcDbLine
 10
248.20002
 20
229.512559
 30
0.0
 11
248.20002
 21
217.512559
 31
0.0
  0
INSERT
  5
6DF
330
6DB
100
AcDbEntity
  8
0
  6
ByBlock
 48
10.0
100
AcDbBlockReference
  2
_OPEN
 10
248.20002
 20
237.512559
 30
0.0
 41
4.0
 42
4.0
 43
4.0
 50
90.0
  0
INSERT
  5
6E0
330
6DB
100
AcDbEntity
  8
0
  6
ByBlock
 48
10.0
100
AcDbBlockReference
  2
_OPEN
 10
248.20002
 20
229.512559
 30
0.0
 41
4.0
 42
4.0
 43
4.0
 50
270.0
  0
MTEXT
  5
6E1
330
6DB
100
AcDbEntity
  8
0
  6
ByBlock
 48
10.0
100
AcDbMText
 10
243.20002
 20
221.512559
 30
0.0
 40
6.0
 41
0.0
 71
     5
 72
     1
  1
\A1;7
 11
0.0
 21
1.0
 31
0.0
 73
     1
 44
1.0
1001
ACAD
1000
MTEXTBEGIN
1070
    73
1070
     1
1070
    44
1040
1.0
1070
    74
1070
     0
1000
MTEXTEND
  0
POINT
  5
6E2
330
6DB
100
AcDbEntity
  8
DEFPOINTS
  6
ByBlock
 62
     0
 48
10.0
100
AcDbPoint
 10
239.868415
 20
237.512559
 30
0.0
  0
POINT
  5
6E3
330
6DB
100
AcDbEntity
  8
DEFPOINTS
  6
ByBlock
 62
     0
 48
10.0
100
AcDbPoint
 10
239.868415
 20
229.512559
 30
0.0
  0
POINT
  5
6E4
330
6DB
100
AcDbEntity
  8
DEFPOINTS
  6
ByBlock
 62
     0
 48
10.0
100
AcDbPoint
 10
248.20002
 20
229.512559
 30
0.0
  0
ENDBLK
  5
6E6
330
6DB
100
AcDbEntity
  8
0
 48
10.0
100
AcDbBlockEnd
  0
BLOCK
  5
6F1
330
6E7
100
AcDbEntity
  8
0
 48
10.0
100
AcDbBlockBegin
  2
*D25
 70
     1
 10
0.0
 20
0.0
 30
0.0
  3
*D25
  1

  0
LINE
  5
6E8
330
6E7
100
AcDbEntity
  8
0
  6
ByBlock
 48
10.0
100
AcDbLine
 10
348.289698
 20
406.9683979999999
 30
0.0
 11
348.289698
 21
417.652952
 31
0.0
  0
LINE
  5
6E9
330
6E7
100
AcDbEntity
  8
0
  6
ByBlock
 48
10.0
100
AcDbLine
 10
373.289698
 20
406.9683979999999
 30
0.0
 11
373.289698
 21
417.652952
 31
0.0
  0
LINE
  5
6EA
330
6E7
100
AcDbEntity
  8
0
  6
ByBlock
 48
10.0
100
AcDbLine
 10
352.289698
 20
414.652952
 30
0.0
 11
369.289698
 21
414.652952
 31
0.0
  0
INSERT
  5
6EB
330
6E7
100
AcDbEntity
  8
0
  6
ByBlock
 48
10.0
100
AcDbBlockReference
  2
_OPEN
 10
348.289698
 20
414.652952
 30
0.0
 41
4.0
 42
4.0
 43
4.0
 50
180.0
  0
INSERT
  5
6EC
330
6E7
100
AcDbEntity
  8
0
  6
ByBlock
 48
10.0
100
AcDbBlockReference
  2
_OPEN
 10
373.289698
 20
414.652952
 30
0.0
 41
4.0
 42
4.0
 43
4.0
  0
MTEXT
  5
6ED
330
6E7
100
AcDbEntity
  8
0
  6
ByBlock
 48
10.0
100
AcDbMText
 10
360.789698
 20
419.6529519999999
 30
0.0
 40
6.0
 41
0.0
 71
     5
 72
     1
  1
\A1;25
 73
     1
 44
1.0
1001
ACAD
1000
MTEXTBEGIN
1070
    73
1070
     1
1070
    44
1040
1.0
1070
    74
1070
     0
1000
MTEXTEND
  0
POINT
  5
6EE
330
6E7
100
AcDbEntity
  8
DEFPOINTS
  6
ByBlock
 62
     0
 48
10.0
100
AcDbPoint
 10
348.289698
 20
404.968398
 30
0.0
  0
POINT
  5
6EF
330
6E7
100
AcDbEntity
  8
DEFPOINTS
  6
ByBlock
 62
     0
 48
10.0
100
AcDbPoint
 10
373.289698
 20
404.968398
 30
0.0
  0
POINT
  5
6F0
330
6E7
100
AcDbEntity
  8
DEFPOINTS
  6
ByBlock
 62
     0
 48
10.0
100
AcDbPoint
 10
373.289698
 20
414.652952
 30
0.0
  0
ENDBLK
  5
6F2
330
6E7
100
AcDbEntity
  8
0
 48
10.0
100
AcDbBlockEnd
  0
BLOCK
  5
6FD
330
6F3
100
AcDbEntity
  8
0
 48
10.0
100
AcDbBlockBegin
  2
*D26
 70
     1
 10
0.0
 20
0.0
 30
0.0
  3
*D26
  1

  0
LINE
  5
6F4
330
6F3
100
AcDbEntity
  8
0
  6
ByBlock
 48
10.0
100
AcDbLine
 10
241.553248
 20
261.012559
 30
0.0
 11
270.1808
 21
261.012559
 31
0.0
  0
LINE
  5
6F5
330
6F3
100
AcDbEntity
  8
0
  6
ByBlock
 48
10.0
100
AcDbLine
 10
241.553248
 20
206.012559
 30
0.0
 11
270.1808
 21
206.012559
 31
0.0
  0
LINE
  5
6F6
330
6F3
100
AcDbEntity
  8
0
  6
ByBlock
 48
10.0
100
AcDbLine
 10
267.1808
 20
257.012559
 30
0.0
 11
267.1808
 21
210.012559
 31
0.0
  0
INSERT
  5
6F7
330
6F3
100
AcDbEntity
  8
0
  6
ByBlock
 48
10.0
100
AcDbBlockReference
  2
_OPEN
 10
267.1808
 20
261.012559
 30
0.0
 41
4.0
 42
4.0
 43
4.0
 50
90.0
  0
INSERT
  5
6F8
330
6F3
100
AcDbEntity
  8
0
  6
ByBlock
 48
10.0
100
AcDbBlockReference
  2
_OPEN
 10
267.1808
 20
206.012559
 30
0.0
 41
4.0
 42
4.0
 43
4.0
 50
270.0
  0
MTEXT
  5
6F9
330
6F3
100
AcDbEntity
  8
0
  6
ByBlock
 48
10.0
100
AcDbMText
 10
262.1808
 20
233.952491
 30
0.0
 40
6.0
 41
0.0
 71
     5
 72
     1
  1
\A1;55
 11
0.0
 21
1.0
 31
0.0
 73
     1
 44
1.0
1001
ACAD
1000
MTEXTBEGIN
1070
    73
1070
     1
1070
    44
1040
1.0
1070
    74
1070
     0
1000
MTEXTEND
  0
POINT
  5
6FA
330
6F3
100
AcDbEntity
  8
DEFPOINTS
  6
ByBlock
 62
     0
 48
10.0
100
AcDbPoint
 10
239.553248
 20
261.012559
 30
0.0
  0
POINT
  5
6FB
330
6F3
100
AcDbEntity
  8
DEFPOINTS
  6
ByBlock
 62
     0
 48
10.0
100
AcDbPoint
 10
239.553248
 20
206.012559
 30
0.0
  0
POINT
  5
6FC
330
6F3
100
AcDbEntity
  8
DEFPOINTS
  6
ByBlock
 62
     0
 48
10.0
100
AcDbPoint
 10
267.1808
 20
206.012559
 30
0.0
  0
ENDBLK
  5
6FE
330
6F3
100
AcDbEntity
  8
0
 48
10.0
100
AcDbBlockEnd
  0
BLOCK
  5
709
330
6FF
100
AcDbEntity
  8
0
 48
10.0
100
AcDbBlockBegin
  2
*D27
 70
     1
 10
0.0
 20
0.0
 30
0.0
  3
*D27
  1

  0
LINE
  5
700
330
6FF
100
AcDbEntity
  8
0
  6
ByBlock
 48
10.0
100
AcDbLine
 10
338.45787
 20
405.620427
 30
0.0
 11
338.45787
 21
432.4129789999999
 31
0.0
  0
LINE
  5
701
330
6FF
100
AcDbEntity
  8
0
  6
ByBlock
 48
10.0
100
AcDbLine
 10
395.45787
 20
405.620427
 30
0.0
 11
395.45787
 21
432.4129789999999
 31
0.0
  0
LINE
  5
702
330
6FF
100
AcDbEntity
  8
0
  6
ByBlock
 48
10.0
100
AcDbLine
 10
342.45787
 20
429.412979
 30
0.0
 11
391.45787
 21
429.412979
 31
0.0
  0
INSERT
  5
703
330
6FF
100
AcDbEntity
  8
0
  6
ByBlock
 48
10.0
100
AcDbBlockReference
  2
_OPEN
 10
338.45787
 20
429.412979
 30
0.0
 41
4.0
 42
4.0
 43
4.0
 50
180.0
  0
INSERT
  5
704
330
6FF
100
AcDbEntity
  8
0
  6
ByBlock
 48
10.0
100
AcDbBlockReference
  2
_OPEN
 10
395.45787
 20
429.412979
 30
0.0
 41
4.0
 42
4.0
 43
4.0
  0
MTEXT
  5
705
330
6FF
100
AcDbEntity
  8
0
  6
ByBlock
 48
10.0
100
AcDbMText
 10
366.95787
 20
434.412979
 30
0.0
 40
6.0
 41
0.0
 71
     5
 72
     1
  1
\A1;57
 73
     1
 44
1.0
1001
ACAD
1000
MTEXTBEGIN
1070
    73
1070
     1
1070
    44
1040
1.0
1070
    74
1070
     0
1000
MTEXTEND
  0
POINT
  5
706
330
6FF
100
AcDbEntity
  8
DEFPOINTS
  6
ByBlock
 62
     0
 48
10.0
100
AcDbPoint
 10
338.45787
 20
403.6204269999999
 30
0.0
  0
POINT
  5
707
330
6FF
100
AcDbEntity
  8
DEFPOINTS
  6
ByBlock
 62
     0
 48
10.0
100
AcDbPoint
 10
395.45787
 20
403.6204269999999
 30
0.0
  0
POINT
  5
708
330
6FF
100
AcDbEntity
  8
DEFPOINTS
  6
ByBlock
 62
     0
 48
10.0
100
AcDbPoint
 10
395.45787
 20
429.412979
 30
0.0
  0
ENDBLK
  5
70A
330
6FF
100
AcDbEntity
  8
0
 48
10.0
100
AcDbBlockEnd
  0
BLOCK
  5
715
330
70B
100
AcDbEntity
  8
0
 48
10.0
100
AcDbBlockBegin
  2
*D28
 70
     1
 10
0.0
 20
0.0
 30
0.0
  3
*D28
  1

  0
LINE
  5
70C
330
70B
100
AcDbEntity
  8
0
  6
ByBlock
 48
10.0
100
AcDbLine
 10
242.140905
 20
371.459693
 30
0.0
 11
256.346159
 21
371.459693
 31
0.0
  0
LINE
  5
70D
330
70B
100
AcDbEntity
  8
0
  6
ByBlock
 48
10.0
100
AcDbLine
 10
249.368414
 20
334.459693
 30
0.0
 11
256.346159
 21
334.459693
 31
0.0
  0
LINE
  5
70E
330
70B
100
AcDbEntity
  8
0
  6
ByBlock
 48
10.0
100
AcDbLine
 10
253.346159
 20
367.459693
 30
0.0
 11
253.346159
 21
338.459693
 31
0.0
  0
INSERT
  5
70F
330
70B
100
AcDbEntity
  8
0
  6
ByBlock
 48
10.0
100
AcDbBlockReference
  2
_OPEN
 10
253.346159
 20
371.459693
 30
0.0
 41
4.0
 42
4.0
 43
4.0
 50
90.0
  0
INSERT
  5
710
330
70B
100
AcDbEntity
  8
0
  6
ByBlock
 48
10.0
100
AcDbBlockReference
  2
_OPEN
 10
253.346159
 20
334.459693
 30
0.0
 41
4.0
 42
4.0
 43
4.0
 50
270.0
  0
MTEXT
  5
711
330
70B
100
AcDbEntity
  8
0
  6
ByBlock
 48
10.0
100
AcDbMText
 10
248.346159
 20
352.959693
 30
0.0
 40
6.0
 41
0.0
 71
     5
 72
     1
  1
\A1;37\U+00B11
  7
DIMENSION
 11
0.0
 21
1.0
 31
0.0
 73
     1
 44
1.0
1001
ACAD
1000
MTEXTBEGIN
1070
    73
1070
     1
1070
    44
1040
1.0
1070
    74
1070
     0
1000
MTEXTEND
  0
POINT
  5
712
330
70B
100
AcDbEntity
  8
DEFPOINTS
  6
ByBlock
 62
     0
 48
10.0
100
AcDbPoint
 10
240.140905
 20
371.459693
 30
0.0
  0
POINT
  5
713
330
70B
100
AcDbEntity
  8
DEFPOINTS
  6
ByBlock
 62
     0
 48
10.0
100
AcDbPoint
 10
247.368414
 20
334.459693
 30
0.0
  0
POINT
  5
714
330
70B
100
AcDbEntity
  8
DEFPOINTS
  6
ByBlock
 62
     0
 48
10.0
100
AcDbPoint
 10
253.346159
 20
334.459693
 30
0.0
  0
ENDBLK
  5
716
330
70B
100
AcDbEntity
  8
0
 48
10.0
100
AcDbBlockEnd
  0
BLOCK
  5
721
330
717
100
AcDbEntity
  8
0
 48
10.0
100
AcDbBlockBegin
  2
*D29
 70
     1
 10
0.0
 20
0.0
 30
0.0
  3
*D29
  1

  0
LINE
  5
718
330
717
100
AcDbEntity
  8
0
  6
ByBlock
 48
10.0
100
AcDbLine
 10
257.596159
 20
334.459693
 30
0.0
 11
268.557046
 21
334.459693
 31
0.0
  0
LINE
  5
719
330
717
100
AcDbEntity
  8
0
  6
ByBlock
 48
10.0
100
AcDbLine
 10
226.675002
 20
404.4585099999999
 30
0.0
 11
268.557046
 21
404.4585099999999
 31
0.0
  0
LINE
  5
71A
330
717
100
AcDbEntity
  8
0
  6
ByBlock
 48
10.0
100
AcDbLine
 10
265.557046
 20
338.459693
 30
0.0
 11
265.557046
 21
400.4585099999999
 31
0.0
  0
INSERT
  5
71B
330
717
100
AcDbEntity
  8
0
  6
ByBlock
 48
10.0
100
AcDbBlockReference
  2
_OPEN
 10
265.557046
 20
334.459693
 30
0.0
 41
4.0
 42
4.0
 43
4.0
 50
270.0
  0
INSERT
  5
71C
330
717
100
AcDbEntity
  8
0
  6
ByBlock
 48
10.0
100
AcDbBlockReference
  2
_OPEN
 10
265.557046
 20
404.4585099999999
 30
0.0
 41
4.0
 42
4.0
 43
4.0
 50
90.0
  0
MTEXT
  5
71D
330
717
100
AcDbEntity
  8
0
  6
ByBlock
 48
10.0
100
AcDbMText
 10
260.557046
 20
369.459102
 30
0.0
 40
6.0
 41
0.0
 71
     5
 72
     1
  1
\A1;70\U+00B11
  7
DIMENSION
 11
0.0
 21
1.0
 31
0.0
 73
     1
 44
1.0
1001
ACAD
1000
MTEXTBEGIN
1070
    73
1070
     1
1070
    44
1040
1.0
1070
    74
1070
     0
1000
MTEXTEND
  0
POINT
  5
71E
330
717
100
AcDbEntity
  8
DEFPOINTS
  6
ByBlock
 62
     0
 48
10.0
100
AcDbPoint
 10
255.596159
 20
334.459693
 30
0.0
  0
POINT
  5
71F
330
717
100
AcDbEntity
  8
DEFPOINTS
  6
ByBlock
 62
     0
 48
10.0
100
AcDbPoint
 10
224.675002
 20
404.4585099999999
 30
0.0
  0
POINT
  5
720
330
717
100
AcDbEntity
  8
DEFPOINTS
  6
ByBlock
 62
     0
 48
10.0
100
AcDbPoint
 10
265.557046
 20
404.4585099999999
 30
0.0
  0
ENDBLK
  5
722
330
717
100
AcDbEntity
  8
0
 48
10.0
100
AcDbBlockEnd
  0
BLOCK
  5
72D
330
723
100
AcDbEntity
  8
0
 48
10.0
100
AcDbBlockBegin
  2
*D30
 70
     1
 10
0.0
 20
0.0
 30
0.0
  3
*D30
  1

  0
LINE
  5
724
330
723
100
AcDbEntity
  8
0
  6
ByBlock
 48
10.0
100
AcDbLine
 10
166.868414
 20
373.459693
 30
0.0
 11
166.868414
 21
454.16069
 31
0.0
  0
LINE
  5
725
330
723
100
AcDbEntity
  8
0
  6
ByBlock
 48
10.0
100
AcDbLine
 10
227.868414
 20
394.58509
 30
0.0
 11
227.868414
 21
454.16069
 31
0.0
  0
LINE
  5
726
330
723
100
AcDbEntity
  8
0
  6
ByBlock
 48
10.0
100
AcDbLine
 10
170.868414
 20
451.16069
 30
0.0
 11
223.868414
 21
451.16069
 31
0.0
  0
INSERT
  5
727
330
723
100
AcDbEntity
  8
0
  6
ByBlock
 48
10.0
100
AcDbBlockReference
  2
_OPEN
 10
166.868414
 20
451.16069
 30
0.0
 41
4.0
 42
4.0
 43
4.0
 50
180.0
  0
INSERT
  5
728
330
723
100
AcDbEntity
  8
0
  6
ByBlock
 48
10.0
100
AcDbBlockReference
  2
_OPEN
 10
227.868414
 20
451.16069
 30
0.0
 41
4.0
 42
4.0
 43
4.0
  0
MTEXT
  5
729
102
{ACAD_XDICTIONARY
360
CA8
102
}
330
723
100
AcDbEntity
  8
0
  6
ByBlock
 48
10.0
100
AcDbMText
 10
197.368414
 20
456.16069
 30
0.0
 40
6.0
 41
0.0
 71
     5
 72
     1
  1
\A1;\U+220561\U+00B11
  7
DIMENSION
 73
     1
 44
1.0
1001
ACAD
1000
MTEXTBEGIN
1070
    73
1070
     1
1070
    44
1040
1.0
1070
    74
1070
     0
1000
MTEXTEND
  0
POINT
  5
72A
330
723
100
AcDbEntity
  8
DEFPOINTS
  6
ByBlock
 62
     0
 48
10.0
100
AcDbPoint
 10
166.868414
 20
371.459693
 30
0.0
  0
POINT
  5
72B
330
723
100
AcDbEntity
  8
DEFPOINTS
  6
ByBlock
 62
     0
 48
10.0
100
AcDbPoint
 10
227.868414
 20
392.58509
 30
0.0
  0
POINT
  5
72C
330
723
100
AcDbEntity
  8
DEFPOINTS
  6
ByBlock
 62
     0
 48
10.0
100
AcDbPoint
 10
227.868414
 20
451.16069
 30
0.0
  0
ENDBLK
  5
72E
330
723
100
AcDbEntity
  8
0
 48
10.0
100
AcDbBlockEnd
  0
BLOCK
  5
739
330
72F
100
AcDbEntity
  8
0
 48
10.0
100
AcDbBlockBegin
  2
*D31
 70
     1
 10
0.0
 20
0.0
 30
0.0
  3
*D31
  1

  0
LINE
  5
730
330
72F
100
AcDbEntity
  8
0
  6
ByBlock
 48
10.0
100
AcDbLine
 10
162.368414
 20
245.846069
 30
0.0
 11
162.368414
 21
274.216144
 31
0.0
  0
LINE
  5
731
330
72F
100
AcDbEntity
  8
0
  6
ByBlock
 48
10.0
100
AcDbLine
 10
232.368414
 20
245.846069
 30
0.0
 11
232.368414
 21
274.216144
 31
0.0
  0
LINE
  5
732
330
72F
100
AcDbEntity
  8
0
  6
ByBlock
 48
10.0
100
AcDbLine
 10
166.368414
 20
271.216144
 30
0.0
 11
228.368414
 21
271.216144
 31
0.0
  0
INSERT
  5
733
330
72F
100
AcDbEntity
  8
0
  6
ByBlock
 48
10.0
100
AcDbBlockReference
  2
_OPEN
 10
162.368414
 20
271.216144
 30
0.0
 41
4.0
 42
4.0
 43
4.0
 50
180.0
  0
INSERT
  5
734
330
72F
100
AcDbEntity
  8
0
  6
ByBlock
 48
10.0
100
AcDbBlockReference
  2
_OPEN
 10
232.368414
 20
271.216144
 30
0.0
 41
4.0
 42
4.0
 43
4.0
  0
MTEXT
  5
735
330
72F
100
AcDbEntity
  8
0
  6
ByBlock
 48
10.0
100
AcDbMText
 10
197.368414
 20
277.882811
 30
0.0
 40
6.0
 41
0.0
 71
     5
 72
     1
  1
\A1;取付寸法70{\H4.000000;\S+2^ -0;}
  7
DIMENSION
 73
     1
 44
1.0
1001
ACAD
1000
MTEXTBEGIN
1070
    73
1070
     1
1070
    44
1040
1.0
1070
    74
1070
     0
1000
MTEXTEND
  0
POINT
  5
736
330
72F
100
AcDbEntity
  8
DEFPOINTS
  6
ByBlock
 62
     0
 48
10.0
100
AcDbPoint
 10
162.368414
 20
243.846069
 30
0.0
  0
POINT
  5
737
330
72F
100
AcDbEntity
  8
DEFPOINTS
  6
ByBlock
 62
     0
 48
10.0
100
AcDbPoint
 10
232.368414
 20
243.846069
 30
0.0
  0
POINT
  5
738
330
72F
100
AcDbEntity
  8
DEFPOINTS
  6
ByBlock
 62
     0
 48
10.0
100
AcDbPoint
 10
232.368414
 20
271.216144
 30
0.0
  0
ENDBLK
  5
73A
330
72F
100
AcDbEntity
  8
0
 48
10.0
100
AcDbBlockEnd
  0
BLOCK
  5
745
330
73B
100
AcDbEntity
  8
0
 48
10.0
100
AcDbBlockBegin
  2
*D32
 70
     1
 10
0.0
 20
0.0
 30
0.0
  3
*D32
  1

  0
LINE
  5
73C
330
73B
100
AcDbEntity
  8
0
  6
ByBlock
 48
10.0
100
AcDbLine
 10
154.868414
 20
258.012559
 30
0.0
 11
154.868414
 21
287.22432
 31
0.0
  0
LINE
  5
73D
330
73B
100
AcDbEntity
  8
0
  6
ByBlock
 48
10.0
100
AcDbLine
 10
239.868414
 20
258.012559
 30
0.0
 11
239.868414
 21
287.22432
 31
0.0
  0
LINE
  5
73E
330
73B
100
AcDbEntity
  8
0
  6
ByBlock
 48
10.0
100
AcDbLine
 10
158.868414
 20
284.22432
 30
0.0
 11
235.868414
 21
284.22432
 31
0.0
  0
INSERT
  5
73F
330
73B
100
AcDbEntity
  8
0
  6
ByBlock
 48
10.0
100
AcDbBlockReference
  2
_OPEN
 10
154.868414
 20
284.22432
 30
0.0
 41
4.0
 42
4.0
 43
4.0
 50
180.0
  0
INSERT
  5
740
330
73B
100
AcDbEntity
  8
0
  6
ByBlock
 48
10.0
100
AcDbBlockReference
  2
_OPEN
 10
239.868414
 20
284.22432
 30
0.0
 41
4.0
 42
4.0
 43
4.0
  0
MTEXT
  5
741
330
73B
100
AcDbEntity
  8
0
  6
ByBlock
 48
10.0
100
AcDbMText
 10
197.368414
 20
289.22432
 30
0.0
 40
6.0
 41
0.0
 71
     5
 72
     1
  1
\A1;85
 73
     1
 44
1.0
1001
ACAD
1000
MTEXTBEGIN
1070
    73
1070
     1
1070
    44
1040
1.0
1070
    74
1070
     0
1000
MTEXTEND
  0
POINT
  5
742
330
73B
100
AcDbEntity
  8
DEFPOINTS
  6
ByBlock
 62
     0
 48
10.0
100
AcDbPoint
 10
154.868414
 20
256.012559
 30
0.0
  0
POINT
  5
743
330
73B
100
AcDbEntity
  8
DEFPOINTS
  6
ByBlock
 62
     0
 48
10.0
100
AcDbPoint
 10
239.868414
 20
256.012559
 30
0.0
  0
POINT
  5
744
330
73B
100
AcDbEntity
  8
DEFPOINTS
  6
ByBlock
 62
     0
 48
10.0
100
AcDbPoint
 10
239.868414
 20
284.22432
 30
0.0
  0
ENDBLK
  5
746
330
73B
100
AcDbEntity
  8
0
 48
10.0
100
AcDbBlockEnd
  0
BLOCK
  5
753
330
747
100
AcDbEntity
  8
0
 48
10.0
100
AcDbBlockBegin
  2
*D33
 70
     1
 10
0.0
 20
0.0
 30
0.0
  3
*D33
  1

  0
LINE
  5
748
330
747
100
AcDbEntity
  8
0
  6
ByBlock
 48
10.0
100
AcDbLine
 10
185.868414
 20
369.459693
 30
0.0
 11
185.868414
 21
342.087688
 31
0.0
  0
LINE
  5
749
330
747
100
AcDbEntity
  8
0
  6
ByBlock
 48
10.0
100
AcDbLine
 10
208.868414
 20
369.459693
 30
0.0
 11
208.868414
 21
342.087688
 31
0.0
  0
LINE
  5
74A
330
747
100
AcDbEntity
  8
0
  6
ByBlock
 48
10.0
100
AcDbLine
 10
181.868414
 20
345.087688
 30
0.0
 11
177.868414
 21
345.087688
 31
0.0
  0
LINE
  5
74B
330
747
100
AcDbEntity
  8
0
  6
ByBlock
 48
10.0
100
AcDbLine
 10
212.868414
 20
345.087688
 30
0.0
 11
216.868414
 21
345.087688
 31
0.0
  0
LINE
  5
74C
330
747
100
AcDbEntity
  8
0
  6
ByBlock
 48
10.0
100
AcDbLine
 10
185.868414
 20
345.087688
 30
0.0
 11
208.868414
 21
345.087688
 31
0.0
  0
INSERT
  5
74D
330
747
100
AcDbEntity
  8
0
  6
ByBlock
 48
10.0
100
AcDbBlockReference
  2
_OPEN
 10
185.868414
 20
345.087688
 30
0.0
 41
4.0
 42
4.0
 43
4.0
  0
INSERT
  5
74E
330
747
100
AcDbEntity
  8
0
  6
ByBlock
 48
10.0
100
AcDbBlockReference
  2
_OPEN
 10
208.868414
 20
345.087688
 30
0.0
 41
4.0
 42
4.0
 43
4.0
 50
180.0
  0
MTEXT
  5
74F
102
{ACAD_XDICTIONARY
360
CAA
102
}
330
747
100
AcDbEntity
  8
0
  6
ByBlock
 48
10.0
100
AcDbMText
 10
197.368414
 20
350.587688
 30
0.0
 40
6.0
 41
0.0
 71
     5
 72
     1
  1
\A1;\U+220523{\H3.000000;\S+2^ -0.3;}
  7
DIMENSION
 73
     1
 44
1.0
1001
ACAD
1000
MTEXTBEGIN
1070
    73
1070
     1
1070
    44
1040
1.0
1070
    74
1070
     0
1000
MTEXTEND
  0
POINT
  5
750
330
747
100
AcDbEntity
  8
DEFPOINTS
  6
ByBlock
 62
     0
 48
10.0
100
AcDbPoint
 10
185.868414
 20
371.459693
 30
0.0
  0
POINT
  5
751
330
747
100
AcDbEntity
  8
DEFPOINTS
  6
ByBlock
 62
     0
 48
10.0
100
AcDbPoint
 10
208.868414
 20
371.459693
 30
0.0
  0
POINT
  5
752
330
747
100
AcDbEntity
  8
DEFPOINTS
  6
ByBlock
 62
     0
 48
10.0
100
AcDbPoint
 10
208.868414
 20
345.087688
 30
0.0
  0
ENDBLK
  5
754
330
747
100
AcDbEntity
  8
0
 48
10.0
100
AcDbBlockEnd
  0
BLOCK
  5
817
330
755
100
AcDbEntity
  8
0
100
AcDbBlockBegin
  2
A$C19F720D7
 70
     0
 10
0.0
 20
0.0
 30
0.0
  3
A$C19F720D7
  1

  0
DIMENSION
  5
756
330
755
100
AcDbEntity
  8
SCALE
 48
10.0
100
AcDbDimension
  2
*D33
 10
54.0
 20
145.07513
 30
0.0
 11
42.5
 21
150.57513
 31
0.0
 12
-154.868415
 22
-200.012559
 32
0.0
  1
%%c<>
 71
     5
 42
-1.0
  3
STANDARD
100
AcDbAlignedDimension
 13
31.0
 23
171.447134
 33
0.0
 14
54.0
 24
171.447134
 34
0.0
100
AcDbRotatedDimension
1001
ACAD
1000
DSTYLE
1002
{
1070
   340
1005
D1
1070
    47
1040
2.0
1070
    71
1070
     1
1070
    48
1040
0.3
1070
   174
1070
     1
1070
   146
1040
0.5
1070
   287
1070
     2
1002
}
  0
CIRCLE
  5
757
330
755
100
AcDbEntity
  8
0
 48
10.0
100
AcDbCircle
 10
42.5
 20
171.447134
 30
0.0
 40
11.5
  0
LINE
  5
758
330
755
100
AcDbEntity
  8
0
 48
10.0
100
AcDbLine
 10
196.292373
 20
203.396252
 30
0.0
 11
215.550194
 21
203.396252
 31
0.0
  0
LINE
  5
759
330
755
100
AcDbEntity
  8
0
 48
10.0
100
AcDbLine
 10
221.292373
 20
203.396252
 30
0.0
 11
224.088723
 21
203.396252
 31
0.0
  0
LINE
  5
75A
330
755
100
AcDbEntity
  8
0
 48
10.0
100
AcDbLine
 10
240.589455
 20
144.447134
 30
0.0
 11
240.589455
 21
139.747134
 31
0.0
  0
ARC
  5
75B
330
755
100
AcDbEntity
  8
0
 48
10.0
100
AcDbCircle
 10
237.589455
 20
139.747134
 30
0.0
 40
3.0
100
AcDbArc
 50
270.0
 51
0.0
  0
LINE
  5
75C
330
755
100
AcDbEntity
  8
0
 48
10.0
100
AcDbLine
 10
240.589455
 20
186.947134
 30
0.0
 11
240.589455
 21
155.947134
 31
0.0
  0
ARC
  5
75D
330
755
100
AcDbEntity
  8
0
 48
10.0
100
AcDbCircle
 10
42.5
 20
171.447134
 30
0.0
 40
30.5
100
AcDbArc
 50
334.374395
 51
0.0
  0
LINE
  5
75E
330
755
100
AcDbEntity
  8
0
 48
10.0
100
AcDbLine
 10
239.589455
 20
136.747134
 30
0.0
 11
239.589455
 21
134.447134
 31
0.0
  0
LINE
  5
75F
330
755
100
AcDbEntity
  8
0
 48
10.0
100
AcDbLine
 10
184.589455
 20
136.747134
 30
0.0
 11
184.589455
 21
134.447134
 31
0.0
  0
DIMENSION
  5
760
330
755
100
AcDbEntity
  8
SCALE
 48
10.0
100
AcDbDimension
  2
*D32
 10
85.0
 20
84.211761
 30
0.0
 11
42.5
 21
89.211761
 31
0.0
 12
-154.868415
 22
-200.012559
 32
0.0
 71
     5
 42
-1.0
  3
STANDARD
100
AcDbAlignedDimension
 13
0.0
 23
56.0
 33
0.0
 14
85.0
 24
56.0
 34
0.0
100
AcDbRotatedDimension
1001
ACAD
1000
DSTYLE
1002
{
1070
    74
1070
     1
1070
   174
1070
     1
1070
   287
1070
     0
1002
}
  0
DIMENSION
  5
761
330
755
100
AcDbEntity
  8
SCALE
 48
10.0
100
AcDbDimension
  2
*D31
 10
77.5
 20
71.203585
 30
0.0
 11
42.5
 21
77.87025200000001
 31
0.0
 12
-154.868415
 22
-200.012559
 32
0.0
  1
取付寸法<>
 71
     5
 42
-1.0
  3
STANDARD
100
AcDbAlignedDimension
 13
7.5
 23
43.83351
 33
0.0
 14
77.5
 24
43.83351
 34
0.0
100
AcDbRotatedDimension
1001
ACAD
1000
DSTYLE
1002
{
1070
   340
1005
D1
1070
    47
1040
2.0
1070
    71
1070
     1
1070
    74
1070
     1
1070
   174
1070
     1
1070
   146
1040
0.666667
1070
   287
1070
     0
1002
}
  0
LINE
  5
762
330
755
100
AcDbEntity
  8
0
 48
10.0
100
AcDbLine
 10
0.0
 20
134.447134
 30
0.0
 11
0.0
 21
136.747134
 31
0.0
  0
LINE
  5
763
330
755
100
AcDbEntity
  8
0
 48
10.0
100
AcDbLine
 10
85.0
 20
134.447134
 30
0.0
 11
85.0
 21
136.747134
 31
0.0
  0
DIMENSION
  5
764
330
755
100
AcDbEntity
  8
SCALE
 48
10.0
100
AcDbDimension
  2
*D30
 10
73.0
 20
251.148132
 30
0.0
 11
42.5
 21
256.148132
 31
0.0
 12
-154.868415
 22
-200.012559
 32
0.0
  1
%%c<>
 71
     5
 42
-1.0
  3
STANDARD
100
AcDbAlignedDimension
 13
12.0
 23
171.447134
 33
0.0
 14
73.0
 24
192.572531
 34
0.0
100
AcDbRotatedDimension
1001
ACAD
1000
DSTYLE
1002
{
1070
   340
1005
D1
1070
    47
1040
1.0
1070
    71
1070
     1
1070
    74
1070
     1
1070
    48
1040
1.0
1070
   174
1070
     1
1070
   287
1070
     0
1002
}
  0
DIMENSION
  5
765
330
755
100
AcDbEntity
  8
SCALE
 48
10.0
100
AcDbDimension
  2
*D29
 10
110.688631
 20
204.445951
 30
0.0
 11
105.688631
 21
169.446543
 31
0.0
 12
-154.868415
 22
-200.012559
 32
0.0
 71
     5
 42
-1.0
  3
STANDARD
100
AcDbAlignedDimension
 13
100.727745
 23
134.447134
 33
0.0
 14
69.80658699999999
 24
204.445951
 34
0.0
 50
90.0
100
AcDbRotatedDimension
1001
ACAD
1000
DSTYLE
1002
{
1070
   340
1005
D1
1070
    47
1040
1.0
1070
    71
1070
     1
1070
    74
1070
     1
1070
    48
1040
1.0
1070
   174
1070
     1
1070
   287
1070
     0
1002
}
  0
DIMENSION
  5
766
330
755
100
AcDbEntity
  8
SCALE
 48
10.0
100
AcDbDimension
  2
*D28
 10
98.47774499999999
 20
134.447134
 30
0.0
 11
93.47774499999999
 21
152.947134
 31
0.0
 12
-154.868415
 22
-200.012559
 32
0.0
 71
     5
 42
-1.0
  3
STANDARD
100
AcDbAlignedDimension
 13
85.27249000000001
 23
171.447134
 33
0.0
 14
92.5
 24
134.447134
 34
0.0
 50
90.0
100
AcDbRotatedDimension
1001
ACAD
1000
DSTYLE
1002
{
1070
   340
1005
D1
1070
    47
1040
1.0
1070
    71
1070
     1
1070
    74
1070
     1
1070
    48
1040
1.0
1070
   174
1070
     1
1070
   287
1070
     0
1002
}
  0
LINE
  5
767
330
755
100
AcDbEntity
  8
0
 48
10.0
100
AcDbLine
 10
73.0
 20
171.447134
 30
0.0
 11
73.0
 21
192.572531
 31
0.0
  0
LINE
  5
768
330
755
100
AcDbEntity
  8
0
 48
10.0
100
AcDbLine
 10
42.5
 20
201.947134
 30
0.0
 11
63.62539599999999
 21
201.947134
 31
0.0
  0
ARC
  5
769
330
755
100
AcDbEntity
  8
0
 48
10.0
100
AcDbCircle
 10
42.5
 20
171.447134
 30
0.0
 40
31.4
100
AcDbArc
 50
90.0
 51
112.276911
  0
ARC
  5
76A
330
755
100
AcDbEntity
  8
0
 48
10.0
100
AcDbCircle
 10
42.5
 20
171.447134
 30
0.0
 40
30.5
100
AcDbArc
 50
90.0
 51
205.625605
  0
DIMENSION
  5
76B
330
755
100
AcDbEntity
  8
SCALE
 48
10.0
100
AcDbDimension
  2
*D27
 10
240.589455
 20
229.40042
 30
0.0
 11
212.089455
 21
234.40042
 31
0.0
 12
-154.868415
 22
-200.012559
 32
0.0
 71
     5
 42
-1.0
  3
STANDARD
100
AcDbAlignedDimension
 13
183.589455
 23
203.607869
 33
0.0
 14
240.589455
 24
203.607869
 34
0.0
100
AcDbRotatedDimension
1001
ACAD
1000
DSTYLE
1002
{
1070
    74
1070
     1
1070
   174
1070
     1
1070
   287
1070
     0
1002
}
  0
DIMENSION
  5
76C
330
755
100
AcDbEntity
  8
SCALE
 48
10.0
100
AcDbDimension
  2
*D26
 10
112.312385
 20
6.0
 30
0.0
 11
112.312385
 21
33.939932
 31
0.0
 12
-154.868415
 22
-200.012559
 32
0.0
 70
   128
 71
     5
 42
-1.0
  3
STANDARD
100
AcDbAlignedDimension
 13
84.684833
 23
61.0
 33
0.0
 14
84.684833
 24
6.0
 34
0.0
 50
90.0
100
AcDbRotatedDimension
1001
ACAD
1000
DSTYLE
1002
{
1070
   288
1070
     1
1070
    74
1070
     1
1070
   174
1070
     1
1070
   287
1070
     0
1002
}
  0
LINE
  5
76D
330
755
100
AcDbEntity
  8
0
 48
10.0
100
AcDbLine
 10
240.589455
 20
144.447134
 30
0.0
 11
240.589455
 21
198.947134
 31
0.0
  0
TEXT
  5
76E
330
755
100
AcDbEntity
  8
1
 48
10.0
100
AcDbText
 10
87.803298
 20
212.561011
 30
0.0
 40
4.5
  1
2-M5
  7
SMP-SET
100
AcDbText
  0
LINE
  5
76F
330
755
100
AcDbEntity
  8
0
 48
10.0
100
AcDbLine
 10
220.188425
 20
201.947134
 30
0.0
 11
237.589455
 21
201.947134
 31
0.0
  0
LINE
  5
770
330
755
100
AcDbEntity
  8
0
 48
10.0
100
AcDbLine
 10
195.188425
 20
201.947134
 30
0.0
 11
216.654142
 21
201.947134
 31
0.0
  0
LINE
  5
771
330
755
100
AcDbEntity
  8
0
 48
10.0
100
AcDbLine
 10
222.921284
 20
198.506138
 30
0.0
 11
222.921284
 21
200.627458
 31
0.0
  0
LINE
  5
772
330
755
100
AcDbEntity
  8
0
 48
10.0
100
AcDbLine
 10
220.921284
 20
201.608829
 30
0.0
 11
218.671284
 21
201.608829
 31
0.0
  0
LINE
  5
773
330
755
100
AcDbEntity
  8
0
 48
10.0
100
AcDbLine
 10
218.671284
 20
201.908829
 30
0.0
 11
220.921284
 21
201.908829
 31
0.0
  0
LINE
  5
774
330
755
100
AcDbEntity
  8
0
 48
10.0
100
AcDbLine
 10
218.171284
 20
199.991062
 30
0.0
 11
218.171284
 21
201.608829
 31
0.0
  0
LINE
  5
775
330
755
100
AcDbEntity
  8
0
 48
10.0
100
AcDbLine
 10
218.671284
 20
201.608829
 30
0.0
 11
218.671284
 21
199.991062
 31
0.0
  0
LINE
  5
776
330
755
100
AcDbEntity
  8
0
 48
10.0
100
AcDbLine
 10
218.671284
 20
199.991062
 30
0.0
 11
218.171284
 21
199.991062
 31
0.0
  0
LINE
  5
777
330
755
100
AcDbEntity
  8
0
 48
10.0
100
AcDbLine
 10
218.171284
 20
203.526596
 30
0.0
 11
218.671284
 21
203.526596
 31
0.0
  0
LINE
  5
778
330
755
100
AcDbEntity
  8
0
 48
10.0
100
AcDbLine
 10
218.171284
 20
201.908829
 30
0.0
 11
218.171284
 21
203.526596
 31
0.0
  0
LINE
  5
779
330
755
100
AcDbEntity
  8
0
 48
10.0
100
AcDbLine
 10
218.671284
 20
203.526596
 30
0.0
 11
218.671284
 21
201.908829
 31
0.0
  0
LINE
  5
77A
330
755
100
AcDbEntity
  8
0
 48
10.0
100
AcDbLine
 10
222.77839
 20
201.422953
 30
0.0
 11
222.025326
 21
202.616762
 31
0.0
  0
ELLIPSE
  5
77B
330
755
100
AcDbEntity
  8
0
 48
10.0
100
AcDbEllipse
 10
218.421284
 20
200.627458
 30
0.0
 11
4.5
 21
0.0
 31
0.0
210
0.0
220
0.0
230
1.0
 40
0.7071069999999999
 41
0.5864457446137627
 42
0.6002567364894062
  0
LINE
  5
77C
330
755
100
AcDbEntity
  8
0
 48
10.0
100
AcDbLine
 10
220.921284
 20
201.908829
 30
0.0
 11
220.921284
 21
201.608829
 31
0.0
  0
ELLIPSE
  5
77D
330
755
100
AcDbEntity
  8
0
 48
10.0
100
AcDbEllipse
 10
218.421284
 20
200.627458
 30
0.0
 11
4.5
 21
0.0
 31
0.0
210
0.0
220
0.0
230
1.0
 40
0.7071069999999999
 41
0.0
 42
0.2526802526318922
  0
ELLIPSE
  5
77E
330
755
100
AcDbEntity
  8
0
 48
10.0
100
AcDbEllipse
 10
218.421284
 20
200.627458
 30
0.0
 11
4.5
 21
0.0
 31
0.0
210
0.0
220
0.0
230
1.0
 40
0.7071069999999999
 41
2.888912400958298
 42
3.141592653589792
  0
LINE
  5
77F
330
755
100
AcDbEntity
  8
0
 48
10.0
100
AcDbLine
 10
213.921284
 20
198.506138
 30
0.0
 11
213.921284
 21
200.627458
 31
0.0
  0
LINE
  5
780
330
755
100
AcDbEntity
  8
0
 48
10.0
100
AcDbLine
 10
215.921284
 20
201.608829
 30
0.0
 11
215.921284
 21
201.908829
 31
0.0
  0
ELLIPSE
  5
781
330
755
100
AcDbEntity
  8
0
 48
10.0
100
AcDbEllipse
 10
218.421284
 20
200.627458
 30
0.0
 11
4.5
 21
0.0
 31
0.0
210
0.0
220
0.0
230
1.0
 40
0.7071069999999999
 41
2.541335917100336
 42
2.555146908976414
  0
LINE
  5
782
330
755
100
AcDbEntity
  8
0
 48
10.0
100
AcDbLine
 10
214.064177
 20
201.422953
 30
0.0
 11
214.817241
 21
202.616762
 31
0.0
  0
ELLIPSE
  5
783
330
755
100
AcDbEntity
  8
0
 48
10.0
100
AcDbEllipse
 10
218.421284
 20
198.506138
 30
0.0
 11
6.0
 21
0.0
 31
0.0
210
0.0
220
0.0
230
1.0
 40
0.7071070000000001
 41
2.383551888848217
 42
7.041226071921161
  0
ELLIPSE
  5
784
330
755
100
AcDbEntity
  8
0
 48
10.0
100
AcDbEllipse
 10
218.421284
 20
199.425377
 30
0.0
 11
4.5
 21
0.0
 31
0.0
210
0.0
220
0.0
230
1.0
 40
0.7071069999999999
 41
3.141592653589792
 42
6.283185307179585
  0
ELLIPSE
  5
785
330
755
100
AcDbEntity
  8
0
 48
10.0
100
AcDbEllipse
 10
218.421284
 20
198.506138
 30
0.0
 11
4.5
 21
0.0
 31
0.0
210
0.0
220
0.0
230
1.0
 40
0.7071069999999999
 41
3.141592653589792
 42
6.283185307179585
  0
ELLIPSE
  5
786
330
755
100
AcDbEntity
  8
0
 48
10.0
100
AcDbEllipse
 10
218.421284
 20
198.152585
 30
0.0
 11
6.0
 21
0.0
 31
0.0
210
0.0
220
0.0
230
1.0
 40
0.7071070000000001
 41
3.099913921265481
 42
6.324864039503895
  0
ELLIPSE
  5
787
330
755
100
AcDbEntity
  8
0
 48
10.0
100
AcDbEllipse
 10
218.421284
 20
197.799031
 30
0.0
 11
6.0
 21
0.0
 31
0.0
210
0.0
220
0.0
230
1.0
 40
0.7071070000000001
 41
3.058162567176281
 42
6.366615393593098
  0
ELLIPSE
  5
788
330
755
100
AcDbEntity
  8
0
 48
10.0
100
AcDbEllipse
 10
218.421284
 20
201.467246
 30
0.0
 11
3.949999999999987
 21
0.0
 31
0.0
210
0.0
220
0.0
230
0.9999999999999998
 40
0.711073
 41
0.0
 42
6.283185307179585
  0
LINE
  5
789
330
755
100
AcDbEntity
  8
0
 48
10.0
100
AcDbLine
 10
215.921284
 20
201.908829
 30
0.0
 11
218.171284
 21
201.908829
 31
0.0
  0
LINE
  5
78A
330
755
100
AcDbEntity
  8
0
 48
10.0
100
AcDbLine
 10
218.171284
 20
201.608829
 30
0.0
 11
215.921284
 21
201.608829
 31
0.0
  0
LINE
  5
78B
330
755
100
AcDbEntity
  8
0
 48
10.0
100
AcDbLine
 10
197.921284
 20
198.506138
 30
0.0
 11
197.921284
 21
200.627458
 31
0.0
  0
LINE
  5
78C
330
755
100
AcDbEntity
  8
0
 48
10.0
100
AcDbLine
 10
195.921284
 20
201.608829
 30
0.0
 11
193.671284
 21
201.608829
 31
0.0
  0
LINE
  5
78D
330
755
100
AcDbEntity
  8
0
 48
10.0
100
AcDbLine
 10
193.671284
 20
201.908829
 30
0.0
 11
195.921284
 21
201.908829
 31
0.0
  0
LINE
  5
78E
330
755
100
AcDbEntity
  8
0
 48
10.0
100
AcDbLine
 10
193.171284
 20
199.991062
 30
0.0
 11
193.171284
 21
201.608829
 31
0.0
  0
LINE
  5
78F
330
755
100
AcDbEntity
  8
0
 48
10.0
100
AcDbLine
 10
193.671284
 20
201.608829
 30
0.0
 11
193.671284
 21
199.991062
 31
0.0
  0
LINE
  5
790
330
755
100
AcDbEntity
  8
0
 48
10.0
100
AcDbLine
 10
193.671284
 20
199.991062
 30
0.0
 11
193.171284
 21
199.991062
 31
0.0
  0
LINE
  5
791
330
755
100
AcDbEntity
  8
0
 48
10.0
100
AcDbLine
 10
193.171284
 20
203.526596
 30
0.0
 11
193.671284
 21
203.526596
 31
0.0
  0
LINE
  5
792
330
755
100
AcDbEntity
  8
0
 48
10.0
100
AcDbLine
 10
193.171284
 20
201.908829
 30
0.0
 11
193.171284
 21
203.526596
 31
0.0
  0
LINE
  5
793
330
755
100
AcDbEntity
  8
0
 48
10.0
100
AcDbLine
 10
193.671284
 20
203.526596
 30
0.0
 11
193.671284
 21
201.908829
 31
0.0
  0
LINE
  5
794
330
755
100
AcDbEntity
  8
0
 48
10.0
100
AcDbLine
 10
197.77839
 20
201.422953
 30
0.0
 11
197.025326
 21
202.616762
 31
0.0
  0
ELLIPSE
  5
795
330
755
100
AcDbEntity
  8
0
 48
10.0
100
AcDbEllipse
 10
193.421284
 20
200.627458
 30
0.0
 11
4.5
 21
0.0
 31
0.0
210
0.0
220
0.0
230
1.0
 40
0.7071069999999999
 41
0.5864457446137627
 42
0.6002567364894062
  0
LINE
  5
796
330
755
100
AcDbEntity
  8
0
 48
10.0
100
AcDbLine
 10
195.921284
 20
201.908829
 30
0.0
 11
195.921284
 21
201.608829
 31
0.0
  0
ELLIPSE
  5
797
330
755
100
AcDbEntity
  8
0
 48
10.0
100
AcDbEllipse
 10
193.421284
 20
200.627458
 30
0.0
 11
4.5
 21
0.0
 31
0.0
210
0.0
220
0.0
230
1.0
 40
0.7071069999999999
 41
0.0
 42
0.2526802526318922
  0
ELLIPSE
  5
798
330
755
100
AcDbEntity
  8
0
 48
10.0
100
AcDbEllipse
 10
193.421284
 20
200.627458
 30
0.0
 11
4.5
 21
0.0
 31
0.0
210
0.0
220
0.0
230
1.0
 40
0.7071069999999999
 41
2.888912400958298
 42
3.141592653589792
  0
LINE
  5
799
330
755
100
AcDbEntity
  8
0
 48
10.0
100
AcDbLine
 10
188.921284
 20
198.506138
 30
0.0
 11
188.921284
 21
200.627458
 31
0.0
  0
LINE
  5
79A
330
755
100
AcDbEntity
  8
0
 48
10.0
100
AcDbLine
 10
190.921284
 20
201.608829
 30
0.0
 11
190.921284
 21
201.908829
 31
0.0
  0
ELLIPSE
  5
79B
330
755
100
AcDbEntity
  8
0
 48
10.0
100
AcDbEllipse
 10
193.421284
 20
200.627458
 30
0.0
 11
4.5
 21
0.0
 31
0.0
210
0.0
220
0.0
230
1.0
 40
0.7071069999999999
 41
2.541335917100336
 42
2.555146908976414
  0
LINE
  5
79C
330
755
100
AcDbEntity
  8
0
 48
10.0
100
AcDbLine
 10
189.064177
 20
201.422953
 30
0.0
 11
189.817241
 21
202.616762
 31
0.0
  0
ELLIPSE
  5
79D
330
755
100
AcDbEntity
  8
0
 48
10.0
100
AcDbEllipse
 10
193.421284
 20
198.506138
 30
0.0
 11
6.0
 21
0.0
 31
0.0
210
0.0
220
0.0
230
1.0
 40
0.7071070000000001
 41
2.383551888848217
 42
7.041226071921161
  0
ELLIPSE
  5
79E
330
755
100
AcDbEntity
  8
0
 48
10.0
100
AcDbEllipse
 10
193.421284
 20
199.425377
 30
0.0
 11
4.5
 21
0.0
 31
0.0
210
0.0
220
0.0
230
1.0
 40
0.7071069999999999
 41
3.141592653589792
 42
6.283185307179585
  0
ELLIPSE
  5
79F
330
755
100
AcDbEntity
  8
0
 48
10.0
100
AcDbEllipse
 10
193.421284
 20
198.506138
 30
0.0
 11
4.5
 21
0.0
 31
0.0
210
0.0
220
0.0
230
1.0
 40
0.7071069999999999
 41
3.141592653589792
 42
6.283185307179585
  0
ELLIPSE
  5
7A0
330
755
100
AcDbEntity
  8
0
 48
10.0
100
AcDbEllipse
 10
193.421284
 20
198.152585
 30
0.0
 11
6.0
 21
0.0
 31
0.0
210
0.0
220
0.0
230
1.0
 40
0.7071070000000001
 41
3.099913921265481
 42
6.324864039503895
  0
ELLIPSE
  5
7A1
330
755
100
AcDbEntity
  8
0
 48
10.0
100
AcDbEllipse
 10
193.421284
 20
197.799031
 30
0.0
 11
6.0
 21
0.0
 31
0.0
210
0.0
220
0.0
230
1.0
 40
0.7071070000000001
 41
3.058162567176281
 42
6.366615393593098
  0
ELLIPSE
  5
7A2
330
755
100
AcDbEntity
  8
0
 48
10.0
100
AcDbEllipse
 10
193.421284
 20
201.467246
 30
0.0
 11
3.949999999999987
 21
0.0
 31
0.0
210
0.0
220
0.0
230
0.9999999999999998
 40
0.711073
 41
0.0
 42
6.283185307179585
  0
LINE
  5
7A3
330
755
100
AcDbEntity
  8
0
 48
10.0
100
AcDbLine
 10
190.921284
 20
201.908829
 30
0.0
 11
193.171284
 21
201.908829
 31
0.0
  0
LINE
  5
7A4
330
755
100
AcDbEntity
  8
0
 48
10.0
100
AcDbLine
 10
193.171284
 20
201.608829
 30
0.0
 11
190.921284
 21
201.608829
 31
0.0
  0
ARC
  5
7A5
330
755
100
AcDbEntity
  8
0
 48
10.0
100
AcDbCircle
 10
237.589455
 20
198.947134
 30
0.0
 40
3.0
100
AcDbArc
 50
0.0
 51
90.0
  0
LINE
  5
7A6
330
755
100
AcDbEntity
  8
1
 48
10.0
100
AcDbLine
 10
240.567228
 20
188.097167
 30
0.0
 11
245.871216
 21
188.854271
 31
0.0
  0
LINE
  5
7A7
330
755
100
AcDbEntity
  8
0
 48
10.0
100
AcDbLine
 10
240.589455
 20
186.947134
 30
0.0
 11
240.589455
 21
198.947134
 31
0.0
  0
TEXT
  5
7A8
330
755
100
AcDbEntity
  8
0
 48
10.0
100
AcDbText
 10
252.0119141428571
 20
191.425309
 30
0.0
 40
10.0
  1
L
  7
SMP-SET
 72
     4
 11
254.869057
 21
196.425309
 31
0.0
100
AcDbText
  0
LINE
  5
7A9
330
755
100
AcDbEntity
  8
1
 48
10.0
100
AcDbLine
 10
261.783177
 20
188.097167
 30
0.0
 11
240.567228
 21
188.097167
 31
0.0
  0
LINE
  5
7AA
330
755
100
AcDbEntity
  8
CENTER
 48
10.0
100
AcDbLine
 10
218.421284
 20
202.327196
 30
0.0
 11
218.421284
 21
191.84946
 31
0.0
  0
LINE
  5
7AB
330
755
100
AcDbEntity
  8
CENTER
 48
10.0
100
AcDbLine
 10
208.799168
 20
197.091924
 30
0.0
 11
224.738132
 21
197.091924
 31
0.0
  0
ARC
  5
7AC
330
755
100
AcDbEntity
  8
0
 48
10.0
100
AcDbCircle
 10
186.589455
 20
198.947134
 30
0.0
 40
3.0
100
AcDbArc
 50
90.0
 51
180.0
  0
LINE
  5
7AD
330
755
100
AcDbEntity
  8
0
 48
10.0
100
AcDbLine
 10
186.382267
 20
203.396252
 30
0.0
 11
191.145941
 21
205.566289
 31
0.0
  0
LINE
  5
7AE
330
755
100
AcDbEntity
  8
CENTER
 48
10.0
100
AcDbLine
 10
193.421284
 20
202.327196
 30
0.0
 11
193.421284
 21
191.84946
 31
0.0
  0
LINE
  5
7AF
330
755
100
AcDbEntity
  8
0
 48
10.0
100
AcDbLine
 10
183.589455
 20
186.947134
 30
0.0
 11
183.589455
 21
198.947134
 31
0.0
  0
LINE
  5
7B0
330
755
100
AcDbEntity
  8
0
 48
10.0
100
AcDbLine
 10
186.337645
 20
192.572531
 30
0.0
 11
225.173226
 21
192.572531
 31
0.0
  0
LINE
  5
7B1
330
755
100
AcDbEntity
  8
CENTER
 48
10.0
100
AcDbLine
 10
185.310167
 20
197.091924
 30
0.0
 11
201.668579
 21
197.091924
 31
0.0
  0
DIMENSION
  5
7B2
330
755
100
AcDbEntity
  8
SCALE
 48
10.0
100
AcDbDimension
  2
*D25
 10
218.421284
 20
214.640393
 30
0.0
 11
205.921284
 21
219.640393
 31
0.0
 12
-154.868415
 22
-200.012559
 32
0.0
 71
     5
 42
-1.0
  3
STANDARD
100
AcDbAlignedDimension
 13
193.421284
 23
204.955839
 33
0.0
 14
218.421284
 24
204.955839
 34
0.0
100
AcDbRotatedDimension
  0
LINE
  5
7B3
330
755
100
AcDbEntity
  8
0
 48
10.0
100
AcDbLine
 10
186.382267
 20
203.396252
 30
0.0
 11
190.550194
 21
203.396252
 31
0.0
  0
TEXT
  5
7B4
330
755
100
AcDbEntity
  8
1
 48
10.0
100
AcDbText
 10
87.803298
 20
222.911849
 30
0.0
 40
4.5
  1
二次端子
  7
SMP-SET
100
AcDbText
  0
LINE
  5
7B5
330
755
100
AcDbEntity
  8
1
 48
10.0
100
AcDbLine
 10
112.050096
 20
219.504882
 30
0.0
 11
84.01473499999999
 21
219.504882
 31
0.0
  0
LINE
  5
7B6
330
755
100
AcDbEntity
  8
1
 48
10.0
100
AcDbLine
 10
73.40675899999999
 20
202.470046
 30
0.0
 11
74.164472
 21
205.498462
 31
0.0
  0
LINE
  5
7B7
330
755
100
AcDbEntity
  8
0
 48
10.0
100
AcDbLine
 10
64.777164
 20
200.795367
 30
0.0
 11
65.48427099999999
 21
201.502473
 31
0.0
  0
LINE
  5
7B8
330
755
100
AcDbEntity
  8
0
 48
10.0
100
AcDbLine
 10
65.48427099999999
 20
201.502473
 30
0.0
 11
64.777164
 21
202.20958
 31
0.0
  0
LINE
  5
7B9
330
755
100
AcDbEntity
  8
0
 48
10.0
100
AcDbLine
 10
64.777164
 20
202.20958
 30
0.0
 11
65.13071700000001
 21
202.563134
 31
0.0
  0
LINE
  5
7BA
330
755
100
AcDbEntity
  8
0
 48
10.0
100
AcDbLine
 10
65.48427099999999
 20
202.916687
 30
0.0
 11
65.13071700000001
 21
202.563134
 31
0.0
  0
LINE
  5
7BB
330
755
100
AcDbEntity
  8
0
 48
10.0
100
AcDbLine
 10
66.544931
 20
201.856027
 30
0.0
 11
67.46417
 21
202.775266
 31
0.0
  0
LINE
  5
7BC
330
755
100
AcDbEntity
  8
0
 48
10.0
100
AcDbLine
 10
67.46417
 20
202.775266
 30
0.0
 11
68.666251
 21
203.977347
 31
0.0
  0
ARC
  5
7BD
330
755
100
AcDbEntity
  8
0
 48
10.0
100
AcDbCircle
 10
69.797622
 20
202.845976
 30
0.0
 40
1.6
100
AcDbArc
 50
45.0
 51
135.0
  0
LINE
  5
7BE
330
755
100
AcDbEntity
  8
0
 48
10.0
100
AcDbLine
 10
72.555339
 20
194.431406
 30
0.0
 11
71.848232
 21
193.724299
 31
0.0
  0
LINE
  5
7BF
330
755
100
AcDbEntity
  8
0
 48
10.0
100
AcDbLine
 10
73.615999
 20
194.077852
 30
0.0
 11
73.262445
 21
193.724299
 31
0.0
  0
LINE
  5
7C0
330
755
100
AcDbEntity
  8
0
 48
10.0
100
AcDbLine
 10
73.262445
 20
193.724299
 30
0.0
 11
72.555339
 21
194.431406
 31
0.0
  0
LINE
  5
7C1
330
755
100
AcDbEntity
  8
0
 48
10.0
100
AcDbLine
 10
73.615999
 20
194.077852
 30
0.0
 11
73.969552
 21
194.431406
 31
0.0
  0
LINE
  5
7C2
330
755
100
AcDbEntity
  8
0
 48
10.0
100
AcDbLine
 10
73.82813099999999
 20
196.411305
 30
0.0
 11
72.90889200000001
 21
195.492066
 31
0.0
  0
LINE
  5
7C3
330
755
100
AcDbEntity
  8
0
 48
10.0
100
AcDbLine
 10
75.030212
 20
197.613386
 30
0.0
 11
73.82813099999999
 21
196.411305
 31
0.0
  0
ARC
  5
7C4
330
755
100
AcDbEntity
  8
0
 48
10.0
100
AcDbCircle
 10
73.898842
 20
198.744757
 30
0.0
 40
1.6
100
AcDbArc
 50
315.0
 51
45.0
  0
LINE
  5
7C5
330
755
100
AcDbEntity
  8
0
 48
10.0
100
AcDbLine
 10
70.292597
 20
199.946839
 30
0.0
 11
70.080465
 21
198.320493
 31
0.0
  0
LINE
  5
7C6
330
755
100
AcDbEntity
  8
0
 48
10.0
100
AcDbLine
 10
65.48427099999999
 20
201.502473
 30
0.0
 11
72.555339
 21
194.431406
 31
0.0
  0
LINE
  5
7C7
330
755
100
AcDbEntity
  8
0
 48
10.0
100
AcDbLine
 10
65.13071700000001
 20
202.563134
 30
0.0
 11
73.615999
 21
194.077852
 31
0.0
  0
LINE
  5
7C8
330
755
100
AcDbEntity
  8
0
 48
10.0
100
AcDbLine
 10
73.969552
 20
194.431406
 30
0.0
 11
65.48427099999999
 21
202.916687
 31
0.0
  0
LINE
  5
7C9
330
755
100
AcDbEntity
  8
0
 48
10.0
100
AcDbLine
 10
67.46417
 20
202.775266
 30
0.0
 11
73.82813099999999
 21
196.411305
 31
0.0
  0
LINE
  5
7CA
330
755
100
AcDbEntity
  8
0
 48
10.0
100
AcDbLine
 10
70.928993
 20
203.977347
 30
0.0
 11
75.030212
 21
199.876128
 31
0.0
  0
LINE
  5
7CB
330
755
100
AcDbEntity
  8
1
 48
10.0
100
AcDbLine
 10
84.01473499999999
 20
219.504882
 30
0.0
 11
73.40675899999999
 21
202.470046
 31
0.0
  0
TEXT
  5
7CC
330
755
100
AcDbEntity
  8
0
 48
10.0
100
AcDbText
 10
59.81031857142857
 20
187.519033
 30
0.0
 40
6.0
  1
k
  7
ITL-SET
 72
     4
 11
62.23889
 21
190.519033
 31
0.0
100
AcDbText
  0
TEXT
  5
7CD
330
755
100
AcDbEntity
  8
0
 48
10.0
100
AcDbText
 10
41.022164
 20
194.060138
 30
0.0
 40
6.0
  1
K
  7
SMP-SET
 72
     4
 11
43.022164
 21
197.060138
 31
0.0
100
AcDbText
  0
LINE
  5
7CE
330
755
100
AcDbEntity
  8
0
100
AcDbLine
 10
42.5
 20
202.847134
 30
0.0
 11
56.332409
 21
202.847134
 31
0.0
  0
MTEXT
  5
7CF
102
{ACAD_REACTORS
330
7D0
102
}
330
755
100
AcDbEntity
  8
SCALE
 48
10.0
100
AcDbMText
 10
41.7548
 20
218.518362
 30
0.0
 40
4.5
 41
0.0
 71
     6
 72
     1
  1
銘板
 11
-1.0
 21
0.0
 31
0.0
 73
     1
 44
1.0
1001
ACAD
1000
MTEXTBEGIN
1070
    73
1070
     1
1070
    44
1040
1.0
1070
    74
1070
     0
1000
MTEXTEND
  0
LEADER
  5
7D0
330
755
100
AcDbEntity
  8
SCALE
 48
10.0
100
AcDbLeader
  3
STANDARD
 73
     0
 75
     1
 40
4.500000000000002
 41
9.599999999999999
 76
     3
 10
42.23208999999999
 20
202.734207
 30
0.0
 10
37.25480000000001
 20
222.268362
 30
0.0
 10
40.2548
 20
222.268362
 30
0.0
340
7CF
211
-1.0
221
0.0000000000000001
231
0.0
1001
ACAD
1000
DSTYLE
1002
{
1070
     3
1000
%%c<>
1002
}
  0
LINE
  5
7D1
330
755
100
AcDbEntity
  8
0
100
AcDbLine
 10
63.62539599999999
 20
201.947134
 30
0.0
 11
73.0
 21
192.572531
 31
0.0
  0
LINE
  5
7D2
330
755
100
AcDbEntity
  8
CENTER
 48
10.0
100
AcDbLine
 10
61.27055600000001
 20
190.217691
 30
0.0
 11
75.15668599999999
 21
204.10382
 31
0.0
  0
LINE
  5
7D3
330
755
100
AcDbEntity
  8
0
 48
10.0
100
AcDbLine
 10
216.089455
 20
136.747134
 30
0.0
 11
216.089455
 21
134.447134
 31
0.0
  0
LINE
  5
7D4
330
755
100
AcDbEntity
  8
0
 48
10.0
100
AcDbLine
 10
196.368492
 20
149.247134
 30
0.0
 11
196.368492
 21
144.247134
 31
0.0
  0
LINE
  5
7D5
330
755
100
AcDbEntity
  8
0
 48
10.0
100
AcDbLine
 10
196.368492
 20
144.247134
 30
0.0
 11
198.368492
 21
144.247134
 31
0.0
  0
LINE
  5
7D6
330
755
100
AcDbEntity
  8
0
 48
10.0
100
AcDbLine
 10
198.368492
 20
144.247134
 30
0.0
 11
198.368492
 21
149.247134
 31
0.0
  0
LINE
  5
7D7
330
755
100
AcDbEntity
  8
0
 48
10.0
100
AcDbLine
 10
198.368492
 20
149.247134
 30
0.0
 11
196.368492
 21
149.247134
 31
0.0
  0
LINE
  5
7D8
330
755
100
AcDbEntity
  8
0
 48
10.0
100
AcDbLine
 10
208.089455
 20
136.747134
 30
0.0
 11
208.089455
 21
134.447134
 31
0.0
  0
LINE
  5
7D9
330
755
100
AcDbEntity
  8
CENTER
 48
10.0
100
AcDbLine
 10
212.089455
 20
144.081544
 30
0.0
 11
212.089455
 21
124.592953
 31
0.0
  0
ARC
  5
7DA
330
755
100
AcDbEntity
  8
0
 48
10.0
100
AcDbCircle
 10
186.589455
 20
139.747134
 30
0.0
 40
3.0
100
AcDbArc
 50
180.0
 51
270.0
  0
LINE
  5
7DB
330
755
100
AcDbEntity
  8
0
 48
10.0
100
AcDbLine
 10
183.589455
 20
139.747134
 30
0.0
 11
183.589455
 21
155.947134
 31
0.0
  0
LINE
  5
7DC
330
755
100
AcDbEntity
  8
CENTER
 48
10.0
100
AcDbLine
 10
192.859594
 20
146.747134
 30
0.0
 11
201.730972
 21
146.747134
 31
0.0
  0
CIRCLE
  5
7DD
330
755
100
AcDbEntity
  8
0
 48
10.0
100
AcDbCircle
 10
72.5
 20
146.747134
 30
0.0
 40
1.0
  0
LINE
  5
7DE
330
755
100
AcDbEntity
  8
0
 48
10.0
100
AcDbLine
 10
71.0
 20
149.247134
 30
0.0
 11
72.5
 21
149.247134
 31
0.0
  0
LINE
  5
7DF
330
755
100
AcDbEntity
  8
0
 48
10.0
100
AcDbLine
 10
71.0
 20
144.247134
 30
0.0
 11
72.5
 21
144.247134
 31
0.0
  0
ARC
  5
7E0
330
755
100
AcDbEntity
  8
0
 48
10.0
100
AcDbCircle
 10
71.0
 20
150.247134
 30
0.0
 40
1.0
100
AcDbArc
 50
180.0
 51
270.0
  0
ARC
  5
7E1
330
755
100
AcDbEntity
  8
0
 48
10.0
100
AcDbCircle
 10
72.5
 20
146.747134
 30
0.0
 40
2.5
100
AcDbArc
 50
270.0
 51
90.0
  0
LINE
  5
7E2
330
755
100
AcDbEntity
  8
CENTER
 48
10.0
100
AcDbLine
 10
68.766738
 20
146.747134
 30
0.0
 11
76.37077600000001
 21
146.747134
 31
0.0
  0
LINE
  5
7E3
330
755
100
AcDbEntity
  8
0
 48
10.0
100
AcDbLine
 10
70.0
 20
143.247134
 30
0.0
 11
70.0
 21
139.747134
 31
0.0
  0
ARC
  5
7E4
330
755
100
AcDbEntity
  8
0
 48
10.0
100
AcDbCircle
 10
71.0
 20
143.247134
 30
0.0
 40
1.0
100
AcDbArc
 50
90.0
 51
180.0
  0
LINE
  5
7E5
330
755
100
AcDbEntity
  8
0
 48
10.0
100
AcDbLine
 10
70.0
 20
158.256228
 30
0.0
 11
70.0
 21
143.247134
 31
0.0
  0
LINE
  5
7E6
330
755
100
AcDbEntity
  8
CENTER
 48
10.0
100
AcDbLine
 10
72.5
 20
150.327166
 30
0.0
 11
72.5
 21
143.362412
 31
0.0
  0
LINE
  5
7E7
330
755
100
AcDbEntity
  8
0
100
AcDbLine
 10
70.0
 20
153.222146
 30
0.0
 11
70.0
 21
150.247134
 31
0.0
  0
ARC
  5
7E8
330
755
100
AcDbEntity
  8
0
 48
10.0
100
AcDbCircle
 10
67.0
 20
139.747134
 30
0.0
 40
3.0
100
AcDbArc
 50
270.0
 51
0.0
  0
LINE
  5
7E9
330
755
100
AcDbEntity
  8
0
 48
10.0
100
AcDbLine
 10
67.0
 20
136.747134
 30
0.0
 11
85.0
 21
136.747134
 31
0.0
  0
ARC
  5
7EA
330
755
100
AcDbEntity
  8
0
 48
10.0
100
AcDbCircle
 10
80.0
 20
56.0
 30
0.0
 40
5.0
100
AcDbArc
 50
0.0
 51
90.0
  0
LINE
  5
7EB
330
755
100
AcDbEntity
  8
0
 48
10.0
100
AcDbLine
 10
77.5
 20
37.5
 30
0.0
 11
85.0
 21
37.5
 31
0.0
  0
LINE
  5
7EC
330
755
100
AcDbEntity
  8
0
 48
10.0
100
AcDbLine
 10
77.5
 20
29.5
 30
0.0
 11
85.0
 21
29.5
 31
0.0
  0
LINE
  5
7ED
330
755
100
AcDbEntity
  8
CENTER
 48
10.0
100
AcDbLine
 10
69.197698
 20
33.5
 30
0.0
 11
82.023875
 21
33.5
 31
0.0
  0
ARC
  5
7EE
330
755
100
AcDbEntity
  8
0
 48
10.0
100
AcDbCircle
 10
77.5
 20
33.5
 30
0.0
 40
4.0
100
AcDbArc
 50
90.0
 51
270.0
  0
LINE
  5
7EF
330
755
100
AcDbEntity
  8
CENTER
 48
10.0
100
AcDbLine
 10
77.5
 20
43.83351
 30
0.0
 11
77.5
 21
22.206774
 31
0.0
  0
DIMENSION
  5
7F0
330
755
100
AcDbEntity
  8
SCALE
 48
10.0
100
AcDbDimension
  2
*D24
 10
93.33160500000001
 20
29.500001
 30
0.0
 11
88.33160500000001
 21
21.500001
 31
0.0
 12
-154.868415
 22
-200.012559
 32
0.0
  1
7
 71
     5
 42
-1.0
  3
STANDARD
100
AcDbAlignedDimension
 13
85.0
 23
37.500001
 33
0.0
 14
85.0
 24
29.500001
 34
0.0
 50
90.0
100
AcDbRotatedDimension
  0
LINE
  5
7F1
330
755
100
AcDbEntity
  8
0
 48
10.0
100
AcDbLine
 10
85.0
 20
37.5
 30
0.0
 11
85.0
 21
56.0
 31
0.0
  0
CIRCLE
  5
7F2
330
755
100
AcDbEntity
  8
0
 48
10.0
100
AcDbCircle
 10
60.0
 20
33.5
 30
0.0
 40
5.599999999999999
  0
LINE
  5
7F3
330
755
100
AcDbEntity
  8
CENTER
 48
10.0
100
AcDbLine
 10
60.0
 20
43.83351
 30
0.0
 11
60.0
 21
22.607269
 31
0.0
  0
CIRCLE
  5
7F4
330
755
100
AcDbEntity
  8
0
 48
10.0
100
AcDbCircle
 10
25.0
 20
33.5
 30
0.0
 40
5.599999999999999
  0
LINE
  5
7F5
330
755
100
AcDbEntity
  8
CENTER
 48
10.0
100
AcDbLine
 10
25.0
 20
43.83351
 30
0.0
 11
25.0
 21
22.607269
 31
0.0
  0
LINE
  5
7F6
330
755
100
AcDbEntity
  8
CENTER
 48
10.0
100
AcDbLine
 10
30.603626
 20
51.0
 30
0.0
 11
55.45434300000001
 21
51.0
 31
0.0
  0
CIRCLE
  5
7F7
330
755
100
AcDbEntity
  8
0
 48
10.0
100
AcDbCircle
 10
42.5
 20
51.0
 30
0.0
 40
5.599999999999999
  0
ARC
  5
7F8
330
755
100
AcDbEntity
  8
0
 48
10.0
100
AcDbCircle
 10
80.0
 20
11.0
 30
0.0
 40
5.0
100
AcDbArc
 50
270.0
 51
0.0
  0
LINE
  5
7F9
330
755
100
AcDbEntity
  8
CENTER
 48
10.0
100
AcDbLine
 10
30.603626
 20
16.0
 30
0.0
 11
55.45434300000001
 21
16.0
 31
0.0
  0
LINE
  5
7FA
330
755
100
AcDbEntity
  8
0
 48
10.0
100
AcDbLine
 10
85.0
 20
11.0
 30
0.0
 11
85.0
 21
29.5
 31
0.0
  0
LINE
  5
7FB
330
755
100
AcDbEntity
  8
CENTER
 48
10.0
100
AcDbLine
 10
42.5
 20
67.0
 30
0.0
 11
42.5
 21
0.0
 31
0.0
  0
CIRCLE
  5
7FC
330
755
100
AcDbEntity
  8
0
 48
10.0
100
AcDbCircle
 10
42.5
 20
16.0
 30
0.0
 40
5.599999999999999
  0
ARC
  5
7FD
330
755
100
AcDbEntity
  8
0
 48
10.0
100
AcDbCircle
 10
18.0
 20
139.747134
 30
0.0
 40
3.0
100
AcDbArc
 50
180.0
 51
270.0
  0
LINE
  5
7FE
330
755
100
AcDbEntity
  8
0
 48
10.0
100
AcDbLine
 10
0.0
 20
136.747134
 30
0.0
 11
18.0
 21
136.747134
 31
0.0
  0
LINE
  5
7FF
330
755
100
AcDbEntity
  8
0
100
AcDbLine
 10
15.0
 20
158.256228
 30
0.0
 11
15.0
 21
139.747134
 31
0.0
  0
ARC
  5
800
330
755
100
AcDbEntity
  8
0
 48
10.0
100
AcDbCircle
 10
5.0
 20
56.0
 30
0.0
 40
5.0
100
AcDbArc
 50
90.0
 51
180.0
  0
LINE
  5
801
330
755
100
AcDbEntity
  8
CENTER
 48
10.0
100
AcDbLine
 10
3.232457
 20
33.5
 30
0.0
 11
16.058634
 21
33.5
 31
0.0
  0
ARC
  5
802
330
755
100
AcDbEntity
  8
0
 48
10.0
100
AcDbCircle
 10
7.5
 20
33.5
 30
0.0
 40
4.0
100
AcDbArc
 50
270.0
 51
90.0
  0
LINE
  5
803
330
755
100
AcDbEntity
  8
CENTER
 48
10.0
100
AcDbLine
 10
7.5
 20
43.83351
 30
0.0
 11
7.5
 21
22.206774
 31
0.0
  0
DIMENSION
  5
804
330
755
100
AcDbEntity
  8
SCALE
 48
10.0
100
AcDbDimension
  2
*D23
 10
7.5
 20
33.500001
 30
0.0
 11
20.394039
 21
45.391733
 31
0.0
 12
-154.868415
 22
-200.012559
 32
0.0
 70
   132
  1
R3.5
 71
     5
 42
-1.0
  3
STANDARD
100
AcDbRadialDimension
 15
8.036108
 25
37.463911
 35
0.0
 40
0.0
1001
ACAD
1000
DSTYLE
1002
{
1070
   288
1070
     1
1070
    74
1070
     1
1070
   174
1070
     1
1070
   287
1070
     0
1002
}
  0
LINE
  5
805
330
755
100
AcDbEntity
  8
0
 48
10.0
100
AcDbLine
 10
0.0
 20
37.5
 30
0.0
 11
7.5
 21
37.5
 31
0.0
  0
LINE
  5
806
330
755
100
AcDbEntity
  8
0
 48
10.0
100
AcDbLine
 10
0.0
 20
29.5
 30
0.0
 11
7.5
 21
29.5
 31
0.0
  0
LINE
  5
807
330
755
100
AcDbEntity
  8
0
 48
10.0
100
AcDbLine
 10
0.0
 20
56.0
 30
0.0
 11
0.0
 21
37.5
 31
0.0
  0
ARC
  5
808
330
755
100
AcDbEntity
  8
0
 48
10.0
100
AcDbCircle
 10
5.0
 20
11.0
 30
0.0
 40
5.0
100
AcDbArc
 50
180.0
 51
270.0
  0
LINE
  5
809
330
755
100
AcDbEntity
  8
0
 48
10.0
100
AcDbLine
 10
0.0
 20
29.5
 30
0.0
 11
0.0
 21
11.0
 31
0.0
  0
LINE
  5
80A
330
755
100
AcDbEntity
  8
0
100
AcDbLine
 10
0.0
 20
134.447134
 30
0.0
 11
85.0
 21
134.447134
 31
0.0
  0
LINE
  5
80B
330
755
100
AcDbEntity
  8
CENTER
 48
10.0
100
AcDbLine
 10
0.633508
 20
171.447134
 30
0.0
 11
85.27249000000001
 21
171.447134
 31
0.0
  0
LINE
  5
80C
330
755
100
AcDbEntity
  8
0
 48
10.0
100
AcDbLine
 10
18.0
 20
136.747134
 30
0.0
 11
67.0
 21
136.747134
 31
0.0
  0
LINE
  5
80D
330
755
100
AcDbEntity
  8
0
 48
10.0
100
AcDbLine
 10
5.0
 20
6.0
 30
0.0
 11
80.0
 21
6.0
 31
0.0
  0
LINE
  5
80E
330
755
100
AcDbEntity
  8
0
 48
10.0
100
AcDbLine
 10
80.0
 20
61.0
 30
0.0
 11
5.0
 21
61.0
 31
0.0
  0
LINE
  5
80F
330
755
100
AcDbEntity
  8
CENTER
 48
10.0
100
AcDbLine
 10
8.558633999999999
 20
33.5
 30
0.0
 11
76.697698
 21
33.5
 31
0.0
  0
LINE
  5
810
330
755
100
AcDbEntity
  8
CENTER
 48
10.0
100
AcDbLine
 10
42.5
 20
214.027631
 30
0.0
 11
42.5
 21
121.845253
 31
0.0
  0
LINE
  5
811
330
755
100
AcDbEntity
  8
0
 48
10.0
100
AcDbLine
 10
183.589455
 20
186.947134
 30
0.0
 11
183.589455
 21
155.947134
 31
0.0
  0
LINE
  5
812
330
755
100
AcDbEntity
  8
0
 48
10.0
100
AcDbLine
 10
227.589455
 20
201.947134
 30
0.0
 11
227.589455
 21
171.447134
 31
0.0
  0
LINE
  5
813
330
755
100
AcDbEntity
  8
0
 48
10.0
100
AcDbLine
 10
184.589455
 20
134.447134
 30
0.0
 11
239.589455
 21
134.447134
 31
0.0
  0
LINE
  5
814
330
755
100
AcDbEntity
  8
0
 48
10.0
100
AcDbLine
 10
239.589455
 20
136.747134
 30
0.0
 11
184.589455
 21
136.747134
 31
0.0
  0
LINE
  5
815
330
755
100
AcDbEntity
  8
CENTER
 48
10.0
100
AcDbLine
 10
145.402513
 20
171.447134
 30
0.0
 11
282.540685
 21
171.447134
 31
0.0
  0
LINE
  5
816
330
755
100
AcDbEntity
  8
0
 48
10.0
100
AcDbLine
 10
186.589455
 20
201.947134
 30
0.0
 11
191.6541419999999
 21
201.947134
 31
0.0
  0
ENDBLK
  5
818
330
755
100
AcDbEntity
  8
0
100
AcDbBlockEnd
  0
BLOCK
  5
961
330
8DB
100
AcDbEntity
  8
0
100
AcDbBlockBegin
  2
*D35
 70
     1
 10
0.0
 20
0.0
 30
0.0
  3
*D35
  1

  0
LINE
  5
962
330
8DB
100
AcDbEntity
  8
0
  6
ByBlock
100
AcDbLine
 10
381.565028
 20
250.532159
 30
0.0
 11
381.565028
 21
223.410154
 31
0.0
  0
LINE
  5
963
330
8DB
100
AcDbEntity
  8
0
  6
ByBlock
100
AcDbLine
 10
404.565028
 20
250.532159
 30
0.0
 11
404.565028
 21
223.410154
 31
0.0
  0
LINE
  5
964
330
8DB
100
AcDbEntity
  8
0
  6
ByBlock
100
AcDbLine
 10
378.565028
 20
225.660154
 30
0.0
 11
375.565028
 21
225.660154
 31
0.0
  0
LINE
  5
965
330
8DB
100
AcDbEntity
  8
0
  6
ByBlock
100
AcDbLine
 10
407.5650279999999
 20
225.660154
 30
0.0
 11
410.5650279999999
 21
225.660154
 31
0.0
  0
LINE
  5
966
330
8DB
100
AcDbEntity
  8
0
  6
ByBlock
100
AcDbLine
 10
381.565028
 20
225.660154
 30
0.0
 11
404.565028
 21
225.660154
 31
0.0
  0
INSERT
  5
967
330
8DB
100
AcDbEntity
  8
0
  6
ByBlock
100
AcDbBlockReference
  2
_OPEN
 10
381.565028
 20
225.660154
 30
0.0
 41
3.0
 42
3.0
 43
3.0
  0
INSERT
  5
968
330
8DB
100
AcDbEntity
  8
0
  6
ByBlock
100
AcDbBlockReference
  2
_OPEN
 10
404.565028
 20
225.660154
 30
0.0
 41
3.0
 42
3.0
 43
3.0
 50
180.0
  0
MTEXT
  5
969
102
{ACAD_XDICTIONARY
360
CAC
102
}
330
8DB
100
AcDbEntity
  8
0
  6
ByBlock
100
AcDbMText
 10
393.065028
 20
229.785154
 30
0.0
 40
4.5
 41
0.0
 71
     5
 72
     1
  1
\A1;\U+220523{\H2.250000;\S+2^ -0.3;}
  7
DIMENSION
 73
     1
 44
1.0
1001
ACAD
1000
MTEXTBEGIN
1070
    73
1070
     1
1070
    44
1040
1.0
1070
    74
1070
     0
1000
MTEXTEND
  0
POINT
  5
96A
330
8DB
100
AcDbEntity
  8
DEFPOINTS
  6
ByBlock
 62
     0
100
AcDbPoint
 10
381.565028
 20
252.032159
 30
0.0
  0
POINT
  5
96B
330
8DB
100
AcDbEntity
  8
DEFPOINTS
  6
ByBlock
 62
     0
100
AcDbPoint
 10
404.565028
 20
252.032159
 30
0.0
  0
POINT
  5
96C
330
8DB
100
AcDbEntity
  8
DEFPOINTS
  6
ByBlock
 62
     0
100
AcDbPoint
 10
404.565028
 20
225.660154
 30
0.0
  0
ENDBLK
  5
96D
330
8DB
100
AcDbEntity
  8
0
100
AcDbBlockEnd
  0
BLOCK
  5
96E
330
8E9
100
AcDbEntity
  8
0
100
AcDbBlockBegin
  2
*D36
 70
     1
 10
0.0
 20
0.0
 30
0.0
  3
*D36
  1

  0
LINE
  5
96F
330
8E9
100
AcDbEntity
  8
0
  6
ByBlock
100
AcDbLine
 10
350.565028
 20
138.085025
 30
0.0
 11
350.565028
 21
167.046786
 31
0.0
  0
LINE
  5
970
330
8E9
100
AcDbEntity
  8
0
  6
ByBlock
100
AcDbLine
 10
435.565028
 20
138.085025
 30
0.0
 11
435.565028
 21
167.046786
 31
0.0
  0
LINE
  5
971
330
8E9
100
AcDbEntity
  8
0
  6
ByBlock
100
AcDbLine
 10
353.565028
 20
164.796786
 30
0.0
 11
432.565028
 21
164.796786
 31
0.0
  0
INSERT
  5
972
330
8E9
100
AcDbEntity
  8
0
  6
ByBlock
100
AcDbBlockReference
  2
_OPEN
 10
350.565028
 20
164.796786
 30
0.0
 41
3.0
 42
3.0
 43
3.0
 50
180.0
  0
INSERT
  5
973
330
8E9
100
AcDbEntity
  8
0
  6
ByBlock
100
AcDbBlockReference
  2
_OPEN
 10
435.565028
 20
164.796786
 30
0.0
 41
3.0
 42
3.0
 43
3.0
  0
MTEXT
  5
974
330
8E9
100
AcDbEntity
  8
0
  6
ByBlock
100
AcDbMText
 10
393.065028
 20
168.546786
 30
0.0
 40
4.5
 41
0.0
 71
     5
 72
     1
  1
\A1;85
 73
     1
 44
1.0
1001
ACAD
1000
MTEXTBEGIN
1070
    73
1070
     1
1070
    44
1040
1.0
1070
    74
1070
     0
1000
MTEXTEND
  0
POINT
  5
975
330
8E9
100
AcDbEntity
  8
DEFPOINTS
  6
ByBlock
 62
     0
100
AcDbPoint
 10
350.565028
 20
136.585025
 30
0.0
  0
POINT
  5
976
330
8E9
100
AcDbEntity
  8
DEFPOINTS
  6
ByBlock
 62
     0
100
AcDbPoint
 10
435.565028
 20
136.585025
 30
0.0
  0
POINT
  5
977
330
8E9
100
AcDbEntity
  8
DEFPOINTS
  6
ByBlock
 62
     0
100
AcDbPoint
 10
435.565028
 20
164.796786
 30
0.0
  0
ENDBLK
  5
978
330
8E9
100
AcDbEntity
  8
0
100
AcDbBlockEnd
  0
BLOCK
  5
979
330
8F5
100
AcDbEntity
  8
0
100
AcDbBlockBegin
  2
*D37
 70
     1
 10
0.0
 20
0.0
 30
0.0
  3
*D37
  1

  0
LINE
  5
97A
330
8F5
100
AcDbEntity
  8
0
  6
ByBlock
100
AcDbLine
 10
358.065028
 20
125.918535
 30
0.0
 11
358.065028
 21
154.03861
 31
0.0
  0
LINE
  5
97B
330
8F5
100
AcDbEntity
  8
0
  6
ByBlock
100
AcDbLine
 10
428.065028
 20
125.918535
 30
0.0
 11
428.065028
 21
154.03861
 31
0.0
  0
LINE
  5
97C
330
8F5
100
AcDbEntity
  8
0
  6
ByBlock
100
AcDbLine
 10
361.065028
 20
151.78861
 30
0.0
 11
425.065028
 21
151.78861
 31
0.0
  0
INSERT
  5
97D
330
8F5
100
AcDbEntity
  8
0
  6
ByBlock
100
AcDbBlockReference
  2
_OPEN
 10
358.065028
 20
151.78861
 30
0.0
 41
3.0
 42
3.0
 43
3.0
 50
180.0
  0
INSERT
  5
97E
330
8F5
100
AcDbEntity
  8
0
  6
ByBlock
100
AcDbBlockReference
  2
_OPEN
 10
428.065028
 20
151.78861
 30
0.0
 41
3.0
 42
3.0
 43
3.0
  0
MTEXT
  5
97F
330
8F5
100
AcDbEntity
  8
0
  6
ByBlock
100
AcDbMText
 10
393.065028
 20
156.78861
 30
0.0
 40
4.5
 41
0.0
 71
     5
 72
     1
  1
\A1;取付寸法70{\H3.000000;\S+2^  0;}
  7
DIMENSION
 73
     1
 44
1.0
1001
ACAD
1000
MTEXTBEGIN
1070
    73
1070
     1
1070
    44
1040
1.0
1070
    74
1070
     0
1000
MTEXTEND
  0
POINT
  5
980
330
8F5
100
AcDbEntity
  8
DEFPOINTS
  6
ByBlock
 62
     0
100
AcDbPoint
 10
358.065028
 20
124.418535
 30
0.0
  0
POINT
  5
981
330
8F5
100
AcDbEntity
  8
DEFPOINTS
  6
ByBlock
 62
     0
100
AcDbPoint
 10
428.065028
 20
124.418535
 30
0.0
  0
POINT
  5
982
330
8F5
100
AcDbEntity
  8
DEFPOINTS
  6
ByBlock
 62
     0
100
AcDbPoint
 10
428.065028
 20
151.78861
 30
0.0
  0
ENDBLK
  5
983
330
8F5
100
AcDbEntity
  8
0
100
AcDbBlockEnd
  0
BLOCK
  5
BED
330
925
100
AcDbEntity
  8
0
100
AcDbBlockBegin
  2
*D38
 70
     1
 10
0.0
 20
0.0
 30
0.0
  3
*D38
  1

  0
LINE
  5
BEE
330
925
100
AcDbEntity
  8
0
  6
ByBlock
100
AcDbLine
 10
206.625433
 20
285.333669
 30
0.0
 11
206.625433
 21
312.106859
 31
0.0
  0
LINE
  5
BEF
330
925
100
AcDbEntity
  8
0
  6
ByBlock
100
AcDbLine
 10
263.625433
 20
285.333669
 30
0.0
 11
263.625433
 21
312.106859
 31
0.0
  0
LINE
  5
BF0
330
925
100
AcDbEntity
  8
0
  6
ByBlock
100
AcDbLine
 10
209.625433
 20
309.856859
 30
0.0
 11
260.625433
 21
309.856859
 31
0.0
  0
INSERT
  5
BF1
330
925
100
AcDbEntity
  8
0
  6
ByBlock
100
AcDbBlockReference
  2
_OPEN
 10
206.625433
 20
309.856859
 30
0.0
 41
3.0
 42
3.0
 43
3.0
 50
180.0
  0
INSERT
  5
BF2
330
925
100
AcDbEntity
  8
0
  6
ByBlock
100
AcDbBlockReference
  2
_OPEN
 10
263.625433
 20
309.856859
 30
0.0
 41
3.0
 42
3.0
 43
3.0
  0
MTEXT
  5
BF3
330
925
100
AcDbEntity
  8
0
  6
ByBlock
100
AcDbMText
 10
236.578443
 20
313.606859
 30
0.0
 40
4.5
 41
0.0
 71
     5
 72
     1
  1
\A1;57
 73
     1
 44
1.0
1001
ACAD
1000
MTEXTBEGIN
1070
    73
1070
     1
1070
    44
1040
1.0
1070
    74
1070
     0
1000
MTEXTEND
  0
POINT
  5
BF4
330
925
100
AcDbEntity
  8
DEFPOINTS
  6
ByBlock
 62
     0
100
AcDbPoint
 10
206.625433
 20
283.833669
 30
0.0
  0
POINT
  5
BF5
330
925
100
AcDbEntity
  8
DEFPOINTS
  6
ByBlock
 62
     0
100
AcDbPoint
 10
263.625433
 20
283.833669
 30
0.0
  0
POINT
  5
BF6
330
925
100
AcDbEntity
  8
DEFPOINTS
  6
ByBlock
 62
     0
100
AcDbPoint
 10
263.625433
 20
309.856859
 30
0.0
  0
ENDBLK
  5
BF7
330
925
100
AcDbEntity
  8
0
100
AcDbBlockEnd
  0
BLOCK
  5
9B0
330
931
100
AcDbEntity
  8
0
100
AcDbBlockBegin
  2
*D39
 70
     1
 10
0.0
 20
0.0
 30
0.0
  3
*D39
  1

  0
LINE
  5
9B1
330
931
100
AcDbEntity
  8
0
  6
ByBlock
100
AcDbLine
 10
436.749862
 20
141.585025
 30
0.0
 11
465.127413
 21
141.585025
 31
0.0
  0
LINE
  5
9B2
330
931
100
AcDbEntity
  8
0
  6
ByBlock
100
AcDbLine
 10
436.749862
 20
86.585025
 30
0.0
 11
465.127413
 21
86.585025
 31
0.0
  0
LINE
  5
9B3
330
931
100
AcDbEntity
  8
0
  6
ByBlock
100
AcDbLine
 10
462.877413
 20
138.585025
 30
0.0
 11
462.877413
 21
89.58502499999999
 31
0.0
  0
INSERT
  5
9B4
330
931
100
AcDbEntity
  8
0
  6
ByBlock
100
AcDbBlockReference
  2
_OPEN
 10
462.877413
 20
141.585025
 30
0.0
 41
3.0
 42
3.0
 43
3.0
 50
90.0
  0
INSERT
  5
9B5
330
931
100
AcDbEntity
  8
0
  6
ByBlock
100
AcDbBlockReference
  2
_OPEN
 10
462.877413
 20
86.585025
 30
0.0
 41
3.0
 42
3.0
 43
3.0
 50
270.0
  0
MTEXT
  5
9B6
330
931
100
AcDbEntity
  8
0
  6
ByBlock
100
AcDbMText
 10
459.127413
 20
114.524956
 30
0.0
 40
4.5
 41
0.0
 71
     5
 72
     1
  1
\A1;55
 11
0.0
 21
1.0
 31
0.0
 73
     1
 44
1.0
1001
ACAD
1000
MTEXTBEGIN
1070
    73
1070
     1
1070
    44
1040
1.0
1070
    74
1070
     0
1000
MTEXTEND
  0
POINT
  5
9B7
330
931
100
AcDbEntity
  8
DEFPOINTS
  6
ByBlock
 62
     0
100
AcDbPoint
 10
435.249862
 20
141.585025
 30
0.0
  0
POINT
  5
9B8
330
931
100
AcDbEntity
  8
DEFPOINTS
  6
ByBlock
 62
     0
100
AcDbPoint
 10
435.249862
 20
86.585025
 30
0.0
  0
POINT
  5
9B9
330
931
100
AcDbEntity
  8
DEFPOINTS
  6
ByBlock
 62
     0
100
AcDbPoint
 10
462.877413
 20
86.585025
 30
0.0
  0
ENDBLK
  5
9BA
330
931
100
AcDbEntity
  8
0
100
AcDbBlockEnd
  0
BLOCK
  5
9BB
330
93D
100
AcDbEntity
  8
0
100
AcDbBlockBegin
  2
*D40
 70
     1
 10
0.0
 20
0.0
 30
0.0
  3
*D40
  1

  0
LINE
  5
9BC
330
93D
100
AcDbEntity
  8
0
  6
ByBlock
100
AcDbLine
 10
543.986312
 20
287.040864
 30
0.0
 11
543.986312
 21
297.475418
 31
0.0
  0
LINE
  5
9BD
330
93D
100
AcDbEntity
  8
0
  6
ByBlock
100
AcDbLine
 10
568.986312
 20
287.040864
 30
0.0
 11
568.986312
 21
297.475418
 31
0.0
  0
LINE
  5
9BE
330
93D
100
AcDbEntity
  8
0
  6
ByBlock
100
AcDbLine
 10
546.986312
 20
295.225418
 30
0.0
 11
565.9863119999999
 21
295.225418
 31
0.0
  0
INSERT
  5
9BF
330
93D
100
AcDbEntity
  8
0
  6
ByBlock
100
AcDbBlockReference
  2
_OPEN
 10
543.986312
 20
295.225418
 30
0.0
 41
3.0
 42
3.0
 43
3.0
 50
180.0
  0
INSERT
  5
9C0
330
93D
100
AcDbEntity
  8
0
  6
ByBlock
100
AcDbBlockReference
  2
_OPEN
 10
568.986312
 20
295.225418
 30
0.0
 41
3.0
 42
3.0
 43
3.0
  0
MTEXT
  5
9C1
330
93D
100
AcDbEntity
  8
0
  6
ByBlock
100
AcDbMText
 10
556.486312
 20
298.975418
 30
0.0
 40
4.5
 41
0.0
 71
     5
 72
     1
  1
\A1;25
 73
     1
 44
1.0
1001
ACAD
1000
MTEXTBEGIN
1070
    73
1070
     1
1070
    44
1040
1.0
1070
    74
1070
     0
1000
MTEXTEND
  0
POINT
  5
9C2
330
93D
100
AcDbEntity
  8
DEFPOINTS
  6
ByBlock
 62
     0
100
AcDbPoint
 10
543.986312
 20
285.540864
 30
0.0
  0
POINT
  5
9C3
330
93D
100
AcDbEntity
  8
DEFPOINTS
  6
ByBlock
 62
     0
100
AcDbPoint
 10
568.986312
 20
285.540864
 30
0.0
  0
POINT
  5
9C4
330
93D
100
AcDbEntity
  8
DEFPOINTS
  6
ByBlock
 62
     0
100
AcDbPoint
 10
568.986312
 20
295.225418
 30
0.0
  0
ENDBLK
  5
9C5
330
93D
100
AcDbEntity
  8
0
100
AcDbBlockEnd
  0
BLOCK
  5
BC4
330
949
100
AcDbEntity
  8
0
100
AcDbBlockBegin
  2
*D41
 70
     1
 10
0.0
 20
0.0
 30
0.0
  3
*D41
  1

  0
LINE
  5
BC5
330
949
100
AcDbEntity
  8
0
  6
ByBlock
100
AcDbLine
 10
150.237487
 20
117.225801
 30
0.0
 11
159.319092
 21
117.225801
 31
0.0
  0
LINE
  5
BC6
330
949
100
AcDbEntity
  8
0
  6
ByBlock
100
AcDbLine
 10
150.237487
 20
110.225801
 30
0.0
 11
159.319092
 21
110.225801
 31
0.0
  0
LINE
  5
BC7
330
949
100
AcDbEntity
  8
0
  6
ByBlock
100
AcDbLine
 10
157.069092
 20
120.225801
 30
0.0
 11
157.069092
 21
123.225801
 31
0.0
  0
LINE
  5
BC8
330
949
100
AcDbEntity
  8
0
  6
ByBlock
100
AcDbLine
 10
157.069092
 20
107.225801
 30
0.0
 11
157.069092
 21
104.225801
 31
0.0
  0
LINE
  5
BC9
330
949
100
AcDbEntity
  8
0
  6
ByBlock
100
AcDbLine
 10
157.069092
 20
117.225801
 30
0.0
 11
157.069092
 21
110.225801
 31
0.0
  0
INSERT
  5
BCA
330
949
100
AcDbEntity
  8
0
  6
ByBlock
100
AcDbBlockReference
  2
_OPEN
 10
157.069092
 20
117.225801
 30
0.0
 41
3.0
 42
3.0
 43
3.0
 50
270.0
  0
INSERT
  5
BCB
330
949
100
AcDbEntity
  8
0
  6
ByBlock
100
AcDbBlockReference
  2
_OPEN
 10
157.069092
 20
110.225801
 30
0.0
 41
3.0
 42
3.0
 43
3.0
 50
90.0
  0
MTEXT
  5
BCC
330
949
100
AcDbEntity
  8
0
  6
ByBlock
100
AcDbMText
 10
153.319092
 20
113.725801
 30
0.0
 40
4.5
 41
0.0
 71
     5
 72
     1
  1
\A1;7
 11
0.0
 21
1.0
 31
0.0
 73
     1
 44
1.0
1001
ACAD
1000
MTEXTBEGIN
1070
    73
1070
     1
1070
    44
1040
1.0
1070
    74
1070
     0
1000
MTEXTEND
  0
POINT
  5
BCD
330
949
100
AcDbEntity
  8
DEFPOINTS
  6
ByBlock
 62
     0
100
AcDbPoint
 10
148.737487
 20
117.225801
 30
0.0
  0
POINT
  5
BCE
330
949
100
AcDbEntity
  8
DEFPOINTS
  6
ByBlock
 62
     0
100
AcDbPoint
 10
148.737487
 20
110.225801
 30
0.0
  0
POINT
  5
BCF
330
949
100
AcDbEntity
  8
DEFPOINTS
  6
ByBlock
 62
     0
100
AcDbPoint
 10
157.069092
 20
110.225801
 30
0.0
  0
ENDBLK
  5
BD0
330
949
100
AcDbEntity
  8
0
100
AcDbBlockEnd
  0
BLOCK
  5
9D3
330
957
100
AcDbEntity
  8
0
100
AcDbBlockBegin
  2
*D42
 70
     1
 10
0.0
 20
0.0
 30
0.0
  3
*D42
  1

  0
LINE
  5
9D4
330
957
100
AcDbEntity
  8
0
  6
ByBlock
100
AcDbLine
 10
360.508549
 20
120.64469
 30
0.0
 11
362.494781
 21
125.976757
 31
0.0
  0
LINE
  5
9D5
330
957
100
AcDbEntity
  8
0
  6
ByBlock
100
AcDbLine
 10
362.494781
 20
125.976757
 30
0.0
 11
377.9233529999999
 21
125.976757
 31
0.0
  0
LINE
  5
9D6
330
957
100
AcDbEntity
  8
0
  6
ByBlock
100
AcDbLine
 10
358.065028
 20
114.085025
 30
0.0
 11
359.461326
 21
117.833405
 31
0.0
  0
INSERT
  5
9D7
330
957
100
AcDbEntity
  8
0
  6
ByBlock
100
AcDbBlockReference
  2
_OPEN
 10
359.461326
 20
117.833405
 30
0.0
 41
3.0
 42
3.0
 43
3.0
 50
249.569286
  0
MTEXT
  5
9D8
330
957
100
AcDbEntity
  8
0
  6
ByBlock
100
AcDbMText
 10
370.959067
 20
129.726757
 30
0.0
 40
4.5
 41
0.0
 71
     5
 72
     1
  1
\A1;R3.5
 73
     1
 44
1.0
1001
ACAD
1000
MTEXTBEGIN
1070
    73
1070
     1
1070
    44
1040
1.0
1070
    74
1070
     0
1000
MTEXTEND
  0
POINT
  5
9D9
330
957
100
AcDbEntity
  8
DEFPOINTS
  6
ByBlock
 62
     0
100
AcDbPoint
 10
359.461326
 20
117.833405
 30
0.0
  0
POINT
  5
9DA
330
957
100
AcDbEntity
  8
DEFPOINTS
  6
ByBlock
 62
     0
100
AcDbPoint
 10
358.065028
 20
114.085025
 30
0.0
  0
ENDBLK
  5
9DB
330
957
100
AcDbEntity
  8
0
100
AcDbBlockEnd
  0
BLOCK
  5
A0D
330
9FF
100
AcDbEntity
  8
0
100
AcDbBlockBegin
  2
A$C74B34F0A
 70
     0
 10
0.0
 20
0.0
 30
0.0
  3
A$C74B34F0A
  1

  0
LINE
  5
A00
330
9FF
100
AcDbEntity
  8
0
100
AcDbLine
 10
100.868962
 20
0.0
 30
0.0
 11
100.868962
 21
29.17462
 31
0.0
  0
LINE
  5
A01
330
9FF
100
AcDbEntity
  8
0
100
AcDbLine
 10
31.853357
 20
0.0
 30
0.0
 11
31.853357
 21
29.17462
 31
0.0
  0
LINE
  5
A02
330
9FF
100
AcDbEntity
  8
0
100
AcDbLine
 10
0.000001
 20
0.0
 30
0.0
 11
0.000001
 21
29.17462
 31
0.0
  0
LINE
  5
A03
330
9FF
100
AcDbEntity
  8
0
100
AcDbLine
 10
0.000001
 20
0.0
 30
0.0
 11
100.868962
 21
0.0
 31
0.0
  0
TEXT
  5
A04
330
9FF
100
AcDbEntity
  8
0
100
AcDbText
 10
34.507803
 20
2.210199
 30
0.0
 40
4.5
  1
150,160,180
100
AcDbText
  0
TEXT
  5
A05
330
9FF
100
AcDbEntity
  8
0
100
AcDbText
 10
3.981671
 20
2.210199
 30
0.0
 40
4.5
  1
CR2-40
100
AcDbText
  0
TEXT
  5
A06
330
9FF
100
AcDbEntity
  8
0
100
AcDbText
 10
3.981671
 20
11.935072
 30
0.0
 40
4.5
  1
CR2-15
100
AcDbText
  0
TEXT
  5
A07
330
9FF
100
AcDbEntity
  8
0
100
AcDbText
 10
34.507803
 20
11.935072
 30
0.0
 40
4.5
  1
100,120
100
AcDbText
  0
LINE
  5
A08
330
9FF
100
AcDbEntity
  8
0
100
AcDbLine
 10
0.000001
 20
9.724872999999998
 30
0.0
 11
100.868962
 21
9.724872999999998
 31
0.0
  0
LINE
  5
A09
330
9FF
100
AcDbEntity
  8
0
100
AcDbLine
 10
0.000001
 20
29.17462
 30
0.0
 11
100.868962
 21
29.17462
 31
0.0
  0
LINE
  5
A0A
330
9FF
100
AcDbEntity
  8
0
100
AcDbLine
 10
0.000001
 20
19.449746
 30
0.0
 11
100.868962
 21
19.449746
 31
0.0
  0
TEXT
  5
A0B
330
9FF
100
AcDbEntity
  8
0
100
AcDbText
 10
34.507803
 20
21.659945
 30
0.0
 40
4.5
  1
60,75
100
AcDbText
  0
TEXT
  5
A0C
330
9FF
100
AcDbEntity
  8
0
100
AcDbText
 10
3.981671
 20
21.659945
 30
0.0
 40
4.5
  1
CR2-5
100
AcDbText
  0
ENDBLK
  5
A0E
330
9FF
100
AcDbEntity
  8
0
100
AcDbBlockEnd
  0
BLOCK
  5
B17
330
A7A
100
AcDbEntity
  8
0
100
AcDbBlockBegin
  2
*D44
 70
     1
 10
0.0
 20
0.0
 30
0.0
  3
*D44
  1

  0
LINE
  5
B18
330
A7A
100
AcDbEntity
  8
0
  6
ByBlock
100
AcDbLine
 10
62.237487
 20
214.472935
 30
0.0
 11
54.60035999999999
 21
214.472935
 31
0.0
  0
LINE
  5
B19
330
A7A
100
AcDbEntity
  8
0
  6
ByBlock
100
AcDbLine
 10
62.237487
 20
216.972935
 30
0.0
 11
54.60035999999999
 21
216.972935
 31
0.0
  0
LINE
  5
B1A
330
A7A
100
AcDbEntity
  8
0
  6
ByBlock
100
AcDbLine
 10
56.85036
 20
211.472935
 30
0.0
 11
56.85036
 21
208.472935
 31
0.0
  0
LINE
  5
B1B
330
A7A
100
AcDbEntity
  8
0
  6
ByBlock
100
AcDbLine
 10
56.85036
 20
219.972935
 30
0.0
 11
56.85036
 21
235.401506
 31
0.0
  0
LINE
  5
B1C
330
A7A
100
AcDbEntity
  8
0
  6
ByBlock
100
AcDbLine
 10
56.85036
 20
214.472935
 30
0.0
 11
56.85036
 21
216.972935
 31
0.0
  0
INSERT
  5
B1D
330
A7A
100
AcDbEntity
  8
0
  6
ByBlock
100
AcDbBlockReference
  2
_OPEN
 10
56.85036
 20
214.472935
 30
0.0
 41
3.0
 42
3.0
 43
3.0
 50
90.0
  0
INSERT
  5
B1E
330
A7A
100
AcDbEntity
  8
0
  6
ByBlock
100
AcDbBlockReference
  2
_OPEN
 10
56.85036
 20
216.972935
 30
0.0
 41
3.0
 42
3.0
 43
3.0
 50
270.0
  0
MTEXT
  5
B1F
330
A7A
100
AcDbEntity
  8
0
  6
ByBlock
100
AcDbMText
 10
53.10036
 20
229.18722
 30
0.0
 40
4.5
 41
0.0
 71
     5
 72
     1
  1
\A1;2.5
 11
0.0
 21
1.0
 31
0.0
 73
     1
 44
1.0
1001
ACAD
1000
MTEXTBEGIN
1070
    73
1070
     1
1070
    44
1040
1.0
1070
    74
1070
     0
1000
MTEXTEND
  0
POINT
  5
B20
330
A7A
100
AcDbEntity
  8
DEFPOINTS
  6
ByBlock
 62
     0
100
AcDbPoint
 10
63.737487
 20
214.472935
 30
0.0
  0
POINT
  5
B21
330
A7A
100
AcDbEntity
  8
DEFPOINTS
  6
ByBlock
 62
     0
100
AcDbPoint
 10
63.737487
 20
216.972935
 30
0.0
  0
POINT
  5
B22
330
A7A
100
AcDbEntity
  8
DEFPOINTS
  6
ByBlock
 62
     0
100
AcDbPoint
 10
56.85036
 20
216.972935
 30
0.0
  0
ENDBLK
  5
B23
330
A7A
100
AcDbEntity
  8
0
100
AcDbBlockEnd
  0
BLOCK
  5
B74
330
B5D
100
AcDbEntity
  8
0
100
AcDbBlockBegin
  2
*D45
 70
     1
 10
0.0
 20
0.0
 30
0.0
  3
*D45
  1

  0
LINE
  5
B75
330
B5D
100
AcDbEntity
  8
0
  6
ByBlock
100
AcDbLine
 10
140.487487
 20
251.672935
 30
0.0
 11
161.681373
 21
251.672935
 31
0.0
  0
LINE
  5
B76
330
B5D
100
AcDbEntity
  8
0
  6
ByBlock
100
AcDbLine
 10
150.237487
 20
214.472935
 30
0.0
 11
161.681373
 21
214.472935
 31
0.0
  0
LINE
  5
B77
330
B5D
100
AcDbEntity
  8
0
  6
ByBlock
100
AcDbLine
 10
159.431373
 20
248.672935
 30
0.0
 11
159.431373
 21
217.472935
 31
0.0
  0
INSERT
  5
B78
330
B5D
100
AcDbEntity
  8
0
  6
ByBlock
100
AcDbBlockReference
  2
_OPEN
 10
159.431373
 20
251.672935
 30
0.0
 41
3.0
 42
3.0
 43
3.0
 50
90.0
  0
INSERT
  5
B79
330
B5D
100
AcDbEntity
  8
0
  6
ByBlock
100
AcDbBlockReference
  2
_OPEN
 10
159.431373
 20
214.472935
 30
0.0
 41
3.0
 42
3.0
 43
3.0
 50
270.0
  0
MTEXT
  5
B7A
330
B5D
100
AcDbEntity
  8
0
  6
ByBlock
100
AcDbMText
 10
155.681373
 20
233.072935
 30
0.0
 40
4.5
 41
0.0
 71
     5
 72
     1
  1
\A1;37{\H4.5;\U+00B11}
  7
DIMENSION
 11
0.0
 21
1.0
 31
0.0
 73
     1
 44
1.0
1001
ACAD
1000
MTEXTBEGIN
1070
    73
1070
     1
1070
    44
1040
1.0
1070
    74
1070
     0
1000
MTEXTEND
  0
POINT
  5
B7B
330
B5D
100
AcDbEntity
  8
DEFPOINTS
  6
ByBlock
 62
     0
100
AcDbPoint
 10
138.987487
 20
251.672935
 30
0.0
  0
POINT
  5
B7C
330
B5D
100
AcDbEntity
  8
DEFPOINTS
  6
ByBlock
 62
     0
100
AcDbPoint
 10
148.737487
 20
214.472935
 30
0.0
  0
POINT
  5
B7D
330
B5D
100
AcDbEntity
  8
DEFPOINTS
  6
ByBlock
 62
     0
100
AcDbPoint
 10
159.431373
 20
214.472935
 30
0.0
  0
ENDBLK
  5
B7E
330
B5D
100
AcDbEntity
  8
0
100
AcDbBlockEnd
  0
BLOCK
  5
B98
330
B81
100
AcDbEntity
  8
0
100
AcDbBlockBegin
  2
*D46
 70
     1
 10
0.0
 20
0.0
 30
0.0
  3
*D46
  1

  0
LINE
  5
B99
330
B81
100
AcDbEntity
  8
0
  6
ByBlock
100
AcDbLine
 10
150.237487
 20
214.472935
 30
0.0
 11
177.344569
 21
214.472935
 31
0.0
  0
LINE
  5
B9A
330
B81
100
AcDbEntity
  8
0
  6
ByBlock
100
AcDbLine
 10
128.883515
 20
283.489204
 30
0.0
 11
177.344569
 21
283.489204
 31
0.0
  0
LINE
  5
B9B
330
B81
100
AcDbEntity
  8
0
  6
ByBlock
100
AcDbLine
 10
175.094569
 20
217.472935
 30
0.0
 11
175.094569
 21
280.489204
 31
0.0
  0
INSERT
  5
B9C
330
B81
100
AcDbEntity
  8
0
  6
ByBlock
100
AcDbBlockReference
  2
_OPEN
 10
175.094569
 20
214.472935
 30
0.0
 41
3.0
 42
3.0
 43
3.0
 50
270.0
  0
INSERT
  5
B9D
330
B81
100
AcDbEntity
  8
0
  6
ByBlock
100
AcDbBlockReference
  2
_OPEN
 10
175.094569
 20
283.489204
 30
0.0
 41
3.0
 42
3.0
 43
3.0
 50
90.0
  0
MTEXT
  5
B9E
330
B81
100
AcDbEntity
  8
0
  6
ByBlock
100
AcDbMText
 10
171.344569
 20
248.981069
 30
0.0
 40
4.5
 41
0.0
 71
     5
 72
     1
  1
\A1;70{\H4.5;\U+00B11}
  7
DIMENSION
 11
0.0
 21
1.0
 31
0.0
 73
     1
 44
1.0
1001
ACAD
1000
MTEXTBEGIN
1070
    73
1070
     1
1070
    44
1040
1.0
1070
    74
1070
     0
1000
MTEXTEND
  0
POINT
  5
B9F
330
B81
100
AcDbEntity
  8
DEFPOINTS
  6
ByBlock
 62
     0
100
AcDbPoint
 10
148.737487
 20
214.472935
 30
0.0
  0
POINT
  5
BA0
330
B81
100
AcDbEntity
  8
DEFPOINTS
  6
ByBlock
 62
     0
100
AcDbPoint
 10
127.383515
 20
283.489204
 30
0.0
  0
POINT
  5
BA1
330
B81
100
AcDbEntity
  8
DEFPOINTS
  6
ByBlock
 62
     0
100
AcDbPoint
 10
175.094569
 20
283.489204
 30
0.0
  0
ENDBLK
  5
BA2
330
B81
100
AcDbEntity
  8
0
100
AcDbBlockEnd
  0
BLOCK
  5
C15
330
C08
100
AcDbEntity
  8
0
100
AcDbBlockBegin
  2
*D47
 70
     1
 10
0.0
 20
0.0
 30
0.0
  3
*D47
  1

  0
LINE
  5
C16
330
C08
100
AcDbEntity
  8
0
  6
ByBlock
100
AcDbLine
 10
132.139537
 20
242.435305
 30
0.0
 11
80.335437
 21
260.910565
 31
0.0
  0
LINE
  5
C17
330
C08
100
AcDbEntity
  8
0
  6
ByBlock
100
AcDbLine
 10
77.509759
 20
261.9183060000001
 30
0.0
 11
70.748536
 21
264.329608
 31
0.0
  0
LINE
  5
C18
330
C08
100
AcDbEntity
  8
0
  6
ByBlock
100
AcDbLine
 10
70.748536
 20
264.329608
 30
0.0
 11
50.991393
 21
264.329608
 31
0.0
  0
INSERT
  5
C19
330
C08
100
AcDbEntity
  8
0
  6
ByBlock
100
AcDbBlockReference
  2
_OPEN
 10
134.965215
 20
241.427563
 30
0.0
 41
3.0
 42
3.0
 43
3.0
 50
340.371884
  0
INSERT
  5
C1A
330
C08
100
AcDbEntity
  8
0
  6
ByBlock
100
AcDbBlockReference
  2
_OPEN
 10
77.509759
 20
261.9183060000001
 30
0.0
 41
3.0
 42
3.0
 43
3.0
 50
160.371884
  0
MTEXT
  5
C1B
102
{ACAD_XDICTIONARY
360
CAE
102
}
330
C08
100
AcDbEntity
  8
0
  6
ByBlock
100
AcDbMText
 10
60.119965
 20
268.079608
 30
0.0
 40
4.5
 41
0.0
 71
     5
 72
     1
  1
\A1;\U+220561\U+00B11
  7
DIMENSION
 73
     1
 44
1.0
1001
ACAD
1000
MTEXTBEGIN
1070
    73
1070
     1
1070
    44
1040
1.0
1070
    74
1070
     0
1000
MTEXTEND
  0
POINT
  5
C1C
330
C08
100
AcDbEntity
  8
DEFPOINTS
  6
ByBlock
 62
     0
100
AcDbPoint
 10
77.509759
 20
261.9183060000001
 30
0.0
  0
POINT
  5
C1D
330
C08
100
AcDbEntity
  8
DEFPOINTS
  6
ByBlock
 62
     0
100
AcDbPoint
 10
134.965215
 20
241.427563
 30
0.0
  0
ENDBLK
  5
C1E
330
C08
100
AcDbEntity
  8
0
100
AcDbBlockEnd
  0
ENDSEC
  0
SECTION
  2
ENTITIES
  0
TEXT
  5
5D0
330
18
100
AcDbEntity
  8
0
100
AcDbText
 10
199.964501
 20
42.52001299999999
 30
0.0
 40
5.0
  1
外形寸法図
100
AcDbText
  0
TEXT
  5
5D1
330
18
100
AcDbEntity
  8
0
100
AcDbText
 10
241.166666
 20
33.559335
 30
0.0
 40
5.0
  1
サイズ(a)
100
AcDbText
  0
TEXT
  5
5D2
330
18
100
AcDbEntity
  8
0
100
AcDbText
 10
137.93215
 20
35.82945200000001
 30
0.0
 40
4.0
  1
1
100
AcDbText
  0
TEXT
  5
5D3
330
18
100
AcDbEntity
  8
0
100
AcDbText
 10
141.396902
 20
30.637249
 30
0.0
 40
4.0
  1
1.5
100
AcDbText
  0
LINE
  5
5D4
330
18
100
AcDbEntity
  8
0
100
AcDbLine
 10
292.5
 20
387.0
 30
0.0
 11
25.5
 21
387.0
 31
0.0
  0
LINE
  5
5D5
330
18
100
AcDbEntity
  8
0
100
AcDbLine
 10
25.5
 20
387.0
 30
0.0
 11
25.5
 21
6.0
 31
0.0
  0
LINE
  5
5D6
330
18
100
AcDbEntity
  8
0
100
AcDbLine
 10
292.5
 20
6.0
 30
0.0
 11
292.5
 21
387.0
 31
0.0
  0
LINE
  5
5D7
330
18
100
AcDbEntity
  8
0
100
AcDbLine
 10
292.5
 20
58.5
 30
0.0
 11
25.5
 21
58.5
 31
0.0
  0
TEXT
  5
5D8
330
18
100
AcDbEntity
  8
0
100
AcDbText
 10
158.087846
 20
381.75
 30
0.0
 40
4.5
  1
改          訂
100
AcDbText
  0
TEXT
  5
5D9
330
18
100
AcDbEntity
  8
0
100
AcDbText
 10
218.334087
 20
381.75
 30
0.0
 40
4.5
  1
CHANGE
100
AcDbText
  0
LINE
  5
5DA
330
18
100
AcDbEntity
  8
0
100
AcDbLine
 10
127.407476
 20
381.0
 30
0.0
 11
292.407476
 21
381.0
 31
0.0
  0
LINE
  5
5DB
330
18
100
AcDbEntity
  8
0
100
AcDbLine
 10
271.407476
 20
381.0
 30
0.0
 11
271.407476
 21
361.5
 31
0.0
  0
LINE
  5
5DC
330
18
100
AcDbEntity
  8
0
100
AcDbLine
 10
253.407476
 20
381.0
 30
0.0
 11
253.407476
 21
361.5
 31
0.0
  0
LINE
  5
5DD
330
18
100
AcDbEntity
  8
0
100
AcDbLine
 10
235.407476
 20
381.0
 30
0.0
 11
235.407476
 21
361.5
 31
0.0
  0
LINE
  5
5DE
330
18
100
AcDbEntity
  8
0
100
AcDbLine
 10
217.407476
 20
381.0
 30
0.0
 11
217.407476
 21
361.5
 31
0.0
  0
LINE
  5
5DF
330
18
100
AcDbEntity
  8
0
100
AcDbLine
 10
142.407476
 20
381.0
 30
0.0
 11
142.407476
 21
361.5
 31
0.0
  0
LINE
  5
5E0
330
18
100
AcDbEntity
  8
0
100
AcDbLine
 10
127.407476
 20
387.0
 30
0.0
 11
127.407476
 21
361.5
 31
0.0
  0
LINE
  5
5E1
330
18
100
AcDbEntity
  8
0
100
AcDbLine
 10
292.407476
 20
369.0
 30
0.0
 11
127.407476
 21
369.0
 31
0.0
  0
LINE
  5
5E2
330
18
100
AcDbEntity
  8
0
100
AcDbLine
 10
127.407476
 20
361.5
 30
0.0
 11
292.407476
 21
361.5
 31
0.0
  0
TEXT
  5
5E3
330
18
100
AcDbEntity
  8
0
100
AcDbText
 10
275.907476
 20
375.75
 30
0.0
 40
3.75
  1
年月日
 72
     1
 11
281.907476
 21
375.75
 31
0.0
100
AcDbText
  0
TEXT
  5
5E4
330
18
100
AcDbEntity
  8
0
100
AcDbText
 10
276.6217617142857
 20
370.5
 30
0.0
 40
3.0
  1
DATE
 72
     1
 11
281.907476
 21
370.5
 31
0.0
100
AcDbText
  0
TEXT
  5
5E5
330
18
100
AcDbEntity
  8
0
100
AcDbText
 10
258.407476
 20
375.75
 30
0.0
 40
3.75
  1
承認
 72
     1
 11
262.407476
 21
375.75
 31
0.0
100
AcDbText
  0
TEXT
  5
5E6
330
18
100
AcDbEntity
  8
0
100
AcDbText
 10
254.407476
 20
370.5
 30
0.0
 40
3.0
  1
APPROVED
 41
0.7
 72
     1
 11
262.407476
 21
370.5
 31
0.0
100
AcDbText
  0
TEXT
  5
5E7
330
18
100
AcDbEntity
  8
0
100
AcDbText
 10
240.532476
 20
375.75
 30
0.0
 40
3.75
  1
検図
 72
     1
 11
244.407476
 21
375.75
 31
0.0
100
AcDbText
  0
TEXT
  5
5E8
330
18
100
AcDbEntity
  8
0
100
AcDbText
 10
236.5789045714286
 20
370.5
 30
0.0
 40
3.0
  1
CHECKED
 41
0.8
 72
     1
 11
244.407476
 21
370.5
 31
0.0
100
AcDbText
  0
TEXT
  5
5E9
330
18
100
AcDbEntity
  8
0
100
AcDbText
 10
222.532476
 20
375.75
 30
0.0
 40
3.75
  1
担当
 72
     1
 11
226.407476
 21
375.75
 31
0.0
100
AcDbText
  0
TEXT
  5
5EA
330
18
100
AcDbEntity
  8
0
100
AcDbText
 10
219.0503331428571
 20
370.5
 30
0.0
 40
3.0
  1
DESIGN
 72
     1
 11
226.407476
 21
370.5
 31
0.0
100
AcDbText
  0
TEXT
  5
5EB
330
18
100
AcDbEntity
  8
0
100
AcDbText
 10
190.052712
 20
372.75
 30
0.0
 40
4.5
  1
NOTE
100
AcDbText
  0
TEXT
  5
5EC
330
18
100
AcDbEntity
  8
0
100
AcDbText
 10
155.557898
 20
372.75
 30
0.0
 40
4.5
  1
記    事
100
AcDbText
  0
TEXT
  5
5ED
330
18
100
AcDbEntity
  8
0
100
AcDbText
 10
130.907476
 20
375.75
 30
0.0
 40
3.75
  1
符号
 72
     1
 11
134.907476
 21
375.75
 31
0.0
100
AcDbText
  0
TEXT
  5
5EE
330
18
100
AcDbEntity
  8
0
100
AcDbText
 10
129.1217617142857
 20
370.5
 30
0.0
 40
3.0
  1
MARK
 72
     1
 11
134.907476
 21
370.5
 31
0.0
100
AcDbText
  0
TEXT
  5
5EF
330
18
100
AcDbEntity
  8
0
100
AcDbText
 10
207.065252
 20
51.75
 30
0.0
 40
4.5
  1
TITLE
100
AcDbText
  0
TEXT
  5
5F0
330
18
100
AcDbEntity
  8
0
100
AcDbText
 10
185.752512
 20
51.75
 30
0.0
 40
4.5
  1
名称
100
AcDbText
  0
LINE
  5
5F1
330
18
100
AcDbEntity
  8
0
100
AcDbLine
 10
292.5
 20
28.5
 30
0.0
 11
25.5
 21
28.5
 31
0.0
  0
TEXT
  5
5F2
330
18
100
AcDbEntity
  8
0
100
AcDbText
 10
203.22694
 20
22.25454
 30
0.0
 40
4.5
  1
DWG,No.
100
AcDbText
  0
TEXT
  5
5F3
330
18
100
AcDbEntity
  8
0
100
AcDbText
 10
185.752512
 20
22.25454
 30
0.0
 40
4.5
  1
図番
100
AcDbText
  0
LINE
  5
5F4
330
18
100
AcDbEntity
  8
0
100
AcDbLine
 10
183.0
 20
58.5
 30
0.0
 11
183.0
 21
6.0
 31
0.0
  0
LINE
  5
5F5
330
18
100
AcDbEntity
  8
0
100
AcDbLine
 10
25.5
 20
6.0
 30
0.0
 11
292.5
 21
6.0
 31
0.0
  0
TEXT
  5
5F6
330
18
100
AcDbEntity
  8
0
100
AcDbText
 10
153.8142857142857
 20
14.666074
 30
0.0
 40
2.25
  1
3RD   ANGLE
 72
     1
 11
164.25
 21
14.666074
 31
0.0
100
AcDbText
  0
TEXT
  5
5F7
330
18
100
AcDbEntity
  8
0
100
AcDbText
 10
154.5
 20
8.880677999999999
 30
0.0
 40
2.25
  1
PROJECTION
 72
     1
 11
164.25
 21
8.880677999999999
 31
0.0
100
AcDbText
  0
TEXT
  5
5F8
330
18
100
AcDbEntity
  8
0
100
AcDbText
 10
154.05
 20
22.026942
 30
0.0
 40
4.5
  1
第三角法
 72
     1
 11
164.25
 21
22.026942
 31
0.0
100
AcDbText
  0
LINE
  5
5F9
330
18
100
AcDbEntity
  8
0
100
AcDbLine
 10
25.5
 20
43.5
 30
0.0
 11
183.0
 21
43.5
 31
0.0
  0
TEXT
  5
5FA
330
18
100
AcDbEntity
  8
0
100
AcDbText
 10
163.2857142857143
 20
45.75
 30
0.0
 40
2.25
  1
DATE
 72
     1
 11
167.25
 21
45.75
 31
0.0
100
AcDbText
  0
TEXT
  5
5FB
330
18
100
AcDbEntity
  8
0
100
AcDbText
 10
158.85
 20
50.25
 30
0.0
 40
5.25
  1
年月日
 72
     1
 11
167.25
 21
50.25
 31
0.0
100
AcDbText
  0
LINE
  5
5FC
330
18
100
AcDbEntity
  8
0
100
AcDbLine
 10
151.5
 20
58.5
 30
0.0
 11
151.5
 21
28.5
 31
0.0
  0
TEXT
  5
5FD
330
18
100
AcDbEntity
  8
0
100
AcDbText
 10
135.4
 20
50.25
 30
0.0
 40
5.25
  1
尺度
 72
     1
 11
141.0
 21
50.25
 31
0.0
100
AcDbText
  0
TEXT
  5
5FE
330
18
100
AcDbEntity
  8
0
100
AcDbText
 10
136.0178571428571
 20
45.75
 30
0.0
 40
2.25
  1
SCALE
 72
     1
 11
141.0
 21
45.75
 31
0.0
100
AcDbText
  0
LINE
  5
5FF
330
18
100
AcDbEntity
  8
0
100
AcDbLine
 10
145.5
 20
40.521795
 30
0.0
 11
136.5
 21
31.521795
 31
0.0
  0
LINE
  5
600
330
18
100
AcDbEntity
  8
0
100
AcDbLine
 10
145.5
 20
28.5
 30
0.0
 11
145.5
 21
6.0
 31
0.0
  0
TEXT
  5
601
330
18
100
AcDbEntity
  8
0
100
AcDbText
 10
114.4
 20
50.25
 30
0.0
 40
5.25
  1
単位
 72
     1
 11
120.0
 21
50.25
 31
0.0
100
AcDbText
  0
TEXT
  5
602
330
18
100
AcDbEntity
  8
0
100
AcDbText
 10
116.4642857142857
 20
45.75
 30
0.0
 40
2.25
  1
UNIT
 72
     1
 11
120.0
 21
45.75
 31
0.0
100
AcDbText
  0
TEXT
  5
603
330
18
100
AcDbEntity
  8
0
100
AcDbText
 10
93.57499999999999
 20
50.25
 30
0.0
 40
5.25
  1
製図
 72
     1
 11
99.0
 21
50.25
 31
0.0
100
AcDbText
  0
TEXT
  5
604
330
18
100
AcDbEntity
  8
0
100
AcDbText
 10
93.53571428571429
 20
45.75
 30
0.0
 40
2.25
  1
DRAWN
 72
     1
 11
99.0
 21
45.75
 31
0.0
100
AcDbText
  0
TEXT
  5
605
330
18
100
AcDbEntity
  8
0
100
AcDbText
 10
72.40000000000001
 20
50.25
 30
0.0
 40
5.25
  1
設計
 72
     1
 11
78.0
 21
50.25
 31
0.0
100
AcDbText
  0
TEXT
  5
606
330
18
100
AcDbEntity
  8
0
100
AcDbText
 10
70.28571428571429
 20
45.75
 30
0.0
 40
2.25
  1
DESIGNED
 72
     1
 11
78.0
 21
45.75
 31
0.0
100
AcDbText
  0
TEXT
  5
607
330
18
100
AcDbEntity
  8
0
100
AcDbText
 10
51.575
 20
50.25
 30
0.0
 40
5.25
  1
検図
 72
     1
 11
57.0
 21
50.25
 31
0.0
100
AcDbText
  0
TEXT
  5
608
330
18
100
AcDbEntity
  8
0
100
AcDbText
 10
49.66071428571428
 20
45.75
 30
0.0
 40
2.25
  1
CHECKED
 72
     1
 11
57.0
 21
45.75
 31
0.0
100
AcDbText
  0
TEXT
  5
609
330
18
100
AcDbEntity
  8
0
100
AcDbText
 10
30.4
 20
50.25
 30
0.0
 40
5.25
  1
承認
 72
     1
 11
36.0
 21
50.25
 31
0.0
100
AcDbText
  0
TEXT
  5
60A
330
18
100
AcDbEntity
  8
0
100
AcDbText
 10
27.42857142857143
 20
45.75
 30
0.0
 40
2.25
  1
APPROVED
 72
     1
 11
36.0
 21
45.75
 31
0.0
100
AcDbText
  0
LINE
  5
60B
330
18
100
AcDbEntity
  8
0
100
AcDbLine
 10
46.5
 20
58.5
 30
0.0
 11
46.5
 21
28.5
 31
0.0
  0
LINE
  5
60C
330
18
100
AcDbEntity
  8
0
100
AcDbLine
 10
67.5
 20
58.5
 30
0.0
 11
67.5
 21
28.5
 31
0.0
  0
LINE
  5
60D
330
18
100
AcDbEntity
  8
0
100
AcDbLine
 10
88.49999999999999
 20
58.5
 30
0.0
 11
88.49999999999999
 21
28.5
 31
0.0
  0
LINE
  5
60E
330
18
100
AcDbEntity
  8
0
100
AcDbLine
 10
109.5
 20
58.5
 30
0.0
 11
109.5
 21
28.5
 31
0.0
  0
LINE
  5
60F
330
18
100
AcDbEntity
  8
0
100
AcDbLine
 10
130.5
 20
58.5
 30
0.0
 11
130.5
 21
28.5
 31
0.0
  0
TEXT
  5
610
330
18
100
AcDbEntity
  8
0
100
AcDbText
 10
114.4285714285714
 20
33.75
 30
0.0
 40
4.5
  1
mm
 72
     1
 11
120.0
 21
33.75
 31
0.0
100
AcDbText
  0
DIMENSION
  5
81A
330
18
100
AcDbEntity
  8
SCALE
 48
10.0
100
AcDbDimension
  2
*D35
 10
117.737487
 20
225.30093
 30
0.0
 11
106.237487
 21
229.42593
 31
0.0
 12
-286.827541
 22
-0.359224
 32
0.0
 70
    32
  1
%%c<>
 71
     5
 42
-1.0
  3
STANDARD
100
AcDbAlignedDimension
 13
94.73748699999999
 23
251.672935
 33
0.0
 14
117.737487
 24
251.672935
 34
0.0
100
AcDbRotatedDimension
1001
ACAD
1000
DSTYLE
1002
{
1070
   340
1005
D1
1070
    47
1040
2.0
1070
    71
1070
     1
1070
    48
1040
0.3
1070
   174
1070
     1
1070
   146
1040
0.5
1070
   287
1070
     2
1002
}
  0
CIRCLE
  5
81B
330
18
100
AcDbEntity
  8
0
 48
10.0
100
AcDbCircle
 10
106.237487
 20
251.672935
 30
0.0
 40
11.5
  0
LINE
  5
81C
330
18
100
AcDbEntity
  8
0
 48
10.0
100
AcDbLine
 10
219.328351
 20
283.622052
 30
0.0
 11
238.586172
 21
283.622052
 31
0.0
  0
LINE
  5
81D
330
18
100
AcDbEntity
  8
0
 48
10.0
100
AcDbLine
 10
244.328351
 20
283.622052
 30
0.0
 11
247.124701
 21
283.622052
 31
0.0
  0
LINE
  5
81E
330
18
100
AcDbEntity
  8
0
 48
10.0
100
AcDbLine
 10
263.625433
 20
224.672935
 30
0.0
 11
263.625433
 21
219.972935
 31
0.0
  0
ARC
  5
81F
330
18
100
AcDbEntity
  8
0
 48
10.0
100
AcDbCircle
 10
260.625433
 20
219.972935
 30
0.0
 40
3.0
100
AcDbArc
 50
270.0
 51
0.0
  0
LINE
  5
820
330
18
100
AcDbEntity
  8
0
 48
10.0
100
AcDbLine
 10
263.625433
 20
267.172935
 30
0.0
 11
263.625433
 21
236.172935
 31
0.0
  0
ARC
  5
821
330
18
100
AcDbEntity
  8
0
 48
10.0
100
AcDbCircle
 10
106.237487
 20
251.672935
 30
0.0
 40
30.5
100
AcDbArc
 50
334.374395
 51
0.0
  0
LINE
  5
822
330
18
100
AcDbEntity
  8
0
 48
10.0
100
AcDbLine
 10
262.625433
 20
216.972935
 30
0.0
 11
262.625433
 21
214.472935
 31
0.0
  0
LINE
  5
823
330
18
100
AcDbEntity
  8
0
 48
10.0
100
AcDbLine
 10
207.625433
 20
216.972935
 30
0.0
 11
207.625433
 21
214.472935
 31
0.0
  0
DIMENSION
  5
824
330
18
100
AcDbEntity
  8
SCALE
 48
10.0
100
AcDbDimension
  2
*D36
 10
148.737487
 20
164.437562
 30
0.0
 11
106.237487
 21
168.187562
 31
0.0
 12
-286.827541
 22
-0.359224
 32
0.0
 70
    32
 71
     5
 42
-1.0
  3
STANDARD
100
AcDbAlignedDimension
 13
63.737487
 23
136.225801
 33
0.0
 14
148.737487
 24
136.225801
 34
0.0
100
AcDbRotatedDimension
1001
ACAD
1000
DSTYLE
1002
{
1070
    74
1070
     1
1070
   174
1070
     1
1070
   287
1070
     0
1002
}
  0
DIMENSION
  5
825
330
18
100
AcDbEntity
  8
SCALE
 48
10.0
100
AcDbDimension
  2
*D37
 10
141.237487
 20
151.429385
 30
0.0
 11
106.237487
 21
156.429385
 31
0.0
 12
-286.827541
 22
-0.359224
 32
0.0
 70
    32
  1
取付寸法<>
 71
     5
 42
-1.0
  3
STANDARD
100
AcDbAlignedDimension
 13
71.237487
 23
124.05931
 33
0.0
 14
141.237487
 24
124.05931
 34
0.0
100
AcDbRotatedDimension
1001
ACAD
1000
DSTYLE
1002
{
1070
   340
1005
D1
1070
    47
1040
2.0
1070
    71
1070
     1
1070
    74
1070
     1
1070
   174
1070
     1
1070
   146
1040
0.666667
1070
   287
1070
     0
1002
}
  0
LINE
  5
826
330
18
100
AcDbEntity
  8
0
 48
10.0
100
AcDbLine
 10
63.737487
 20
214.472935
 30
0.0
 11
63.737487
 21
216.972935
 31
0.0
  0
LINE
  5
827
330
18
100
AcDbEntity
  8
0
 48
10.0
100
AcDbLine
 10
148.737487
 20
214.472935
 30
0.0
 11
148.737487
 21
216.972935
 31
0.0
  0
ARC
  5
82D
330
18
100
AcDbEntity
  8
0
 48
10.0
100
AcDbCircle
 10
106.237487
 20
251.672935
 30
0.0
 40
31.4
100
AcDbArc
 50
90.0
 51
112.276911
  0
ARC
  5
82E
330
18
100
AcDbEntity
  8
0
 48
10.0
100
AcDbCircle
 10
106.237487
 20
251.672935
 30
0.0
 40
30.5
100
AcDbArc
 50
90.0
 51
205.625605
  0
DIMENSION
  5
82F
330
18
100
AcDbEntity
  8
SCALE
 48
10.0
100
AcDbDimension
  2
*D38
 10
263.625433
 20
309.856859
 30
0.0
 11
236.578443
 21
309.856859
 31
0.0
 70
   160
 71
     5
 42
-1.0
  3
STANDARD
100
AcDbAlignedDimension
 13
206.625433
 23
283.833669
 33
0.0
 14
263.625433
 24
283.833669
 34
0.0
100
AcDbRotatedDimension
1001
ACAD
1000
DSTYLE
1002
{
1070
    74
1070
     1
1070
   174
1070
     1
1070
   287
1070
     0
1002
}
  0
DIMENSION
  5
830
330
18
100
AcDbEntity
  8
SCALE
 48
10.0
100
AcDbDimension
  2
*D39
 10
176.049872
 20
86.225801
 30
0.0
 11
176.049872
 21
114.165732
 31
0.0
 12
-286.827541
 22
-0.359224
 32
0.0
 70
   160
 71
     5
 42
-1.0
  3
STANDARD
100
AcDbAlignedDimension
 13
148.422321
 23
141.225801
 33
0.0
 14
148.422321
 24
86.225801
 34
0.0
 50
90.0
100
AcDbRotatedDimension
1001
ACAD
1000
DSTYLE
1002
{
1070
   288
1070
     1
1070
    74
1070
     1
1070
   174
1070
     1
1070
   287
1070
     0
1002
}
  0
LINE
  5
831
330
18
100
AcDbEntity
  8
0
 48
10.0
100
AcDbLine
 10
263.625433
 20
224.672935
 30
0.0
 11
263.625433
 21
279.172935
 31
0.0
  0
TEXT
  5
832
330
18
100
AcDbEntity
  8
1
 48
10.0
100
AcDbText
 10
151.540785
 20
292.786811
 30
0.0
 40
4.5
  1
2-M5
  7
SMP-SET
100
AcDbText
  0
LINE
  5
833
330
18
100
AcDbEntity
  8
0
 48
10.0
100
AcDbLine
 10
243.224403
 20
282.172935
 30
0.0
 11
260.625433
 21
282.172935
 31
0.0
  0
LINE
  5
834
330
18
100
AcDbEntity
  8
0
 48
10.0
100
AcDbLine
 10
218.224403
 20
282.172935
 30
0.0
 11
239.69012
 21
282.172935
 31
0.0
  0
LINE
  5
835
330
18
100
AcDbEntity
  8
0
 48
10.0
100
AcDbLine
 10
245.957262
 20
278.731938
 30
0.0
 11
245.957262
 21
280.853259
 31
0.0
  0
LINE
  5
836
330
18
100
AcDbEntity
  8
0
 48
10.0
100
AcDbLine
 10
243.957262
 20
281.834629
 30
0.0
 11
241.707262
 21
281.834629
 31
0.0
  0
LINE
  5
837
330
18
100
AcDbEntity
  8
0
 48
10.0
100
AcDbLine
 10
241.707262
 20
282.134629
 30
0.0
 11
243.957262
 21
282.134629
 31
0.0
  0
LINE
  5
838
330
18
100
AcDbEntity
  8
0
 48
10.0
100
AcDbLine
 10
241.207262
 20
280.216862
 30
0.0
 11
241.207262
 21
281.834629
 31
0.0
  0
LINE
  5
839
330
18
100
AcDbEntity
  8
0
 48
10.0
100
AcDbLine
 10
241.707262
 20
281.834629
 30
0.0
 11
241.707262
 21
280.216862
 31
0.0
  0
LINE
  5
83A
330
18
100
AcDbEntity
  8
0
 48
10.0
100
AcDbLine
 10
241.707262
 20
280.216862
 30
0.0
 11
241.207262
 21
280.216862
 31
0.0
  0
LINE
  5
83B
330
18
100
AcDbEntity
  8
0
 48
10.0
100
AcDbLine
 10
241.207262
 20
283.752396
 30
0.0
 11
241.707262
 21
283.752396
 31
0.0
  0
LINE
  5
83C
330
18
100
AcDbEntity
  8
0
 48
10.0
100
AcDbLine
 10
241.207262
 20
282.134629
 30
0.0
 11
241.207262
 21
283.752396
 31
0.0
  0
LINE
  5
83D
330
18
100
AcDbEntity
  8
0
 48
10.0
100
AcDbLine
 10
241.707262
 20
283.752396
 30
0.0
 11
241.707262
 21
282.134629
 31
0.0
  0
LINE
  5
83E
330
18
100
AcDbEntity
  8
0
 48
10.0
100
AcDbLine
 10
245.814368
 20
281.648754
 30
0.0
 11
245.061304
 21
282.842562
 31
0.0
  0
ELLIPSE
  5
83F
330
18
100
AcDbEntity
  8
0
 48
10.0
100
AcDbEllipse
 10
241.457262
 20
280.853259
 30
0.0
 11
4.5
 21
0.0
 31
0.0
210
0.0
220
0.0
230
1.0
 40
0.7071069999999999
 41
0.5864457446137627
 42
0.6002567364894062
  0
LINE
  5
840
330
18
100
AcDbEntity
  8
0
 48
10.0
100
AcDbLine
 10
243.957262
 20
282.134629
 30
0.0
 11
243.957262
 21
281.834629
 31
0.0
  0
ELLIPSE
  5
841
330
18
100
AcDbEntity
  8
0
 48
10.0
100
AcDbEllipse
 10
241.457262
 20
280.853259
 30
0.0
 11
4.5
 21
0.0
 31
0.0
210
0.0
220
0.0
230
1.0
 40
0.7071069999999999
 41
0.0
 42
0.2526802526318922
  0
ELLIPSE
  5
842
330
18
100
AcDbEntity
  8
0
 48
10.0
100
AcDbEllipse
 10
241.457262
 20
280.853259
 30
0.0
 11
4.5
 21
0.0
 31
0.0
210
0.0
220
0.0
230
1.0
 40
0.7071069999999999
 41
2.888912400958298
 42
3.141592653589792
  0
LINE
  5
843
330
18
100
AcDbEntity
  8
0
 48
10.0
100
AcDbLine
 10
236.957262
 20
278.731938
 30
0.0
 11
236.957262
 21
280.853259
 31
0.0
  0
LINE
  5
844
330
18
100
AcDbEntity
  8
0
 48
10.0
100
AcDbLine
 10
238.957262
 20
281.834629
 30
0.0
 11
238.957262
 21
282.134629
 31
0.0
  0
ELLIPSE
  5
845
330
18
100
AcDbEntity
  8
0
 48
10.0
100
AcDbEllipse
 10
241.457262
 20
280.853259
 30
0.0
 11
4.5
 21
0.0
 31
0.0
210
0.0
220
0.0
230
1.0
 40
0.7071069999999999
 41
2.541335917100336
 42
2.555146908976414
  0
LINE
  5
846
330
18
100
AcDbEntity
  8
0
 48
10.0
100
AcDbLine
 10
237.100155
 20
281.648754
 30
0.0
 11
237.853219
 21
282.842562
 31
0.0
  0
ELLIPSE
  5
847
330
18
100
AcDbEntity
  8
0
 48
10.0
100
AcDbEllipse
 10
241.457262
 20
278.731938
 30
0.0
 11
6.0
 21
0.0
 31
0.0
210
0.0
220
0.0
230
1.0
 40
0.7071070000000001
 41
2.383551888848217
 42
7.041226071921161
  0
ELLIPSE
  5
848
330
18
100
AcDbEntity
  8
0
 48
10.0
100
AcDbEllipse
 10
241.457262
 20
279.651177
 30
0.0
 11
4.5
 21
0.0
 31
0.0
210
0.0
220
0.0
230
1.0
 40
0.7071069999999999
 41
3.141592653589792
 42
6.283185307179585
  0
ELLIPSE
  5
849
330
18
100
AcDbEntity
  8
0
 48
10.0
100
AcDbEllipse
 10
241.457262
 20
278.731938
 30
0.0
 11
4.5
 21
0.0
 31
0.0
210
0.0
220
0.0
230
1.0
 40
0.7071069999999999
 41
3.141592653589792
 42
6.283185307179585
  0
ELLIPSE
  5
84A
330
18
100
AcDbEntity
  8
0
 48
10.0
100
AcDbEllipse
 10
241.457262
 20
278.378385
 30
0.0
 11
6.0
 21
0.0
 31
0.0
210
0.0
220
0.0
230
1.0
 40
0.7071070000000001
 41
3.099913921265481
 42
6.324864039503895
  0
ELLIPSE
  5
84B
330
18
100
AcDbEntity
  8
0
 48
10.0
100
AcDbEllipse
 10
241.457262
 20
278.024831
 30
0.0
 11
6.0
 21
0.0
 31
0.0
210
0.0
220
0.0
230
1.0
 40
0.7071070000000001
 41
3.058162567176281
 42
6.366615393593098
  0
ELLIPSE
  5
84C
330
18
100
AcDbEntity
  8
0
 48
10.0
100
AcDbEllipse
 10
241.457262
 20
281.693046
 30
0.0
 11
3.949999999999987
 21
0.0
 31
0.0
210
0.0
220
0.0
230
0.9999999999999998
 40
0.711073
 41
0.0
 42
6.283185307179585
  0
LINE
  5
84D
330
18
100
AcDbEntity
  8
0
 48
10.0
100
AcDbLine
 10
238.957262
 20
282.134629
 30
0.0
 11
241.207262
 21
282.134629
 31
0.0
  0
LINE
  5
84E
330
18
100
AcDbEntity
  8
0
 48
10.0
100
AcDbLine
 10
241.207262
 20
281.834629
 30
0.0
 11
238.957262
 21
281.834629
 31
0.0
  0
LINE
  5
84F
330
18
100
AcDbEntity
  8
0
 48
10.0
100
AcDbLine
 10
220.957262
 20
278.731938
 30
0.0
 11
220.957262
 21
280.853259
 31
0.0
  0
LINE
  5
850
330
18
100
AcDbEntity
  8
0
 48
10.0
100
AcDbLine
 10
218.957262
 20
281.834629
 30
0.0
 11
216.707262
 21
281.834629
 31
0.0
  0
LINE
  5
851
330
18
100
AcDbEntity
  8
0
 48
10.0
100
AcDbLine
 10
216.707262
 20
282.134629
 30
0.0
 11
218.957262
 21
282.134629
 31
0.0
  0
LINE
  5
852
330
18
100
AcDbEntity
  8
0
 48
10.0
100
AcDbLine
 10
216.207262
 20
280.216862
 30
0.0
 11
216.207262
 21
281.834629
 31
0.0
  0
LINE
  5
853
330
18
100
AcDbEntity
  8
0
 48
10.0
100
AcDbLine
 10
216.707262
 20
281.834629
 30
0.0
 11
216.707262
 21
280.216862
 31
0.0
  0
LINE
  5
854
330
18
100
AcDbEntity
  8
0
 48
10.0
100
AcDbLine
 10
216.707262
 20
280.216862
 30
0.0
 11
216.207262
 21
280.216862
 31
0.0
  0
LINE
  5
855
330
18
100
AcDbEntity
  8
0
 48
10.0
100
AcDbLine
 10
216.207262
 20
283.752396
 30
0.0
 11
216.707262
 21
283.752396
 31
0.0
  0
LINE
  5
856
330
18
100
AcDbEntity
  8
0
 48
10.0
100
AcDbLine
 10
216.207262
 20
282.134629
 30
0.0
 11
216.207262
 21
283.752396
 31
0.0
  0
LINE
  5
857
330
18
100
AcDbEntity
  8
0
 48
10.0
100
AcDbLine
 10
216.707262
 20
283.752396
 30
0.0
 11
216.707262
 21
282.134629
 31
0.0
  0
LINE
  5
858
330
18
100
AcDbEntity
  8
0
 48
10.0
100
AcDbLine
 10
220.814368
 20
281.648754
 30
0.0
 11
220.061304
 21
282.842562
 31
0.0
  0
ELLIPSE
  5
859
330
18
100
AcDbEntity
  8
0
 48
10.0
100
AcDbEllipse
 10
216.457262
 20
280.853259
 30
0.0
 11
4.5
 21
0.0
 31
0.0
210
0.0
220
0.0
230
1.0
 40
0.7071069999999999
 41
0.5864457446137627
 42
0.6002567364894062
  0
LINE
  5
85A
330
18
100
AcDbEntity
  8
0
 48
10.0
100
AcDbLine
 10
218.957262
 20
282.134629
 30
0.0
 11
218.957262
 21
281.834629
 31
0.0
  0
ELLIPSE
  5
85B
330
18
100
AcDbEntity
  8
0
 48
10.0
100
AcDbEllipse
 10
216.457262
 20
280.853259
 30
0.0
 11
4.5
 21
0.0
 31
0.0
210
0.0
220
0.0
230
1.0
 40
0.7071069999999999
 41
0.0
 42
0.2526802526318922
  0
ELLIPSE
  5
85C
330
18
100
AcDbEntity
  8
0
 48
10.0
100
AcDbEllipse
 10
216.457262
 20
280.853259
 30
0.0
 11
4.5
 21
0.0
 31
0.0
210
0.0
220
0.0
230
1.0
 40
0.7071069999999999
 41
2.888912400958298
 42
3.141592653589792
  0
LINE
  5
85D
330
18
100
AcDbEntity
  8
0
 48
10.0
100
AcDbLine
 10
211.957262
 20
278.731938
 30
0.0
 11
211.957262
 21
280.853259
 31
0.0
  0
LINE
  5
85E
330
18
100
AcDbEntity
  8
0
 48
10.0
100
AcDbLine
 10
213.957262
 20
281.834629
 30
0.0
 11
213.957262
 21
282.134629
 31
0.0
  0
ELLIPSE
  5
85F
330
18
100
AcDbEntity
  8
0
 48
10.0
100
AcDbEllipse
 10
216.457262
 20
280.853259
 30
0.0
 11
4.5
 21
0.0
 31
0.0
210
0.0
220
0.0
230
1.0
 40
0.7071069999999999
 41
2.541335917100336
 42
2.555146908976414
  0
LINE
  5
860
330
18
100
AcDbEntity
  8
0
 48
10.0
100
AcDbLine
 10
212.100155
 20
281.648754
 30
0.0
 11
212.853219
 21
282.842562
 31
0.0
  0
ELLIPSE
  5
861
330
18
100
AcDbEntity
  8
0
 48
10.0
100
AcDbEllipse
 10
216.457262
 20
278.731938
 30
0.0
 11
6.0
 21
0.0
 31
0.0
210
0.0
220
0.0
230
1.0
 40
0.7071070000000001
 41
2.383551888848217
 42
7.041226071921161
  0
ELLIPSE
  5
862
330
18
100
AcDbEntity
  8
0
 48
10.0
100
AcDbEllipse
 10
216.457262
 20
279.651177
 30
0.0
 11
4.5
 21
0.0
 31
0.0
210
0.0
220
0.0
230
1.0
 40
0.7071069999999999
 41
3.141592653589792
 42
6.283185307179585
  0
ELLIPSE
  5
863
330
18
100
AcDbEntity
  8
0
 48
10.0
100
AcDbEllipse
 10
216.457262
 20
278.731938
 30
0.0
 11
4.5
 21
0.0
 31
0.0
210
0.0
220
0.0
230
1.0
 40
0.7071069999999999
 41
3.141592653589792
 42
6.283185307179585
  0
ELLIPSE
  5
864
330
18
100
AcDbEntity
  8
0
 48
10.0
100
AcDbEllipse
 10
216.457262
 20
278.378385
 30
0.0
 11
6.0
 21
0.0
 31
0.0
210
0.0
220
0.0
230
1.0
 40
0.7071070000000001
 41
3.099913921265481
 42
6.324864039503895
  0
ELLIPSE
  5
865
330
18
100
AcDbEntity
  8
0
 48
10.0
100
AcDbEllipse
 10
216.457262
 20
278.024831
 30
0.0
 11
6.0
 21
0.0
 31
0.0
210
0.0
220
0.0
230
1.0
 40
0.7071070000000001
 41
3.058162567176281
 42
6.366615393593098
  0
ELLIPSE
  5
866
330
18
100
AcDbEntity
  8
0
 48
10.0
100
AcDbEllipse
 10
216.457262
 20
281.693046
 30
0.0
 11
3.949999999999987
 21
0.0
 31
0.0
210
0.0
220
0.0
230
0.9999999999999998
 40
0.711073
 41
0.0
 42
6.283185307179585
  0
LINE
  5
867
330
18
100
AcDbEntity
  8
0
 48
10.0
100
AcDbLine
 10
213.957262
 20
282.134629
 30
0.0
 11
216.207262
 21
282.134629
 31
0.0
  0
LINE
  5
868
330
18
100
AcDbEntity
  8
0
 48
10.0
100
AcDbLine
 10
216.207262
 20
281.834629
 30
0.0
 11
213.957262
 21
281.834629
 31
0.0
  0
ARC
  5
869
330
18
100
AcDbEntity
  8
0
 48
10.0
100
AcDbCircle
 10
260.625433
 20
279.172935
 30
0.0
 40
3.0
100
AcDbArc
 50
0.0
 51
90.0
  0
LINE
  5
86A
330
18
100
AcDbEntity
  8
1
 48
10.0
100
AcDbLine
 10
263.603206
 20
268.322967
 30
0.0
 11
268.907194
 21
269.080071
 31
0.0
  0
LINE
  5
86B
330
18
100
AcDbEntity
  8
0
 48
10.0
100
AcDbLine
 10
263.625433
 20
267.172935
 30
0.0
 11
263.625433
 21
279.172935
 31
0.0
  0
TEXT
  5
86C
330
18
100
AcDbEntity
  8
0
 48
10.0
100
AcDbText
 10
275.0478921428572
 20
271.651109
 30
0.0
 40
10.0
  1
L
  7
SMP-SET
 72
     4
 11
277.905035
 21
276.651109
 31
0.0
100
AcDbText
  0
LINE
  5
86D
330
18
100
AcDbEntity
  8
1
 48
10.0
100
AcDbLine
 10
284.819155
 20
268.322967
 30
0.0
 11
263.603206
 21
268.322967
 31
0.0
  0
LINE
  5
86E
330
18
100
AcDbEntity
  8
CENTER
 48
10.0
100
AcDbLine
 10
241.457262
 20
282.552997
 30
0.0
 11
241.457262
 21
272.07526
 31
0.0
  0
LINE
  5
86F
330
18
100
AcDbEntity
  8
CENTER
 48
10.0
100
AcDbLine
 10
231.835146
 20
277.317725
 30
0.0
 11
247.77411
 21
277.317725
 31
0.0
  0
ARC
  5
870
330
18
100
AcDbEntity
  8
0
 48
10.0
100
AcDbCircle
 10
209.625433
 20
279.172935
 30
0.0
 40
3.0
100
AcDbArc
 50
90.0
 51
180.0
  0
LINE
  5
871
330
18
100
AcDbEntity
  8
0
 48
10.0
100
AcDbLine
 10
209.418245
 20
283.622052
 30
0.0
 11
214.181919
 21
285.79209
 31
0.0
  0
LINE
  5
872
330
18
100
AcDbEntity
  8
CENTER
 48
10.0
100
AcDbLine
 10
216.457262
 20
282.552997
 30
0.0
 11
216.457262
 21
272.07526
 31
0.0
  0
LINE
  5
873
330
18
100
AcDbEntity
  8
0
 48
10.0
100
AcDbLine
 10
206.625433
 20
267.172935
 30
0.0
 11
206.625433
 21
279.172935
 31
0.0
  0
LINE
  5
874
330
18
100
AcDbEntity
  8
0
 48
10.0
100
AcDbLine
 10
209.373623
 20
272.798331
 30
0.0
 11
248.209204
 21
272.798331
 31
0.0
  0
LINE
  5
875
330
18
100
AcDbEntity
  8
CENTER
 48
10.0
100
AcDbLine
 10
208.346144
 20
277.317725
 30
0.0
 11
224.704557
 21
277.317725
 31
0.0
  0
DIMENSION
  5
876
330
18
100
AcDbEntity
  8
SCALE
 48
10.0
100
AcDbDimension
  2
*D40
 10
241.457262
 20
294.866193
 30
0.0
 11
228.957262
 21
298.616193
 31
0.0
 12
-327.52905
 22
-0.359224
 32
0.0
 70
    32
 71
     5
 42
-1.0
  3
STANDARD
100
AcDbAlignedDimension
 13
216.457262
 23
285.181639
 33
0.0
 14
241.457262
 24
285.181639
 34
0.0
100
AcDbRotatedDimension
  0
LINE
  5
877
330
18
100
AcDbEntity
  8
0
 48
10.0
100
AcDbLine
 10
209.418245
 20
283.622052
 30
0.0
 11
213.586172
 21
283.622052
 31
0.0
  0
TEXT
  5
878
330
18
100
AcDbEntity
  8
1
 48
10.0
100
AcDbText
 10
151.540785
 20
303.137649
 30
0.0
 40
4.5
  1
二次端子
  7
SMP-SET
100
AcDbText
  0
LINE
  5
879
330
18
100
AcDbEntity
  8
1
 48
10.0
100
AcDbLine
 10
175.787584
 20
299.730682
 30
0.0
 11
147.752223
 21
299.730682
 31
0.0
  0
LINE
  5
87A
330
18
100
AcDbEntity
  8
1
 48
10.0
100
AcDbLine
 10
137.385541
 20
282.820988
 30
0.0
 11
137.90196
 21
285.724262
 31
0.0
  0
LINE
  5
87B
330
18
100
AcDbEntity
  8
0
 48
10.0
100
AcDbLine
 10
129.183102
 20
281.689618
 30
0.0
 11
129.890209
 21
282.396724
 31
0.0
  0
LINE
  5
87C
330
18
100
AcDbEntity
  8
0
 48
10.0
100
AcDbLine
 10
129.890209
 20
282.396724
 30
0.0
 11
129.183102
 21
283.103831
 31
0.0
  0
LINE
  5
87D
330
18
100
AcDbEntity
  8
0
 48
10.0
100
AcDbLine
 10
129.183102
 20
283.103831
 30
0.0
 11
129.536655
 21
283.457384
 31
0.0
  0
LINE
  5
87E
330
18
100
AcDbEntity
  8
0
 48
10.0
100
AcDbLine
 10
129.890209
 20
283.810938
 30
0.0
 11
129.536655
 21
283.457384
 31
0.0
  0
LINE
  5
87F
330
18
100
AcDbEntity
  8
0
 48
10.0
100
AcDbLine
 10
130.950869
 20
282.750278
 30
0.0
 11
131.870108
 21
283.669517
 31
0.0
  0
LINE
  5
880
330
18
100
AcDbEntity
  8
0
 48
10.0
100
AcDbLine
 10
131.870108
 20
283.669517
 30
0.0
 11
133.0721889999999
 21
284.871598
 31
0.0
  0
ARC
  5
881
330
18
100
AcDbEntity
  8
0
 48
10.0
100
AcDbCircle
 10
134.20356
 20
283.740227
 30
0.0
 40
1.6
100
AcDbArc
 50
45.0
 51
135.0
  0
LINE
  5
882
330
18
100
AcDbEntity
  8
0
 48
10.0
100
AcDbLine
 10
136.961277
 20
275.325656
 30
0.0
 11
136.25417
 21
274.61855
 31
0.0
  0
LINE
  5
883
330
18
100
AcDbEntity
  8
0
 48
10.0
100
AcDbLine
 10
138.021937
 20
274.972103
 30
0.0
 11
137.668383
 21
274.61855
 31
0.0
  0
LINE
  5
884
330
18
100
AcDbEntity
  8
0
 48
10.0
100
AcDbLine
 10
137.668383
 20
274.61855
 30
0.0
 11
136.961277
 21
275.325656
 31
0.0
  0
LINE
  5
885
330
18
100
AcDbEntity
  8
0
 48
10.0
100
AcDbLine
 10
138.021937
 20
274.972103
 30
0.0
 11
138.37549
 21
275.325656
 31
0.0
  0
LINE
  5
886
330
18
100
AcDbEntity
  8
0
 48
10.0
100
AcDbLine
 10
138.234069
 20
277.305555
 30
0.0
 11
137.31483
 21
276.386317
 31
0.0
  0
LINE
  5
887
330
18
100
AcDbEntity
  8
0
 48
10.0
100
AcDbLine
 10
139.43615
 20
278.507637
 30
0.0
 11
138.234069
 21
277.305555
 31
0.0
  0
ARC
  5
888
330
18
100
AcDbEntity
  8
0
 48
10.0
100
AcDbCircle
 10
138.304779
 20
279.639008
 30
0.0
 40
1.6
100
AcDbArc
 50
315.0
 51
45.0
  0
LINE
  5
889
330
18
100
AcDbEntity
  8
0
 48
10.0
100
AcDbLine
 10
134.698535
 20
280.841089
 30
0.0
 11
134.486403
 21
279.214744
 31
0.0
  0
LINE
  5
88A
330
18
100
AcDbEntity
  8
0
 48
10.0
100
AcDbLine
 10
129.890209
 20
282.396724
 30
0.0
 11
136.961277
 21
275.325656
 31
0.0
  0
LINE
  5
88B
330
18
100
AcDbEntity
  8
0
 48
10.0
100
AcDbLine
 10
129.536655
 20
283.457384
 30
0.0
 11
138.021937
 21
274.972103
 31
0.0
  0
LINE
  5
88C
330
18
100
AcDbEntity
  8
0
 48
10.0
100
AcDbLine
 10
138.37549
 20
275.325656
 30
0.0
 11
129.890209
 21
283.810938
 31
0.0
  0
LINE
  5
88D
330
18
100
AcDbEntity
  8
0
 48
10.0
100
AcDbLine
 10
131.870108
 20
283.669517
 30
0.0
 11
138.234069
 21
277.305555
 31
0.0
  0
LINE
  5
88E
330
18
100
AcDbEntity
  8
0
 48
10.0
100
AcDbLine
 10
135.334931
 20
284.871598
 30
0.0
 11
139.43615
 21
280.770379
 31
0.0
  0
LINE
  5
88F
330
18
100
AcDbEntity
  8
1
 48
10.0
100
AcDbLine
 10
147.752223
 20
299.730682
 30
0.0
 11
137.385541
 21
282.820988
 31
0.0
  0
TEXT
  5
890
330
18
100
AcDbEntity
  8
0
 48
10.0
100
AcDbText
 10
123.5478055714285
 20
267.744833
 30
0.0
 40
6.0
  1
k
  7
ITL-SET
 72
     4
 11
125.976377
 21
270.744833
 31
0.0
100
AcDbText
  0
TEXT
  5
891
330
18
100
AcDbEntity
  8
0
 48
10.0
100
AcDbText
 10
104.759651
 20
274.285938
 30
0.0
 40
6.0
  1
K
  7
SMP-SET
 72
     4
 11
106.759651
 21
277.285938
 31
0.0
100
AcDbText
  0
LINE
  5
892
330
18
100
AcDbEntity
  8
0
100
AcDbLine
 10
106.237487
 20
283.072935
 30
0.0
 11
120.24248
 21
283.944699
 31
0.0
  0
MTEXT
  5
893
102
{ACAD_REACTORS
330
894
102
}
330
18
100
AcDbEntity
  8
SCALE
 48
10.0
100
AcDbMText
 10
105.492287
 20
298.744162
 30
0.0
 40
4.5
 41
0.0
 71
     6
 72
     1
  1
銘板
 11
-1.0
 21
0.0
 31
0.0
 73
     1
 44
1.0
1001
ACAD
1000
MTEXTBEGIN
1070
    73
1070
     1
1070
    44
1040
1.0
1070
    74
1070
     0
1000
MTEXTEND
  0
LEADER
  5
894
330
18
100
AcDbEntity
  8
SCALE
 48
10.0
100
AcDbLeader
  3
STANDARD
 73
     0
 75
     1
 40
4.500000000000002
 41
9.599999999999999
 76
     3
 10
105.969577
 20
282.960007
 30
0.0
 10
100.992287
 20
302.494162
 30
0.0
 10
103.992287
 20
302.494162
 30
0.0
340
893
211
-1.0
221
0.0000000000000001
231
0.0
1001
ACAD
1000
DSTYLE
1002
{
1070
     3
1000
%%c<>
1002
}
  0
LINE
  5
896
330
18
100
AcDbEntity
  8
CENTER
 48
10.0
100
AcDbLine
 10
125.008043
 20
270.443491
 30
0.0
 11
138.894173
 21
284.329621
 31
0.0
  0
LINE
  5
897
330
18
100
AcDbEntity
  8
0
 48
10.0
100
AcDbLine
 10
239.125433
 20
216.972935
 30
0.0
 11
239.125433
 21
214.472935
 31
0.0
  0
LINE
  5
898
330
18
100
AcDbEntity
  8
0
 48
10.0
100
AcDbLine
 10
219.40447
 20
229.472935
 30
0.0
 11
219.40447
 21
224.472935
 31
0.0
  0
LINE
  5
899
330
18
100
AcDbEntity
  8
0
 48
10.0
100
AcDbLine
 10
219.40447
 20
224.472935
 30
0.0
 11
221.40447
 21
224.472935
 31
0.0
  0
LINE
  5
89A
330
18
100
AcDbEntity
  8
0
 48
10.0
100
AcDbLine
 10
221.40447
 20
224.472935
 30
0.0
 11
221.40447
 21
229.472935
 31
0.0
  0
LINE
  5
89B
330
18
100
AcDbEntity
  8
0
 48
10.0
100
AcDbLine
 10
221.40447
 20
229.472935
 30
0.0
 11
219.40447
 21
229.472935
 31
0.0
  0
LINE
  5
89C
330
18
100
AcDbEntity
  8
0
 48
10.0
100
AcDbLine
 10
231.125433
 20
216.972935
 30
0.0
 11
231.125433
 21
214.472935
 31
0.0
  0
LINE
  5
89D
330
18
100
AcDbEntity
  8
CENTER
 48
10.0
100
AcDbLine
 10
235.125433
 20
224.307344
 30
0.0
 11
235.125433
 21
204.818753
 31
0.0
  0
ARC
  5
89E
330
18
100
AcDbEntity
  8
0
 48
10.0
100
AcDbCircle
 10
209.625433
 20
219.972935
 30
0.0
 40
3.0
100
AcDbArc
 50
180.0
 51
270.0
  0
LINE
  5
89F
330
18
100
AcDbEntity
  8
0
 48
10.0
100
AcDbLine
 10
206.625433
 20
219.972935
 30
0.0
 11
206.625433
 21
236.172935
 31
0.0
  0
LINE
  5
8A0
330
18
100
AcDbEntity
  8
CENTER
 48
10.0
100
AcDbLine
 10
215.895572
 20
226.972935
 30
0.0
 11
224.76695
 21
226.972935
 31
0.0
  0
CIRCLE
  5
8A1
330
18
100
AcDbEntity
  8
0
 48
10.0
100
AcDbCircle
 10
136.237487
 20
226.972935
 30
0.0
 40
1.0
  0
LINE
  5
8A2
330
18
100
AcDbEntity
  8
0
 48
10.0
100
AcDbLine
 10
134.737487
 20
229.472935
 30
0.0
 11
136.237487
 21
229.472935
 31
0.0
  0
LINE
  5
8A3
330
18
100
AcDbEntity
  8
0
 48
10.0
100
AcDbLine
 10
134.737487
 20
224.472935
 30
0.0
 11
136.237487
 21
224.472935
 31
0.0
  0
ARC
  5
8A4
330
18
100
AcDbEntity
  8
0
 48
10.0
100
AcDbCircle
 10
134.737487
 20
230.472935
 30
0.0
 40
1.0
100
AcDbArc
 50
180.0
 51
270.0
  0
ARC
  5
8A5
330
18
100
AcDbEntity
  8
0
 48
10.0
100
AcDbCircle
 10
136.237487
 20
226.972935
 30
0.0
 40
2.5
100
AcDbArc
 50
270.0
 51
90.0
  0
LINE
  5
8A6
330
18
100
AcDbEntity
  8
CENTER
 48
10.0
100
AcDbLine
 10
132.504225
 20
226.972935
 30
0.0
 11
140.108263
 21
226.972935
 31
0.0
  0
LINE
  5
8A7
330
18
100
AcDbEntity
  8
0
 48
10.0
100
AcDbLine
 10
133.737487
 20
223.472935
 30
0.0
 11
133.737487
 21
219.972935
 31
0.0
  0
ARC
  5
8A8
330
18
100
AcDbEntity
  8
0
 48
10.0
100
AcDbCircle
 10
134.737487
 20
223.472935
 30
0.0
 40
1.0
100
AcDbArc
 50
90.0
 51
180.0
  0
LINE
  5
8A9
330
18
100
AcDbEntity
  8
0
 48
10.0
100
AcDbLine
 10
133.737487
 20
238.482029
 30
0.0
 11
133.737487
 21
223.472935
 31
0.0
  0
LINE
  5
8AA
330
18
100
AcDbEntity
  8
CENTER
 48
10.0
100
AcDbLine
 10
136.237487
 20
230.552966
 30
0.0
 11
136.237487
 21
223.588213
 31
0.0
  0
LINE
  5
8AB
330
18
100
AcDbEntity
  8
0
100
AcDbLine
 10
133.737487
 20
233.447947
 30
0.0
 11
133.737487
 21
230.472935
 31
0.0
  0
ARC
  5
8AC
330
18
100
AcDbEntity
  8
0
 48
10.0
100
AcDbCircle
 10
130.737487
 20
219.972935
 30
0.0
 40
3.0
100
AcDbArc
 50
270.0
 51
0.0
  0
LINE
  5
8AD
330
18
100
AcDbEntity
  8
0
 48
10.0
100
AcDbLine
 10
130.737487
 20
216.972935
 30
0.0
 11
148.737487
 21
216.972935
 31
0.0
  0
ARC
  5
8AE
330
18
100
AcDbEntity
  8
0
 48
10.0
100
AcDbCircle
 10
143.737487
 20
136.225801
 30
0.0
 40
5.0
100
AcDbArc
 50
0.0
 51
90.0
  0
DIMENSION
  5
8B4
330
18
100
AcDbEntity
  8
SCALE
 48
10.0
100
AcDbDimension
  2
*D41
 10
157.069092
 20
110.225801
 30
0.0
 11
153.319092
 21
113.725801
 31
0.0
 70
    32
  1
7
 71
     5
 42
-1.0
  3
STANDARD
100
AcDbAlignedDimension
 13
148.737487
 23
117.225801
 33
0.0
 14
148.737487
 24
110.225801
 34
0.0
 50
90.0
100
AcDbRotatedDimension
  0
LINE
  5
8B5
330
18
100
AcDbEntity
  8
0
 48
10.0
100
AcDbLine
 10
148.737487
 20
117.225801
 30
0.0
 11
148.737487
 21
136.225801
 31
0.0
  0
CIRCLE
  5
8B6
330
18
100
AcDbEntity
  8
0
 48
10.0
100
AcDbCircle
 10
123.737487
 20
113.725801
 30
0.0
 40
5.599999999999999
  0
CIRCLE
  5
8B8
330
18
100
AcDbEntity
  8
0
 48
10.0
100
AcDbCircle
 10
88.737487
 20
113.725801
 30
0.0
 40
5.599999999999999
  0
CIRCLE
  5
8BB
330
18
100
AcDbEntity
  8
0
 48
10.0
100
AcDbCircle
 10
106.237487
 20
131.225801
 30
0.0
 40
5.599999999999999
  0
ARC
  5
8BC
330
18
100
AcDbEntity
  8
0
 48
10.0
100
AcDbCircle
 10
143.737487
 20
91.225801
 30
0.0
 40
5.0
100
AcDbArc
 50
270.0
 51
0.0
  0
LINE
  5
8BE
330
18
100
AcDbEntity
  8
0
 48
10.0
100
AcDbLine
 10
148.737487
 20
91.225801
 30
0.0
 11
148.737487
 21
110.225801
 31
0.0
  0
CIRCLE
  5
8C0
330
18
100
AcDbEntity
  8
0
 48
10.0
100
AcDbCircle
 10
106.237487
 20
96.225801
 30
0.0
 40
5.599999999999999
  0
ARC
  5
8C1
330
18
100
AcDbEntity
  8
0
 48
10.0
100
AcDbCircle
 10
81.737487
 20
219.972935
 30
0.0
 40
3.0
100
AcDbArc
 50
180.0
 51
270.0
  0
LINE
  5
8C2
330
18
100
AcDbEntity
  8
0
 48
10.0
100
AcDbLine
 10
63.737487
 20
216.972935
 30
0.0
 11
81.737487
 21
216.972935
 31
0.0
  0
LINE
  5
8C3
330
18
100
AcDbEntity
  8
0
100
AcDbLine
 10
78.737487
 20
238.482029
 30
0.0
 11
78.737487
 21
219.972935
 31
0.0
  0
ARC
  5
8C4
330
18
100
AcDbEntity
  8
0
 48
10.0
100
AcDbCircle
 10
68.737487
 20
136.225801
 30
0.0
 40
5.0
100
AcDbArc
 50
90.0
 51
180.0
  0
DIMENSION
  5
8C8
330
18
100
AcDbEntity
  8
SCALE
 48
10.0
100
AcDbDimension
  2
*D42
 10
71.237487
 20
113.725801
 30
0.0
 11
84.13152600000001
 21
125.617533
 31
0.0
 12
-286.827541
 22
-0.359224
 32
0.0
 70
   164
  1
R3.5
 71
     5
 42
-1.0
  3
STANDARD
100
AcDbRadialDimension
 15
72.633785
 25
117.474181
 35
0.0
 40
0.0
1001
ACAD
1000
DSTYLE
1002
{
1070
   288
1070
     1
1070
    74
1070
     1
1070
   174
1070
     1
1070
   287
1070
     0
1002
}
  0
LINE
  5
8CB
330
18
100
AcDbEntity
  8
0
 48
10.0
100
AcDbLine
 10
63.737487
 20
136.225801
 30
0.0
 11
63.737487
 21
117.225801
 31
0.0
  0
ARC
  5
8CC
330
18
100
AcDbEntity
  8
0
 48
10.0
100
AcDbCircle
 10
68.737487
 20
91.225801
 30
0.0
 40
5.0
100
AcDbArc
 50
180.0
 51
270.0
  0
LINE
  5
8CD
330
18
100
AcDbEntity
  8
0
 48
10.0
100
AcDbLine
 10
63.737487
 20
110.225801
 30
0.0
 11
63.737487
 21
91.225801
 31
0.0
  0
LINE
  5
8D0
330
18
100
AcDbEntity
  8
0
 48
10.0
100
AcDbLine
 10
81.737487
 20
216.972935
 30
0.0
 11
130.737487
 21
216.972935
 31
0.0
  0
LINE
  5
8D1
330
18
100
AcDbEntity
  8
0
 48
10.0
100
AcDbLine
 10
68.737487
 20
86.225801
 30
0.0
 11
143.737487
 21
86.225801
 31
0.0
  0
LINE
  5
8D2
330
18
100
AcDbEntity
  8
0
 48
10.0
100
AcDbLine
 10
143.737487
 20
141.225801
 30
0.0
 11
68.737487
 21
141.225801
 31
0.0
  0
LINE
  5
8D5
330
18
100
AcDbEntity
  8
0
 48
10.0
100
AcDbLine
 10
206.625433
 20
267.172935
 30
0.0
 11
206.625433
 21
236.172935
 31
0.0
  0
LINE
  5
8D6
330
18
100
AcDbEntity
  8
0
 48
10.0
100
AcDbLine
 10
250.625433
 20
282.172935
 30
0.0
 11
250.625433
 21
251.672935
 31
0.0
  0
LINE
  5
8D7
330
18
100
AcDbEntity
  8
0
 48
10.0
100
AcDbLine
 10
207.625433
 20
214.472935
 30
0.0
 11
262.625433
 21
214.472935
 31
0.0
  0
LINE
  5
8D8
330
18
100
AcDbEntity
  8
0
 48
10.0
100
AcDbLine
 10
262.625433
 20
216.972935
 30
0.0
 11
207.625433
 21
216.972935
 31
0.0
  0
LINE
  5
8DA
330
18
100
AcDbEntity
  8
0
 48
10.0
100
AcDbLine
 10
209.625433
 20
282.172935
 30
0.0
 11
214.69012
 21
282.172935
 31
0.0
  0
LINE
  5
9DE
330
18
100
AcDbEntity
  8
CENTER
100
AcDbLine
 10
204.375433
 20
251.672935
 30
0.0
 11
265.875433
 21
251.672935
 31
0.0
  0
LINE
  5
9E0
330
18
100
AcDbEntity
  8
CENTER
100
AcDbLine
 10
106.237487
 20
218.922935
 30
0.0
 11
106.237487
 21
284.422935
 31
0.0
  0
LINE
  5
9E1
330
18
100
AcDbEntity
  8
CENTER
100
AcDbLine
 10
73.487487
 20
251.672935
 30
0.0
 11
138.987487
 21
251.672935
 31
0.0
  0
LINE
  5
9E4
330
18
100
AcDbEntity
  8
CENTER
100
AcDbLine
 10
106.237487
 20
143.475801
 30
0.0
 11
106.237487
 21
83.975801
 31
0.0
  0
LINE
  5
9EA
330
18
100
AcDbEntity
  8
CENTER
100
AcDbLine
 10
150.987487
 20
113.725801
 30
0.0
 11
61.487487
 21
113.725801
 31
0.0
  0
LINE
  5
A10
330
18
100
AcDbEntity
  8
0
100
AcDbLine
 10
286.017561
 20
176.771849
 30
0.0
 11
286.017561
 21
186.496722
 31
0.0
  0
LINE
  5
A11
330
18
100
AcDbEntity
  8
0
100
AcDbLine
 10
197.536017
 20
176.771849
 30
0.0
 11
197.536017
 21
186.496722
 31
0.0
  0
LINE
  5
A12
330
18
100
AcDbEntity
  8
0
100
AcDbLine
 10
165.68266
 20
176.771849
 30
0.0
 11
165.68266
 21
186.496722
 31
0.0
  0
LINE
  5
A19
330
18
100
AcDbEntity
  8
0
100
AcDbLine
 10
165.68266
 20
186.496722
 30
0.0
 11
286.017561
 21
186.496722
 31
0.0
  0
LINE
  5
A1A
330
18
100
AcDbEntity
  8
0
100
AcDbLine
 10
165.68266
 20
176.771849
 30
0.0
 11
286.017561
 21
176.771849
 31
0.0
  0
TEXT
  5
A1B
330
18
100
AcDbEntity
  8
0
100
AcDbText
 10
200.190462
 20
178.982048
 30
0.0
 40
4.5
  1
100,120,150,160,180,200
100
AcDbText
  0
TEXT
  5
A1C
330
18
100
AcDbEntity
  8
0
100
AcDbText
 10
169.66433
 20
178.982048
 30
0.0
 40
4.5
  1
定格 [A]
100
AcDbText
  0
LEADER
  5
A6D
330
18
100
AcDbEntity
  8
SCALE
100
AcDbLeader
  3
STANDARD
 73
     0
 74
     0
 75
     1
 40
4.500000000000001
 41
12.98571428571428
 76
     3
 10
136.704954
 20
225.882298
 30
0.0
 10
139.013847
 20
197.109916
 30
0.0
 10
142.013847
 20
197.109916
 30
0.0
340
A6E
  0
MTEXT
  5
A6E
102
{ACAD_REACTORS
330
A6D
102
}
330
18
100
AcDbEntity
  8
SCALE
100
AcDbMText
 10
143.513847
 20
200.859916
 30
0.0
 40
4.5
 41
0.0
 71
     4
 72
     1
  1
\A1;\U+03C62穴
 73
     1
 44
1.0
1001
ACAD
1000
MTEXTBEGIN
1070
    73
1070
     1
1070
    44
1040
1.0
1070
    74
1070
     0
1000
MTEXTEND
  0
DIMENSION
  5
A79
330
18
100
AcDbEntity
  8
SCALE
100
AcDbDimension
  2
*D44
 10
56.85036
 20
216.972935
 30
0.0
 11
53.10036
 21
229.18722
 31
0.0
 70
    32
  1
2.5
 71
     5
 42
-1.0
  3
STANDARD
100
AcDbAlignedDimension
 13
63.737487
 23
214.472935
 33
0.0
 14
63.737487
 24
216.972935
 34
0.0
 50
90.0
100
AcDbRotatedDimension
  0
LINE
  5
B08
330
18
100
AcDbEntity
  8
0
100
AcDbLine
 10
106.237487
 20
282.172935
 30
0.0
 11
127.383515
 21
283.489204
 31
0.0
  0
LINE
  5
B09
330
18
100
AcDbEntity
  8
0
100
AcDbLine
 10
127.383515
 20
283.489204
 30
0.0
 11
138.053757
 21
272.818963
 31
0.0
  0
LINE
  5
B0A
330
18
100
AcDbEntity
  8
0
100
AcDbLine
 10
138.053757
 20
272.818963
 30
0.0
 11
136.737487
 21
251.672935
 31
0.0
  0
LINE
  5
B0B
330
18
100
AcDbEntity
  8
0
100
AcDbLine
 10
63.737487
 20
214.472935
 30
0.0
 11
148.737487
 21
214.472935
 31
0.0
  0
DIMENSION
  5
B5C
330
18
100
AcDbEntity
  8
SCALE
100
AcDbDimension
  2
*D45
 10
159.431373
 20
214.472935
 30
0.0
 11
155.681373
 21
233.072935
 31
0.0
 70
    32
  1
37{\H4.5;\U+00B11}
 71
     5
 42
-1.0
  3
STANDARD
100
AcDbAlignedDimension
 13
138.987487
 23
251.672935
 33
0.0
 14
148.737487
 24
214.472935
 34
0.0
 50
90.0
100
AcDbRotatedDimension
1001
ACAD
1000
DSTYLE
1002
{
1070
   340
1005
D1
1070
    47
1040
1.0
1070
    71
1070
     1
1070
    48
1040
1.0
1002
}
  0
DIMENSION
  5
B80
330
18
100
AcDbEntity
  8
SCALE
 48
10.0
100
AcDbDimension
  2
*D46
 10
175.094569
 20
283.489204
 30
0.0
 11
171.344569
 21
248.981069
 31
0.0
 70
    32
  1
70{\H4.5;\U+00B11}
 71
     5
 42
-1.0
  3
STANDARD
100
AcDbAlignedDimension
 13
148.737487
 23
214.472935
 33
0.0
 14
127.383515
 24
283.489204
 34
0.0
 50
90.0
100
AcDbRotatedDimension
1001
ACAD
1000
DSTYLE
1002
{
1070
   340
1005
D1
1070
    47
1040
1.0
1070
    71
1070
     1
1070
    74
1070
     1
1070
    48
1040
1.0
1070
   174
1070
     1
1070
   287
1070
     0
1002
}
  0
ARC
  5
BB1
330
18
100
AcDbEntity
  8
0
100
AcDbCircle
 10
141.237487
 20
113.725801
 30
0.0
 40
3.5
100
AcDbArc
 50
90.0
 51
270.0
  0
ARC
  5
BB2
330
18
100
AcDbEntity
  8
0
100
AcDbCircle
 10
71.237487
 20
113.725801
 30
0.0
 40
3.5
100
AcDbArc
 50
270.0
 51
90.0
  0
LINE
  5
BB3
330
18
100
AcDbEntity
  8
0
100
AcDbLine
 10
63.737487
 20
117.225801
 30
0.0
 11
71.237487
 21
117.225801
 31
0.0
  0
LINE
  5
BB4
330
18
100
AcDbEntity
  8
0
100
AcDbLine
 10
63.737487
 20
110.225801
 30
0.0
 11
71.237487
 21
110.225801
 31
0.0
  0
LINE
  5
BB5
330
18
100
AcDbEntity
  8
0
100
AcDbLine
 10
141.237487
 20
110.225801
 30
0.0
 11
148.737487
 21
110.225801
 31
0.0
  0
LINE
  5
BB6
330
18
100
AcDbEntity
  8
0
100
AcDbLine
 10
141.237487
 20
117.225801
 30
0.0
 11
148.737487
 21
117.225801
 31
0.0
  0
LINE
  5
BD7
330
18
100
AcDbEntity
  8
CENTER
100
AcDbLine
 10
88.737487
 20
105.875801
 30
0.0
 11
88.737487
 21
121.575801
 31
0.0
  0
LINE
  5
BD8
330
18
100
AcDbEntity
  8
CENTER
100
AcDbLine
 10
80.887487
 20
113.725801
 30
0.0
 11
96.587487
 21
113.725801
 31
0.0
  0
LINE
  5
BDA
330
18
100
AcDbEntity
  8
CENTER
100
AcDbLine
 10
88.737487
 20
105.875801
 30
0.0
 11
88.737487
 21
121.575801
 31
0.0
  0
LINE
  5
BDB
330
18
100
AcDbEntity
  8
CENTER
100
AcDbLine
 10
80.887487
 20
113.725801
 30
0.0
 11
96.587487
 21
113.725801
 31
0.0
  0
LINE
  5
BDD
330
18
100
AcDbEntity
  8
CENTER
100
AcDbLine
 10
106.237487
 20
123.375801
 30
0.0
 11
106.237487
 21
139.075801
 31
0.0
  0
LINE
  5
BDE
330
18
100
AcDbEntity
  8
CENTER
100
AcDbLine
 10
98.387487
 20
131.225801
 30
0.0
 11
114.087487
 21
131.225801
 31
0.0
  0
LINE
  5
BE0
330
18
100
AcDbEntity
  8
CENTER
100
AcDbLine
 10
123.737487
 20
105.875801
 30
0.0
 11
123.737487
 21
121.575801
 31
0.0
  0
LINE
  5
BE1
330
18
100
AcDbEntity
  8
CENTER
100
AcDbLine
 10
115.887487
 20
113.725801
 30
0.0
 11
131.587487
 21
113.725801
 31
0.0
  0
LINE
  5
BE3
330
18
100
AcDbEntity
  8
CENTER
100
AcDbLine
 10
106.237487
 20
88.375801
 30
0.0
 11
106.237487
 21
104.075801
 31
0.0
  0
LINE
  5
BE4
330
18
100
AcDbEntity
  8
CENTER
100
AcDbLine
 10
98.387487
 20
96.225801
 30
0.0
 11
114.087487
 21
96.225801
 31
0.0
  0
DIMENSION
  5
C13
330
18
100
AcDbEntity
  8
SCALE
100
AcDbDimension
  2
*D47
 10
134.965215
 20
241.427563
 30
0.0
 11
60.119965
 21
264.329608
 31
0.0
 70
   163
 71
     5
 42
-1.0
  3
STANDARD
100
AcDbDiametricDimension
 15
77.509759
 25
261.9183060000001
 35
0.0
 40
0.0
1001
ACAD
1000
DSTYLE
1002
{
1070
   288
1070
     1
1070
   340
1005
D1
1070
    47
1040
1.0
1070
    71
1070
     1
1070
    74
1070
     1
1070
    48
1040
1.0
1070
   174
1070
     1
1070
   287
1070
     2
1002
}
  0
ENDSEC
  0
SECTION
  2
OBJECTS
  0
DICTIONARY
  5
C
330
0
100
AcDbDictionary
281
     1
  3
ACAD_COLOR
350
C61
  3
ACAD_GROUP
350
D
  3
ACAD_LAYOUT
350
C78
  3
ACAD_MATERIAL
350
C2F
  3
ACAD_MLEADERSTYLE
350
C76
  3
ACAD_MLINESTYLE
350
E
  3
ACAD_PLOTSETTINGS
350
C79
  3
ACAD_PLOTSTYLENAME
350
C2D
  3
ACAD_SCALELIST
350
C64
  3
ACAD_TABLESTYLE
350
C62
  3
ACAD_VISUALSTYLE
350
C48
  3
ACDB_RECOMPOSE_DATA
350
CA2
  3
ACDBVARIABLEDICTIONARY
350
1F9
  3
DWGPROPS
350
CA3
  0
DICTIONARY
  5
C80
330
F
100
AcDbDictionary
280
     1
281
     1
  3
ADSK_XREC_LAYER_RECONCILED
360
C81
  0
DICTIONARY
  5
C82
330
53
100
AcDbDictionary
280
     1
281
     1
  3
ADSK_XREC_LAYER_RECONCILED
360
C83
  0
DICTIONARY
  5
C84
330
54
100
AcDbDictionary
280
     1
281
     1
  3
ADSK_XREC_LAYER_RECONCILED
360
C85
  0
DICTIONARY
  5
C86
330
55
100
AcDbDictionary
280
     1
281
     1
  3
ADSK_XREC_LAYER_RECONCILED
360
C87
  0
DICTIONARY
  5
C88
330
57
100
AcDbDictionary
280
     1
281
     1
  3
ADSK_XREC_LAYER_RECONCILED
360
C89
  0
DICTIONARY
  5
C8A
330
58
100
AcDbDictionary
280
     1
281
     1
  3
ADSK_XREC_LAYER_RECONCILED
360
C8B
  0
DICTIONARY
  5
C8C
330
66
100
AcDbDictionary
280
     1
281
     1
  3
ADSK_XREC_LAYER_RECONCILED
360
C8D
  0
DICTIONARY
  5
C8E
330
74
100
AcDbDictionary
280
     1
281
     1
  3
ADSK_XREC_LAYER_RECONCILED
360
C8F
  0
DICTIONARY
  5
C90
330
75
100
AcDbDictionary
280
     1
281
     1
  3
ADSK_XREC_LAYER_RECONCILED
360
C91
  0
DICTIONARY
  5
C92
330
EF
100
AcDbDictionary
280
     1
281
     1
  3
ADSK_XREC_LAYER_RECONCILED
360
C93
  0
DICTIONARY
  5
C94
330
1DE
100
AcDbDictionary
280
     1
281
     1
  3
ADSK_XREC_LAYER_RECONCILED
360
C95
  0
DICTIONARY
  5
C96
330
1DF
100
AcDbDictionary
280
     1
281
     1
  3
ADSK_XREC_LAYER_RECONCILED
360
C97
  0
DICTIONARY
  5
C98
330
1E0
100
AcDbDictionary
280
     1
281
     1
  3
ADSK_XREC_LAYER_RECONCILED
360
C99
  0
DICTIONARY
  5
CA4
330
311
100
AcDbDictionary
280
     1
281
     1
  3
ACAD_MTEXT_RT
360
CA5
  0
DICTIONARY
  5
CA6
330
335
100
AcDbDictionary
280
     1
281
     1
  3
ACAD_MTEXT_RT
360
CA7
  0
DICTIONARY
  5
CA8
330
729
100
AcDbDictionary
280
     1
281
     1
  3
ACAD_MTEXT_RT
360
CA9
  0
DICTIONARY
  5
CAA
330
74F
100
AcDbDictionary
280
     1
281
     1
  3
ACAD_MTEXT_RT
360
CAB
  0
DICTIONARY
  5
CAC
330
969
100
AcDbDictionary
280
     1
281
     1
  3
ACAD_MTEXT_RT
360
CAD
  0
DICTIONARY
  5
CAE
330
C1B
100
AcDbDictionary
280
     1
281
     1
  3
ACAD_MTEXT_RT
360
CAF
  0
DICTIONARY
  5
C61
102
{ACAD_REACTORS
330
C
102
}
330
C
100
AcDbDictionary
281
     1
  0
DICTIONARY
  5
D
102
{ACAD_REACTORS
330
C
102
}
330
C
100
AcDbDictionary
281
     1
  0
DICTIONARY
  5
C78
102
{ACAD_REACTORS
330
C
102
}
330
C
100
AcDbDictionary
281
     1
  3
Model
350
C7A
  3
レイアウト1
350
C7B
  0
DICTIONARY
  5
C2F
102
{ACAD_REACTORS
330
C
102
}
330
C
100
AcDbDictionary
281
     1
  3
ByBlock
350
C38
  3
ByLayer
350
C30
  3
Global
350
C40
  0
DICTIONARY
  5
C76
102
{ACAD_REACTORS
330
C
102
}
330
C
100
AcDbDictionary
281
     1
  3
Standard
350
C77
  0
DICTIONARY
  5
E
102
{ACAD_REACTORS
330
C
102
}
330
C
100
AcDbDictionary
281
     1
  3
STANDARD
350
1B
  0
DICTIONARY
  5
C79
102
{ACAD_REACTORS
330
C
102
}
330
C
100
AcDbDictionary
281
     1
  0
ACDBDICTIONARYWDFLT
  5
C2D
102
{ACAD_REACTORS
330
C
102
}
330
C
100
AcDbDictionary
281
     1
  3
Normal
350
C2E
100
AcDbDictionaryWithDefault
340
C2E
  0
DICTIONARY
  5
C64
102
{ACAD_REACTORS
330
C
102
}
330
C
100
AcDbDictionary
281
     1
  3
A0
350
C65
  3
A1
350
C66
  3
A2
350
C67
  3
A3
350
C68
  3
A4
350
C69
  3
A5
350
C6A
  3
A6
350
C6B
  3
A7
350
C6C
  3
A8
350
C6D
  3
A9
350
C6E
  3
B0
350
C6F
  3
B1
350
C70
  3
B2
350
C71
  3
B3
350
C72
  3
B4
350
C73
  3
B5
350
C74
  3
B6
350
C75
  0
DICTIONARY
  5
C62
102
{ACAD_REACTORS
330
C
102
}
330
C
100
AcDbDictionary
281
     1
  3
Standard
350
C63
  0
DICTIONARY
  5
C48
102
{ACAD_REACTORS
330
C
102
}
330
C
100
AcDbDictionary
281
     1
  3
2dWireframe
350
C4E
  3
Basic
350
C4D
  3
Brighten
350
C54
  3
ColorChange
350
C58
  3
Conceptual
350
C51
  3
Dim
350
C53
  3
EdgeColorOff
350
C60
  3
Facepattern
350
C57
  3
Flat
350
C49
  3
FlatWithEdges
350
C4A
  3
Gouraud
350
C4B
  3
GouraudWithEdges
350
C4C
  3
Hidden
350
C50
  3
JitterOff
350
C5E
  3
Linepattern
350
C56
  3
OverhangOff
350
C5F
  3
Realistic
350
C52
  3
Shaded
350
C5D
  3
Shaded with edges
350
C5C
  3
Shades of Gray
350
C59
  3
Sketchy
350
C5A
  3
Thicken
350
C55
  3
Wireframe
350
C4F
  3
X-Ray
350
C5B
  0
XRECORD
  5
CA2
102
{ACAD_REACTORS
330
C
102
}
330
C
100
AcDbXrecord
280
     1
 90
        1
330
C63
  0
DICTIONARY
  5
1F9
102
{ACAD_REACTORS
330
C
102
}
330
C
100
AcDbDictionary
281
     1
  3
CANNOSCALE
350
C9C
  3
CMLEADERSTYLE
350
C9B
  3
CTABLESTYLE
350
C9A
  3
DIMASSOC
350
C9E
  3
INDEXCTL
350
C9D
  3
SORTENTS
350
1FA
  3
XCLIPFRAME
350
C9F
  0
XRECORD
  5
CA3
102
{ACAD_REACTORS
330
C
102
}
330
C
100
AcDbXrecord
280
     1
  1
DWGPROPS COOKIE
  2

  3

  4

  6

  7

  8
userdoc
  9

300
=
301
=
302
=
303
=
304
=
305
=
306
=
307
=
308
=
309
=
 40
0.0886802430555556
 41
2454735.68586184
 42
2456289.502857014
  1

 90
        0
  0
XRECORD
  5
C81
102
{ACAD_REACTORS
330
C80
102
}
330
C80
100
AcDbXrecord
280
     1
290
     1
  0
XRECORD
  5
C83
102
{ACAD_REACTORS
330
C82
102
}
330
C82
100
AcDbXrecord
280
     1
290
     1
  0
XRECORD
  5
C85
102
{ACAD_REACTORS
330
C84
102
}
330
C84
100
AcDbXrecord
280
     1
290
     1
  0
XRECORD
  5
C87
102
{ACAD_REACTORS
330
C86
102
}
330
C86
100
AcDbXrecord
280
     1
290
     1
  0
XRECORD
  5
C89
102
{ACAD_REACTORS
330
C88
102
}
330
C88
100
AcDbXrecord
280
     1
290
     1
  0
XRECORD
  5
C8B
102
{ACAD_REACTORS
330
C8A
102
}
330
C8A
100
AcDbXrecord
280
     1
290
     1
  0
XRECORD
  5
C8D
102
{ACAD_REACTORS
330
C8C
102
}
330
C8C
100
AcDbXrecord
280
     1
290
     1
  0
XRECORD
  5
C8F
102
{ACAD_REACTORS
330
C8E
102
}
330
C8E
100
AcDbXrecord
280
     1
290
     1
  0
XRECORD
  5
C91
102
{ACAD_REACTORS
330
C90
102
}
330
C90
100
AcDbXrecord
280
     1
290
     1
  0
XRECORD
  5
C93
102
{ACAD_REACTORS
330
C92
102
}
330
C92
100
AcDbXrecord
280
     1
290
     1
  0
XRECORD
  5
C95
102
{ACAD_REACTORS
330
C94
102
}
330
C94
100
AcDbXrecord
280
     1
290
     1
  0
XRECORD
  5
C97
102
{ACAD_REACTORS
330
C96
102
}
330
C96
100
AcDbXrecord
280
     1
290
     1
  0
XRECORD
  5
C99
102
{ACAD_REACTORS
330
C98
102
}
330
C98
100
AcDbXrecord
280
     1
290
     1
  0
XRECORD
  5
CA5
102
{ACAD_REACTORS
330
CA4
102
}
330
CA4
100
AcDbXrecord
280
     1
 40
5954.0
  1
\A1;\U+220570\U+00B11
  0
XRECORD
  5
CA7
102
{ACAD_REACTORS
330
CA6
102
}
330
CA6
100
AcDbXrecord
280
     1
 40
43020.0
  1
\A1;\A1;\U+220532{\H2.25;\S+2^ -0.3;}
  0
XRECORD
  5
CA9
102
{ACAD_REACTORS
330
CA8
102
}
330
CA8
100
AcDbXrecord
280
     1
 40
5955.0
  1
\A1;\U+220561\U+00B11
  0
XRECORD
  5
CAB
102
{ACAD_REACTORS
330
CAA
102
}
330
CAA
100
AcDbXrecord
280
     1
 40
41523.0
  1
\A1;\U+220523{\H3.000000;\S+2^ -0.3;}
  0
XRECORD
  5
CAD
102
{ACAD_REACTORS
330
CAC
102
}
330
CAC
100
AcDbXrecord
280
     1
 40
41644.0
  1
\A1;\U+220523{\H2.250000;\S+2^ -0.3;}
  0
XRECORD
  5
CAF
102
{ACAD_REACTORS
330
CAE
102
}
330
CAE
100
AcDbXrecord
280
     1
 40
5955.0
  1
\A1;\U+220561\U+00B11
  0
LAYOUT
  5
C7A
102
{ACAD_XDICTIONARY
360
CE5
102
}
102
{ACAD_REACTORS
330
C78
102
}
330
C78
100
AcDbPlotSettings
  1

  2
DWG To PDF.pc3
  4

  6

 40
0.0
 41
0.0
 42
0.0
 43
0.0
 44
0.0
 45
0.0
 46
0.0
 47
0.0
 48
0.0
 49
0.0
140
0.0
141
0.0
142
1.0
143
1.0
 70
  1712
 72
     0
 73
     0
 74
     0
  7

 75
     0
147
1.0
148
0.0
149
0.0
100
AcDbLayout
  1
Model
 70
     1
 71
     0
 10
0.0
 20
0.0
 11
12.0
 21
9.0
 12
0.0
 22
0.0
 32
0.0
 14
0.0
 24
0.0
 34
0.0
 15
0.0
 25
0.0
 35
0.0
146
0.0
 13
0.0
 23
0.0
 33
0.0
 16
1.0
 26
0.0
 36
0.0
 17
0.0
 27
1.0
 37
0.0
 76
     0
330
18
331
C27
  0
LAYOUT
  5
C7B
102
{ACAD_XDICTIONARY
360
CE7
102
}
102
{ACAD_REACTORS
330
C78
102
}
330
C78
100
AcDbPlotSettings
  1

  2
DWG To PDF.pc3
  4

  6

 40
0.0
 41
0.0
 42
0.0
 43
0.0
 44
0.0
 45
0.0
 46
0.0
 47
0.0
 48
0.0
 49
0.0
140
0.0
141
0.0
142
1.0
143
1.0
 70
   688
 72
     0
 73
     0
 74
     5
  7

 75
    16
147
1.0
148
0.0
149
0.0
100
AcDbLayout
  1
レイアウト1
 70
     1
 71
     1
 10
0.0
 20
0.0
 11
12.0
 21
9.0
 12
0.0
 22
0.0
 32
0.0
 14
1.000000000000000E+20
 24
1.000000000000000E+20
 34
1.000000000000000E+20
 15
-1.000000000000000E+20
 25
-1.000000000000000E+20
 35
-1.000000000000000E+20
146
0.0
 13
0.0
 23
0.0
 33
0.0
 16
1.0
 26
0.0
 36
0.0
 17
0.0
 27
1.0
 37
0.0
 76
     0
330
15
  0
MATERIAL
  5
C38
102
{ACAD_XDICTIONARY
360
C39
102
}
102
{ACAD_REACTORS
330
C2F
102
}
330
C2F
100
AcDbMaterial
  1
ByBlock
 72
     0
 43
0.0208333333333333
 43
0.0
 43
0.0
 43
0.0
 43
0.0
 43
0.0208333333333333
 43
0.0
 43
0.0
 43
0.0
 43
0.0
 43
1.0
 43
0.0
 43
0.0
 43
0.0
 43
0.0
 43
1.0
 77
     0
 47
0.0208333333333333
 47
0.0
 47
0.0
 47
0.0
 47
0.0
 47
0.0208333333333333
 47
0.0
 47
0.0
 47
0.0
 47
0.0
 47
1.0
 47
0.0
 47
0.0
 47
0.0
 47
0.0
 47
1.0
171
     0
 49
0.0208333333333333
 49
0.0
 49
0.0
 49
0.0
 49
0.0
 49
0.0208333333333333
 49
0.0
 49
0.0
 49
0.0
 49
0.0
 49
1.0
 49
0.0
 49
0.0
 49
0.0
 49
0.0
 49
1.0
175
     0
142
0.0208333333333333
142
0.0
142
0.0
142
0.0
142
0.0
142
0.0208333333333333
142
0.0
142
0.0
142
0.0
142
0.0
142
1.0
142
0.0
142
0.0
142
0.0
142
0.0
142
1.0
179
     0
144
0.0208333333333333
144
0.0
144
0.0
144
0.0
144
0.0
144
0.0208333333333333
144
0.0
144
0.0
144
0.0
144
0.0
144
1.0
144
0.0
144
0.0
144
0.0
144
0.0
144
1.0
147
0.0208333333333333
147
0.0
147
0.0
147
0.0
147
0.0
147
0.0208333333333333
147
0.0
147
0.0
147
0.0
147
0.0
147
1.0
147
0.0
147
0.0
147
0.0
147
0.0
147
1.0
  0
MATERIAL
  5
C30
102
{ACAD_XDICTIONARY
360
C31
102
}
102
{ACAD_REACTORS
330
C2F
102
}
330
C2F
100
AcDbMaterial
  1
ByLayer
 72
     0
 43
0.0208333333333333
 43
0.0
 43
0.0
 43
0.0
 43
0.0
 43
0.0208333333333333
 43
0.0
 43
0.0
 43
0.0
 43
0.0
 43
1.0
 43
0.0
 43
0.0
 43
0.0
 43
0.0
 43
1.0
 77
     0
 47
0.0208333333333333
 47
0.0
 47
0.0
 47
0.0
 47
0.0
 47
0.0208333333333333
 47
0.0
 47
0.0
 47
0.0
 47
0.0
 47
1.0
 47
0.0
 47
0.0
 47
0.0
 47
0.0
 47
1.0
171
     0
 49
0.0208333333333333
 49
0.0
 49
0.0
 49
0.0
 49
0.0
 49
0.0208333333333333
 49
0.0
 49
0.0
 49
0.0
 49
0.0
 49
1.0
 49
0.0
 49
0.0
 49
0.0
 49
0.0
 49
1.0
175
     0
142
0.0208333333333333
142
0.0
142
0.0
142
0.0
142
0.0
142
0.0208333333333333
142
0.0
142
0.0
142
0.0
142
0.0
142
1.0
142
0.0
142
0.0
142
0.0
142
0.0
142
1.0
179
     0
144
0.0208333333333333
144
0.0
144
0.0
144
0.0
144
0.0
144
0.0208333333333333
144
0.0
144
0.0
144
0.0
144
0.0
144
1.0
144
0.0
144
0.0
144
0.0
144
0.0
144
1.0
147
0.0208333333333333
147
0.0
147
0.0
147
0.0
147
0.0
147
0.0208333333333333
147
0.0
147
0.0
147
0.0
147
0.0
147
1.0
147
0.0
147
0.0
147
0.0
147
0.0
147
1.0
  0
MATERIAL
  5
C40
102
{ACAD_XDICTIONARY
360
C41
102
}
102
{ACAD_REACTORS
330
C2F
102
}
330
C2F
100
AcDbMaterial
  1
Global
 72
     0
 43
0.0208333333333333
 43
0.0
 43
0.0
 43
0.0
 43
0.0
 43
0.0208333333333333
 43
0.0
 43
0.0
 43
0.0
 43
0.0
 43
1.0
 43
0.0
 43
0.0
 43
0.0
 43
0.0
 43
1.0
 77
     0
 47
0.0208333333333333
 47
0.0
 47
0.0
 47
0.0
 47
0.0
 47
0.0208333333333333
 47
0.0
 47
0.0
 47
0.0
 47
0.0
 47
1.0
 47
0.0
 47
0.0
 47
0.0
 47
0.0
 47
1.0
171
     0
 49
0.0208333333333333
 49
0.0
 49
0.0
 49
0.0
 49
0.0
 49
0.0208333333333333
 49
0.0
 49
0.0
 49
0.0
 49
0.0
 49
1.0
 49
0.0
 49
0.0
 49
0.0
 49
0.0
 49
1.0
175
     0
142
0.0208333333333333
142
0.0
142
0.0
142
0.0
142
0.0
142
0.0208333333333333
142
0.0
142
0.0
142
0.0
142
0.0
142
1.0
142
0.0
142
0.0
142
0.0
142
0.0
142
1.0
179
     0
144
0.0208333333333333
144
0.0
144
0.0
144
0.0
144
0.0
144
0.0208333333333333
144
0.0
144
0.0
144
0.0
144
0.0
144
1.0
144
0.0
144
0.0
144
0.0
144
0.0
144
1.0
147
0.0208333333333333
147
0.0
147
0.0
147
0.0
147
0.0
147
0.0208333333333333
147
0.0
147
0.0
147
0.0
147
0.0
147
1.0
147
0.0
147
0.0
147
0.0
147
0.0
147
1.0
  0
MLEADERSTYLE
  5
C77
102
{ACAD_REACTORS
330
C76
102
}
330
C76
100
AcDbMLeaderStyle
170
     2
171
     1
172
     0
 90
        2
 40
0.0
 41
0.0
173
     1
 91
-1056964608
340
12
 92
       -2
290
     1
 42
2.0
291
     1
 43
0.36
  3
Standard
 44
4.0
300

342
10
174
     1
178
     6
175
     1
176
     0
 93
-1056964608
 45
4.0
292
     0
297
     0
 46
4.0
 94
-1056964608
 47
1.0
 49
1.0
140
1.0
293
     1
141
0.0
294
     1
177
     0
142
1.0
295
     0
296
     0
143
0.125
1001
ACAD_MLEADERVER
1070
     2
  0
MLINESTYLE
  5
1B
102
{ACAD_REACTORS
330
E
102
}
330
E
100
AcDbMlineStyle
  2
STANDARD
 70
     0
  3

 62
     0
 51
90.0
 52
90.0
 71
     2
 49
0.5
 62
   256
  6
BYLAYER
 49
-0.5
 62
   256
  6
BYLAYER
  0
ACDBPLACEHOLDER
  5
C2E
102
{ACAD_REACTORS
330
C2D
102
}
330
C2D
  0
SCALE
  5
C65
102
{ACAD_REACTORS
330
C64
102
}
330
C64
100
AcDbScale
 70
     0
300
1:1
140
1.0
141
1.0
290
     1
  0
SCALE
  5
C66
102
{ACAD_REACTORS
330
C64
102
}
330
C64
100
AcDbScale
 70
     0
300
1:2
140
1.0
141
2.0
290
     0
  0
SCALE
  5
C67
102
{ACAD_REACTORS
330
C64
102
}
330
C64
100
AcDbScale
 70
     0
300
1:4
140
1.0
141
4.0
290
     0
  0
SCALE
  5
C68
102
{ACAD_REACTORS
330
C64
102
}
330
C64
100
AcDbScale
 70
     0
300
1:5
140
1.0
141
5.0
290
     0
  0
SCALE
  5
C69
102
{ACAD_REACTORS
330
C64
102
}
330
C64
100
AcDbScale
 70
     0
300
1:8
140
1.0
141
8.0
290
     0
  0
SCALE
  5
C6A
102
{ACAD_REACTORS
330
C64
102
}
330
C64
100
AcDbScale
 70
     0
300
1:10
140
1.0
141
10.0
290
     0
  0
SCALE
  5
C6B
102
{ACAD_REACTORS
330
C64
102
}
330
C64
100
AcDbScale
 70
     0
300
1:16
140
1.0
141
16.0
290
     0
  0
SCALE
  5
C6C
102
{ACAD_REACTORS
330
C64
102
}
330
C64
100
AcDbScale
 70
     0
300
1:20
140
1.0
141
20.0
290
     0
  0
SCALE
  5
C6D
102
{ACAD_REACTORS
330
C64
102
}
330
C64
100
AcDbScale
 70
     0
300
1:30
140
1.0
141
30.0
290
     0
  0
SCALE
  5
C6E
102
{ACAD_REACTORS
330
C64
102
}
330
C64
100
AcDbScale
 70
     0
300
1:40
140
1.0
141
40.0
290
     0
  0
SCALE
  5
C6F
102
{ACAD_REACTORS
330
C64
102
}
330
C64
100
AcDbScale
 70
     0
300
1:50
140
1.0
141
50.0
290
     0
  0
SCALE
  5
C70
102
{ACAD_REACTORS
330
C64
102
}
330
C64
100
AcDbScale
 70
     0
300
1:100
140
1.0
141
100.0
290
     0
  0
SCALE
  5
C71
102
{ACAD_REACTORS
330
C64
102
}
330
C64
100
AcDbScale
 70
     0
300
2:1
140
2.0
141
1.0
290
     0
  0
SCALE
  5
C72
102
{ACAD_REACTORS
330
C64
102
}
330
C64
100
AcDbScale
 70
     0
300
4:1
140
4.0
141
1.0
290
     0
  0
SCALE
  5
C73
102
{ACAD_REACTORS
330
C64
102
}
330
C64
100
AcDbScale
 70
     0
300
8:1
140
8.0
141
1.0
290
     0
  0
SCALE
  5
C74
102
{ACAD_REACTORS
330
C64
102
}
330
C64
100
AcDbScale
 70
     0
300
10:1
140
10.0
141
1.0
290
     0
  0
SCALE
  5
C75
102
{ACAD_REACTORS
330
C64
102
}
330
C64
100
AcDbScale
 70
     0
300
100:1
140
100.0
141
1.0
290
     0
  0
TABLESTYLE
  5
C63
102
{ACAD_XDICTIONARY
360
CA0
102
}
102
{ACAD_REACTORS
330
C62
102
}
330
C62
100
AcDbTableStyle
  3
Standard
 70
     0
 71
     0
 40
1.5
 41
1.5
280
     0
281
     0
  7
STANDARD
140
4.5
170
     2
 62
     0
 63
     7
283
     0
274
    -2
284
     1
 64
     0
275
    -2
285
     1
 65
     0
276
    -2
286
     1
 66
     0
277
    -2
287
     1
 67
     0
278
    -2
288
     1
 68
     0
279
    -2
289
     1
 69
     0
  7
STANDARD
140
6.0
170
     5
 62
     0
 63
     7
283
     0
274
    -2
284
     1
 64
     0
275
    -2
285
     1
 65
     0
276
    -2
286
     1
 66
     0
277
    -2
287
     1
 67
     0
278
    -2
288
     1
 68
     0
279
    -2
289
     1
 69
     0
  7
STANDARD
140
4.5
170
     5
 62
     0
 63
     7
283
     0
274
    -2
284
     1
 64
     0
275
    -2
285
     1
 65
     0
276
    -2
286
     1
 66
     0
277
    -2
287
     1
 67
     0
278
    -2
288
     1
 68
     0
279
    -2
289
     1
 69
     0
  0
VISUALSTYLE
  5
C4E
102
{ACAD_XDICTIONARY
360
CBD
102
}
102
{ACAD_REACTORS
330
C48
102
}
330
C48
100
AcDbVisualStyle
  2
2dWireframe
 70
     4
 71
     0
 72
     2
 73
     0
 90
        0
 40
-0.6
 41
-30.0
 62
     5
 63
     7
 74
     1
 91
        4
 64
     7
 65
   257
 75
     1
175
     1
 42
1.0
 92
        0
 66
   257
 43
1.0
 76
     1
 77
     6
 78
     2
 67
     7
 79
     5
170
     0
171
     0
290
     0
174
     0
 93
        1
 44
0.0
173
     0
291
     0
 45
0.0
1001
ACAD
1000
AcDbSavedByObjectVersion
1070
     0
  0
VISUALSTYLE
  5
C4D
102
{ACAD_XDICTIONARY
360
CBB
102
}
102
{ACAD_REACTORS
330
C48
102
}
330
C48
100
AcDbVisualStyle
  2
Basic
 70
     7
 71
     1
 72
     0
 73
     1
 90
        0
 40
-0.6
 41
-30.0
 62
     5
 63
     7
 74
     0
 91
        4
 64
     7
 65
   257
 75
     1
175
     1
 42
1.0
 92
        8
 66
     7
 43
1.0
 76
     1
 77
     6
 78
     2
 67
     7
 79
     5
170
     0
171
     0
290
     0
174
     0
 93
        1
 44
0.0
173
     0
291
     1
 45
0.0
1001
ACAD
1000
AcDbSavedByObjectVersion
1070
     0
  0
VISUALSTYLE
  5
C54
102
{ACAD_XDICTIONARY
360
CC9
102
}
102
{ACAD_REACTORS
330
C48
102
}
330
C48
100
AcDbVisualStyle
  2
Brighten
 70
    12
 71
     2
 72
     2
 73
     0
 90
        0
 40
-0.6
 41
-30.0
 62
     5
 63
     7
 74
     1
 91
        4
 64
     7
 65
   257
 75
     1
175
     1
 42
1.0
 92
        8
 66
     7
 43
1.0
 76
     1
 77
     6
 78
     2
 67
     7
 79
     5
170
     0
171
     0
290
     0
174
     0
 93
        1
 44
50.0
173
     0
291
     1
 45
0.0
1001
ACAD
1000
AcDbSavedByObjectVersion
1070
     0
  0
VISUALSTYLE
  5
C58
102
{ACAD_XDICTIONARY
360
CD1
102
}
102
{ACAD_REACTORS
330
C48
102
}
330
C48
100
AcDbVisualStyle
  2
ColorChange
 70
    16
 71
     2
 72
     2
 73
     3
 90
        0
 40
-0.6
 41
-30.0
 62
     5
 63
     8
 74
     1
 91
        4
 64
     7
 65
   257
 75
     1
175
     1
 42
1.0
 92
        8
 66
     8
 43
1.0
 76
     1
 77
     6
 78
     2
 67
     7
 79
     5
170
     0
171
     0
290
     0
174
     0
 93
        1
 44
0.0
173
     0
291
     1
 45
0.0
1001
ACAD
1000
AcDbSavedByObjectVersion
1070
     0
  0
VISUALSTYLE
  5
C51
102
{ACAD_XDICTIONARY
360
CC3
102
}
102
{ACAD_REACTORS
330
C48
102
}
330
C48
100
AcDbVisualStyle
  2
Conceptual
 70
     9
 71
     3
 72
     2
 73
     0
 90
        0
 40
-0.6
 41
-30.0
 62
     5
 63
     7
 74
     2
 91
        2
 64
     7
 65
   257
 75
     1
175
     1
 42
179.0
 92
        8
 66
     7
 43
1.0
 76
     1
 77
     6
 78
     2
 67
     7
 79
     3
170
     0
171
     0
290
     0
174
     0
 93
        1
 44
0.0
173
     0
291
     0
 45
0.0
1001
ACAD
1000
AcDbSavedByObjectVersion
1070
     0
  0
VISUALSTYLE
  5
C53
102
{ACAD_XDICTIONARY
360
CC7
102
}
102
{ACAD_REACTORS
330
C48
102
}
330
C48
100
AcDbVisualStyle
  2
Dim
 70
    11
 71
     2
 72
     2
 73
     0
 90
        0
 40
-0.6
 41
-30.0
 62
     5
 63
     7
 74
     1
 91
        4
 64
     7
 65
   257
 75
     1
175
     1
 42
1.0
 92
        8
 66
     7
 43
1.0
 76
     1
 77
     6
 78
     2
 67
     7
 79
     5
170
     0
171
     0
290
     0
174
     0
 93
        1
 44
-50.0
173
     0
291
     1
 45
0.0
1001
ACAD
1000
AcDbSavedByObjectVersion
1070
     0
  0
VISUALSTYLE
  5
C60
102
{ACAD_XDICTIONARY
360
CE1
102
}
102
{ACAD_REACTORS
330
C48
102
}
330
C48
100
AcDbVisualStyle
  2
EdgeColorOff
 70
    22
 71
     2
 72
     2
 73
     0
 90
        0
 40
-0.6
 41
-30.0
 62
     5
 63
     7
 74
     1
 91
        4
 64
     7
 65
   257
 75
     1
175
     1
 42
1.0
 92
        8
 66
     7
 43
1.0
 76
     1
 77
     6
 78
     2
 67
     7
 79
     5
170
     0
171
     0
290
     0
174
     0
 93
        1
 44
0.0
173
     0
291
     1
 45
0.0
1001
ACAD
1000
AcDbSavedByObjectVersion
1070
     0
  0
VISUALSTYLE
  5
C57
102
{ACAD_XDICTIONARY
360
CCF
102
}
102
{ACAD_REACTORS
330
C48
102
}
330
C48
100
AcDbVisualStyle
  2
Facepattern
 70
    15
 71
     2
 72
     2
 73
     0
 90
        0
 40
-0.6
 41
-30.0
 62
     5
 63
     7
 74
     1
 91
        4
 64
     7
 65
   257
 75
     1
175
     1
 42
1.0
 92
        8
 66
     7
 43
1.0
 76
     1
 77
     6
 78
     2
 67
     7
 79
     5
170
     0
171
     0
290
     0
174
     0
 93
        1
 44
0.0
173
     0
291
     1
 45
0.0
1001
ACAD
1000
AcDbSavedByObjectVersion
1070
     0
  0
VISUALSTYLE
  5
C49
102
{ACAD_XDICTIONARY
360
CB3
102
}
102
{ACAD_REACTORS
330
C48
102
}
330
C48
100
AcDbVisualStyle
  2
Flat
 70
     0
 71
     2
 72
     1
 73
     1
 90
        2
 40
-0.6
 41
30.0
 62
     5
 63
     7
 74
     0
 91
        0
 64
     7
 65
   257
 75
     1
175
     1
 42
1.0
 92
        8
 66
     7
 43
1.0
 76
     1
 77
     6
 78
     2
 67
     7
 79
     5
170
     0
171
     0
290
     0
174
     0
 93
       13
 44
0.0
173
     0
291
     1
 45
0.0
1001
ACAD
1000
AcDbSavedByObjectVersion
1070
     0
  0
VISUALSTYLE
  5
C4A
102
{ACAD_XDICTIONARY
360
CB5
102
}
102
{ACAD_REACTORS
330
C48
102
}
330
C48
100
AcDbVisualStyle
  2
FlatWithEdges
 70
     1
 71
     2
 72
     1
 73
     1
 90
        2
 40
-0.6
 41
30.0
 62
     5
 63
     7
 74
     1
 91
        0
 64
     7
 65
   257
 75
     1
175
     1
 42
1.0
 92
        0
 66
   257
 43
1.0
 76
     1
 77
     6
 78
     2
 67
     7
 79
     5
170
     0
171
     0
290
     0
174
     0
 93
       13
 44
0.0
173
     0
291
     1
 45
0.0
1001
ACAD
1000
AcDbSavedByObjectVersion
1070
     0
  0
VISUALSTYLE
  5
C4B
102
{ACAD_XDICTIONARY
360
CB7
102
}
102
{ACAD_REACTORS
330
C48
102
}
330
C48
100
AcDbVisualStyle
  2
Gouraud
 70
     2
 71
     2
 72
     2
 73
     1
 90
        2
 40
-0.6
 41
30.0
 62
     5
 63
     7
 74
     0
 91
        0
 64
     7
 65
   257
 75
     1
175
     1
 42
1.0
 92
        0
 66
     7
 43
1.0
 76
     1
 77
     6
 78
     2
 67
     7
 79
     5
170
     0
171
     0
290
     0
174
     0
 93
       13
 44
0.0
173
     0
291
     1
 45
0.0
1001
ACAD
1000
AcDbSavedByObjectVersion
1070
     0
  0
VISUALSTYLE
  5
C4C
102
{ACAD_XDICTIONARY
360
CB9
102
}
102
{ACAD_REACTORS
330
C48
102
}
330
C48
100
AcDbVisualStyle
  2
GouraudWithEdges
 70
     3
 71
     2
 72
     2
 73
     1
 90
        2
 40
-0.6
 41
30.0
 62
     5
 63
     7
 74
     1
 91
        0
 64
     7
 65
   257
 75
     1
175
     1
 42
1.0
 92
        0
 66
   257
 43
1.0
 76
     1
 77
     6
 78
     2
 67
     7
 79
     5
170
     0
171
     0
290
     0
174
     0
 93
       13
 44
0.0
173
     0
291
     1
 45
0.0
1001
ACAD
1000
AcDbSavedByObjectVersion
1070
     0
  0
VISUALSTYLE
  5
C50
102
{ACAD_XDICTIONARY
360
CC1
102
}
102
{ACAD_REACTORS
330
C48
102
}
330
C48
100
AcDbVisualStyle
  2
Hidden
 70
     6
 71
     1
 72
     2
 73
     2
 90
        0
 40
-0.6
 41
-30.0
 62
     5
 63
     7
 74
     2
 91
        2
 64
     7
 65
   257
 75
     2
175
     1
 42
40.0
 92
        0
 66
   257
 43
1.0
 76
     1
 77
     6
 78
     2
 67
     7
 79
     3
170
     0
171
     0
290
     0
174
     0
 93
        1
 44
0.0
173
     0
291
     0
 45
0.0
1001
ACAD
1000
AcDbSavedByObjectVersion
1070
     0
  0
VISUALSTYLE
  5
C5E
102
{ACAD_XDICTIONARY
360
CDD
102
}
102
{ACAD_REACTORS
330
C48
102
}
330
C48
100
AcDbVisualStyle
  2
JitterOff
 70
    20
 71
     2
 72
     2
 73
     0
 90
        0
 40
-0.6
 41
-30.0
 62
     5
 63
     7
 74
     1
 91
        4
 64
     7
 65
   257
 75
     1
175
     1
 42
1.0
 92
       10
 66
     7
 43
1.0
 76
     1
 77
     6
 78
     2
 67
     7
 79
     5
170
     0
171
     0
290
     0
174
     0
 93
        1
 44
0.0
173
     0
291
     1
 45
0.0
1001
ACAD
1000
AcDbSavedByObjectVersion
1070
     0
  0
VISUALSTYLE
  5
C56
102
{ACAD_XDICTIONARY
360
CCD
102
}
102
{ACAD_REACTORS
330
C48
102
}
330
C48
100
AcDbVisualStyle
  2
Linepattern
 70
    14
 71
     2
 72
     2
 73
     0
 90
        0
 40
-0.6
 41
-30.0
 62
     5
 63
     7
 74
     1
 91
        4
 64
     7
 65
   257
 75
     7
175
     7
 42
1.0
 92
        8
 66
     7
 43
1.0
 76
     1
 77
     6
 78
     2
 67
     7
 79
     5
170
     0
171
     0
290
     0
174
     0
 93
        1
 44
0.0
173
     0
291
     1
 45
0.0
1001
ACAD
1000
AcDbSavedByObjectVersion
1070
     0
  0
VISUALSTYLE
  5
C5F
102
{ACAD_XDICTIONARY
360
CDF
102
}
102
{ACAD_REACTORS
330
C48
102
}
330
C48
100
AcDbVisualStyle
  2
OverhangOff
 70
    21
 71
     2
 72
     2
 73
     0
 90
        0
 40
-0.6
 41
-30.0
 62
     5
 63
     7
 74
     1
 91
        4
 64
     7
 65
   257
 75
     1
175
     1
 42
1.0
 92
        9
 66
     7
 43
1.0
 76
     1
 77
     6
 78
     2
 67
     7
 79
     5
170
     0
171
     0
290
     0
174
     0
 93
        1
 44
0.0
173
     0
291
     1
 45
0.0
1001
ACAD
1000
AcDbSavedByObjectVersion
1070
     0
  0
VISUALSTYLE
  5
C52
102
{ACAD_XDICTIONARY
360
CC5
102
}
102
{ACAD_REACTORS
330
C48
102
}
330
C48
100
AcDbVisualStyle
  2
Realistic
 70
     8
 71
     2
 72
     3
 73
     0
 90
        2
 40
-0.6
 41
30.0
 62
     5
 63
     7
 74
     0
 91
        0
 64
     7
 65
   257
 75
     1
175
     1
 42
1.0
 92
        8
 66
   257
 43
1.0
 76
     1
 77
     6
 78
     2
 67
     7
 79
     3
170
     0
171
     0
290
     0
174
     0
 93
       13
 44
0.0
173
     0
291
     0
 45
0.0
1001
ACAD
1000
AcDbSavedByObjectVersion
1070
     0
  0
VISUALSTYLE
  5
C5D
102
{ACAD_XDICTIONARY
360
CDB
102
}
102
{ACAD_REACTORS
330
C48
102
}
330
C48
100
AcDbVisualStyle
  2
Shaded
 70
    27
 71
     2
 72
     2
 73
     1
 90
        2
 40
-0.6
 41
30.0
 62
     5
 63
     7
 74
     0
 91
        4
 64
     7
 65
   257
 75
     1
175
     1
 42
1.0
 92
        8
 66
   257
 43
1.0
 76
     1
 77
     6
 78
     2
 67
     8
 79
     3
170
     0
171
     0
290
     0
174
     0
 93
        5
 44
0.0
173
     0
291
     0
 45
0.0
1001
ACAD
1000
AcDbSavedByObjectVersion
1070
     0
  0
VISUALSTYLE
  5
C5C
102
{ACAD_XDICTIONARY
360
CD9
102
}
102
{ACAD_REACTORS
330
C48
102
}
330
C48
100
AcDbVisualStyle
  2
Shaded with edges
 70
    26
 71
     2
 72
     2
 73
     1
 90
        2
 40
-0.6
 41
30.0
 62
     5
 63
     7
 74
     1
 91
       10
 64
     7
 65
   257
 75
     2
175
     1
 42
1.0
 92
        8
 66
   257
 43
1.0
 76
     1
 77
     6
 78
     2
 67
     7
 79
     3
170
     0
171
     0
290
     0
174
     0
 93
        5
 44
0.0
173
     0
291
     0
 45
0.0
1001
ACAD
1000
AcDbSavedByObjectVersion
1070
     0
  0
VISUALSTYLE
  5
C59
102
{ACAD_XDICTIONARY
360
CD3
102
}
102
{ACAD_REACTORS
330
C48
102
}
330
C48
100
AcDbVisualStyle
  2
Shades of Gray
 70
    23
 71
     2
 72
     2
 73
     3
 90
        0
 40
-0.6
 41
-30.0
 62
     5
 63
     7
 74
     2
 91
        2
 64
     7
 65
     7
 75
     1
175
     1
 42
40.0
 92
        8
 66
     7
 43
1.0
 76
     1
 77
     6
 78
     2
 67
     7
 79
     3
170
     0
171
     0
290
     0
174
     0
 93
        1
 44
0.0
173
     0
291
     0
 45
0.0
1001
ACAD
1000
AcDbSavedByObjectVersion
1070
     0
  0
VISUALSTYLE
  5
C5A
102
{ACAD_XDICTIONARY
360
CD5
102
}
102
{ACAD_REACTORS
330
C48
102
}
330
C48
100
AcDbVisualStyle
  2
Sketchy
 70
    24
 71
     1
 72
     2
 73
     2
 90
        0
 40
-0.6
 41
-30.0
 62
     5
 63
     7
 74
     2
 91
        2
 64
     7
 65
     7
 75
     1
175
     1
 42
40.0
 92
       11
 66
     7
 43
1.0
 76
     1
 77
     6
 78
     2
 67
     7
 79
     6
170
     0
171
     0
290
     0
174
     0
 93
        1
 44
0.0
173
     0
291
     0
 45
0.0
1001
ACAD
1000
AcDbSavedByObjectVersion
1070
     0
  0
VISUALSTYLE
  5
C55
102
{ACAD_XDICTIONARY
360
CCB
102
}
102
{ACAD_REACTORS
330
C48
102
}
330
C48
100
AcDbVisualStyle
  2
Thicken
 70
    13
 71
     2
 72
     2
 73
     0
 90
        0
 40
-0.6
 41
-30.0
 62
     5
 63
     7
 74
     1
 91
        4
 64
     7
 65
   257
 75
     1
175
     1
 42
1.0
 92
       12
 66
     7
 43
1.0
 76
     1
 77
     6
 78
     2
 67
     7
 79
     5
170
     0
171
     0
290
     0
174
     0
 93
        1
 44
0.0
173
     0
291
     1
 45
0.0
1001
ACAD
1000
AcDbSavedByObjectVersion
1070
     0
  0
VISUALSTYLE
  5
C4F
102
{ACAD_XDICTIONARY
360
CBF
102
}
102
{ACAD_REACTORS
330
C48
102
}
330
C48
100
AcDbVisualStyle
  2
Wireframe
 70
     5
 71
     0
 72
     2
 73
     0
 90
        0
 40
-0.6
 41
-30.0
 62
     5
 63
     7
 74
     1
 91
        4
 64
     7
 65
   257
 75
     1
175
     1
 42
1.0
 92
        0
 66
   257
 43
1.0
 76
     1
 77
     6
 78
     2
 67
     7
 79
     3
170
     0
171
     0
290
     0
174
     0
 93
        1
 44
0.0
173
     0
291
     0
 45
0.0
1001
ACAD
1000
AcDbSavedByObjectVersion
1070
     0
  0
VISUALSTYLE
  5
C5B
102
{ACAD_XDICTIONARY
360
CD7
102
}
102
{ACAD_REACTORS
330
C48
102
}
330
C48
100
AcDbVisualStyle
  2
X-Ray
 70
    25
 71
     2
 72
     2
 73
     1
 90
        1
 40
0.5
 41
-30.0
 62
     5
 63
     7
 74
     1
 91
        0
 64
     7
 65
   257
 75
     1
175
     1
 42
1.0
 92
        8
 66
     7
 43
1.0
 76
     1
 77
     6
 78
     2
 67
     7
 79
     3
170
     0
171
     0
290
     0
174
     0
 93
       13
 44
0.0
173
     0
291
     0
 45
0.0
1001
ACAD
1000
AcDbSavedByObjectVersion
1070
     0
  0
DICTIONARYVAR
  5
C9C
102
{ACAD_REACTORS
330
1F9
102
}
330
1F9
100
DictionaryVariables
280
     0
  1
1:1
  0
DICTIONARYVAR
  5
C9B
102
{ACAD_REACTORS
330
1F9
102
}
330
1F9
100
DictionaryVariables
280
     0
  1
STANDARD
  0
DICTIONARYVAR
  5
C9A
102
{ACAD_REACTORS
330
1F9
102
}
330
1F9
100
DictionaryVariables
280
     0
  1
STANDARD
  0
DICTIONARYVAR
  5
C9E
102
{ACAD_REACTORS
330
1F9
102
}
330
1F9
100
DictionaryVariables
280
     0
  1
1
  0
DICTIONARYVAR
  5
C9D
102
{ACAD_REACTORS
330
1F9
102
}
330
1F9
100
DictionaryVariables
280
     0
  1
0
  0
DICTIONARYVAR
  5
1FA
102
{ACAD_REACTORS
330
1F9
102
}
330
1F9
100
DictionaryVariables
280
     0
  1
97
  0
DICTIONARYVAR
  5
C9F
102
{ACAD_REACTORS
330
1F9
102
}
330
1F9
100
DictionaryVariables
280
     0
  1
2
  0
DICTIONARY
  5
CE5
330
C7A
100
AcDbDictionary
280
     1
281
     1
  3
ACAD_XREC_ROUNDTRIP
360
CE6
  0
DICTIONARY
  5
CE7
330
C7B
100
AcDbDictionary
280
     1
281
     1
  3
ACAD_XREC_ROUNDTRIP
360
CE8
  0
DICTIONARY
  5
C39
330
C38
100
AcDbDictionary
280
     1
281
     1
  3
ACAD_XREC_ROUNDTRIP
360
CB1
  3
BUMPTILE
360
C3B
  3
DIFFUSETILE
360
C3A
  3
OPACITYTILE
360
C3E
  3
REFLECTIONTILE
360
C3D
  3
REFRACTIONTILE
360
C3F
  3
SPECULARTILE
360
C3C
  0
DICTIONARY
  5
C31
330
C30
100
AcDbDictionary
280
     1
281
     1
  3
ACAD_XREC_ROUNDTRIP
360
CB0
  3
BUMPTILE
360
C33
  3
DIFFUSETILE
360
C32
  3
OPACITYTILE
360
C36
  3
REFLECTIONTILE
360
C35
  3
REFRACTIONTILE
360
C37
  3
SPECULARTILE
360
C34
  0
DICTIONARY
  5
C41
330
C40
100
AcDbDictionary
280
     1
281
     1
  3
ACAD_XREC_ROUNDTRIP
360
CB2
  3
BUMPTILE
360
C43
  3
DIFFUSETILE
360
C42
  3
OPACITYTILE
360
C46
  3
REFLECTIONTILE
360
C45
  3
REFRACTIONTILE
360
C47
  3
SPECULARTILE
360
C44
  0
DICTIONARY
  5
CA0
330
C63
100
AcDbDictionary
280
     1
281
     1
  3
ACAD_ROUNDTRIP_2008_TABLESTYLE_CELLSTYLEMAP
360
CA1
  3
ACAD_XREC_ROUNDTRIP
360
CE3
  0
DICTIONARY
  5
CBD
330
C4E
100
AcDbDictionary
280
     1
281
     1
  3
ACAD_XREC_ROUNDTRIP
360
CBE
  0
DICTIONARY
  5
CBB
330
C4D
100
AcDbDictionary
280
     1
281
     1
  3
ACAD_XREC_ROUNDTRIP
360
CBC
  0
DICTIONARY
  5
CC9
330
C54
100
AcDbDictionary
280
     1
281
     1
  3
ACAD_XREC_ROUNDTRIP
360
CCA
  0
DICTIONARY
  5
CD1
330
C58
100
AcDbDictionary
280
     1
281
     1
  3
ACAD_XREC_ROUNDTRIP
360
CD2
  0
DICTIONARY
  5
CC3
330
C51
100
AcDbDictionary
280
     1
281
     1
  3
ACAD_XREC_ROUNDTRIP
360
CC4
  0
DICTIONARY
  5
CC7
330
C53
100
AcDbDictionary
280
     1
281
     1
  3
ACAD_XREC_ROUNDTRIP
360
CC8
  0
DICTIONARY
  5
CE1
330
C60
100
AcDbDictionary
280
     1
281
     1
  3
ACAD_XREC_ROUNDTRIP
360
CE2
  0
DICTIONARY
  5
CCF
330
C57
100
AcDbDictionary
280
     1
281
     1
  3
ACAD_XREC_ROUNDTRIP
360
CD0
  0
DICTIONARY
  5
CB3
330
C49
100
AcDbDictionary
280
     1
281
     1
  3
ACAD_XREC_ROUNDTRIP
360
CB4
  0
DICTIONARY
  5
CB5
330
C4A
100
AcDbDictionary
280
     1
281
     1
  3
ACAD_XREC_ROUNDTRIP
360
CB6
  0
DICTIONARY
  5
CB7
330
C4B
100
AcDbDictionary
280
     1
281
     1
  3
ACAD_XREC_ROUNDTRIP
360
CB8
  0
DICTIONARY
  5
CB9
330
C4C
100
AcDbDictionary
280
     1
281
     1
  3
ACAD_XREC_ROUNDTRIP
360
CBA
  0
DICTIONARY
  5
CC1
330
C50
100
AcDbDictionary
280
     1
281
     1
  3
ACAD_XREC_ROUNDTRIP
360
CC2
  0
DICTIONARY
  5
CDD
330
C5E
100
AcDbDictionary
280
     1
281
     1
  3
ACAD_XREC_ROUNDTRIP
360
CDE
  0
DICTIONARY
  5
CCD
330
C56
100
AcDbDictionary
280
     1
281
     1
  3
ACAD_XREC_ROUNDTRIP
360
CCE
  0
DICTIONARY
  5
CDF
330
C5F
100
AcDbDictionary
280
     1
281
     1
  3
ACAD_XREC_ROUNDTRIP
360
CE0
  0
DICTIONARY
  5
CC5
330
C52
100
AcDbDictionary
280
     1
281
     1
  3
ACAD_XREC_ROUNDTRIP
360
CC6
  0
DICTIONARY
  5
CDB
330
C5D
100
AcDbDictionary
280
     1
281
     1
  3
ACAD_XREC_ROUNDTRIP
360
CDC
  0
DICTIONARY
  5
CD9
330
C5C
100
AcDbDictionary
280
     1
281
     1
  3
ACAD_XREC_ROUNDTRIP
360
CDA
  0
DICTIONARY
  5
CD3
330
C59
100
AcDbDictionary
280
     1
281
     1
  3
ACAD_XREC_ROUNDTRIP
360
CD4
  0
DICTIONARY
  5
CD5
330
C5A
100
AcDbDictionary
280
     1
281
     1
  3
ACAD_XREC_ROUNDTRIP
360
CD6
  0
DICTIONARY
  5
CCB
330
C55
100
AcDbDictionary
280
     1
281
     1
  3
ACAD_XREC_ROUNDTRIP
360
CCC
  0
DICTIONARY
  5
CBF
330
C4F
100
AcDbDictionary
280
     1
281
     1
  3
ACAD_XREC_ROUNDTRIP
360
CC0
  0
DICTIONARY
  5
CD7
330
C5B
100
AcDbDictionary
280
     1
281
     1
  3
ACAD_XREC_ROUNDTRIP
360
CD8
  0
XRECORD
  5
CE6
102
{ACAD_REACTORS
330
CE5
102
}
330
CE5
100
AcDbXrecord
280
     1
102
SHADEPLOT
 70
     0
102
SHADEPLOTRESLEVEL
 70
     2
102
SHADEPLOTCUSTOMDPI
 70
   300
  0
XRECORD
  5
CE8
102
{ACAD_REACTORS
330
CE7
102
}
330
CE7
100
AcDbXrecord
280
     1
102
SHADEPLOT
 70
     0
102
SHADEPLOTRESLEVEL
 70
     2
102
SHADEPLOTCUSTOMDPI
 70
   300
  0
XRECORD
  5
CB1
102
{ACAD_REACTORS
330
C39
102
}
330
C39
100
AcDbXrecord
280
     1
102
MATERIAL
148
0.0
149
0.0
149
0.0
 93
        0
 94
      127
282
     0
 72
     0
 77
     0
171
     0
175
     0
179
     0
273
     0
  0
XRECORD
  5
C3B
102
{ACAD_REACTORS
330
C39
102
}
330
C39
100
AcDbXrecord
280
     1
270
     1
271
     1
  0
XRECORD
  5
C3A
102
{ACAD_REACTORS
330
C39
102
}
330
C39
100
AcDbXrecord
280
     1
270
     1
271
     1
  0
XRECORD
  5
C3E
102
{ACAD_REACTORS
330
C39
102
}
330
C39
100
AcDbXrecord
280
     1
270
     1
271
     1
  0
XRECORD
  5
C3D
102
{ACAD_REACTORS
330
C39
102
}
330
C39
100
AcDbXrecord
280
     1
270
     1
271
     1
  0
XRECORD
  5
C3F
102
{ACAD_REACTORS
330
C39
102
}
330
C39
100
AcDbXrecord
280
     1
270
     1
271
     1
  0
XRECORD
  5
C3C
102
{ACAD_REACTORS
330
C39
102
}
330
C39
100
AcDbXrecord
280
     1
270
     1
271
     1
  0
XRECORD
  5
CB0
102
{ACAD_REACTORS
330
C31
102
}
330
C31
100
AcDbXrecord
280
     1
102
MATERIAL
148
0.0
149
0.0
149
0.0
 93
        0
 94
      127
282
     0
 72
     0
 77
     0
171
     0
175
     0
179
     0
273
     0
  0
XRECORD
  5
C33
102
{ACAD_REACTORS
330
C31
102
}
330
C31
100
AcDbXrecord
280
     1
270
     1
271
     1
  0
XRECORD
  5
C32
102
{ACAD_REACTORS
330
C31
102
}
330
C31
100
AcDbXrecord
280
     1
270
     1
271
     1
  0
XRECORD
  5
C36
102
{ACAD_REACTORS
330
C31
102
}
330
C31
100
AcDbXrecord
280
     1
270
     1
271
     1
  0
XRECORD
  5
C35
102
{ACAD_REACTORS
330
C31
102
}
330
C31
100
AcDbXrecord
280
     1
270
     1
271
     1
  0
XRECORD
  5
C37
102
{ACAD_REACTORS
330
C31
102
}
330
C31
100
AcDbXrecord
280
     1
270
     1
271
     1
  0
XRECORD
  5
C34
102
{ACAD_REACTORS
330
C31
102
}
330
C31
100
AcDbXrecord
280
     1
270
     1
271
     1
  0
XRECORD
  5
CB2
102
{ACAD_REACTORS
330
C41
102
}
330
C41
100
AcDbXrecord
280
     1
102
MATERIAL
148
0.0
149
0.0
149
0.0
 93
        0
 94
      127
282
     0
 72
     0
 77
     0
171
     0
175
     0
179
     0
273
     0
  0
XRECORD
  5
C43
102
{ACAD_REACTORS
330
C41
102
}
330
C41
100
AcDbXrecord
280
     1
270
     1
271
     1
  0
XRECORD
  5
C42
102
{ACAD_REACTORS
330
C41
102
}
330
C41
100
AcDbXrecord
280
     1
270
     1
271
     1
  0
XRECORD
  5
C46
102
{ACAD_REACTORS
330
C41
102
}
330
C41
100
AcDbXrecord
280
     1
270
     1
271
     1
  0
XRECORD
  5
C45
102
{ACAD_REACTORS
330
C41
102
}
330
C41
100
AcDbXrecord
280
     1
270
     1
271
     1
  0
XRECORD
  5
C47
102
{ACAD_REACTORS
330
C41
102
}
330
C41
100
AcDbXrecord
280
     1
270
     1
271
     1
  0
XRECORD
  5
C44
102
{ACAD_REACTORS
330
C41
102
}
330
C41
100
AcDbXrecord
280
     1
270
     1
271
     1
  0
CELLSTYLEMAP
  5
CA1
102
{ACAD_REACTORS
330
CA0
102
}
330
CA0
100
AcDbCellStyleMap
 90
        3
300
CELLSTYLE
  1
TABLEFORMAT_BEGIN
 90
        5
170
     1
 91
        0
 92
    32768
 62
   257
 93
        1
300
CONTENTFORMAT
  1
CONTENTFORMAT_BEGIN
 90
        0
 91
        0
 92
      512
 93
        0
300

 40
0.0
140
1.0
 94
        5
 62
     0
340
10
144
6.0
309
CONTENTFORMAT_END
171
     1
301
MARGIN
  1
CELLMARGIN_BEGIN
 40
1.5
 40
1.5
 40
1.5
 40
1.5
 40
4.5
 40
4.5
309
CELLMARGIN_END
 94
        6
 95
        1
302
GRIDFORMAT
  1
GRIDFORMAT_BEGIN
 90
        0
 91
        1
 62
     0
 92
       -2
340
0
 93
        0
 40
1.125
309
GRIDFORMAT_END
 95
        2
302
GRIDFORMAT
  1
GRIDFORMAT_BEGIN
 90
        0
 91
        1
 62
     0
 92
       -2
340
0
 93
        0
 40
1.125
309
GRIDFORMAT_END
 95
        4
302
GRIDFORMAT
  1
GRIDFORMAT_BEGIN
 90
        0
 91
        1
 62
     0
 92
       -2
340
0
 93
        0
 40
1.125
309
GRIDFORMAT_END
 95
        8
302
GRIDFORMAT
  1
GRIDFORMAT_BEGIN
 90
        0
 91
        1
 62
     0
 92
       -2
340
0
 93
        0
 40
1.125
309
GRIDFORMAT_END
 95
       16
302
GRIDFORMAT
  1
GRIDFORMAT_BEGIN
 90
        0
 91
        1
 62
     0
 92
       -2
340
0
 93
        0
 40
1.125
309
GRIDFORMAT_END
 95
       32
302
GRIDFORMAT
  1
GRIDFORMAT_BEGIN
 90
        0
 91
        1
 62
     0
 92
       -2
340
0
 93
        0
 40
1.125
309
GRIDFORMAT_END
309
TABLEFORMAT_END
  1
CELLSTYLE_BEGIN
 90
        1
 91
        1
300
_TITLE
309
CELLSTYLE_END
300
CELLSTYLE
  1
TABLEFORMAT_BEGIN
 90
        5
170
     1
 91
        0
 92
        0
 62
   257
 93
        1
300
CONTENTFORMAT
  1
CONTENTFORMAT_BEGIN
 90
        0
 91
        0
 92
      512
 93
        0
300

 40
0.0
140
1.0
 94
        5
 62
     0
340
10
144
4.5
309
CONTENTFORMAT_END
171
     1
301
MARGIN
  1
CELLMARGIN_BEGIN
 40
1.5
 40
1.5
 40
1.5
 40
1.5
 40
4.5
 40
4.5
309
CELLMARGIN_END
 94
        6
 95
        1
302
GRIDFORMAT
  1
GRIDFORMAT_BEGIN
 90
        0
 91
        1
 62
     0
 92
       -2
340
0
 93
        0
 40
1.125
309
GRIDFORMAT_END
 95
        2
302
GRIDFORMAT
  1
GRIDFORMAT_BEGIN
 90
        0
 91
        1
 62
     0
 92
       -2
340
0
 93
        0
 40
1.125
309
GRIDFORMAT_END
 95
        4
302
GRIDFORMAT
  1
GRIDFORMAT_BEGIN
 90
        0
 91
        1
 62
     0
 92
       -2
340
0
 93
        0
 40
1.125
309
GRIDFORMAT_END
 95
        8
302
GRIDFORMAT
  1
GRIDFORMAT_BEGIN
 90
        0
 91
        1
 62
     0
 92
       -2
340
0
 93
        0
 40
1.125
309
GRIDFORMAT_END
 95
       16
302
GRIDFORMAT
  1
GRIDFORMAT_BEGIN
 90
        0
 91
        1
 62
     0
 92
       -2
340
0
 93
        0
 40
1.125
309
GRIDFORMAT_END
 95
       32
302
GRIDFORMAT
  1
GRIDFORMAT_BEGIN
 90
        0
 91
        1
 62
     0
 92
       -2
340
0
 93
        0
 40
1.125
309
GRIDFORMAT_END
309
TABLEFORMAT_END
  1
CELLSTYLE_BEGIN
 90
        2
 91
        1
300
_HEADER
309
CELLSTYLE_END
300
CELLSTYLE
  1
TABLEFORMAT_BEGIN
 90
        5
170
     1
 91
        0
 92
        0
 62
   257
 93
        1
300
CONTENTFORMAT
  1
CONTENTFORMAT_BEGIN
 90
        0
 91
        0
 92
      512
 93
        0
300

 40
0.0
140
1.0
 94
        2
 62
     0
340
10
144
4.5
309
CONTENTFORMAT_END
171
     1
301
MARGIN
  1
CELLMARGIN_BEGIN
 40
1.5
 40
1.5
 40
1.5
 40
1.5
 40
4.5
 40
4.5
309
CELLMARGIN_END
 94
        6
 95
        1
302
GRIDFORMAT
  1
GRIDFORMAT_BEGIN
 90
        0
 91
        1
 62
     0
 92
       -2
340
0
 93
        0
 40
1.125
309
GRIDFORMAT_END
 95
        2
302
GRIDFORMAT
  1
GRIDFORMAT_BEGIN
 90
        0
 91
        1
 62
     0
 92
       -2
340
0
 93
        0
 40
1.125
309
GRIDFORMAT_END
 95
        4
302
GRIDFORMAT
  1
GRIDFORMAT_BEGIN
 90
        0
 91
        1
 62
     0
 92
       -2
340
0
 93
        0
 40
1.125
309
GRIDFORMAT_END
 95
        8
302
GRIDFORMAT
  1
GRIDFORMAT_BEGIN
 90
        0
 91
        1
 62
     0
 92
       -2
340
0
 93
        0
 40
1.125
309
GRIDFORMAT_END
 95
       16
302
GRIDFORMAT
  1
GRIDFORMAT_BEGIN
 90
        0
 91
        1
 62
     0
 92
       -2
340
0
 93
        0
 40
1.125
309
GRIDFORMAT_END
 95
       32
302
GRIDFORMAT
  1
GRIDFORMAT_BEGIN
 90
        0
 91
        1
 62
     0
 92
       -2
340
0
 93
        0
 40
1.125
309
GRIDFORMAT_END
309
TABLEFORMAT_END
  1
CELLSTYLE_BEGIN
 90
        3
 91
        2
300
_DATA
309
CELLSTYLE_END
  0
XRECORD
  5
CE3
102
{ACAD_REACTORS
330
CA0
102
}
330
CA0
100
AcDbXrecord
280
     1
102
ACAD_ROUNDTRIP_PRE2007_TABLESTYLE
 90
      512
 91
        0
  1

 92
      512
 93
        0
  2

 94
      512
 95
        0
  3

  0
XRECORD
  5
CBE
102
{ACAD_REACTORS
330
CBD
102
}
330
CBD
100
AcDbXrecord
280
     1
102
RTVSPropertyOp0
 70
     1
102
RTVSPropertyOp1
 70
     1
102
RTVSPropertyOp2
 70
     1
102
RTVSPropertyOp3
 70
     1
102
RTVSPropertyOp4
 70
     1
102
RTVSPropertyOp5
 70
     1
102
RTVSPropertyOp6
 70
     1
102
RTVSPropertyOp7
 70
     1
102
RTVSPropertyOp8
 70
     1
102
RTVSPropertyOp9
 70
     1
102
RTVSPropertyOp10
 70
     1
102
RTVSPropertyOp11
 70
     1
102
RTVSPropertyOp12
 70
     1
102
RTVSPropertyOp13
 70
     1
102
RTVSPropertyOp14
 70
     1
102
RTVSPropertyOp15
 70
     1
102
RTVSPropertyOp16
 70
     1
102
RTVSPropertyOp17
 70
     1
102
RTVSPropertyOp18
 70
     1
102
RTVSPropertyOp19
 70
     1
102
RTVSPropertyOp20
 70
     1
102
RTVSPropertyOp21
 70
     1
102
RTVSPropertyOp22
 70
     1
102
RTVSPropertyOp23
 70
     1
102
RTVSPropertyOp24
 70
     1
102
RTVSPropertyOp25
 70
     1
102
RTVSPropertyOp26
 70
     1
102
RTVSPropertyOp27
 70
     1
102
RTVSPropertyOp28
 70
     1
102
RTVSPropertyOp29
 70
     1
102
RTVSPropertyOp30
 70
     1
102
RTVSPropertyOp31
 70
     1
102
RTVSPropertyOp32
 70
     1
  0
XRECORD
  5
CBC
102
{ACAD_REACTORS
330
CBB
102
}
330
CBB
100
AcDbXrecord
280
     1
102
RTVSPropertyOp0
 70
     1
102
RTVSPropertyOp1
 70
     1
102
RTVSPropertyOp2
 70
     1
102
RTVSPropertyOp3
 70
     1
102
RTVSPropertyOp4
 70
     1
102
RTVSPropertyOp5
 70
     1
102
RTVSPropertyOp6
 70
     1
102
RTVSPropertyOp7
 70
     1
102
RTVSPropertyOp8
 70
     1
102
RTVSPropertyOp9
 70
     1
102
RTVSPropertyOp10
 70
     1
102
RTVSPropertyOp11
 70
     1
102
RTVSPropertyOp12
 70
     1
102
RTVSPropertyOp13
 70
     1
102
RTVSPropertyOp14
 70
     1
102
RTVSPropertyOp15
 70
     1
102
RTVSPropertyOp16
 70
     1
102
RTVSPropertyOp17
 70
     1
102
RTVSPropertyOp18
 70
     1
102
RTVSPropertyOp19
 70
     1
102
RTVSPropertyOp20
 70
     1
102
RTVSPropertyOp21
 70
     1
102
RTVSPropertyOp22
 70
     1
102
RTVSPropertyOp23
 70
     1
102
RTVSPropertyOp24
 70
     1
102
RTVSPropertyOp25
 70
     1
102
RTVSPropertyOp26
 70
     1
102
RTVSPropertyOp27
 70
     1
102
RTVSPropertyOp28
 70
     1
102
RTVSPropertyOp29
 70
     1
102
RTVSPropertyOp30
 70
     1
102
RTVSPropertyOp31
 70
     1
102
RTVSPropertyOp32
 70
     1
  0
XRECORD
  5
CCA
102
{ACAD_REACTORS
330
CC9
102
}
330
CC9
100
AcDbXrecord
280
     1
102
RTVSPropertyOp0
 70
     1
102
RTVSPropertyOp1
 70
     1
102
RTVSPropertyOp2
 70
     1
102
RTVSPropertyOp3
 70
     1
102
RTVSPropertyOp4
 70
     1
102
RTVSPropertyOp5
 70
     1
102
RTVSPropertyOp6
 70
     1
102
RTVSPropertyOp7
 70
     1
102
RTVSPropertyOp8
 70
     1
102
RTVSPropertyOp9
 70
     1
102
RTVSPropertyOp10
 70
     1
102
RTVSPropertyOp11
 70
     1
102
RTVSPropertyOp12
 70
     1
102
RTVSPropertyOp13
 70
     1
102
RTVSPropertyOp14
 70
     1
102
RTVSPropertyOp15
 70
     1
102
RTVSPropertyOp16
 70
     1
102
RTVSPropertyOp17
 70
     1
102
RTVSPropertyOp18
 70
     1
102
RTVSPropertyOp19
 70
     1
102
RTVSPropertyOp20
 70
     1
102
RTVSPropertyOp21
 70
     1
102
RTVSPropertyOp22
 70
     1
102
RTVSPropertyOp23
 70
     1
102
RTVSPropertyOp24
 70
     1
102
RTVSPropertyOp25
 70
     1
102
RTVSPropertyOp26
 70
     1
102
RTVSPropertyOp27
 70
     1
102
RTVSPropertyOp28
 70
     1
102
RTVSPropertyOp29
 70
     1
102
RTVSPropertyOp30
 70
     1
102
RTVSPropertyOp31
 70
     1
102
RTVSPropertyOp32
 70
     1
  0
XRECORD
  5
CD2
102
{ACAD_REACTORS
330
CD1
102
}
330
CD1
100
AcDbXrecord
280
     1
102
RTVSPropertyOp0
 70
     1
102
RTVSPropertyOp1
 70
     1
102
RTVSPropertyOp2
 70
     1
102
RTVSPropertyOp3
 70
     1
102
RTVSPropertyOp4
 70
     1
102
RTVSPropertyOp5
 70
     1
102
RTVSPropertyOp6
 70
     1
102
RTVSPropertyOp7
 70
     1
102
RTVSPropertyOp8
 70
     1
102
RTVSPropertyOp9
 70
     1
102
RTVSPropertyOp10
 70
     1
102
RTVSPropertyOp11
 70
     1
102
RTVSPropertyOp12
 70
     1
102
RTVSPropertyOp13
 70
     1
102
RTVSPropertyOp14
 70
     1
102
RTVSPropertyOp15
 70
     1
102
RTVSPropertyOp16
 70
     1
102
RTVSPropertyOp17
 70
     1
102
RTVSPropertyOp18
 70
     1
102
RTVSPropertyOp19
 70
     1
102
RTVSPropertyOp20
 70
     1
102
RTVSPropertyOp21
 70
     1
102
RTVSPropertyOp22
 70
     1
102
RTVSPropertyOp23
 70
     1
102
RTVSPropertyOp24
 70
     1
102
RTVSPropertyOp25
 70
     1
102
RTVSPropertyOp26
 70
     1
102
RTVSPropertyOp27
 70
     1
102
RTVSPropertyOp28
 70
     1
102
RTVSPropertyOp29
 70
     1
102
RTVSPropertyOp30
 70
     1
102
RTVSPropertyOp31
 70
     1
102
RTVSPropertyOp32
 70
     1
  0
XRECORD
  5
CC4
102
{ACAD_REACTORS
330
CC3
102
}
330
CC3
100
AcDbXrecord
280
     1
102
RTVSPropertyOp0
 70
     1
102
RTVSPropertyOp1
 70
     1
102
RTVSPropertyOp2
 70
     1
102
RTVSPropertyOp3
 70
     1
102
RTVSPropertyOp4
 70
     1
102
RTVSPropertyOp5
 70
     1
102
RTVSPropertyOp6
 70
     1
102
RTVSPropertyOp7
 70
     1
102
RTVSPropertyOp8
 70
     1
102
RTVSPropertyOp9
 70
     1
102
RTVSPropertyOp10
 70
     1
102
RTVSPropertyOp11
 70
     1
102
RTVSPropertyOp12
 70
     1
102
RTVSPropertyOp13
 70
     1
102
RTVSPropertyOp14
 70
     1
102
RTVSPropertyOp15
 70
     1
102
RTVSPropertyOp16
 70
     1
102
RTVSPropertyOp17
 70
     1
102
RTVSPropertyOp18
 70
     1
102
RTVSPropertyOp19
 70
     1
102
RTVSPropertyOp20
 70
     1
102
RTVSPropertyOp21
 70
     1
102
RTVSPropertyOp22
 70
     1
102
RTVSPropertyOp23
 70
     1
102
RTVSPropertyOp24
 70
     1
102
RTVSPropertyOp25
 70
     1
102
RTVSPropertyOp26
 70
     1
102
RTVSPropertyOp27
 70
     1
102
RTVSPropertyOp28
 70
     1
102
RTVSPropertyOp29
 70
     1
102
RTVSPropertyOp30
 70
     1
102
RTVSPropertyOp31
 70
     1
102
RTVSPropertyOp32
 70
     1
  0
XRECORD
  5
CC8
102
{ACAD_REACTORS
330
CC7
102
}
330
CC7
100
AcDbXrecord
280
     1
102
RTVSPropertyOp0
 70
     1
102
RTVSPropertyOp1
 70
     1
102
RTVSPropertyOp2
 70
     1
102
RTVSPropertyOp3
 70
     1
102
RTVSPropertyOp4
 70
     1
102
RTVSPropertyOp5
 70
     1
102
RTVSPropertyOp6
 70
     1
102
RTVSPropertyOp7
 70
     1
102
RTVSPropertyOp8
 70
     1
102
RTVSPropertyOp9
 70
     1
102
RTVSPropertyOp10
 70
     1
102
RTVSPropertyOp11
 70
     1
102
RTVSPropertyOp12
 70
     1
102
RTVSPropertyOp13
 70
     1
102
RTVSPropertyOp14
 70
     1
102
RTVSPropertyOp15
 70
     1
102
RTVSPropertyOp16
 70
     1
102
RTVSPropertyOp17
 70
     1
102
RTVSPropertyOp18
 70
     1
102
RTVSPropertyOp19
 70
     1
102
RTVSPropertyOp20
 70
     1
102
RTVSPropertyOp21
 70
     1
102
RTVSPropertyOp22
 70
     1
102
RTVSPropertyOp23
 70
     1
102
RTVSPropertyOp24
 70
     1
102
RTVSPropertyOp25
 70
     1
102
RTVSPropertyOp26
 70
     1
102
RTVSPropertyOp27
 70
     1
102
RTVSPropertyOp28
 70
     1
102
RTVSPropertyOp29
 70
     1
102
RTVSPropertyOp30
 70
     1
102
RTVSPropertyOp31
 70
     1
102
RTVSPropertyOp32
 70
     1
  0
XRECORD
  5
CE2
102
{ACAD_REACTORS
330
CE1
102
}
330
CE1
100
AcDbXrecord
280
     1
102
RTVSPropertyOp0
 70
     0
102
RTVSPropertyOp1
 70
     0
102
RTVSPropertyOp2
 70
     0
102
RTVSPropertyOp3
 70
     0
102
RTVSPropertyOp4
 70
     0
102
RTVSPropertyOp5
 70
     0
102
RTVSPropertyOp6
 70
     0
102
RTVSPropertyOp7
 70
     0
102
RTVSPropertyOp8
 70
     0
102
RTVSPropertyOp9
 70
     0
102
RTVSPropertyOp10
 70
     0
102
RTVSPropertyOp11
 70
     0
102
RTVSPropertyOp12
 70
     0
102
RTVSPropertyOp13
 70
     0
102
RTVSPropertyOp14
 70
     2
102
RTVSPropertyOp15
 70
     0
102
RTVSPropertyOp16
 70
     0
102
RTVSPropertyOp17
 70
     0
102
RTVSPropertyOp18
 70
     0
102
RTVSPropertyOp19
 70
     0
102
RTVSPropertyOp20
 70
     0
102
RTVSPropertyOp21
 70
     0
102
RTVSPropertyOp22
 70
     0
102
RTVSPropertyOp23
 70
     0
102
RTVSPropertyOp24
 70
     0
102
RTVSPropertyOp25
 70
     0
102
RTVSPropertyOp26
 70
     0
102
RTVSPropertyOp27
 70
     0
102
RTVSPropertyOp28
 70
     0
102
RTVSPropertyOp29
 70
     0
102
RTVSPropertyOp30
 70
     0
102
RTVSPropertyOp31
 70
     0
102
RTVSPropertyOp32
 70
     0
  0
XRECORD
  5
CD0
102
{ACAD_REACTORS
330
CCF
102
}
330
CCF
100
AcDbXrecord
280
     1
102
RTVSPropertyOp0
 70
     1
102
RTVSPropertyOp1
 70
     1
102
RTVSPropertyOp2
 70
     1
102
RTVSPropertyOp3
 70
     1
102
RTVSPropertyOp4
 70
     1
102
RTVSPropertyOp5
 70
     1
102
RTVSPropertyOp6
 70
     1
102
RTVSPropertyOp7
 70
     1
102
RTVSPropertyOp8
 70
     1
102
RTVSPropertyOp9
 70
     1
102
RTVSPropertyOp10
 70
     1
102
RTVSPropertyOp11
 70
     1
102
RTVSPropertyOp12
 70
     1
102
RTVSPropertyOp13
 70
     1
102
RTVSPropertyOp14
 70
     1
102
RTVSPropertyOp15
 70
     1
102
RTVSPropertyOp16
 70
     1
102
RTVSPropertyOp17
 70
     1
102
RTVSPropertyOp18
 70
     1
102
RTVSPropertyOp19
 70
     1
102
RTVSPropertyOp20
 70
     1
102
RTVSPropertyOp21
 70
     1
102
RTVSPropertyOp22
 70
     1
102
RTVSPropertyOp23
 70
     1
102
RTVSPropertyOp24
 70
     1
102
RTVSPropertyOp25
 70
     1
102
RTVSPropertyOp26
 70
     1
102
RTVSPropertyOp27
 70
     1
102
RTVSPropertyOp28
 70
     1
102
RTVSPropertyOp29
 70
     1
102
RTVSPropertyOp30
 70
     1
102
RTVSPropertyOp31
 70
     1
102
RTVSPropertyOp32
 70
     1
  0
XRECORD
  5
CB4
102
{ACAD_REACTORS
330
CB3
102
}
330
CB3
100
AcDbXrecord
280
     1
102
RTVSPropertyOp0
 70
     1
102
RTVSPropertyOp1
 70
     1
102
RTVSPropertyOp2
 70
     1
102
RTVSPropertyOp3
 70
     1
102
RTVSPropertyOp4
 70
     1
102
RTVSPropertyOp5
 70
     1
102
RTVSPropertyOp6
 70
     1
102
RTVSPropertyOp7
 70
     1
102
RTVSPropertyOp8
 70
     1
102
RTVSPropertyOp9
 70
     1
102
RTVSPropertyOp10
 70
     1
102
RTVSPropertyOp11
 70
     1
102
RTVSPropertyOp12
 70
     1
102
RTVSPropertyOp13
 70
     1
102
RTVSPropertyOp14
 70
     1
102
RTVSPropertyOp15
 70
     1
102
RTVSPropertyOp16
 70
     1
102
RTVSPropertyOp17
 70
     1
102
RTVSPropertyOp18
 70
     1
102
RTVSPropertyOp19
 70
     1
102
RTVSPropertyOp20
 70
     1
102
RTVSPropertyOp21
 70
     1
102
RTVSPropertyOp22
 70
     1
102
RTVSPropertyOp23
 70
     1
102
RTVSPropertyOp24
 70
     1
102
RTVSPropertyOp25
 70
     1
102
RTVSPropertyOp26
 70
     1
102
RTVSPropertyOp27
 70
     1
102
RTVSPropertyOp28
 70
     1
102
RTVSPropertyOp29
 70
     1
102
RTVSPropertyOp30
 70
     1
102
RTVSPropertyOp31
 70
     1
102
RTVSPropertyOp32
 70
     1
  0
XRECORD
  5
CB6
102
{ACAD_REACTORS
330
CB5
102
}
330
CB5
100
AcDbXrecord
280
     1
102
RTVSPropertyOp0
 70
     1
102
RTVSPropertyOp1
 70
     1
102
RTVSPropertyOp2
 70
     1
102
RTVSPropertyOp3
 70
     1
102
RTVSPropertyOp4
 70
     1
102
RTVSPropertyOp5
 70
     1
102
RTVSPropertyOp6
 70
     1
102
RTVSPropertyOp7
 70
     1
102
RTVSPropertyOp8
 70
     1
102
RTVSPropertyOp9
 70
     1
102
RTVSPropertyOp10
 70
     1
102
RTVSPropertyOp11
 70
     1
102
RTVSPropertyOp12
 70
     1
102
RTVSPropertyOp13
 70
     1
102
RTVSPropertyOp14
 70
     1
102
RTVSPropertyOp15
 70
     1
102
RTVSPropertyOp16
 70
     1
102
RTVSPropertyOp17
 70
     1
102
RTVSPropertyOp18
 70
     1
102
RTVSPropertyOp19
 70
     1
102
RTVSPropertyOp20
 70
     1
102
RTVSPropertyOp21
 70
     1
102
RTVSPropertyOp22
 70
     1
102
RTVSPropertyOp23
 70
     1
102
RTVSPropertyOp24
 70
     1
102
RTVSPropertyOp25
 70
     1
102
RTVSPropertyOp26
 70
     1
102
RTVSPropertyOp27
 70
     1
102
RTVSPropertyOp28
 70
     1
102
RTVSPropertyOp29
 70
     1
102
RTVSPropertyOp30
 70
     1
102
RTVSPropertyOp31
 70
     1
102
RTVSPropertyOp32
 70
     1
  0
XRECORD
  5
CB8
102
{ACAD_REACTORS
330
CB7
102
}
330
CB7
100
AcDbXrecord
280
     1
102
RTVSPropertyOp0
 70
     1
102
RTVSPropertyOp1
 70
     1
102
RTVSPropertyOp2
 70
     1
102
RTVSPropertyOp3
 70
     1
102
RTVSPropertyOp4
 70
     1
102
RTVSPropertyOp5
 70
     1
102
RTVSPropertyOp6
 70
     1
102
RTVSPropertyOp7
 70
     1
102
RTVSPropertyOp8
 70
     1
102
RTVSPropertyOp9
 70
     1
102
RTVSPropertyOp10
 70
     1
102
RTVSPropertyOp11
 70
     1
102
RTVSPropertyOp12
 70
     1
102
RTVSPropertyOp13
 70
     1
102
RTVSPropertyOp14
 70
     1
102
RTVSPropertyOp15
 70
     1
102
RTVSPropertyOp16
 70
     1
102
RTVSPropertyOp17
 70
     1
102
RTVSPropertyOp18
 70
     1
102
RTVSPropertyOp19
 70
     1
102
RTVSPropertyOp20
 70
     1
102
RTVSPropertyOp21
 70
     1
102
RTVSPropertyOp22
 70
     1
102
RTVSPropertyOp23
 70
     1
102
RTVSPropertyOp24
 70
     1
102
RTVSPropertyOp25
 70
     1
102
RTVSPropertyOp26
 70
     1
102
RTVSPropertyOp27
 70
     1
102
RTVSPropertyOp28
 70
     1
102
RTVSPropertyOp29
 70
     1
102
RTVSPropertyOp30
 70
     1
102
RTVSPropertyOp31
 70
     1
102
RTVSPropertyOp32
 70
     1
  0
XRECORD
  5
CBA
102
{ACAD_REACTORS
330
CB9
102
}
330
CB9
100
AcDbXrecord
280
     1
102
RTVSPropertyOp0
 70
     1
102
RTVSPropertyOp1
 70
     1
102
RTVSPropertyOp2
 70
     1
102
RTVSPropertyOp3
 70
     1
102
RTVSPropertyOp4
 70
     1
102
RTVSPropertyOp5
 70
     1
102
RTVSPropertyOp6
 70
     1
102
RTVSPropertyOp7
 70
     1
102
RTVSPropertyOp8
 70
     1
102
RTVSPropertyOp9
 70
     1
102
RTVSPropertyOp10
 70
     1
102
RTVSPropertyOp11
 70
     1
102
RTVSPropertyOp12
 70
     1
102
RTVSPropertyOp13
 70
     1
102
RTVSPropertyOp14
 70
     1
102
RTVSPropertyOp15
 70
     1
102
RTVSPropertyOp16
 70
     1
102
RTVSPropertyOp17
 70
     1
102
RTVSPropertyOp18
 70
     1
102
RTVSPropertyOp19
 70
     1
102
RTVSPropertyOp20
 70
     1
102
RTVSPropertyOp21
 70
     1
102
RTVSPropertyOp22
 70
     1
102
RTVSPropertyOp23
 70
     1
102
RTVSPropertyOp24
 70
     1
102
RTVSPropertyOp25
 70
     1
102
RTVSPropertyOp26
 70
     1
102
RTVSPropertyOp27
 70
     1
102
RTVSPropertyOp28
 70
     1
102
RTVSPropertyOp29
 70
     1
102
RTVSPropertyOp30
 70
     1
102
RTVSPropertyOp31
 70
     1
102
RTVSPropertyOp32
 70
     1
  0
XRECORD
  5
CC2
102
{ACAD_REACTORS
330
CC1
102
}
330
CC1
100
AcDbXrecord
280
     1
102
RTVSPropertyOp0
 70
     1
102
RTVSPropertyOp1
 70
     1
102
RTVSPropertyOp2
 70
     1
102
RTVSPropertyOp3
 70
     1
102
RTVSPropertyOp4
 70
     1
102
RTVSPropertyOp5
 70
     1
102
RTVSPropertyOp6
 70
     1
102
RTVSPropertyOp7
 70
     1
102
RTVSPropertyOp8
 70
     1
102
RTVSPropertyOp9
 70
     1
102
RTVSPropertyOp10
 70
     1
102
RTVSPropertyOp11
 70
     1
102
RTVSPropertyOp12
 70
     1
102
RTVSPropertyOp13
 70
     1
102
RTVSPropertyOp14
 70
     1
102
RTVSPropertyOp15
 70
     1
102
RTVSPropertyOp16
 70
     1
102
RTVSPropertyOp17
 70
     1
102
RTVSPropertyOp18
 70
     1
102
RTVSPropertyOp19
 70
     1
102
RTVSPropertyOp20
 70
     1
102
RTVSPropertyOp21
 70
     1
102
RTVSPropertyOp22
 70
     1
102
RTVSPropertyOp23
 70
     1
102
RTVSPropertyOp24
 70
     1
102
RTVSPropertyOp25
 70
     1
102
RTVSPropertyOp26
 70
     1
102
RTVSPropertyOp27
 70
     1
102
RTVSPropertyOp28
 70
     1
102
RTVSPropertyOp29
 70
     1
102
RTVSPropertyOp30
 70
     1
102
RTVSPropertyOp31
 70
     1
102
RTVSPropertyOp32
 70
     1
  0
XRECORD
  5
CDE
102
{ACAD_REACTORS
330
CDD
102
}
330
CDD
100
AcDbXrecord
280
     1
102
RTVSPropertyOp0
 70
     0
102
RTVSPropertyOp1
 70
     0
102
RTVSPropertyOp2
 70
     0
102
RTVSPropertyOp3
 70
     0
102
RTVSPropertyOp4
 70
     0
102
RTVSPropertyOp5
 70
     0
102
RTVSPropertyOp6
 70
     0
102
RTVSPropertyOp7
 70
     0
102
RTVSPropertyOp8
 70
     0
102
RTVSPropertyOp9
 70
     0
102
RTVSPropertyOp10
 70
     0
102
RTVSPropertyOp11
 70
     0
102
RTVSPropertyOp12
 70
     0
102
RTVSPropertyOp13
 70
     0
102
RTVSPropertyOp14
 70
     2
102
RTVSPropertyOp15
 70
     0
102
RTVSPropertyOp16
 70
     0
102
RTVSPropertyOp17
 70
     0
102
RTVSPropertyOp18
 70
     0
102
RTVSPropertyOp19
 70
     0
102
RTVSPropertyOp20
 70
     0
102
RTVSPropertyOp21
 70
     0
102
RTVSPropertyOp22
 70
     0
102
RTVSPropertyOp23
 70
     0
102
RTVSPropertyOp24
 70
     0
102
RTVSPropertyOp25
 70
     0
102
RTVSPropertyOp26
 70
     0
102
RTVSPropertyOp27
 70
     0
102
RTVSPropertyOp28
 70
     0
102
RTVSPropertyOp29
 70
     0
102
RTVSPropertyOp30
 70
     0
102
RTVSPropertyOp31
 70
     0
102
RTVSPropertyOp32
 70
     0
  0
XRECORD
  5
CCE
102
{ACAD_REACTORS
330
CCD
102
}
330
CCD
100
AcDbXrecord
280
     1
102
RTVSPropertyOp0
 70
     1
102
RTVSPropertyOp1
 70
     1
102
RTVSPropertyOp2
 70
     1
102
RTVSPropertyOp3
 70
     1
102
RTVSPropertyOp4
 70
     1
102
RTVSPropertyOp5
 70
     1
102
RTVSPropertyOp6
 70
     1
102
RTVSPropertyOp7
 70
     1
102
RTVSPropertyOp8
 70
     1
102
RTVSPropertyOp9
 70
     1
102
RTVSPropertyOp10
 70
     1
102
RTVSPropertyOp11
 70
     1
102
RTVSPropertyOp12
 70
     1
102
RTVSPropertyOp13
 70
     1
102
RTVSPropertyOp14
 70
     1
102
RTVSPropertyOp15
 70
     1
102
RTVSPropertyOp16
 70
     1
102
RTVSPropertyOp17
 70
     1
102
RTVSPropertyOp18
 70
     1
102
RTVSPropertyOp19
 70
     1
102
RTVSPropertyOp20
 70
     1
102
RTVSPropertyOp21
 70
     1
102
RTVSPropertyOp22
 70
     1
102
RTVSPropertyOp23
 70
     1
102
RTVSPropertyOp24
 70
     1
102
RTVSPropertyOp25
 70
     1
102
RTVSPropertyOp26
 70
     1
102
RTVSPropertyOp27
 70
     1
102
RTVSPropertyOp28
 70
     1
102
RTVSPropertyOp29
 70
     1
102
RTVSPropertyOp30
 70
     1
102
RTVSPropertyOp31
 70
     1
102
RTVSPropertyOp32
 70
     1
  0
XRECORD
  5
CE0
102
{ACAD_REACTORS
330
CDF
102
}
330
CDF
100
AcDbXrecord
280
     1
102
RTVSPropertyOp0
 70
     0
102
RTVSPropertyOp1
 70
     0
102
RTVSPropertyOp2
 70
     0
102
RTVSPropertyOp3
 70
     0
102
RTVSPropertyOp4
 70
     0
102
RTVSPropertyOp5
 70
     0
102
RTVSPropertyOp6
 70
     0
102
RTVSPropertyOp7
 70
     0
102
RTVSPropertyOp8
 70
     0
102
RTVSPropertyOp9
 70
     0
102
RTVSPropertyOp10
 70
     0
102
RTVSPropertyOp11
 70
     0
102
RTVSPropertyOp12
 70
     0
102
RTVSPropertyOp13
 70
     0
102
RTVSPropertyOp14
 70
     2
102
RTVSPropertyOp15
 70
     0
102
RTVSPropertyOp16
 70
     0
102
RTVSPropertyOp17
 70
     0
102
RTVSPropertyOp18
 70
     0
102
RTVSPropertyOp19
 70
     0
102
RTVSPropertyOp20
 70
     0
102
RTVSPropertyOp21
 70
     0
102
RTVSPropertyOp22
 70
     0
102
RTVSPropertyOp23
 70
     0
102
RTVSPropertyOp24
 70
     0
102
RTVSPropertyOp25
 70
     0
102
RTVSPropertyOp26
 70
     0
102
RTVSPropertyOp27
 70
     0
102
RTVSPropertyOp28
 70
     0
102
RTVSPropertyOp29
 70
     0
102
RTVSPropertyOp30
 70
     0
102
RTVSPropertyOp31
 70
     0
102
RTVSPropertyOp32
 70
     0
  0
XRECORD
  5
CC6
102
{ACAD_REACTORS
330
CC5
102
}
330
CC5
100
AcDbXrecord
280
     1
102
RTVSPropertyOp0
 70
     1
102
RTVSPropertyOp1
 70
     1
102
RTVSPropertyOp2
 70
     1
102
RTVSPropertyOp3
 70
     1
102
RTVSPropertyOp4
 70
     1
102
RTVSPropertyOp5
 70
     1
102
RTVSPropertyOp6
 70
     1
102
RTVSPropertyOp7
 70
     1
102
RTVSPropertyOp8
 70
     1
102
RTVSPropertyOp9
 70
     1
102
RTVSPropertyOp10
 70
     1
102
RTVSPropertyOp11
 70
     1
102
RTVSPropertyOp12
 70
     1
102
RTVSPropertyOp13
 70
     1
102
RTVSPropertyOp14
 70
     1
102
RTVSPropertyOp15
 70
     1
102
RTVSPropertyOp16
 70
     1
102
RTVSPropertyOp17
 70
     1
102
RTVSPropertyOp18
 70
     1
102
RTVSPropertyOp19
 70
     1
102
RTVSPropertyOp20
 70
     1
102
RTVSPropertyOp21
 70
     1
102
RTVSPropertyOp22
 70
     1
102
RTVSPropertyOp23
 70
     1
102
RTVSPropertyOp24
 70
     1
102
RTVSPropertyOp25
 70
     1
102
RTVSPropertyOp26
 70
     1
102
RTVSPropertyOp27
 70
     1
102
RTVSPropertyOp28
 70
     1
102
RTVSPropertyOp29
 70
     1
102
RTVSPropertyOp30
 70
     1
102
RTVSPropertyOp31
 70
     1
102
RTVSPropertyOp32
 70
     1
  0
XRECORD
  5
CDC
102
{ACAD_REACTORS
330
CDB
102
}
330
CDB
100
AcDbXrecord
280
     1
102
RTVSPropertyOp0
 70
     1
102
RTVSPropertyOp1
 70
     1
102
RTVSPropertyOp2
 70
     1
102
RTVSPropertyOp3
 70
     1
102
RTVSPropertyOp4
 70
     1
102
RTVSPropertyOp5
 70
     1
102
RTVSPropertyOp6
 70
     1
102
RTVSPropertyOp7
 70
     1
102
RTVSPropertyOp8
 70
     1
102
RTVSPropertyOp9
 70
     1
102
RTVSPropertyOp10
 70
     1
102
RTVSPropertyOp11
 70
     1
102
RTVSPropertyOp12
 70
     1
102
RTVSPropertyOp13
 70
     1
102
RTVSPropertyOp14
 70
     1
102
RTVSPropertyOp15
 70
     1
102
RTVSPropertyOp16
 70
     1
102
RTVSPropertyOp17
 70
     1
102
RTVSPropertyOp18
 70
     1
102
RTVSPropertyOp19
 70
     1
102
RTVSPropertyOp20
 70
     1
102
RTVSPropertyOp21
 70
     1
102
RTVSPropertyOp22
 70
     1
102
RTVSPropertyOp23
 70
     1
102
RTVSPropertyOp24
 70
     1
102
RTVSPropertyOp25
 70
     1
102
RTVSPropertyOp26
 70
     1
102
RTVSPropertyOp27
 70
     1
102
RTVSPropertyOp28
 70
     1
102
RTVSPropertyOp29
 70
     1
102
RTVSPropertyOp30
 70
     1
102
RTVSPropertyOp31
 70
     1
102
RTVSPropertyOp32
 70
     1
  0
XRECORD
  5
CDA
102
{ACAD_REACTORS
330
CD9
102
}
330
CD9
100
AcDbXrecord
280
     1
102
RTVSPropertyOp0
 70
     1
102
RTVSPropertyOp1
 70
     1
102
RTVSPropertyOp2
 70
     1
102
RTVSPropertyOp3
 70
     1
102
RTVSPropertyOp4
 70
     1
102
RTVSPropertyOp5
 70
     1
102
RTVSPropertyOp6
 70
     1
102
RTVSPropertyOp7
 70
     1
102
RTVSPropertyOp8
 70
     1
102
RTVSPropertyOp9
 70
     1
102
RTVSPropertyOp10
 70
     1
102
RTVSPropertyOp11
 70
     1
102
RTVSPropertyOp12
 70
     1
102
RTVSPropertyOp13
 70
     1
102
RTVSPropertyOp14
 70
     1
102
RTVSPropertyOp15
 70
     1
102
RTVSPropertyOp16
 70
     1
102
RTVSPropertyOp17
 70
     1
102
RTVSPropertyOp18
 70
     1
102
RTVSPropertyOp19
 70
     1
102
RTVSPropertyOp20
 70
     1
102
RTVSPropertyOp21
 70
     1
102
RTVSPropertyOp22
 70
     1
102
RTVSPropertyOp23
 70
     1
102
RTVSPropertyOp24
 70
     1
102
RTVSPropertyOp25
 70
     1
102
RTVSPropertyOp26
 70
     1
102
RTVSPropertyOp27
 70
     1
102
RTVSPropertyOp28
 70
     1
102
RTVSPropertyOp29
 70
     1
102
RTVSPropertyOp30
 70
     1
102
RTVSPropertyOp31
 70
     1
102
RTVSPropertyOp32
 70
     1
  0
XRECORD
  5
CD4
102
{ACAD_REACTORS
330
CD3
102
}
330
CD3
100
AcDbXrecord
280
     1
102
RTVSPropertyOp0
 70
     1
102
RTVSPropertyOp1
 70
     1
102
RTVSPropertyOp2
 70
     1
102
RTVSPropertyOp3
 70
     1
102
RTVSPropertyOp4
 70
     1
102
RTVSPropertyOp5
 70
     1
102
RTVSPropertyOp6
 70
     1
102
RTVSPropertyOp7
 70
     1
102
RTVSPropertyOp8
 70
     1
102
RTVSPropertyOp9
 70
     1
102
RTVSPropertyOp10
 70
     1
102
RTVSPropertyOp11
 70
     1
102
RTVSPropertyOp12
 70
     1
102
RTVSPropertyOp13
 70
     1
102
RTVSPropertyOp14
 70
     1
102
RTVSPropertyOp15
 70
     1
102
RTVSPropertyOp16
 70
     1
102
RTVSPropertyOp17
 70
     1
102
RTVSPropertyOp18
 70
     1
102
RTVSPropertyOp19
 70
     1
102
RTVSPropertyOp20
 70
     1
102
RTVSPropertyOp21
 70
     1
102
RTVSPropertyOp22
 70
     1
102
RTVSPropertyOp23
 70
     1
102
RTVSPropertyOp24
 70
     1
102
RTVSPropertyOp25
 70
     1
102
RTVSPropertyOp26
 70
     1
102
RTVSPropertyOp27
 70
     1
102
RTVSPropertyOp28
 70
     1
102
RTVSPropertyOp29
 70
     1
102
RTVSPropertyOp30
 70
     1
102
RTVSPropertyOp31
 70
     1
102
RTVSPropertyOp32
 70
     1
  0
XRECORD
  5
CD6
102
{ACAD_REACTORS
330
CD5
102
}
330
CD5
100
AcDbXrecord
280
     1
102
RTVSPropertyOp0
 70
     1
102
RTVSPropertyOp1
 70
     1
102
RTVSPropertyOp2
 70
     1
102
RTVSPropertyOp3
 70
     1
102
RTVSPropertyOp4
 70
     1
102
RTVSPropertyOp5
 70
     1
102
RTVSPropertyOp6
 70
     1
102
RTVSPropertyOp7
 70
     1
102
RTVSPropertyOp8
 70
     1
102
RTVSPropertyOp9
 70
     1
102
RTVSPropertyOp10
 70
     1
102
RTVSPropertyOp11
 70
     1
102
RTVSPropertyOp12
 70
     1
102
RTVSPropertyOp13
 70
     1
102
RTVSPropertyOp14
 70
     1
102
RTVSPropertyOp15
 70
     1
102
RTVSPropertyOp16
 70
     1
102
RTVSPropertyOp17
 70
     1
102
RTVSPropertyOp18
 70
     1
102
RTVSPropertyOp19
 70
     1
102
RTVSPropertyOp20
 70
     1
102
RTVSPropertyOp21
 70
     1
102
RTVSPropertyOp22
 70
     1
102
RTVSPropertyOp23
 70
     1
102
RTVSPropertyOp24
 70
     1
102
RTVSPropertyOp25
 70
     1
102
RTVSPropertyOp26
 70
     1
102
RTVSPropertyOp27
 70
     1
102
RTVSPropertyOp28
 70
     1
102
RTVSPropertyOp29
 70
     1
102
RTVSPropertyOp30
 70
     1
102
RTVSPropertyOp31
 70
     1
102
RTVSPropertyOp32
 70
     1
  0
XRECORD
  5
CCC
102
{ACAD_REACTORS
330
CCB
102
}
330
CCB
100
AcDbXrecord
280
     1
102
RTVSPropertyOp0
 70
     1
102
RTVSPropertyOp1
 70
     1
102
RTVSPropertyOp2
 70
     1
102
RTVSPropertyOp3
 70
     1
102
RTVSPropertyOp4
 70
     1
102
RTVSPropertyOp5
 70
     1
102
RTVSPropertyOp6
 70
     1
102
RTVSPropertyOp7
 70
     1
102
RTVSPropertyOp8
 70
     1
102
RTVSPropertyOp9
 70
     1
102
RTVSPropertyOp10
 70
     1
102
RTVSPropertyOp11
 70
     1
102
RTVSPropertyOp12
 70
     1
102
RTVSPropertyOp13
 70
     1
102
RTVSPropertyOp14
 70
     1
102
RTVSPropertyOp15
 70
     1
102
RTVSPropertyOp16
 70
     1
102
RTVSPropertyOp17
 70
     1
102
RTVSPropertyOp18
 70
     1
102
RTVSPropertyOp19
 70
     1
102
RTVSPropertyOp20
 70
     1
102
RTVSPropertyOp21
 70
     1
102
RTVSPropertyOp22
 70
     1
102
RTVSPropertyOp23
 70
     1
102
RTVSPropertyOp24
 70
     1
102
RTVSPropertyOp25
 70
     1
102
RTVSPropertyOp26
 70
     1
102
RTVSPropertyOp27
 70
     1
102
RTVSPropertyOp28
 70
     1
102
RTVSPropertyOp29
 70
     1
102
RTVSPropertyOp30
 70
     1
102
RTVSPropertyOp31
 70
     1
102
RTVSPropertyOp32
 70
     1
  0
XRECORD
  5
CC0
102
{ACAD_REACTORS
330
CBF
102
}
330
CBF
100
AcDbXrecord
280
     1
102
RTVSPropertyOp0
 70
     1
102
RTVSPropertyOp1
 70
     1
102
RTVSPropertyOp2
 70
     1
102
RTVSPropertyOp3
 70
     1
102
RTVSPropertyOp4
 70
     1
102
RTVSPropertyOp5
 70
     1
102
RTVSPropertyOp6
 70
     1
102
RTVSPropertyOp7
 70
     1
102
RTVSPropertyOp8
 70
     1
102
RTVSPropertyOp9
 70
     1
102
RTVSPropertyOp10
 70
     1
102
RTVSPropertyOp11
 70
     1
102
RTVSPropertyOp12
 70
     1
102
RTVSPropertyOp13
 70
     1
102
RTVSPropertyOp14
 70
     1
102
RTVSPropertyOp15
 70
     1
102
RTVSPropertyOp16
 70
     1
102
RTVSPropertyOp17
 70
     1
102
RTVSPropertyOp18
 70
     1
102
RTVSPropertyOp19
 70
     1
102
RTVSPropertyOp20
 70
     1
102
RTVSPropertyOp21
 70
     1
102
RTVSPropertyOp22
 70
     1
102
RTVSPropertyOp23
 70
     1
102
RTVSPropertyOp24
 70
     1
102
RTVSPropertyOp25
 70
     1
102
RTVSPropertyOp26
 70
     1
102
RTVSPropertyOp27
 70
     1
102
RTVSPropertyOp28
 70
     1
102
RTVSPropertyOp29
 70
     1
102
RTVSPropertyOp30
 70
     1
102
RTVSPropertyOp31
 70
     1
102
RTVSPropertyOp32
 70
     1
  0
XRECORD
  5
CD8
102
{ACAD_REACTORS
330
CD7
102
}
330
CD7
100
AcDbXrecord
280
     1
102
RTVSPropertyOp0
 70
     1
102
RTVSPropertyOp1
 70
     1
102
RTVSPropertyOp2
 70
     1
102
RTVSPropertyOp3
 70
     1
102
RTVSPropertyOp4
 70
     1
102
RTVSPropertyOp5
 70
     1
102
RTVSPropertyOp6
 70
     1
102
RTVSPropertyOp7
 70
     1
102
RTVSPropertyOp8
 70
     1
102
RTVSPropertyOp9
 70
     1
102
RTVSPropertyOp10
 70
     1
102
RTVSPropertyOp11
 70
     1
102
RTVSPropertyOp12
 70
     1
102
RTVSPropertyOp13
 70
     1
102
RTVSPropertyOp14
 70
     1
102
RTVSPropertyOp15
 70
     1
102
RTVSPropertyOp16
 70
     1
102
RTVSPropertyOp17
 70
     1
102
RTVSPropertyOp18
 70
     1
102
RTVSPropertyOp19
 70
     1
102
RTVSPropertyOp20
 70
     1
102
RTVSPropertyOp21
 70
     1
102
RTVSPropertyOp22
 70
     1
102
RTVSPropertyOp23
 70
     1
102
RTVSPropertyOp24
 70
     1
102
RTVSPropertyOp25
 70
     1
102
RTVSPropertyOp26
 70
     1
102
RTVSPropertyOp27
 70
     1
102
RTVSPropertyOp28
 70
     1
102
RTVSPropertyOp29
 70
     1
102
RTVSPropertyOp30
 70
     1
102
RTVSPropertyOp31
 70
     1
102
RTVSPropertyOp32
 70
     1
  0
ENDSEC
  0
EOF
