  0
SECTION
  2
HEADER
  9
$ACADVER
  1
AC1012
  9
$DWGCODEPAGE
  3
ansi_932
  9
$INSBASE
 10
0.0
 20
0.0
 30
0.0
  9
$EXTMIN
 10
43.75
 20
49.375
 30
0.0
  9
$EXTMAX
 10
589.6370045941771
 20
380.25
 30
0.0
  9
$LIMMIN
 10
43.75
 20
49.375
  9
$LIMMAX
 10
589.6370045941771
 20
380.25
  9
$ORTHOMODE
 70
     0
  9
$REGENMODE
 70
     1
  9
$FILLMODE
 70
     1
  9
$QTEXTMODE
 70
     0
  9
$MIRRTEXT
 70
     1
  9
$DRAGMODE
 70
     2
  9
$LTSCALE
 40
1.0
  9
$OSMODE
 70
    37
  9
$ATTMODE
 70
     1
  9
$TEXTSIZE
 40
0.2
  9
$TRACEWID
 40
0.05
  9
$TEXTSTYLE
  7
STANDARD
  9
$CLAYER
  8
寸法
  9
$CELTYPE
  6
BYLAYER
  9
$CECOLOR
 62
   256
  9
$CELTSCALE
 40
1.0
  9
$DELOBJ
 70
     1
  9
$DISPSILH
 70
     0
  9
$DIMSCALE
 40
1.0
  9
$DIMASZ
 40
0.18
  9
$DIMEXO
 40
0.0625
  9
$DIMDLI
 40
0.38
  9
$DIMRND
 40
0.0
  9
$DIMDLE
 40
0.0
  9
$DIMEXE
 40
0.18
  9
$DIMTP
 40
0.0
  9
$DIMTM
 40
0.0
  9
$DIMTXT
 40
0.18
  9
$DIMCEN
 40
0.09
  9
$DIMTSZ
 40
0.0
  9
$DIMTOL
 70
     0
  9
$DIMLIM
 70
     0
  9
$DIMTIH
 70
     1
  9
$DIMTOH
 70
     1
  9
$DIMSE1
 70
     0
  9
$DIMSE2
 70
     0
  9
$DIMTAD
 70
     0
  9
$DIMZIN
 70
     0
  9
$DIMBLK
  1

  9
$DIMASO
 70
     1
  9
$DIMSHO
 70
     1
  9
$DIMPOST
  1

  9
$DIMAPOST
  1

  9
$DIMALT
 70
     0
  9
$DIMALTD
 70
     2
  9
$DIMALTF
 40
25.4
  9
$DIMLFAC
 40
1.0
  9
$DIMTOFL
 70
     0
  9
$DIMTVP
 40
0.0
  9
$DIMTIX
 70
     0
  9
$DIMSOXD
 70
     0
  9
$DIMSAH
 70
     0
  9
$DIMBLK1
  1

  9
$DIMBLK2
  1

  9
$DIMSTYLE
  2
STANDARD
  9
$DIMCLRD
 70
     0
  9
$DIMCLRE
 70
     0
  9
$DIMCLRT
 70
     0
  9
$DIMTFAC
 40
1.0
  9
$DIMGAP
 40
0.09
  9
$DIMJUST
 70
     0
  9
$DIMSD1
 70
     0
  9
$DIMSD2
 70
     0
  9
$DIMTOLJ
 70
     1
  9
$DIMTZIN
 70
     0
  9
$DIMALTZ
 70
     0
  9
$DIMALTTZ
 70
     0
  9
$DIMFIT
 70
     3
  9
$DIMUPT
 70
     0
  9
$DIMUNIT
 70
     2
  9
$DIMDEC
 70
     4
  9
$DIMTDEC
 70
     4
  9
$DIMALTU
 70
     2
  9
$DIMALTTD
 70
     2
  9
$DIMTXSTY
  7
STANDARD
  9
$DIMAUNIT
 70
     0
  9
$LUNITS
 70
     2
  9
$LUPREC
 70
     4
  9
$SKETCHINC
 40
0.1
  9
$FILLETRAD
 40
0.5
  9
$AUNITS
 70
     0
  9
$AUPREC
 70
     0
  9
$MENU
  1
.
  9
$ELEVATION
 40
0.0
  9
$PELEVATION
 40
0.0
  9
$THICKNESS
 40
0.0
  9
$LIMCHECK
 70
     0
  9
$CHAMFERA
 40
0.0
  9
$CHAMFERB
 40
0.0
  9
$CHAMFERC
 40
0.0
  9
$CHAMFERD
 40
0.0
  9
$SKPOLY
 70
     0
  9
$TDCREATE
 40
2460515.580937072
  9
$TDUPDATE
 40
2460515.580938959
  9
$TDINDWG
 40
0.0000000116
  9
$TDUSRTIMER
 40
0.0000000116
  9
$USRTIMER
 70
     1
  9
$ANGBASE
 50
0.0
  9
$ANGDIR
 70
     0
  9
$PDMODE
 70
     0
  9
$PDSIZE
 40
0.0
  9
$PLINEWID
 40
0.0
  9
$COORDS
 70
     1
  9
$SPLFRAME
 70
     0
  9
$SPLINETYPE
 70
     6
  9
$SPLINESEGS
 70
     8
  9
$ATTDIA
 70
     0
  9
$ATTREQ
 70
     1
  9
$HANDLING
 70
     1
  9
$HANDSEED
  5
639
  9
$SURFTAB1
 70
     6
  9
$SURFTAB2
 70
     6
  9
$SURFTYPE
 70
     6
  9
$SURFU
 70
     6
  9
$SURFV
 70
     6
  9
$UCSNAME
  2

  9
$UCSORG
 10
0.0
 20
0.0
 30
0.0
  9
$UCSXDIR
 10
1.0
 20
0.0
 30
0.0
  9
$UCSYDIR
 10
0.0
 20
1.0
 30
0.0
  9
$PUCSNAME
  2

  9
$PUCSORG
 10
0.0
 20
0.0
 30
0.0
  9
$PUCSXDIR
 10
1.0
 20
0.0
 30
0.0
  9
$PUCSYDIR
 10
0.0
 20
1.0
 30
0.0
  9
$USERI1
 70
     0
  9
$USERI2
 70
     0
  9
$USERI3
 70
     0
  9
$USERI4
 70
     0
  9
$USERI5
 70
     0
  9
$USERR1
 40
0.0
  9
$USERR2
 40
0.0
  9
$USERR3
 40
0.0
  9
$USERR4
 40
0.0
  9
$USERR5
 40
0.0
  9
$WORLDVIEW
 70
     1
  9
$SHADEDGE
 70
     3
  9
$SHADEDIF
 70
    70
  9
$TILEMODE
 70
     1
  9
$MAXACTVP
 70
    64
  9
$PINSBASE
 10
0.0
 20
0.0
 30
0.0
  9
$PLIMCHECK
 70
     0
  9
$PEXTMIN
 10
-9.375
 20
-25.0
 30
0.0
  9
$PEXTMAX
 10
525.0
 20
371.25
 30
0.0
  9
$PLIMMIN
 10
-7.5
 20
-20.0
  9
$PLIMMAX
 10
420.0
 20
297.0
  9
$UNITMODE
 70
     0
  9
$VISRETAIN
 70
     1
  9
$PLINEGEN
 70
     0
  9
$PSLTSCALE
 70
     0
  9
$TREEDEPTH
 70
  3020
  9
$PICKSTYLE
 70
     1
  9
$CMLSTYLE
  2
STANDARD
  9
$CMLJUST
 70
     0
  9
$CMLSCALE
 40
1.0
  9
$SAVEIMAGES
 70
     1
  0
ENDSEC
  0
SECTION
  2
CLASSES
  0
CLASS
  1
ACDBDICTIONARYWDFLT
  2
AcDbDictionaryWithDefault
  3
ObjectDBX Classes
 90
    32768
280
     0
281
     0
  0
CLASS
  1
VISUALSTYLE
  2
AcDbVisualStyle
  3
ObjectDBX Classes
 90
     4095
280
     0
281
     0
  0
CLASS
  1
MATERIAL
  2
AcDbMaterial
  3
ObjectDBX Classes
 90
     1153
280
     0
281
     0
  0
CLASS
  1
SCALE
  2
AcDbScale
  3
ObjectDBX Classes
 90
     1153
280
     0
281
     0
  0
CLASS
  1
TABLESTYLE
  2
AcDbTableStyle
  3
ObjectDBX Classes
 90
     4095
280
     0
281
     0
  0
CLASS
  1
MLEADERSTYLE
  2
AcDbMLeaderStyle
  3
ACDB_MLEADERSTYLE_CLASS
 90
     4095
280
     0
281
     0
  0
CLASS
  1
SUN
  2
AcDbSun
  3
SCENEOE
 90
     1153
280
     0
281
     0
  0
CLASS
  1
RASTERVARIABLES
  2
AcDbRasterVariables
  3
ISM
 90
    32768
280
     0
281
     0
  0
CLASS
  1
DICTIONARYVAR
  2
AcDbDictionaryVar
  3
ObjectDBX Classes
 90
        0
280
     0
281
     0
  0
CLASS
  1
XRECORD
  2
AcDbXrecord
  3
ObjectDBX Classes
 90
    32768
280
     0
281
     0
  0
CLASS
  1
LWPOLYLINE
  2
AcDbPolyline
  3
ObjectDBX Classes
 90
    32768
280
     0
281
     1
  0
CLASS
  1
HATCH
  2
AcDbHatch
  3
ObjectDBX Classes
 90
    32768
280
     0
281
     1
  0
CLASS
  1
ACDBPLACEHOLDER
  2
AcDbPlaceHolder
  3
ObjectDBX Classes
 90
        0
280
     0
281
     0
  0
CLASS
  1
LAYOUT
  2
AcDbLayout
  3
ObjectDBX Classes
 90
        0
280
     0
281
     0
  0
ENDSEC
  0
SECTION
  2
TABLES
  0
TABLE
  2
VPORT
  5
8
330
0
100
AcDbSymbolTable
 70
     1
  0
VPORT
  5
29
330
8
100
AcDbSymbolTableRecord
100
AcDbViewportTableRecord
  2
*ACTIVE
 70
     0
 10
0.0
 20
0.0
 11
1.0
 21
1.0
 12
253.3548018376709
 22
171.85
 13
0.0
 23
0.0
 14
0.5
 24
0.5
 15
0.5
 25
0.5
 16
0.0
 26
0.0
 36
1.0
 17
0.0
 27
0.0
 37
0.0
 40
277.935
 41
1.649828498962379
 42
50.0
 43
0.0
 44
0.0
 50
0.0
 51
0.0
 71
     0
 72
 20000
 73
     1
 74
     3
 75
     0
 76
     0
 77
     0
 78
     0
  0
ENDTAB
  0
TABLE
  2
LTYPE
  5
5
330
0
100
AcDbSymbolTable
 70
     4
  0
LTYPE
  5
14
330
5
100
AcDbSymbolTableRecord
100
AcDbLinetypeTableRecord
  2
BYBLOCK
 70
     0
  3

 72
    65
 73
     0
 40
0.0
  0
LTYPE
  5
15
330
5
100
AcDbSymbolTableRecord
100
AcDbLinetypeTableRecord
  2
BYLAYER
 70
     0
  3

 72
    65
 73
     0
 40
0.0
  0
LTYPE
  5
16
330
5
100
AcDbSymbolTableRecord
100
AcDbLinetypeTableRecord
  2
CONTINUOUS
 70
     0
  3
Solid line
 72
    65
 73
     0
 40
0.0
  0
LTYPE
  5
70
330
5
100
AcDbSymbolTableRecord
100
AcDbLinetypeTableRecord
  2
ACAD_ISO04W100
 70
     0
  3
ISO long-dash dot ____ . ____ . ____ . ____ . _
 72
    65
 73
     4
 40
30.0
 49
24.0
 74
     0
 49
-3.0
 74
     0
 49
0.0
 74
     0
 49
-3.0
 74
     0
  0
LTYPE
  5
71
330
5
100
AcDbSymbolTableRecord
100
AcDbLinetypeTableRecord
  2
LTYPE1
 70
     0
  3

 72
    65
 73
     4
 40
15.0
 49
10.5
 74
     0
 49
-1.5
 74
     0
 49
1.5
 74
     0
 49
-1.5
 74
     0
  0
LTYPE
  5
72
330
5
100
AcDbSymbolTableRecord
100
AcDbLinetypeTableRecord
  2
LTYPE3
 70
     0
  3

 72
    65
 73
     2
 40
1.0
 49
0.6
 74
     0
 49
-0.4
 74
     0
  0
ENDTAB
  0
TABLE
  2
LAYER
  5
2
330
0
100
AcDbSymbolTable
 70
     4
  0
LAYER
  5
10
330
2
100
AcDbSymbolTableRecord
100
AcDbLayerTableRecord
  2
0
 70
     0
 62
     7
  6
CONTINUOUS
  0
LAYER
  5
73
330
2
100
AcDbSymbolTableRecord
100
AcDbLayerTableRecord
  2
1
 70
     0
 62
     7
  6
CONTINUOUS
  0
LAYER
  5
74
330
2
100
AcDbSymbolTableRecord
100
AcDbLayerTableRecord
  2
寸法
 70
     0
 62
     4
  6
CONTINUOUS
  0
LAYER
  5
75
330
2
100
AcDbSymbolTableRecord
100
AcDbLayerTableRecord
  2
RCVIEWPORTFRAME
 70
     0
 62
    -7
  6
CONTINUOUS
  0
ENDTAB
  0
TABLE
  2
STYLE
  5
3
330
0
100
AcDbSymbolTable
 70
     5
  0
STYLE
  5
11
330
3
100
AcDbSymbolTableRecord
100
AcDbTextStyleTableRecord
  2
STANDARD
 70
     0
 40
0.0
 41
1.0
 50
0.0
 71
     0
 42
0.2
  3
txt.shx
  4
extfont
  0
STYLE
  5
76
330
3
100
AcDbSymbolTableRecord
100
AcDbTextStyleTableRecord
  2
MS_PGOTHIC
 70
     0
 40
0.0
 41
1.0
 50
0.0
 71
     0
 42
0.2
  3
MS PGothic.ttf
  4

1001
ACAD
1000
ＭＳ Ｐゴシック
1071
    32818
  0
STYLE
  5
77
330
3
100
AcDbSymbolTableRecord
100
AcDbTextStyleTableRecord
  2
VERTICAL
 70
     4
 40
0.0
 41
1.0
 50
0.0
 71
     0
 42
0.2
  3
txt.shx
  4
extfont
  0
STYLE
  5
78
330
3
100
AcDbSymbolTableRecord
100
AcDbTextStyleTableRecord
  2
VERTICAL_MS_PGOTHIC
 70
     0
 40
0.0
 41
1.0
 50
0.0
 71
     0
 42
0.2
  3
MS PGothic.ttf
  4

1001
ACAD
1000
@ＭＳ Ｐゴシック
1071
    32818
  0
STYLE
  5
5BE
330
3
100
AcDbSymbolTableRecord
100
AcDbTextStyleTableRecord
  2
MS_GOTHIC
 70
     0
 40
0.0
 41
1.0
 50
0.0
 71
     0
 42
0.2
  3
MS Gothic.ttf
  4
extfont
1001
ACAD
1000
ＭＳ ゴシック
1071
    32817
  0
ENDTAB
  0
TABLE
  2
VIEW
  5
6
330
0
100
AcDbSymbolTable
 70
     0
  0
ENDTAB
  0
TABLE
  2
UCS
  5
7
330
0
100
AcDbSymbolTable
 70
     0
  0
ENDTAB
  0
TABLE
  2
APPID
  5
9
330
0
100
AcDbSymbolTable
 70
     3
  0
APPID
  5
12
330
9
100
AcDbSymbolTableRecord
100
AcDbRegAppTableRecord
  2
ACAD
 70
     0
  0
APPID
  5
6E
330
9
100
AcDbSymbolTableRecord
100
AcDbRegAppTableRecord
  2
ROOTPRO_CAD
 70
     0
  0
APPID
  5
638
330
9
100
AcDbSymbolTableRecord
100
AcDbRegAppTableRecord
  2
ACAD_MLEADERVER
 70
     0
  0
ENDTAB
  0
TABLE
  2
DIMSTYLE
  5
A
330
0
100
AcDbSymbolTable
 70
     1
  0
DIMSTYLE
105
27
102
{ACAD_REACTORS
330
5BF
330
5C7
330
5D1
330
5D9
330
5E3
330
5ED
330
5F5
330
5FD
330
606
330
60E
330
616
102
}
330
A
100
AcDbSymbolTableRecord
100
AcDbDimStyleTableRecord
  2
STANDARD
 70
     0
  3

  4

  5

  6

  7

 40
1.0
 41
0.18
 42
0.0625
 43
0.38
 44
0.18
 45
0.0
 46
0.0
 47
0.0
 48
0.0
140
0.18
141
0.09
142
0.0
143
25.4
144
1.0
145
0.0
146
1.0
147
0.09
 71
     0
 72
     0
 73
     1
 74
     1
 75
     0
 76
     0
 77
     0
 78
     0
170
     0
171
     2
172
     0
173
     0
174
     0
175
     0
176
     0
177
     0
178
     0
270
     2
271
     4
272
     4
273
     2
274
     2
340
11
275
     0
280
     0
281
     0
282
     0
283
     1
284
     0
285
     0
286
     0
287
     3
288
     0
  0
ENDTAB
  0
TABLE
  2
BLOCK_RECORD
  5
1
330
0
100
AcDbSymbolTable
 70
    11
  0
BLOCK_RECORD
  5
1F
330
1
100
AcDbSymbolTableRecord
100
AcDbBlockTableRecord
  2
*MODEL_SPACE
  0
BLOCK_RECORD
  5
1B
330
1
100
AcDbSymbolTableRecord
100
AcDbBlockTableRecord
  2
*PAPER_SPACE
  0
BLOCK_RECORD
  5
5C0
330
1
100
AcDbSymbolTableRecord
100
AcDbBlockTableRecord
  2
*D1
  0
BLOCK_RECORD
  5
5C8
330
1
100
AcDbSymbolTableRecord
100
AcDbBlockTableRecord
  2
*D2
  0
BLOCK_RECORD
  5
5D2
330
1
100
AcDbSymbolTableRecord
100
AcDbBlockTableRecord
  2
*D3
  0
BLOCK_RECORD
  5
5DA
330
1
100
AcDbSymbolTableRecord
100
AcDbBlockTableRecord
  2
*D4
  0
BLOCK_RECORD
  5
5E4
330
1
100
AcDbSymbolTableRecord
100
AcDbBlockTableRecord
  2
*D5
  0
BLOCK_RECORD
  5
5EE
330
1
100
AcDbSymbolTableRecord
100
AcDbBlockTableRecord
  2
*D6
  0
BLOCK_RECORD
  5
5F6
330
1
100
AcDbSymbolTableRecord
100
AcDbBlockTableRecord
  2
*D7
  0
BLOCK_RECORD
  5
5FE
330
1
100
AcDbSymbolTableRecord
100
AcDbBlockTableRecord
  2
*D8
  0
BLOCK_RECORD
  5
607
330
1
100
AcDbSymbolTableRecord
100
AcDbBlockTableRecord
  2
*D9
  0
BLOCK_RECORD
  5
60F
330
1
100
AcDbSymbolTableRecord
100
AcDbBlockTableRecord
  2
*D10
  0
BLOCK_RECORD
  5
617
330
1
100
AcDbSymbolTableRecord
100
AcDbBlockTableRecord
  2
*D11
  0
ENDTAB
  0
ENDSEC
  0
SECTION
  2
BLOCKS
  0
BLOCK
  5
20
330
1F
100
AcDbEntity
  8
0
100
AcDbBlockBegin
  2
*MODEL_SPACE
 70
     0
 10
0.0
 20
0.0
 30
0.0
  3
*MODEL_SPACE
  1

  0
ENDBLK
  5
21
330
1F
100
AcDbEntity
  8
0
100
AcDbBlockEnd
  0
BLOCK
  5
1C
330
1B
100
AcDbEntity
 67
     1
  8
0
100
AcDbBlockBegin
  2
*PAPER_SPACE
 70
     0
 10
0.0
 20
0.0
 30
0.0
  3
*PAPER_SPACE
  1

  0
ENDBLK
  5
1D
330
1B
100
AcDbEntity
 67
     1
  8
0
100
AcDbBlockEnd
  0
BLOCK
  5
5C5
330
5C0
100
AcDbEntity
  8
0
100
AcDbBlockBegin
  2
*D1
 70
     1
 10
0.0
 20
0.0
 30
0.0
  3
*D1
  1

  0
MTEXT
  5
5C1
330
5C0
100
AcDbEntity
  8
寸法
100
AcDbMText
 10
251.0381250000001
 20
163.05
 30
0.0
 40
2.307726592924801
 41
7.403776416156059
 71
     7
 72
     1
  1
{\fＭＳ ゴシック|b0|i0;56.5}
  7
MS_GOTHIC
 11
6.123233995736766E-17
 21
1.0
 31
0.0
  0
LINE
  5
5C2
330
5C0
100
AcDbEntity
  8
寸法
100
AcDbLine
 10
220.399743131
 20
194.45
 30
0.0
 11
252.46
 21
194.45
 31
0.0
  0
LINE
  5
5C3
330
5C0
100
AcDbEntity
  8
寸法
100
AcDbLine
 10
235.95
 20
137.65
 30
0.0
 11
252.46
 21
137.65
 31
0.0
  0
LINE
  5
5C4
330
5C0
100
AcDbEntity
  8
寸法
100
AcDbLine
 10
251.96
 20
194.45
 30
0.0
 11
251.96
 21
137.65
 31
0.0
  0
ENDBLK
  5
5C6
330
5C0
100
AcDbEntity
  8
0
100
AcDbBlockEnd
  0
BLOCK
  5
5CF
330
5C8
100
AcDbEntity
  8
0
100
AcDbBlockBegin
  2
*D2
 70
     1
 10
0.0
 20
0.0
 30
0.0
  3
*D2
  1

  0
MTEXT
  5
5C9
330
5C8
100
AcDbEntity
  8
寸法
100
AcDbMText
 10
251.038125
 20
131.0504887590207
 30
0.0
 40
2.307338244571564
 41
5.50045329498562
 71
     7
 72
     1
  1
{\fＭＳ ゴシック|b0|i0;9.0}
  7
MS_GOTHIC
 11
6.123233995736766E-17
 21
1.0
 31
0.0
  0
LINE
  5
5CA
330
5C8
100
AcDbEntity
  8
寸法
100
AcDbLine
 10
232.198309794
 20
128.9509775180415
 30
0.0
 11
252.46
 21
128.9509775180415
 31
0.0
  0
LINE
  5
5CB
330
5C8
100
AcDbEntity
  8
寸法
100
AcDbLine
 10
235.95
 20
137.65
 30
0.0
 11
252.46
 21
137.65
 31
0.0
  0
LINE
  5
5CC
330
5C8
100
AcDbEntity
  8
寸法
100
AcDbLine
 10
251.96
 20
128.9509775180415
 30
0.0
 11
251.96
 21
123.9509775180415
 31
0.0
  0
LINE
  5
5CD
330
5C8
100
AcDbEntity
  8
寸法
100
AcDbLine
 10
251.96
 20
137.65
 30
0.0
 11
251.96
 21
142.65
 31
0.0
  0
LINE
  5
5CE
330
5C8
100
AcDbEntity
  8
寸法
100
AcDbLine
 10
251.96
 20
128.9509775180415
 30
0.0
 11
251.96
 21
137.65
 31
0.0
  0
ENDBLK
  5
5D0
330
5C8
100
AcDbEntity
  8
0
100
AcDbBlockEnd
  0
BLOCK
  5
5D7
330
5D2
100
AcDbEntity
  8
0
100
AcDbBlockBegin
  2
*D3
 70
     1
 10
0.0
 20
0.0
 30
0.0
  3
*D3
  1

  0
MTEXT
  5
5D3
330
5D2
100
AcDbEntity
  8
寸法
100
AcDbMText
 10
240.6081250000001
 20
161.15
 30
0.0
 40
2.307376384475075
 41
7.481102288358135
 71
     7
 72
     1
  1
{\fＭＳ ゴシック|b0|i0;53.0}
  7
MS_GOTHIC
 11
6.123233995736766E-17
 21
1.0
 31
0.0
  0
LINE
  5
5D4
330
5D2
100
AcDbEntity
  8
寸法
100
AcDbLine
 10
230.4
 20
190.65
 30
0.0
 11
242.03
 21
190.65
 31
0.0
  0
LINE
  5
5D5
330
5D2
100
AcDbEntity
  8
寸法
100
AcDbLine
 10
235.95
 20
137.65
 30
0.0
 11
242.03
 21
137.65
 31
0.0
  0
LINE
  5
5D6
330
5D2
100
AcDbEntity
  8
寸法
100
AcDbLine
 10
241.53
 20
190.65
 30
0.0
 11
241.53
 21
137.65
 31
0.0
  0
ENDBLK
  5
5D8
330
5D2
100
AcDbEntity
  8
0
100
AcDbBlockEnd
  0
BLOCK
  5
5DF
330
5DA
100
AcDbEntity
  8
0
100
AcDbBlockBegin
  2
*D4
 70
     1
 10
0.0
 20
0.0
 30
0.0
  3
*D4
  1

  0
MTEXT
  5
5DB
330
5DA
100
AcDbEntity
  8
寸法
100
AcDbMText
 10
181.4
 20
203.901875
 30
0.0
 40
2.307560413354531
 41
7.373858947105164
 71
     7
 72
     1
  1
{\fＭＳ ゴシック|b0|i0;91.5}
  7
MS_GOTHIC
  0
LINE
  5
5DC
330
5DA
100
AcDbEntity
  8
寸法
100
AcDbLine
 10
138.9
 20
191.15
 30
0.0
 11
138.9
 21
203.48
 31
0.0
  0
LINE
  5
5DD
330
5DA
100
AcDbEntity
  8
寸法
100
AcDbLine
 10
229.9
 20
191.15
 30
0.0
 11
229.9
 21
203.48
 31
0.0
  0
LINE
  5
5DE
330
5DA
100
AcDbEntity
  8
寸法
100
AcDbLine
 10
138.9
 20
202.98
 30
0.0
 11
229.9
 21
202.98
 31
0.0
  0
ENDBLK
  5
5E0
330
5DA
100
AcDbEntity
  8
0
100
AcDbBlockEnd
  0
BLOCK
  5
5EB
330
5E4
100
AcDbEntity
  8
0
100
AcDbBlockBegin
  2
*D5
 70
     1
 10
0.0
 20
0.0
 30
0.0
  3
*D5
  1

  0
MTEXT
  5
5E5
330
5E4
100
AcDbEntity
  8
寸法
100
AcDbMText
 10
128.798125
 20
77.05000000000001
 30
0.0
 40
2.308056828735553
 41
5.453044891834438
 71
     7
 72
     1
  1
{\fＭＳ ゴシック|b0|i0;5.5}
  7
MS_GOTHIC
 11
6.123233995736766E-17
 21
1.0
 31
0.0
  0
LINE
  5
5E6
330
5E4
100
AcDbEntity
  8
寸法
100
AcDbLine
 10
160.333783784
 20
82.05
 30
0.0
 11
129.22
 21
82.05
 31
0.0
  0
LINE
  5
5E7
330
5E4
100
AcDbEntity
  8
寸法
100
AcDbLine
 10
135.9
 20
76.55
 30
0.0
 11
129.22
 21
76.55
 31
0.0
  0
LINE
  5
5E8
330
5E4
100
AcDbEntity
  8
寸法
100
AcDbLine
 10
129.72
 20
82.05
 30
0.0
 11
129.72
 21
87.05
 31
0.0
  0
LINE
  5
5E9
330
5E4
100
AcDbEntity
  8
寸法
100
AcDbLine
 10
129.72
 20
76.55
 30
0.0
 11
129.72
 21
71.55
 31
0.0
  0
LINE
  5
5EA
330
5E4
100
AcDbEntity
  8
寸法
100
AcDbLine
 10
129.72
 20
82.05
 30
0.0
 11
129.72
 21
76.55
 31
0.0
  0
ENDBLK
  5
5EC
330
5E4
100
AcDbEntity
  8
0
100
AcDbBlockEnd
  0
BLOCK
  5
5F3
330
5EE
100
AcDbEntity
  8
0
100
AcDbBlockBegin
  2
*D6
 70
     1
 10
0.0
 20
0.0
 30
0.0
  3
*D6
  1

  0
MTEXT
  5
5EF
330
5EE
100
AcDbEntity
  8
寸法
100
AcDbMText
 10
181.4
 20
40.921875
 30
0.0
 40
2.307204379826179
 41
7.45118481930724
 71
     7
 72
     1
  1
{\fＭＳ ゴシック|b0|i0;96.0}
  7
MS_GOTHIC
  0
LINE
  5
5F0
330
5EE
100
AcDbEntity
  8
寸法
100
AcDbLine
 10
136.4
 20
53.05
 30
0.0
 11
136.4
 21
39.5
 31
0.0
  0
LINE
  5
5F1
330
5EE
100
AcDbEntity
  8
寸法
100
AcDbLine
 10
232.4
 20
53.05
 30
0.0
 11
232.4
 21
39.5
 31
0.0
  0
LINE
  5
5F2
330
5EE
100
AcDbEntity
  8
寸法
100
AcDbLine
 10
136.4
 20
40.0
 30
0.0
 11
232.4
 21
40.0
 31
0.0
  0
ENDBLK
  5
5F4
330
5EE
100
AcDbEntity
  8
0
100
AcDbBlockEnd
  0
BLOCK
  5
5FB
330
5F6
100
AcDbEntity
  8
0
100
AcDbBlockBegin
  2
*D7
 70
     1
 10
0.0
 20
0.0
 30
0.0
  3
*D7
  1

  0
MTEXT
  5
5F7
330
5F6
100
AcDbEntity
  8
寸法
100
AcDbMText
 10
168.4
 20
108.776875
 30
0.0
 40
2.307303192724833
 41
7.268022383393773
 71
     7
 72
     1
  1
{\fＭＳ ゴシック|b0|i0;13.0}
  7
MS_GOTHIC
  0
LINE
  5
5F8
330
5F6
100
AcDbEntity
  8
寸法
100
AcDbLine
 10
164.9
 20
90.26
 30
0.0
 11
164.9
 21
108.355
 31
0.0
  0
LINE
  5
5F9
330
5F6
100
AcDbEntity
  8
寸法
100
AcDbLine
 10
177.9
 20
90.6
 30
0.0
 11
177.9
 21
108.355
 31
0.0
  0
LINE
  5
5FA
330
5F6
100
AcDbEntity
  8
寸法
100
AcDbLine
 10
164.9
 20
107.855
 30
0.0
 11
177.9
 21
107.855
 31
0.0
  0
ENDBLK
  5
5FC
330
5F6
100
AcDbEntity
  8
0
100
AcDbBlockEnd
  0
BLOCK
  5
603
330
5FE
100
AcDbEntity
  8
0
100
AcDbBlockBegin
  2
*D8
 70
     1
 10
0.0
 20
0.0
 30
0.0
  3
*D8
  1

  0
MTEXT
  5
5FF
330
5FE
100
AcDbEntity
  8
寸法
100
AcDbMText
 10
181.4
 20
114.047875
 30
0.0
 40
2.307376384475075
 41
7.481102288358135
 71
     7
 72
     1
  1
{\fＭＳ ゴシック|b0|i0;39.0}
  7
MS_GOTHIC
  0
LINE
  5
600
330
5FE
100
AcDbEntity
  8
寸法
100
AcDbLine
 10
164.9
 20
90.26
 30
0.0
 11
164.9
 21
113.626
 31
0.0
  0
LINE
  5
601
330
5FE
100
AcDbEntity
  8
寸法
100
AcDbLine
 10
203.9
 20
90.46999999999998
 30
0.0
 11
203.9
 21
113.626
 31
0.0
  0
LINE
  5
602
330
5FE
100
AcDbEntity
  8
寸法
100
AcDbLine
 10
164.9
 20
113.126
 30
0.0
 11
203.9
 21
113.126
 31
0.0
  0
ENDBLK
  5
604
330
5FE
100
AcDbEntity
  8
0
100
AcDbBlockEnd
  0
BLOCK
  5
60C
330
607
100
AcDbEntity
  8
0
100
AcDbBlockBegin
  2
*D9
 70
     1
 10
0.0
 20
0.0
 30
0.0
  3
*D9
  1

  0
MTEXT
  5
608
330
607
100
AcDbEntity
  8
寸法
100
AcDbMText
 10
240.608125
 20
79.05000000000001
 30
0.0
 40
2.307303192724833
 41
7.268022383393773
 71
     7
 72
     1
  1
{\fＭＳ ゴシック|b0|i0;14.0}
  7
MS_GOTHIC
 11
6.123233995736766E-17
 21
1.0
 31
0.0
  0
LINE
  5
609
330
607
100
AcDbEntity
  8
寸法
100
AcDbLine
 10
208.85
 20
89.04999999999998
 30
0.0
 11
242.03
 21
89.04999999999998
 31
0.0
  0
LINE
  5
60A
330
607
100
AcDbEntity
  8
寸法
100
AcDbLine
 10
206.9
 20
75.04999999999998
 30
0.0
 11
242.03
 21
75.04999999999998
 31
0.0
  0
LINE
  5
60B
330
607
100
AcDbEntity
  8
寸法
100
AcDbLine
 10
241.53
 20
89.04999999999998
 30
0.0
 11
241.53
 21
75.04999999999998
 31
0.0
  0
ENDBLK
  5
60D
330
607
100
AcDbEntity
  8
0
100
AcDbBlockEnd
  0
BLOCK
  5
614
330
60F
100
AcDbEntity
  8
0
100
AcDbBlockBegin
  2
*D10
 70
     1
 10
0.0
 20
0.0
 30
0.0
  3
*D10
  1

  0
MTEXT
  5
610
330
60F
100
AcDbEntity
  8
寸法
100
AcDbMText
 10
251.038125
 20
73.55000000000001
 30
0.0
 40
2.307208850468225
 41
7.527338376891334
 71
     7
 72
     1
  1
{\fＭＳ ゴシック|b0|i0;48.0}
  7
MS_GOTHIC
 11
6.123233995736766E-17
 21
1.0
 31
0.0
  0
LINE
  5
611
330
60F
100
AcDbEntity
  8
寸法
100
AcDbLine
 10
231.9
 20
52.55
 30
0.0
 11
252.46
 21
52.55
 31
0.0
  0
LINE
  5
612
330
60F
100
AcDbEntity
  8
寸法
100
AcDbLine
 10
231.9
 20
100.55
 30
0.0
 11
252.46
 21
100.55
 31
0.0
  0
LINE
  5
613
330
60F
100
AcDbEntity
  8
寸法
100
AcDbLine
 10
251.96
 20
52.55
 30
0.0
 11
251.96
 21
100.55
 31
0.0
  0
ENDBLK
  5
615
330
60F
100
AcDbEntity
  8
0
100
AcDbBlockEnd
  0
BLOCK
  5
61C
330
617
100
AcDbEntity
  8
0
100
AcDbBlockBegin
  2
*D11
 70
     1
 10
0.0
 20
0.0
 30
0.0
  3
*D11
  1

  0
MTEXT
  5
618
330
617
100
AcDbEntity
  8
寸法
100
AcDbMText
 10
260.678125
 20
159.35
 30
0.0
 40
2.307205153429944
 41
7.435944729273478
 71
     7
 72
     1
  1
{\fＭＳ ゴシック|b0|i0;67.0}
  7
MS_GOTHIC
 11
6.123233995736766E-17
 21
1.0
 31
0.0
  0
LINE
  5
619
330
617
100
AcDbEntity
  8
寸法
100
AcDbLine
 10
232.167059794
 20
128.95
 30
0.0
 11
262.1
 21
128.95
 31
0.0
  0
LINE
  5
61A
330
617
100
AcDbEntity
  8
寸法
100
AcDbLine
 10
220.399743131
 20
195.75
 30
0.0
 11
262.1
 21
195.75
 31
0.0
  0
LINE
  5
61B
330
617
100
AcDbEntity
  8
寸法
100
AcDbLine
 10
261.6
 20
128.95
 30
0.0
 11
261.6
 21
195.75
 31
0.0
  0
ENDBLK
  5
61D
330
617
100
AcDbEntity
  8
0
100
AcDbBlockEnd
  0
ENDSEC
  0
SECTION
  2
ENTITIES
  0
ARC
  5
79
330
1F
100
AcDbEntity
  8
0
  6
CONTINUOUS
 62
     3
100
AcDbCircle
 10
137.4
 20
53.55
 30
0.0
 40
1.0
100
AcDbArc
 50
180.0
 51
270.0
  0
LINE
  5
7A
330
1F
100
AcDbEntity
  8
0
  6
CONTINUOUS
 62
     3
100
AcDbLine
 10
137.4
 20
52.54999999999999
 30
0.0
 11
231.4
 21
52.54999999999999
 31
0.0
  0
ARC
  5
7B
330
1F
100
AcDbEntity
  8
0
  6
CONTINUOUS
 62
     3
100
AcDbCircle
 10
231.4
 20
53.55
 30
0.0
 40
1.0
100
AcDbArc
 50
270.0
 51
0.0
  0
ARC
  5
7C
330
1F
100
AcDbEntity
  8
0
  6
CONTINUOUS
 62
     3
100
AcDbCircle
 10
231.4
 20
99.55
 30
0.0
 40
1.0
100
AcDbArc
 50
0.0
 51
90.0
  0
LINE
  5
7D
330
1F
100
AcDbEntity
  8
0
  6
CONTINUOUS
 62
     3
100
AcDbLine
 10
231.4
 20
100.55
 30
0.0
 11
137.4
 21
100.55
 31
0.0
  0
ARC
  5
7E
330
1F
100
AcDbEntity
  8
0
  6
CONTINUOUS
 62
     3
100
AcDbCircle
 10
137.4
 20
99.55
 30
0.0
 40
1.0
100
AcDbArc
 50
90.0
 51
180.0
  0
LINE
  5
7F
330
1F
100
AcDbEntity
  8
0
  6
CONTINUOUS
 62
     3
100
AcDbLine
 10
136.4
 20
99.55
 30
0.0
 11
136.4
 21
53.55
 31
0.0
  0
LINE
  5
80
330
1F
100
AcDbEntity
  8
0
  6
CONTINUOUS
 62
     3
100
AcDbLine
 10
136.4
 20
54.05
 30
0.0
 11
232.4
 21
54.05
 31
0.0
  0
LINE
  5
81
330
1F
100
AcDbEntity
  8
0
  6
CONTINUOUS
 62
     3
100
AcDbLine
 10
232.4
 20
53.55
 30
0.0
 11
232.4
 21
85.64
 31
0.0
  0
LINE
  5
82
330
1F
100
AcDbEntity
  8
0
  6
CONTINUOUS
 62
     3
100
AcDbLine
 10
232.4
 20
85.64
 30
0.0
 11
232.4
 21
99.55
 31
0.0
  0
LINE
  5
83
330
1F
100
AcDbEntity
  8
0
  6
CONTINUOUS
 62
     3
100
AcDbLine
 10
136.4
 20
66.05
 30
0.0
 11
232.4
 21
66.05
 31
0.0
  0
LINE
  5
84
330
1F
100
AcDbEntity
  8
0
  6
CONTINUOUS
 62
     3
100
AcDbLine
 10
136.4
 20
54.25
 30
0.0
 11
232.4
 21
54.25
 31
0.0
  0
LINE
  5
85
330
1F
100
AcDbEntity
  8
0
  6
LTYPE1
 62
     1
100
AcDbLine
 10
159.9
 20
253.549782609
 30
0.0
 11
159.9
 21
258.609782609
 31
0.0
  0
LINE
  5
86
330
1F
100
AcDbEntity
  8
0
  6
LTYPE1
 62
     1
100
AcDbLine
 10
152.9
 20
253.549782609
 30
0.0
 11
152.9
 21
258.399782609
 31
0.0
  0
LINE
  5
87
330
1F
100
AcDbEntity
  8
0
  6
CONTINUOUS
 62
     1
100
AcDbLine
 10
148.85
 20
261.499782609
 30
0.0
 11
164.05
 21
261.499782609
 31
0.0
  0
LINE
  5
88
330
1F
100
AcDbEntity
  8
0
  6
CONTINUOUS
 62
     1
100
AcDbLine
 10
148.85
 20
249.899782609
 30
0.0
 11
164.05
 21
249.899782609
 31
0.0
  0
LINE
  5
89
330
1F
100
AcDbEntity
  8
0
  6
CONTINUOUS
 62
     1
100
AcDbLine
 10
164.05
 20
261.499782609
 30
0.0
 11
164.05
 21
249.899782609
 31
0.0
  0
LINE
  5
8A
330
1F
100
AcDbEntity
  8
0
  6
CONTINUOUS
 62
     1
100
AcDbLine
 10
148.75
 20
249.899782609
 30
0.0
 11
148.75
 21
261.499782609
 31
0.0
  0
ARC
  5
8B
330
1F
100
AcDbEntity
  8
0
  6
CONTINUOUS
 62
     3
100
AcDbCircle
 10
231.4
 20
219.199782609
 30
0.0
 40
1.0
100
AcDbArc
 50
270.0
 51
0.0
  0
ARC
  5
8C
330
1F
100
AcDbEntity
  8
0
  6
CONTINUOUS
 62
     3
100
AcDbCircle
 10
231.4
 20
265.199782609
 30
0.0
 40
1.0
100
AcDbArc
 50
0.0
 51
90.0
  0
LINE
  5
8D
330
1F
100
AcDbEntity
  8
0
  6
CONTINUOUS
 62
     3
100
AcDbLine
 10
232.4
 20
219.199782609
 30
0.0
 11
232.4
 21
265.199782609
 31
0.0
  0
ARC
  5
8E
330
1F
100
AcDbEntity
  8
0
  6
CONTINUOUS
 62
     3
100
AcDbCircle
 10
137.4
 20
265.199782609
 30
0.0
 40
1.0
100
AcDbArc
 50
90.0
 51
180.0
  0
LINE
  5
8F
330
1F
100
AcDbEntity
  8
0
  6
CONTINUOUS
 62
     3
100
AcDbLine
 10
231.4
 20
266.199782609
 30
0.0
 11
137.4
 21
266.199782609
 31
0.0
  0
ARC
  5
90
330
1F
100
AcDbEntity
  8
0
  6
CONTINUOUS
 62
     3
100
AcDbCircle
 10
137.4
 20
219.199782609
 30
0.0
 40
1.0
100
AcDbArc
 50
180.0
 51
270.0
  0
LINE
  5
91
330
1F
100
AcDbEntity
  8
0
  6
CONTINUOUS
 62
     3
100
AcDbLine
 10
137.4
 20
218.199782609
 30
0.0
 11
231.4
 21
218.199782609
 31
0.0
  0
LINE
  5
92
330
1F
100
AcDbEntity
  8
0
  6
CONTINUOUS
 62
     3
100
AcDbLine
 10
136.4
 20
265.199782609
 30
0.0
 11
136.4
 21
219.199782609
 31
0.0
  0
LINE
  5
93
330
1F
100
AcDbEntity
  8
0
  6
CONTINUOUS
 62
     3
100
AcDbLine
 10
232.4
 20
136.15
 30
0.0
 11
232.4
 21
137.65
 31
0.0
  0
LINE
  5
94
330
1F
100
AcDbEntity
  8
0
  6
CONTINUOUS
 62
     3
100
AcDbLine
 10
136.4
 20
136.15
 30
0.0
 11
232.4
 21
136.15
 31
0.0
  0
LINE
  5
95
330
1F
100
AcDbEntity
  8
0
  6
CONTINUOUS
 62
     3
100
AcDbLine
 10
136.4
 20
137.65
 30
0.0
 11
136.4
 21
136.15
 31
0.0
  0
LINE
  5
96
330
1F
100
AcDbEntity
  8
0
  6
CONTINUOUS
 62
     3
100
AcDbLine
 10
136.4
 20
137.65
 30
0.0
 11
138.55
 21
137.65
 31
0.0
  0
LINE
  5
97
330
1F
100
AcDbEntity
  8
0
  6
CONTINUOUS
 62
     3
100
AcDbLine
 10
230.25
 20
137.65
 30
0.0
 11
232.4
 21
137.65
 31
0.0
  0
LINE
  5
98
330
1F
100
AcDbEntity
  8
0
  6
CONTINUOUS
 62
     3
100
AcDbLine
 10
137.101690206
 20
129.85
 30
0.0
 11
184.4
 21
129.85
 31
0.0
  0
ARC
  5
99
330
1F
100
AcDbEntity
  8
0
  6
CONTINUOUS
 62
     3
100
AcDbCircle
 10
137.101690206
 20
130.35
 30
0.0
 40
0.5
100
AcDbArc
 50
181.988637856
 51
270.0
  0
LINE
  5
9A
330
1F
100
AcDbEntity
  8
0
  6
CONTINUOUS
 62
     3
100
AcDbLine
 10
136.633241342
 20
129.432649345
 30
0.0
 11
136.4
 21
136.15
 31
0.0
  0
ARC
  5
9B
330
1F
100
AcDbEntity
  8
0
  6
CONTINUOUS
 62
     3
100
AcDbCircle
 10
137.132940206
 20
129.45
 30
0.0
 40
0.5
100
AcDbArc
 50
181.988637856
 51
270.0
  0
LINE
  5
9C
330
1F
100
AcDbEntity
  8
0
  6
CONTINUOUS
 62
     3
100
AcDbLine
 10
136.549305556
 20
131.85
 30
0.0
 11
184.4
 21
131.85
 31
0.0
  0
LINE
  5
9D
330
1F
100
AcDbEntity
  8
0
  6
CONTINUOUS
 62
     3
100
AcDbLine
 10
137.132940206
 20
128.95
 30
0.0
 11
184.4
 21
128.95
 31
0.0
  0
LINE
  5
9E
330
1F
100
AcDbEntity
  8
0
  6
CONTINUOUS
 62
     3
100
AcDbLine
 10
231.698309794
 20
129.85
 30
0.0
 11
184.4
 21
129.85
 31
0.0
  0
ARC
  5
9F
330
1F
100
AcDbEntity
  8
0
  6
CONTINUOUS
 62
     3
100
AcDbCircle
 10
231.698309794
 20
130.35
 30
0.0
 40
0.5
100
AcDbArc
 50
270.0
 51
358.011362144
  0
LINE
  5
A0
330
1F
100
AcDbEntity
  8
0
  6
CONTINUOUS
 62
     3
100
AcDbLine
 10
232.166758658
 20
129.432649345
 30
0.0
 11
232.4
 21
136.15
 31
0.0
  0
ARC
  5
A1
330
1F
100
AcDbEntity
  8
0
  6
CONTINUOUS
 62
     3
100
AcDbCircle
 10
231.667059794
 20
129.45
 30
0.0
 40
0.5
100
AcDbArc
 50
270.0
 51
358.011362144
  0
LINE
  5
A2
330
1F
100
AcDbEntity
  8
0
  6
CONTINUOUS
 62
     3
100
AcDbLine
 10
232.250694444
 20
131.85
 30
0.0
 11
184.4
 21
131.85
 31
0.0
  0
LINE
  5
A3
330
1F
100
AcDbEntity
  8
0
  6
CONTINUOUS
 62
     3
100
AcDbLine
 10
231.667059794
 20
128.95
 30
0.0
 11
184.4
 21
128.95
 31
0.0
  0
LINE
  5
A4
330
1F
100
AcDbEntity
  8
0
  6
CONTINUOUS
 62
     3
100
AcDbLine
 10
138.55
 20
137.65
 30
0.0
 11
230.25
 21
137.65
 31
0.0
  0
LINE
  5
A5
330
1F
100
AcDbEntity
  8
0
  6
CONTINUOUS
 62
     3
100
AcDbLine
 10
138.9
 20
190.65
 30
0.0
 11
140.4
 21
190.65
 31
0.0
  0
LINE
  5
A6
330
1F
100
AcDbEntity
  8
0
  6
CONTINUOUS
 62
     3
100
AcDbLine
 10
140.4
 20
190.65
 30
0.0
 11
140.4
 21
182.85
 31
0.0
  0
LINE
  5
A7
330
1F
100
AcDbEntity
  8
0
  6
CONTINUOUS
 62
     3
100
AcDbLine
 10
232.4
 20
137.65
 30
0.0
 11
230.25
 21
137.65
 31
0.0
  0
LINE
  5
A8
330
1F
100
AcDbEntity
  8
0
  6
CONTINUOUS
 62
     3
100
AcDbLine
 10
230.25
 20
137.65
 30
0.0
 11
235.45
 21
137.65
 31
0.0
  0
LINE
  5
A9
330
1F
100
AcDbEntity
  8
0
  6
LTYPE1
 62
     1
100
AcDbLine
 10
201.9
 20
185.2
 30
0.0
 11
201.9
 21
192.15
 31
0.0
  0
LINE
  5
AA
330
1F
100
AcDbEntity
  8
0
  6
LTYPE1
 62
     1
100
AcDbLine
 10
208.9
 20
185.2
 30
0.0
 11
208.9
 21
192.15
 31
0.0
  0
LINE
  5
AB
330
1F
100
AcDbEntity
  8
0
  6
LTYPE1
 62
     1
100
AcDbLine
 10
215.9
 20
185.2
 30
0.0
 11
215.9
 21
192.15
 31
0.0
  0
LINE
  5
AC
330
1F
100
AcDbEntity
  8
0
  6
CONTINUOUS
 62
     3
100
AcDbLine
 10
228.4
 20
186.4499999999999
 30
0.0
 11
140.4
 21
186.4499999999999
 31
0.0
  0
LINE
  5
AD
330
1F
100
AcDbEntity
  8
0
  6
CONTINUOUS
 62
     3
100
AcDbLine
 10
139.4
 20
190.65
 30
0.0
 11
139.4
 21
186.65
 31
0.0
  0
LINE
  5
AE
330
1F
100
AcDbEntity
  8
0
  6
CONTINUOUS
 62
     3
100
AcDbLine
 10
139.6
 20
190.65
 30
0.0
 11
139.6
 21
186.618245837
 31
0.0
  0
LINE
  5
AF
330
1F
100
AcDbEntity
  8
0
  6
CONTINUOUS
 62
     3
100
AcDbLine
 10
138.9
 20
186.65
 30
0.0
 11
138.9
 21
190.65
 31
0.0
  0
LINE
  5
B0
330
1F
100
AcDbEntity
  8
0
  6
CONTINUOUS
 62
     3
100
AcDbLine
 10
136.35
 20
161.05
 30
0.0
 11
138.15
 21
161.05
 31
0.0
  0
LINE
  5
B1
330
1F
100
AcDbEntity
  8
0
  6
CONTINUOUS
 62
     3
100
AcDbLine
 10
133.35
 20
185.65
 30
0.0
 11
133.35
 21
170.9
 31
0.0
  0
ARC
  5
B2
330
1F
100
AcDbEntity
  8
0
  6
CONTINUOUS
 62
     3
100
AcDbCircle
 10
134.35
 20
185.65
 30
0.0
 40
1.0
100
AcDbArc
 50
90.0
 51
180.0
  0
LINE
  5
B3
330
1F
100
AcDbEntity
  8
0
  6
CONTINUOUS
 62
     3
100
AcDbLine
 10
133.35
 20
170.9
 30
0.0
 11
133.35
 21
137.65
 31
0.0
  0
LINE
  5
B4
330
1F
100
AcDbEntity
  8
0
  6
CONTINUOUS
 62
     3
100
AcDbLine
 10
140.35
 20
186.65
 30
0.0
 11
140.35
 21
185.3
 31
0.0
  0
LINE
  5
B5
330
1F
100
AcDbEntity
  8
0
  6
CONTINUOUS
 62
     3
100
AcDbLine
 10
140.35
 20
186.65
 30
0.0
 11
138.925
 21
186.65
 31
0.0
  0
LINE
  5
B6
330
1F
100
AcDbEntity
  8
0
  6
CONTINUOUS
 62
     3
100
AcDbLine
 10
140.35
 20
186.65
 30
0.0
 11
134.35
 21
186.65
 31
0.0
  0
LINE
  5
B7
330
1F
100
AcDbEntity
  8
0
  6
CONTINUOUS
 62
     3
100
AcDbLine
 10
140.35
 20
161.05
 30
0.0
 11
138.75
 21
161.05
 31
0.0
  0
LINE
  5
B8
330
1F
100
AcDbEntity
  8
0
  6
CONTINUOUS
 62
     3
100
AcDbLine
 10
133.35
 20
161.05
 30
0.0
 11
136.75
 21
161.05
 31
0.0
  0
LINE
  5
B9
330
1F
100
AcDbEntity
  8
0
  6
CONTINUOUS
 62
     3
100
AcDbLine
 10
133.35
 20
161.05
 30
0.0
 11
138.75
 21
161.05
 31
0.0
  0
LINE
  5
BA
330
1F
100
AcDbEntity
  8
0
  6
CONTINUOUS
 62
     3
100
AcDbLine
 10
138.55
 20
161.05
 30
0.0
 11
138.55
 21
137.65
 31
0.0
  0
LINE
  5
BB
330
1F
100
AcDbEntity
  8
0
  6
CONTINUOUS
 62
     3
100
AcDbLine
 10
138.55
 20
159.15
 30
0.0
 11
133.35
 21
159.15
 31
0.0
  0
LINE
  5
BC
330
1F
100
AcDbEntity
  8
0
  6
CONTINUOUS
 62
     3
100
AcDbLine
 10
138.55
 20
146.15
 30
0.0
 11
133.35
 21
146.15
 31
0.0
  0
LINE
  5
BD
330
1F
100
AcDbEntity
  8
0
  6
CONTINUOUS
 62
     3
100
AcDbLine
 10
138.55
 20
144.017871388
 30
0.0
 11
133.35
 21
144.017871388
 31
0.0
  0
LINE
  5
BE
330
1F
100
AcDbEntity
  8
0
  6
CONTINUOUS
 62
     3
100
AcDbLine
 10
133.35
 20
141.782128613
 30
0.0
 11
138.55
 21
141.782128613
 31
0.0
  0
LINE
  5
BF
330
1F
100
AcDbEntity
  8
0
  6
CONTINUOUS
 62
     3
100
AcDbLine
 10
138.55
 20
137.65
 30
0.0
 11
133.35
 21
137.65
 31
0.0
  0
LINE
  5
C0
330
1F
100
AcDbEntity
  8
0
  6
CONTINUOUS
 62
     3
100
AcDbLine
 10
133.35
 20
162.55
 30
0.0
 11
136.55
 21
162.55
 31
0.0
  0
LINE
  5
C1
330
1F
100
AcDbEntity
  8
0
  6
CONTINUOUS
 62
     3
100
AcDbLine
 10
136.55
 20
162.55
 30
0.0
 11
136.55
 21
186.65
 31
0.0
  0
LINE
  5
C2
330
1F
100
AcDbEntity
  8
0
  6
CONTINUOUS
 62
     3
100
AcDbLine
 10
138.9
 20
190.65
 30
0.0
 11
140.4
 21
190.65
 31
0.0
  0
LINE
  5
C3
330
1F
100
AcDbEntity
  8
0
  6
CONTINUOUS
 62
     3
100
AcDbLine
 10
140.4
 20
190.65
 30
0.0
 11
140.4
 21
186.4499999999999
 31
0.0
  0
LINE
  5
C4
330
1F
100
AcDbEntity
  8
0
  6
CONTINUOUS
 62
     3
100
AcDbLine
 10
140.4
 20
153.65
 30
0.0
 11
138.673893805
 21
153.65
 31
0.0
  0
LINE
  5
C5
330
1F
100
AcDbEntity
  8
0
  6
CONTINUOUS
 62
     3
100
AcDbLine
 10
140.4
 20
186.4499999999999
 30
0.0
 11
140.4
 21
153.65
 31
0.0
  0
LINE
  5
C6
330
1F
100
AcDbEntity
  8
0
  6
CONTINUOUS
 62
     3
100
AcDbLine
 10
138.9
 20
186.65
 30
0.0
 11
138.9
 21
190.65
 31
0.0
  0
LINE
  5
C7
330
1F
100
AcDbEntity
  8
0
  6
CONTINUOUS
 62
     3
100
AcDbLine
 10
139.4
 20
190.65
 30
0.0
 11
139.4
 21
186.65
 31
0.0
  0
LINE
  5
C8
330
1F
100
AcDbEntity
  8
0
  6
CONTINUOUS
 62
     3
100
AcDbLine
 10
139.6
 20
190.65
 30
0.0
 11
139.6
 21
186.618245837
 31
0.0
  0
LINE
  5
C9
330
1F
100
AcDbEntity
  8
0
  6
CONTINUOUS
 62
     3
100
AcDbLine
 10
139.6
 20
161.05
 30
0.0
 11
139.6
 21
153.65
 31
0.0
  0
LINE
  5
CA
330
1F
100
AcDbEntity
  8
0
  6
CONTINUOUS
 62
     3
100
AcDbLine
 10
139.4
 20
153.65
 30
0.0
 11
139.4
 21
161.05
 31
0.0
  0
LINE
  5
CB
330
1F
100
AcDbEntity
  8
0
  6
CONTINUOUS
 62
     3
100
AcDbLine
 10
229.9
 20
190.65
 30
0.0
 11
228.4
 21
190.65
 31
0.0
  0
LINE
  5
CC
330
1F
100
AcDbEntity
  8
0
  6
CONTINUOUS
 62
     3
100
AcDbLine
 10
228.4
 20
190.65
 30
0.0
 11
228.4
 21
182.85
 31
0.0
  0
LINE
  5
CD
330
1F
100
AcDbEntity
  8
0
  6
CONTINUOUS
 62
     3
100
AcDbLine
 10
229.4
 20
190.65
 30
0.0
 11
229.4
 21
186.65
 31
0.0
  0
LINE
  5
CE
330
1F
100
AcDbEntity
  8
0
  6
CONTINUOUS
 62
     3
100
AcDbLine
 10
229.2
 20
190.65
 30
0.0
 11
229.2
 21
186.618245837
 31
0.0
  0
LINE
  5
CF
330
1F
100
AcDbEntity
  8
0
  6
CONTINUOUS
 62
     3
100
AcDbLine
 10
229.9
 20
186.65
 30
0.0
 11
229.9
 21
190.65
 31
0.0
  0
LINE
  5
D0
330
1F
100
AcDbEntity
  8
0
  6
CONTINUOUS
 62
     3
100
AcDbLine
 10
232.45
 20
161.05
 30
0.0
 11
230.65
 21
161.05
 31
0.0
  0
LINE
  5
D1
330
1F
100
AcDbEntity
  8
0
  6
CONTINUOUS
 62
     3
100
AcDbLine
 10
235.45
 20
185.65
 30
0.0
 11
235.45
 21
170.9
 31
0.0
  0
ARC
  5
D2
330
1F
100
AcDbEntity
  8
0
  6
CONTINUOUS
 62
     3
100
AcDbCircle
 10
234.45
 20
185.65
 30
0.0
 40
1.0
100
AcDbArc
 50
0.0
 51
90.0
  0
LINE
  5
D3
330
1F
100
AcDbEntity
  8
0
  6
CONTINUOUS
 62
     3
100
AcDbLine
 10
235.45
 20
170.9
 30
0.0
 11
235.45
 21
137.65
 31
0.0
  0
LINE
  5
D4
330
1F
100
AcDbEntity
  8
0
  6
CONTINUOUS
 62
     3
100
AcDbLine
 10
228.45
 20
186.65
 30
0.0
 11
228.45
 21
185.3
 31
0.0
  0
LINE
  5
D5
330
1F
100
AcDbEntity
  8
0
  6
CONTINUOUS
 62
     3
100
AcDbLine
 10
228.45
 20
186.65
 30
0.0
 11
229.875
 21
186.65
 31
0.0
  0
LINE
  5
D6
330
1F
100
AcDbEntity
  8
0
  6
CONTINUOUS
 62
     3
100
AcDbLine
 10
228.45
 20
186.65
 30
0.0
 11
234.45
 21
186.65
 31
0.0
  0
LINE
  5
D7
330
1F
100
AcDbEntity
  8
0
  6
CONTINUOUS
 62
     3
100
AcDbLine
 10
228.45
 20
161.05
 30
0.0
 11
230.05
 21
161.05
 31
0.0
  0
LINE
  5
D8
330
1F
100
AcDbEntity
  8
0
  6
CONTINUOUS
 62
     3
100
AcDbLine
 10
235.45
 20
161.05
 30
0.0
 11
232.05
 21
161.05
 31
0.0
  0
LINE
  5
D9
330
1F
100
AcDbEntity
  8
0
  6
CONTINUOUS
 62
     3
100
AcDbLine
 10
235.45
 20
161.05
 30
0.0
 11
230.05
 21
161.05
 31
0.0
  0
LINE
  5
DA
330
1F
100
AcDbEntity
  8
0
  6
CONTINUOUS
 62
     3
100
AcDbLine
 10
230.25
 20
161.05
 30
0.0
 11
230.25
 21
137.65
 31
0.0
  0
LINE
  5
DB
330
1F
100
AcDbEntity
  8
0
  6
CONTINUOUS
 62
     3
100
AcDbLine
 10
230.25
 20
159.15
 30
0.0
 11
235.45
 21
159.15
 31
0.0
  0
LINE
  5
DC
330
1F
100
AcDbEntity
  8
0
  6
CONTINUOUS
 62
     3
100
AcDbLine
 10
230.25
 20
146.15
 30
0.0
 11
235.45
 21
146.15
 31
0.0
  0
LINE
  5
DD
330
1F
100
AcDbEntity
  8
0
  6
CONTINUOUS
 62
     3
100
AcDbLine
 10
230.25
 20
144.017871388
 30
0.0
 11
235.45
 21
144.017871388
 31
0.0
  0
LINE
  5
DE
330
1F
100
AcDbEntity
  8
0
  6
CONTINUOUS
 62
     3
100
AcDbLine
 10
235.45
 20
141.782128613
 30
0.0
 11
230.25
 21
141.782128613
 31
0.0
  0
LINE
  5
DF
330
1F
100
AcDbEntity
  8
0
  6
CONTINUOUS
 62
     3
100
AcDbLine
 10
235.45
 20
162.55
 30
0.0
 11
232.25
 21
162.55
 31
0.0
  0
LINE
  5
E0
330
1F
100
AcDbEntity
  8
0
  6
CONTINUOUS
 62
     3
100
AcDbLine
 10
232.25
 20
162.55
 30
0.0
 11
232.25
 21
186.65
 31
0.0
  0
LINE
  5
E1
330
1F
100
AcDbEntity
  8
0
  6
CONTINUOUS
 62
     3
100
AcDbLine
 10
229.9
 20
190.65
 30
0.0
 11
228.4
 21
190.65
 31
0.0
  0
LINE
  5
E2
330
1F
100
AcDbEntity
  8
0
  6
CONTINUOUS
 62
     3
100
AcDbLine
 10
228.4
 20
190.65
 30
0.0
 11
228.4
 21
186.4499999999999
 31
0.0
  0
LINE
  5
E3
330
1F
100
AcDbEntity
  8
0
  6
CONTINUOUS
 62
     3
100
AcDbLine
 10
228.4
 20
153.65
 30
0.0
 11
230.126106195
 21
153.65
 31
0.0
  0
LINE
  5
E4
330
1F
100
AcDbEntity
  8
0
  6
CONTINUOUS
 62
     3
100
AcDbLine
 10
228.4
 20
186.4499999999999
 30
0.0
 11
228.4
 21
153.65
 31
0.0
  0
LINE
  5
E5
330
1F
100
AcDbEntity
  8
0
  6
CONTINUOUS
 62
     3
100
AcDbLine
 10
229.9
 20
186.65
 30
0.0
 11
229.9
 21
190.65
 31
0.0
  0
LINE
  5
E6
330
1F
100
AcDbEntity
  8
0
  6
CONTINUOUS
 62
     3
100
AcDbLine
 10
229.4
 20
190.65
 30
0.0
 11
229.4
 21
186.65
 31
0.0
  0
LINE
  5
E7
330
1F
100
AcDbEntity
  8
0
  6
CONTINUOUS
 62
     3
100
AcDbLine
 10
229.2
 20
190.65
 30
0.0
 11
229.2
 21
186.618245837
 31
0.0
  0
LINE
  5
E8
330
1F
100
AcDbEntity
  8
0
  6
CONTINUOUS
 62
     3
100
AcDbLine
 10
229.2
 20
161.05
 30
0.0
 11
229.2
 21
153.65
 31
0.0
  0
LINE
  5
E9
330
1F
100
AcDbEntity
  8
0
  6
CONTINUOUS
 62
     3
100
AcDbLine
 10
229.4
 20
153.65
 30
0.0
 11
229.4
 21
161.05
 31
0.0
  0
LINE
  5
EA
330
1F
100
AcDbEntity
  8
0
  6
LTYPE1
 62
     1
100
AcDbLine
 10
159.9
 20
186.9499999999999
 30
0.0
 11
159.9
 21
192.15
 31
0.0
  0
LINE
  5
EB
330
1F
100
AcDbEntity
  8
0
  6
LTYPE1
 62
     1
100
AcDbLine
 10
152.9
 20
186.9499999999999
 30
0.0
 11
152.9
 21
192.15
 31
0.0
  0
LINE
  5
EC
330
1F
100
AcDbEntity
  8
0
  6
LTYPE1
 62
     1
100
AcDbLine
 10
180.9
 20
186.9499999999999
 30
0.0
 11
180.9
 21
192.15
 31
0.0
  0
LINE
  5
ED
330
1F
100
AcDbEntity
  8
0
  6
LTYPE1
 62
     1
100
AcDbLine
 10
187.9
 20
186.9499999999999
 30
0.0
 11
187.9
 21
192.15
 31
0.0
  0
LINE
  5
EE
330
1F
100
AcDbEntity
  8
0
  6
LTYPE1
 62
     1
100
AcDbLine
 10
194.9
 20
186.9499999999999
 30
0.0
 11
194.9
 21
192.15
 31
0.0
  0
LINE
  5
EF
330
1F
100
AcDbEntity
  8
0
  6
CONTINUOUS
 62
     1
100
AcDbLine
 10
218.05
 20
249.899782609
 30
0.0
 11
218.05
 21
261.499782609
 31
0.0
  0
LINE
  5
F0
330
1F
100
AcDbEntity
  8
0
  6
CONTINUOUS
 62
     1
100
AcDbLine
 10
218.05
 20
261.499782609
 30
0.0
 11
174.75
 21
261.499782609
 31
0.0
  0
LINE
  5
F1
330
1F
100
AcDbEntity
  8
0
  6
CONTINUOUS
 62
     1
100
AcDbLine
 10
174.75
 20
249.899782609
 30
0.0
 11
218.05
 21
249.899782609
 31
0.0
  0
LINE
  5
F2
330
1F
100
AcDbEntity
  8
0
  6
CONTINUOUS
 62
     1
100
AcDbLine
 10
174.75
 20
261.499782609
 30
0.0
 11
174.75
 21
249.899782609
 31
0.0
  0
LINE
  5
F3
330
1F
100
AcDbEntity
  8
0
  6
LTYPE1
 62
     1
100
AcDbLine
 10
192.9
 20
253.549782609
 30
0.0
 11
192.9
 21
258.539782609
 31
0.0
  0
LINE
  5
F4
330
1F
100
AcDbEntity
  8
0
  6
LTYPE1
 62
     1
100
AcDbLine
 10
185.9
 20
253.549782609
 30
0.0
 11
185.9
 21
258.609782609
 31
0.0
  0
LINE
  5
F5
330
1F
100
AcDbEntity
  8
0
  6
LTYPE1
 62
     1
100
AcDbLine
 10
178.9
 20
253.549782609
 30
0.0
 11
178.9
 21
258.399782609
 31
0.0
  0
LINE
  5
F6
330
1F
100
AcDbEntity
  8
0
  6
LTYPE1
 62
     1
100
AcDbLine
 10
199.9
 20
253.549782609
 30
0.0
 11
199.9
 21
258.539782609
 31
0.0
  0
LINE
  5
F7
330
1F
100
AcDbEntity
  8
0
  6
LTYPE1
 62
     1
100
AcDbLine
 10
206.9
 20
253.549782609
 30
0.0
 11
206.9
 21
258.609782609
 31
0.0
  0
LINE
  5
F8
330
1F
100
AcDbEntity
  8
0
  6
LTYPE1
 62
     1
100
AcDbLine
 10
213.9
 20
253.549782609
 30
0.0
 11
213.9
 21
258.399782609
 31
0.0
  0
LINE
  5
F9
330
1F
100
AcDbEntity
  8
0
  6
CONTINUOUS
 62
     1
100
AcDbLine
 10
217.9
 20
255.399782609
 30
0.0
 11
174.9
 21
255.399782609
 31
0.0
  0
LINE
  5
FA
330
1F
100
AcDbEntity
  8
0
  6
CONTINUOUS
 62
     3
100
AcDbLine
 10
224.4
 20
146.65
 30
0.0
 11
226.4
 21
148.65
 31
0.0
  0
LINE
  5
FB
330
1F
100
AcDbEntity
  8
0
  6
CONTINUOUS
 62
     3
100
AcDbLine
 10
226.4
 20
181.65
 30
0.0
 11
226.4
 21
148.65
 31
0.0
  0
ARC
  5
FC
330
1F
100
AcDbEntity
  8
0
  6
CONTINUOUS
 62
     3
100
AcDbCircle
 10
225.4
 20
181.65
 30
0.0
 40
1.0
100
AcDbArc
 50
0.0
 51
90.0
  0
LINE
  5
FD
330
1F
100
AcDbEntity
  8
0
  6
CONTINUOUS
 62
     3
100
AcDbLine
 10
167.4
 20
182.65
 30
0.0
 11
225.4
 21
182.65
 31
0.0
  0
ARC
  5
FE
330
1F
100
AcDbEntity
  8
0
  6
CONTINUOUS
 62
     3
100
AcDbCircle
 10
167.4
 20
181.65
 30
0.0
 40
1.0
100
AcDbArc
 50
90.0
 51
180.0
  0
LINE
  5
FF
330
1F
100
AcDbEntity
  8
0
  6
CONTINUOUS
 62
     3
100
AcDbLine
 10
224.4
 20
146.65
 30
0.0
 11
167.4
 21
146.65
 31
0.0
  0
LINE
  5
100
330
1F
100
AcDbEntity
  8
0
  6
CONTINUOUS
 62
     3
100
AcDbLine
 10
166.4
 20
181.65
 30
0.0
 11
166.4
 21
147.65
 31
0.0
  0
ARC
  5
101
330
1F
100
AcDbEntity
  8
0
  6
CONTINUOUS
 62
     3
100
AcDbCircle
 10
167.4
 20
147.65
 30
0.0
 40
1.0
100
AcDbArc
 50
180.0
 51
270.0
  0
LINE
  5
102
330
1F
100
AcDbEntity
  8
0
  6
CONTINUOUS
 62
     3
100
AcDbLine
 10
156.9
 20
157.65
 30
0.0
 11
155.6
 21
157.65
 31
0.0
  0
LINE
  5
103
330
1F
100
AcDbEntity
  8
0
  6
CONTINUOUS
 62
     3
100
AcDbLine
 10
156.9
 20
171.65
 30
0.0
 11
155.6
 21
171.65
 31
0.0
  0
LINE
  5
104
330
1F
100
AcDbEntity
  8
0
  6
CONTINUOUS
 62
     3
100
AcDbLine
 10
156.9
 20
169.15
 30
0.0
 11
155.6
 21
169.15
 31
0.0
  0
LINE
  5
105
330
1F
100
AcDbEntity
  8
0
  6
CONTINUOUS
 62
     3
100
AcDbLine
 10
153.9
 20
157.65
 30
0.0
 11
152.6
 21
157.65
 31
0.0
  0
LINE
  5
106
330
1F
100
AcDbEntity
  8
0
  6
CONTINUOUS
 62
     3
100
AcDbLine
 10
153.9
 20
171.65
 30
0.0
 11
152.6
 21
171.65
 31
0.0
  0
LINE
  5
107
330
1F
100
AcDbEntity
  8
0
  6
CONTINUOUS
 62
     3
100
AcDbLine
 10
153.9
 20
169.15
 30
0.0
 11
152.6
 21
169.15
 31
0.0
  0
LINE
  5
108
330
1F
100
AcDbEntity
  8
0
  6
CONTINUOUS
 62
     3
100
AcDbLine
 10
152.6
 20
170.4
 30
0.0
 11
152.6
 21
157.65
 31
0.0
  0
LINE
  5
109
330
1F
100
AcDbEntity
  8
0
  6
CONTINUOUS
 62
     3
100
AcDbLine
 10
153.9
 20
170.4
 30
0.0
 11
153.9
 21
157.65
 31
0.0
  0
LINE
  5
10A
330
1F
100
AcDbEntity
  8
0
  6
CONTINUOUS
 62
     3
100
AcDbLine
 10
155.6
 20
170.4
 30
0.0
 11
155.6
 21
157.65
 31
0.0
  0
LINE
  5
10B
330
1F
100
AcDbEntity
  8
0
  6
CONTINUOUS
 62
     3
100
AcDbLine
 10
147.9499999999999
 20
144.15
 30
0.0
 11
146.65
 21
144.15
 31
0.0
  0
LINE
  5
10C
330
1F
100
AcDbEntity
  8
0
  6
CONTINUOUS
 62
     3
100
AcDbLine
 10
146.65
 20
144.15
 30
0.0
 11
146.65
 21
145.55
 31
0.0
  0
LINE
  5
10D
330
1F
100
AcDbEntity
  8
0
  6
CONTINUOUS
 62
     3
100
AcDbLine
 10
147.9499999999999
 20
170.4
 30
0.0
 11
147.9499999999999
 21
144.15
 31
0.0
  0
LINE
  5
10E
330
1F
100
AcDbEntity
  8
0
  6
CONTINUOUS
 62
     3
100
AcDbLine
 10
146.65
 20
170.4
 30
0.0
 11
146.65
 21
145.55
 31
0.0
  0
LINE
  5
10F
330
1F
100
AcDbEntity
  8
0
  6
CONTINUOUS
 62
     3
100
AcDbLine
 10
147.9499999999999
 20
183.15
 30
0.0
 11
147.9499999999999
 21
170.4
 31
0.0
  0
LINE
  5
110
330
1F
100
AcDbEntity
  8
0
  6
CONTINUOUS
 62
     3
100
AcDbLine
 10
147.9499999999999
 20
183.15
 30
0.0
 11
146.65
 21
183.15
 31
0.0
  0
LINE
  5
111
330
1F
100
AcDbEntity
  8
0
  6
CONTINUOUS
 62
     3
100
AcDbLine
 10
146.65
 20
183.15
 30
0.0
 11
146.65
 21
170.4
 31
0.0
  0
LINE
  5
112
330
1F
100
AcDbEntity
  8
0
  6
CONTINUOUS
 62
     3
100
AcDbLine
 10
146.65
 20
157.65
 30
0.0
 11
147.9499999999999
 21
157.65
 31
0.0
  0
LINE
  5
113
330
1F
100
AcDbEntity
  8
0
  6
CONTINUOUS
 62
     3
100
AcDbLine
 10
146.65
 20
155.15
 30
0.0
 11
147.9499999999999
 21
155.15
 31
0.0
  0
LINE
  5
114
330
1F
100
AcDbEntity
  8
0
  6
CONTINUOUS
 62
     3
100
AcDbLine
 10
146.65
 20
171.65
 30
0.0
 11
147.9499999999999
 21
171.65
 31
0.0
  0
LINE
  5
115
330
1F
100
AcDbEntity
  8
0
  6
CONTINUOUS
 62
     3
100
AcDbLine
 10
146.65
 20
169.15
 30
0.0
 11
147.9499999999999
 21
169.15
 31
0.0
  0
LINE
  5
116
330
1F
100
AcDbEntity
  8
0
  6
CONTINUOUS
 62
     3
100
AcDbLine
 10
144.95
 20
144.15
 30
0.0
 11
143.65
 21
144.15
 31
0.0
  0
LINE
  5
117
330
1F
100
AcDbEntity
  8
0
  6
CONTINUOUS
 62
     3
100
AcDbLine
 10
143.65
 20
144.15
 30
0.0
 11
143.65
 21
145.55
 31
0.0
  0
LINE
  5
118
330
1F
100
AcDbEntity
  8
0
  6
CONTINUOUS
 62
     3
100
AcDbLine
 10
144.95
 20
183.15
 30
0.0
 11
144.95
 21
170.4
 31
0.0
  0
LINE
  5
119
330
1F
100
AcDbEntity
  8
0
  6
CONTINUOUS
 62
     3
100
AcDbLine
 10
144.95
 20
183.15
 30
0.0
 11
143.65
 21
183.15
 31
0.0
  0
LINE
  5
11A
330
1F
100
AcDbEntity
  8
0
  6
CONTINUOUS
 62
     3
100
AcDbLine
 10
143.65
 20
183.15
 30
0.0
 11
143.65
 21
170.4
 31
0.0
  0
LINE
  5
11B
330
1F
100
AcDbEntity
  8
0
  6
CONTINUOUS
 62
     3
100
AcDbLine
 10
143.65
 20
157.65
 30
0.0
 11
144.95
 21
157.65
 31
0.0
  0
LINE
  5
11C
330
1F
100
AcDbEntity
  8
0
  6
CONTINUOUS
 62
     3
100
AcDbLine
 10
143.65
 20
155.15
 30
0.0
 11
144.95
 21
155.15
 31
0.0
  0
LINE
  5
11D
330
1F
100
AcDbEntity
  8
0
  6
CONTINUOUS
 62
     3
100
AcDbLine
 10
143.65
 20
171.65
 30
0.0
 11
144.95
 21
171.65
 31
0.0
  0
LINE
  5
11E
330
1F
100
AcDbEntity
  8
0
  6
CONTINUOUS
 62
     3
100
AcDbLine
 10
143.65
 20
169.15
 30
0.0
 11
144.95
 21
169.15
 31
0.0
  0
LINE
  5
11F
330
1F
100
AcDbEntity
  8
0
  6
CONTINUOUS
 62
     3
100
AcDbLine
 10
159.9
 20
157.65
 30
0.0
 11
158.6
 21
157.65
 31
0.0
  0
LINE
  5
120
330
1F
100
AcDbEntity
  8
0
  6
CONTINUOUS
 62
     3
100
AcDbLine
 10
159.9
 20
171.65
 30
0.0
 11
158.6
 21
171.65
 31
0.0
  0
LINE
  5
121
330
1F
100
AcDbEntity
  8
0
  6
CONTINUOUS
 62
     3
100
AcDbLine
 10
159.9
 20
169.15
 30
0.0
 11
158.6
 21
169.15
 31
0.0
  0
LINE
  5
122
330
1F
100
AcDbEntity
  8
0
  6
CONTINUOUS
 62
     3
100
AcDbLine
 10
158.6
 20
170.4
 30
0.0
 11
158.6
 21
157.65
 31
0.0
  0
LINE
  5
123
330
1F
100
AcDbEntity
  8
0
  6
CONTINUOUS
 62
     3
100
AcDbLine
 10
144.95
 20
161.95
 30
0.0
 11
144.95
 21
144.15
 31
0.0
  0
LINE
  5
124
330
1F
100
AcDbEntity
  8
0
  6
CONTINUOUS
 62
     3
100
AcDbLine
 10
143.65
 20
161.45
 30
0.0
 11
143.65
 21
145.55
 31
0.0
  0
LINE
  5
125
330
1F
100
AcDbEntity
  8
0
  6
CONTINUOUS
 62
     3
100
AcDbLine
 10
152.6
 20
155.15
 30
0.0
 11
153.9
 21
155.15
 31
0.0
  0
LINE
  5
126
330
1F
100
AcDbEntity
  8
0
  6
CONTINUOUS
 62
     3
100
AcDbLine
 10
152.6
 20
150.15
 30
0.0
 11
153.9
 21
150.15
 31
0.0
  0
LINE
  5
127
330
1F
100
AcDbEntity
  8
0
  6
CONTINUOUS
 62
     3
100
AcDbLine
 10
155.6
 20
155.15
 30
0.0
 11
156.9
 21
155.15
 31
0.0
  0
LINE
  5
128
330
1F
100
AcDbEntity
  8
0
  6
CONTINUOUS
 62
     3
100
AcDbLine
 10
155.6
 20
150.15
 30
0.0
 11
156.9
 21
150.15
 31
0.0
  0
LINE
  5
129
330
1F
100
AcDbEntity
  8
0
  6
CONTINUOUS
 62
     3
100
AcDbLine
 10
158.6
 20
155.15
 30
0.0
 11
159.9
 21
155.15
 31
0.0
  0
LINE
  5
12A
330
1F
100
AcDbEntity
  8
0
  6
CONTINUOUS
 62
     3
100
AcDbLine
 10
158.6
 20
150.15
 30
0.0
 11
159.9
 21
150.15
 31
0.0
  0
LINE
  5
12B
330
1F
100
AcDbEntity
  8
0
  6
CONTINUOUS
 62
     3
100
AcDbLine
 10
152.6
 20
157.65
 30
0.0
 11
152.6
 21
150.15
 31
0.0
  0
LINE
  5
12C
330
1F
100
AcDbEntity
  8
0
  6
CONTINUOUS
 62
     3
100
AcDbLine
 10
153.9
 20
157.65
 30
0.0
 11
153.9
 21
150.15
 31
0.0
  0
LINE
  5
12D
330
1F
100
AcDbEntity
  8
0
  6
CONTINUOUS
 62
     3
100
AcDbLine
 10
155.6
 20
157.65
 30
0.0
 11
155.6
 21
150.15
 31
0.0
  0
LINE
  5
12E
330
1F
100
AcDbEntity
  8
0
  6
CONTINUOUS
 62
     3
100
AcDbLine
 10
156.9
 20
157.65
 30
0.0
 11
156.9
 21
150.15
 31
0.0
  0
LINE
  5
12F
330
1F
100
AcDbEntity
  8
0
  6
CONTINUOUS
 62
     3
100
AcDbLine
 10
158.6
 20
157.65
 30
0.0
 11
158.6
 21
150.15
 31
0.0
  0
LINE
  5
130
330
1F
100
AcDbEntity
  8
0
  6
CONTINUOUS
 62
     3
100
AcDbLine
 10
159.9
 20
157.65
 30
0.0
 11
159.9
 21
150.15
 31
0.0
  0
LINE
  5
131
330
1F
100
AcDbEntity
  8
0
  6
CONTINUOUS
 62
     3
100
AcDbLine
 10
152.6
 20
176.65
 30
0.0
 11
153.9
 21
176.65
 31
0.0
  0
LINE
  5
132
330
1F
100
AcDbEntity
  8
0
  6
CONTINUOUS
 62
     3
100
AcDbLine
 10
155.6
 20
176.65
 30
0.0
 11
156.9
 21
176.65
 31
0.0
  0
LINE
  5
133
330
1F
100
AcDbEntity
  8
0
  6
CONTINUOUS
 62
     3
100
AcDbLine
 10
158.6
 20
176.65
 30
0.0
 11
159.9
 21
176.65
 31
0.0
  0
LINE
  5
134
330
1F
100
AcDbEntity
  8
0
  6
CONTINUOUS
 62
     3
100
AcDbLine
 10
152.6
 20
176.65
 30
0.0
 11
152.6
 21
170.4
 31
0.0
  0
LINE
  5
135
330
1F
100
AcDbEntity
  8
0
  6
CONTINUOUS
 62
     3
100
AcDbLine
 10
153.9
 20
176.65
 30
0.0
 11
153.9
 21
170.4
 31
0.0
  0
LINE
  5
136
330
1F
100
AcDbEntity
  8
0
  6
CONTINUOUS
 62
     3
100
AcDbLine
 10
155.6
 20
176.65
 30
0.0
 11
155.6
 21
170.4
 31
0.0
  0
LINE
  5
137
330
1F
100
AcDbEntity
  8
0
  6
CONTINUOUS
 62
     3
100
AcDbLine
 10
158.6
 20
176.65
 30
0.0
 11
158.6
 21
170.4
 31
0.0
  0
LINE
  5
138
330
1F
100
AcDbEntity
  8
0
  6
CONTINUOUS
 62
     3
100
AcDbLine
 10
159.9
 20
176.65
 30
0.0
 11
159.9
 21
157.65
 31
0.0
  0
LINE
  5
139
330
1F
100
AcDbEntity
  8
0
  6
CONTINUOUS
 62
     3
100
AcDbLine
 10
143.65
 20
170.4
 30
0.0
 11
143.65
 21
161.45
 31
0.0
  0
LINE
  5
13A
330
1F
100
AcDbEntity
  8
0
  6
CONTINUOUS
 62
     3
100
AcDbLine
 10
144.95
 20
170.4
 30
0.0
 11
144.95
 21
161.95
 31
0.0
  0
LINE
  5
13B
330
1F
100
AcDbEntity
  8
0
  6
CONTINUOUS
 62
     3
100
AcDbLine
 10
156.9
 20
176.65
 30
0.0
 11
156.9
 21
157.65
 31
0.0
  0
LINE
  5
13C
330
1F
100
AcDbEntity
  8
0
  6
CONTINUOUS
 62
     3
100
AcDbLine
 10
226.2
 20
254.199782609
 30
0.0
 11
227.9
 21
254.199782609
 31
0.0
  0
LINE
  5
13D
330
1F
100
AcDbEntity
  8
0
  6
CONTINUOUS
 62
     3
100
AcDbLine
 10
227.9
 20
254.199782609
 30
0.0
 11
227.9
 21
249.199782609
 31
0.0
  0
LINE
  5
13E
330
1F
100
AcDbEntity
  8
0
  6
CONTINUOUS
 62
     3
100
AcDbLine
 10
226.2
 20
254.199782609
 30
0.0
 11
226.2
 21
252.299782609
 31
0.0
  0
LINE
  5
13F
330
1F
100
AcDbEntity
  8
0
  6
CONTINUOUS
 62
     3
100
AcDbLine
 10
226.2
 20
252.299782609
 30
0.0
 11
226.2
 21
249.199782609
 31
0.0
  0
LINE
  5
140
330
1F
100
AcDbEntity
  8
0
  6
CONTINUOUS
 62
     3
100
AcDbLine
 10
224.7
 20
254.199782609
 30
0.0
 11
223.0
 21
254.199782609
 31
0.0
  0
LINE
  5
141
330
1F
100
AcDbEntity
  8
0
  6
CONTINUOUS
 62
     3
100
AcDbLine
 10
223.0
 20
254.199782609
 30
0.0
 11
223.0
 21
249.199782609
 31
0.0
  0
LINE
  5
142
330
1F
100
AcDbEntity
  8
0
  6
CONTINUOUS
 62
     3
100
AcDbLine
 10
224.7
 20
254.199782609
 30
0.0
 11
224.7
 21
252.299782609
 31
0.0
  0
LINE
  5
143
330
1F
100
AcDbEntity
  8
0
  6
CONTINUOUS
 62
     3
100
AcDbLine
 10
224.7
 20
252.299782609
 30
0.0
 11
224.7
 21
249.199782609
 31
0.0
  0
LINE
  5
144
330
1F
100
AcDbEntity
  8
0
  6
CONTINUOUS
 62
     3
100
AcDbLine
 10
221.5
 20
254.199782609
 30
0.0
 11
219.8
 21
254.199782609
 31
0.0
  0
LINE
  5
145
330
1F
100
AcDbEntity
  8
0
  6
CONTINUOUS
 62
     3
100
AcDbLine
 10
219.8
 20
254.199782609
 30
0.0
 11
219.8
 21
249.199782609
 31
0.0
  0
LINE
  5
146
330
1F
100
AcDbEntity
  8
0
  6
CONTINUOUS
 62
     3
100
AcDbLine
 10
221.5
 20
254.199782609
 30
0.0
 11
221.5
 21
252.299782609
 31
0.0
  0
LINE
  5
147
330
1F
100
AcDbEntity
  8
0
  6
CONTINUOUS
 62
     3
100
AcDbLine
 10
221.5
 20
252.299782609
 30
0.0
 11
221.5
 21
249.199782609
 31
0.0
  0
LINE
  5
148
330
1F
100
AcDbEntity
  8
0
  6
CONTINUOUS
 62
     3
100
AcDbLine
 10
226.2
 20
238.699782609
 30
0.0
 11
227.9
 21
238.699782609
 31
0.0
  0
LINE
  5
149
330
1F
100
AcDbEntity
  8
0
  6
CONTINUOUS
 62
     3
100
AcDbLine
 10
223.0
 20
238.699782609
 30
0.0
 11
224.7
 21
238.699782609
 31
0.0
  0
LINE
  5
14A
330
1F
100
AcDbEntity
  8
0
  6
CONTINUOUS
 62
     3
100
AcDbLine
 10
219.8
 20
238.699782609
 30
0.0
 11
221.5
 21
238.699782609
 31
0.0
  0
LINE
  5
14B
330
1F
100
AcDbEntity
  8
0
  6
CONTINUOUS
 62
     3
100
AcDbLine
 10
219.8
 20
249.199782609
 30
0.0
 11
219.8
 21
238.699782609
 31
0.0
  0
LINE
  5
14C
330
1F
100
AcDbEntity
  8
0
  6
CONTINUOUS
 62
     3
100
AcDbLine
 10
221.5
 20
249.199782609
 30
0.0
 11
221.5
 21
238.699782609
 31
0.0
  0
LINE
  5
14D
330
1F
100
AcDbEntity
  8
0
  6
CONTINUOUS
 62
     3
100
AcDbLine
 10
223.0
 20
249.199782609
 30
0.0
 11
223.0
 21
238.699782609
 31
0.0
  0
LINE
  5
14E
330
1F
100
AcDbEntity
  8
0
  6
CONTINUOUS
 62
     3
100
AcDbLine
 10
224.7
 20
249.199782609
 30
0.0
 11
224.7
 21
238.699782609
 31
0.0
  0
LINE
  5
14F
330
1F
100
AcDbEntity
  8
0
  6
CONTINUOUS
 62
     3
100
AcDbLine
 10
226.2
 20
249.199782609
 30
0.0
 11
226.2
 21
238.699782609
 31
0.0
  0
LINE
  5
150
330
1F
100
AcDbEntity
  8
0
  6
CONTINUOUS
 62
     3
100
AcDbLine
 10
227.9
 20
238.699782609
 30
0.0
 11
227.9
 21
249.199782609
 31
0.0
  0
LINE
  5
151
330
1F
100
AcDbEntity
  8
0
  6
CONTINUOUS
 62
     3
100
AcDbLine
 10
226.2
 20
247.449782609
 30
0.0
 11
227.9
 21
247.449782609
 31
0.0
  0
LINE
  5
152
330
1F
100
AcDbEntity
  8
0
  6
CONTINUOUS
 62
     3
100
AcDbLine
 10
223.0
 20
247.449782609
 30
0.0
 11
224.7
 21
247.449782609
 31
0.0
  0
LINE
  5
153
330
1F
100
AcDbEntity
  8
0
  6
CONTINUOUS
 62
     3
100
AcDbLine
 10
219.8
 20
247.449782609
 30
0.0
 11
221.5
 21
247.449782609
 31
0.0
  0
LINE
  5
154
330
1F
100
AcDbEntity
  8
0
  6
CONTINUOUS
 62
     3
100
AcDbLine
 10
227.9
 20
245.449782609
 30
0.0
 11
226.2
 21
245.449782609
 31
0.0
  0
LINE
  5
155
330
1F
100
AcDbEntity
  8
0
  6
CONTINUOUS
 62
     3
100
AcDbLine
 10
224.7
 20
245.449782609
 30
0.0
 11
223.0
 21
245.449782609
 31
0.0
  0
LINE
  5
156
330
1F
100
AcDbEntity
  8
0
  6
CONTINUOUS
 62
     3
100
AcDbLine
 10
221.5
 20
245.449782609
 30
0.0
 11
219.8
 21
245.449782609
 31
0.0
  0
LINE
  5
157
330
1F
100
AcDbEntity
  8
0
  6
CONTINUOUS
 62
     3
100
AcDbLine
 10
150.65
 20
235.499782609
 30
0.0
 11
149.65
 21
235.499782609
 31
0.0
  0
LINE
  5
158
330
1F
100
AcDbEntity
  8
0
  6
CONTINUOUS
 62
     3
100
AcDbLine
 10
150.65
 20
234.499782609
 30
0.0
 11
150.65
 21
235.499782609
 31
0.0
  0
LINE
  5
159
330
1F
100
AcDbEntity
  8
0
  6
CONTINUOUS
 62
     3
100
AcDbLine
 10
149.65
 20
235.499782609
 30
0.0
 11
149.65
 21
234.499782609
 31
0.0
  0
LINE
  5
15A
330
1F
100
AcDbEntity
  8
0
  6
CONTINUOUS
 62
     3
100
AcDbLine
 10
149.65
 20
233.499782609
 30
0.0
 11
149.65
 21
234.499782609
 31
0.0
  0
LINE
  5
15B
330
1F
100
AcDbEntity
  8
0
  6
CONTINUOUS
 62
     3
100
AcDbLine
 10
148.65
 20
233.499782609
 30
0.0
 11
148.65
 21
235.499782609
 31
0.0
  0
POLYLINE
  5
15C
330
1F
100
AcDbEntity
  8
0
  6
CONTINUOUS
 62
     3
100
AcDb2dPolyline
 66
     1
 10
0.0
 20
0.0
 30
0.0
  0
VERTEX
  5
15D
330
15C
100
AcDbEntity
  8
0
100
AcDbVertex
100
AcDb2dVertex
 10
148.65
 20
235.499782609
 30
0.0
  0
VERTEX
  5
15E
330
15C
100
AcDbEntity
  8
0
100
AcDbVertex
100
AcDb2dVertex
 10
146.65
 20
235.499782609
 30
0.0
  0
VERTEX
  5
15F
330
15C
100
AcDbEntity
  8
0
100
AcDbVertex
100
AcDb2dVertex
 10
146.65
 20
234.499782609
 30
0.0
  0
SEQEND
  5
160
330
15C
100
AcDbEntity
  8
0
  6
CONTINUOUS
 62
     3
  0
LINE
  5
161
330
1F
100
AcDbEntity
  8
0
  6
CONTINUOUS
 62
     3
100
AcDbLine
 10
146.65
 20
234.499782609
 30
0.0
 11
145.25
 21
234.499782609
 31
0.0
  0
LINE
  5
162
330
1F
100
AcDbEntity
  8
0
  6
CONTINUOUS
 62
     3
100
AcDbLine
 10
145.25
 20
234.499782609
 30
0.0
 11
145.25
 21
230.499782609
 31
0.0
  0
LINE
  5
163
330
1F
100
AcDbEntity
  8
0
  6
CONTINUOUS
 62
     3
100
AcDbLine
 10
145.25
 20
230.499782609
 30
0.0
 11
144.75
 21
230.499782609
 31
0.0
  0
LINE
  5
164
330
1F
100
AcDbEntity
  8
0
  6
CONTINUOUS
 62
     3
100
AcDbLine
 10
144.75
 20
230.499782609
 30
0.0
 11
144.75
 21
229.499782609
 31
0.0
  0
LINE
  5
165
330
1F
100
AcDbEntity
  8
0
  6
CONTINUOUS
 62
     3
100
AcDbLine
 10
144.75
 20
228.499782609
 30
0.0
 11
144.75
 21
227.499782609
 31
0.0
  0
LINE
  5
166
330
1F
100
AcDbEntity
  8
0
  6
CONTINUOUS
 62
     3
100
AcDbLine
 10
150.65
 20
221.899782609
 30
0.0
 11
149.65
 21
221.899782609
 31
0.0
  0
LINE
  5
167
330
1F
100
AcDbEntity
  8
0
  6
CONTINUOUS
 62
     3
100
AcDbLine
 10
150.65
 20
222.899782609
 30
0.0
 11
150.65
 21
221.899782609
 31
0.0
  0
LINE
  5
168
330
1F
100
AcDbEntity
  8
0
  6
CONTINUOUS
 62
     3
100
AcDbLine
 10
149.65
 20
221.899782609
 30
0.0
 11
149.65
 21
222.899782609
 31
0.0
  0
LINE
  5
169
330
1F
100
AcDbEntity
  8
0
  6
CONTINUOUS
 62
     3
100
AcDbLine
 10
149.65
 20
223.899782609
 30
0.0
 11
149.65
 21
222.899782609
 31
0.0
  0
LINE
  5
16A
330
1F
100
AcDbEntity
  8
0
  6
CONTINUOUS
 62
     3
100
AcDbLine
 10
148.65
 20
223.899782609
 30
0.0
 11
148.65
 21
221.899782609
 31
0.0
  0
POLYLINE
  5
16B
330
1F
100
AcDbEntity
  8
0
  6
CONTINUOUS
 62
     3
100
AcDb2dPolyline
 66
     1
 10
0.0
 20
0.0
 30
0.0
  0
VERTEX
  5
16C
330
16B
100
AcDbEntity
  8
0
100
AcDbVertex
100
AcDb2dVertex
 10
148.65
 20
221.899782609
 30
0.0
  0
VERTEX
  5
16D
330
16B
100
AcDbEntity
  8
0
100
AcDbVertex
100
AcDb2dVertex
 10
146.65
 20
221.899782609
 30
0.0
  0
VERTEX
  5
16E
330
16B
100
AcDbEntity
  8
0
100
AcDbVertex
100
AcDb2dVertex
 10
146.65
 20
222.899782609
 30
0.0
  0
SEQEND
  5
16F
330
16B
100
AcDbEntity
  8
0
  6
CONTINUOUS
 62
     3
  0
LINE
  5
170
330
1F
100
AcDbEntity
  8
0
  6
CONTINUOUS
 62
     3
100
AcDbLine
 10
146.65
 20
222.899782609
 30
0.0
 11
145.25
 21
222.899782609
 31
0.0
  0
LINE
  5
171
330
1F
100
AcDbEntity
  8
0
  6
CONTINUOUS
 62
     3
100
AcDbLine
 10
144.75
 20
227.499782609
 30
0.0
 11
145.25
 21
227.499782609
 31
0.0
  0
LINE
  5
172
330
1F
100
AcDbEntity
  8
0
  6
CONTINUOUS
 62
     3
100
AcDbLine
 10
145.25
 20
222.899782609
 30
0.0
 11
145.25
 21
227.499782609
 31
0.0
  0
LINE
  5
173
330
1F
100
AcDbEntity
  8
0
  6
CONTINUOUS
 62
     3
100
AcDbLine
 10
152.15
 20
234.499782609
 30
0.0
 11
150.65
 21
234.499782609
 31
0.0
  0
LINE
  5
174
330
1F
100
AcDbEntity
  8
0
  6
CONTINUOUS
 62
     3
100
AcDbLine
 10
152.15
 20
233.499782609
 30
0.0
 11
149.65
 21
233.499782609
 31
0.0
  0
LINE
  5
175
330
1F
100
AcDbEntity
  8
0
  6
CONTINUOUS
 62
     3
100
AcDbLine
 10
152.15
 20
233.499782609
 30
0.0
 11
152.15
 21
226.499782609
 31
0.0
  0
LINE
  5
176
330
1F
100
AcDbEntity
  8
0
  6
CONTINUOUS
 62
     3
100
AcDbLine
 10
152.15
 20
233.499782609
 30
0.0
 11
152.15
 21
226.999782609
 31
0.0
  0
LINE
  5
177
330
1F
100
AcDbEntity
  8
0
  6
CONTINUOUS
 62
     3
100
AcDbLine
 10
152.15
 20
236.299782609
 30
0.0
 11
152.15
 21
234.499782609
 31
0.0
  0
LINE
  5
178
330
1F
100
AcDbEntity
  8
0
  6
CONTINUOUS
 62
     3
100
AcDbLine
 10
152.15
 20
236.499782609
 30
0.0
 11
152.15
 21
234.499782609
 31
0.0
  0
LINE
  5
179
330
1F
100
AcDbEntity
  8
0
  6
CONTINUOUS
 62
     3
100
AcDbLine
 10
171.4
 20
223.899782609
 30
0.0
 11
171.4
 21
221.899782609
 31
0.0
  0
LINE
  5
17A
330
1F
100
AcDbEntity
  8
0
  6
CONTINUOUS
 62
     3
100
AcDbLine
 10
169.9
 20
222.899782609
 30
0.0
 11
169.9
 21
221.899782609
 31
0.0
  0
LINE
  5
17B
330
1F
100
AcDbEntity
  8
0
  6
CONTINUOUS
 62
     3
100
AcDbLine
 10
169.9
 20
221.899782609
 30
0.0
 11
171.4
 21
221.899782609
 31
0.0
  0
LINE
  5
17C
330
1F
100
AcDbEntity
  8
0
  6
CONTINUOUS
 62
     3
100
AcDbLine
 10
172.4
 20
223.899782609
 30
0.0
 11
172.4
 21
221.899782609
 31
0.0
  0
LINE
  5
17D
330
1F
100
AcDbEntity
  8
0
  6
CONTINUOUS
 62
     3
100
AcDbLine
 10
173.9
 20
222.899782609
 30
0.0
 11
173.9
 21
221.899782609
 31
0.0
  0
LINE
  5
17E
330
1F
100
AcDbEntity
  8
0
  6
CONTINUOUS
 62
     3
100
AcDbLine
 10
173.9
 20
221.899782609
 30
0.0
 11
172.4
 21
221.899782609
 31
0.0
  0
LINE
  5
17F
330
1F
100
AcDbEntity
  8
0
  6
CONTINUOUS
 62
     3
100
AcDbLine
 10
171.4
 20
223.899782609
 30
0.0
 11
149.65
 21
223.899782609
 31
0.0
  0
LINE
  5
180
330
1F
100
AcDbEntity
  8
0
  6
CONTINUOUS
 62
     3
100
AcDbLine
 10
169.9
 20
222.899782609
 30
0.0
 11
150.65
 21
222.899782609
 31
0.0
  0
LINE
  5
181
330
1F
100
AcDbEntity
  8
0
  6
CONTINUOUS
 62
     3
100
AcDbLine
 10
218.15
 20
235.499782609
 30
0.0
 11
219.15
 21
235.499782609
 31
0.0
  0
LINE
  5
182
330
1F
100
AcDbEntity
  8
0
  6
CONTINUOUS
 62
     3
100
AcDbLine
 10
218.15
 20
234.499782609
 30
0.0
 11
218.15
 21
235.499782609
 31
0.0
  0
LINE
  5
183
330
1F
100
AcDbEntity
  8
0
  6
CONTINUOUS
 62
     3
100
AcDbLine
 10
219.15
 20
235.499782609
 30
0.0
 11
219.15
 21
234.499782609
 31
0.0
  0
LINE
  5
184
330
1F
100
AcDbEntity
  8
0
  6
CONTINUOUS
 62
     3
100
AcDbLine
 10
219.15
 20
233.499782609
 30
0.0
 11
219.15
 21
234.499782609
 31
0.0
  0
LINE
  5
185
330
1F
100
AcDbEntity
  8
0
  6
CONTINUOUS
 62
     3
100
AcDbLine
 10
220.15
 20
233.499782609
 30
0.0
 11
220.15
 21
235.499782609
 31
0.0
  0
POLYLINE
  5
186
330
1F
100
AcDbEntity
  8
0
  6
CONTINUOUS
 62
     3
100
AcDb2dPolyline
 66
     1
 10
0.0
 20
0.0
 30
0.0
  0
VERTEX
  5
187
330
186
100
AcDbEntity
  8
0
100
AcDbVertex
100
AcDb2dVertex
 10
220.15
 20
235.499782609
 30
0.0
  0
VERTEX
  5
188
330
186
100
AcDbEntity
  8
0
100
AcDbVertex
100
AcDb2dVertex
 10
222.15
 20
235.499782609
 30
0.0
  0
VERTEX
  5
189
330
186
100
AcDbEntity
  8
0
100
AcDbVertex
100
AcDb2dVertex
 10
222.15
 20
234.499782609
 30
0.0
  0
SEQEND
  5
18A
330
186
100
AcDbEntity
  8
0
  6
CONTINUOUS
 62
     3
  0
LINE
  5
18B
330
1F
100
AcDbEntity
  8
0
  6
CONTINUOUS
 62
     3
100
AcDbLine
 10
222.15
 20
234.499782609
 30
0.0
 11
223.55
 21
234.499782609
 31
0.0
  0
LINE
  5
18C
330
1F
100
AcDbEntity
  8
0
  6
CONTINUOUS
 62
     3
100
AcDbLine
 10
223.55
 20
234.499782609
 30
0.0
 11
223.55
 21
230.499782609
 31
0.0
  0
LINE
  5
18D
330
1F
100
AcDbEntity
  8
0
  6
CONTINUOUS
 62
     3
100
AcDbLine
 10
223.55
 20
230.499782609
 30
0.0
 11
224.05
 21
230.499782609
 31
0.0
  0
LINE
  5
18E
330
1F
100
AcDbEntity
  8
0
  6
CONTINUOUS
 62
     3
100
AcDbLine
 10
224.05
 20
230.499782609
 30
0.0
 11
224.05
 21
229.499782609
 31
0.0
  0
LINE
  5
18F
330
1F
100
AcDbEntity
  8
0
  6
CONTINUOUS
 62
     3
100
AcDbLine
 10
224.05
 20
228.499782609
 30
0.0
 11
224.05
 21
227.499782609
 31
0.0
  0
LINE
  5
190
330
1F
100
AcDbEntity
  8
0
  6
CONTINUOUS
 62
     3
100
AcDbLine
 10
218.15
 20
221.899782609
 30
0.0
 11
219.15
 21
221.899782609
 31
0.0
  0
LINE
  5
191
330
1F
100
AcDbEntity
  8
0
  6
CONTINUOUS
 62
     3
100
AcDbLine
 10
218.15
 20
222.899782609
 30
0.0
 11
218.15
 21
221.899782609
 31
0.0
  0
LINE
  5
192
330
1F
100
AcDbEntity
  8
0
  6
CONTINUOUS
 62
     3
100
AcDbLine
 10
219.15
 20
221.899782609
 30
0.0
 11
219.15
 21
222.899782609
 31
0.0
  0
LINE
  5
193
330
1F
100
AcDbEntity
  8
0
  6
CONTINUOUS
 62
     3
100
AcDbLine
 10
219.15
 20
223.899782609
 30
0.0
 11
219.15
 21
222.899782609
 31
0.0
  0
LINE
  5
194
330
1F
100
AcDbEntity
  8
0
  6
CONTINUOUS
 62
     3
100
AcDbLine
 10
220.15
 20
223.899782609
 30
0.0
 11
220.15
 21
221.899782609
 31
0.0
  0
POLYLINE
  5
195
330
1F
100
AcDbEntity
  8
0
  6
CONTINUOUS
 62
     3
100
AcDb2dPolyline
 66
     1
 10
0.0
 20
0.0
 30
0.0
  0
VERTEX
  5
196
330
195
100
AcDbEntity
  8
0
100
AcDbVertex
100
AcDb2dVertex
 10
220.15
 20
221.899782609
 30
0.0
  0
VERTEX
  5
197
330
195
100
AcDbEntity
  8
0
100
AcDbVertex
100
AcDb2dVertex
 10
222.15
 20
221.899782609
 30
0.0
  0
VERTEX
  5
198
330
195
100
AcDbEntity
  8
0
100
AcDbVertex
100
AcDb2dVertex
 10
222.15
 20
222.899782609
 30
0.0
  0
SEQEND
  5
199
330
195
100
AcDbEntity
  8
0
  6
CONTINUOUS
 62
     3
  0
LINE
  5
19A
330
1F
100
AcDbEntity
  8
0
  6
CONTINUOUS
 62
     3
100
AcDbLine
 10
222.15
 20
222.899782609
 30
0.0
 11
223.55
 21
222.899782609
 31
0.0
  0
LINE
  5
19B
330
1F
100
AcDbEntity
  8
0
  6
CONTINUOUS
 62
     3
100
AcDbLine
 10
224.05
 20
227.499782609
 30
0.0
 11
223.55
 21
227.499782609
 31
0.0
  0
LINE
  5
19C
330
1F
100
AcDbEntity
  8
0
  6
CONTINUOUS
 62
     3
100
AcDbLine
 10
223.55
 20
222.899782609
 30
0.0
 11
223.55
 21
227.499782609
 31
0.0
  0
LINE
  5
19D
330
1F
100
AcDbEntity
  8
0
  6
CONTINUOUS
 62
     3
100
AcDbLine
 10
216.65
 20
234.499782609
 30
0.0
 11
218.15
 21
234.499782609
 31
0.0
  0
LINE
  5
19E
330
1F
100
AcDbEntity
  8
0
  6
CONTINUOUS
 62
     3
100
AcDbLine
 10
216.65
 20
233.499782609
 30
0.0
 11
219.15
 21
233.499782609
 31
0.0
  0
LINE
  5
19F
330
1F
100
AcDbEntity
  8
0
  6
CONTINUOUS
 62
     3
100
AcDbLine
 10
216.65
 20
233.499782609
 30
0.0
 11
216.65
 21
226.499782609
 31
0.0
  0
LINE
  5
1A0
330
1F
100
AcDbEntity
  8
0
  6
CONTINUOUS
 62
     3
100
AcDbLine
 10
197.4
 20
223.899782609
 30
0.0
 11
219.15
 21
223.899782609
 31
0.0
  0
LINE
  5
1A1
330
1F
100
AcDbEntity
  8
0
  6
CONTINUOUS
 62
     3
100
AcDbLine
 10
197.4
 20
223.899782609
 30
0.0
 11
197.4
 21
221.899782609
 31
0.0
  0
LINE
  5
1A2
330
1F
100
AcDbEntity
  8
0
  6
CONTINUOUS
 62
     3
100
AcDbLine
 10
198.9
 20
222.899782609
 30
0.0
 11
198.9
 21
221.899782609
 31
0.0
  0
LINE
  5
1A3
330
1F
100
AcDbEntity
  8
0
  6
CONTINUOUS
 62
     3
100
AcDbLine
 10
198.9
 20
221.899782609
 30
0.0
 11
197.4
 21
221.899782609
 31
0.0
  0
LINE
  5
1A4
330
1F
100
AcDbEntity
  8
0
  6
CONTINUOUS
 62
     3
100
AcDbLine
 10
198.9
 20
222.899782609
 30
0.0
 11
218.15
 21
222.899782609
 31
0.0
  0
LINE
  5
1A5
330
1F
100
AcDbEntity
  8
0
  6
CONTINUOUS
 62
     3
100
AcDbLine
 10
196.4
 20
223.899782609
 30
0.0
 11
194.25
 21
223.899782609
 31
0.0
  0
LINE
  5
1A6
330
1F
100
AcDbEntity
  8
0
  6
CONTINUOUS
 62
     3
100
AcDbLine
 10
196.4
 20
223.899782609
 30
0.0
 11
196.4
 21
221.899782609
 31
0.0
  0
LINE
  5
1A7
330
1F
100
AcDbEntity
  8
0
  6
CONTINUOUS
 62
     3
100
AcDbLine
 10
194.9
 20
222.899782609
 30
0.0
 11
194.9
 21
221.899782609
 31
0.0
  0
LINE
  5
1A8
330
1F
100
AcDbEntity
  8
0
  6
CONTINUOUS
 62
     3
100
AcDbLine
 10
194.9
 20
221.899782609
 30
0.0
 11
196.4
 21
221.899782609
 31
0.0
  0
LINE
  5
1A9
330
1F
100
AcDbEntity
  8
0
  6
CONTINUOUS
 62
     3
100
AcDbLine
 10
194.9
 20
222.899782609
 30
0.0
 11
194.25
 21
222.899782609
 31
0.0
  0
LINE
  5
1AA
330
1F
100
AcDbEntity
  8
0
  6
CONTINUOUS
 62
     3
100
AcDbLine
 10
216.65
 20
236.499782609
 30
0.0
 11
216.65
 21
234.499782609
 31
0.0
  0
LINE
  5
1AB
330
1F
100
AcDbEntity
  8
0
  6
CONTINUOUS
 62
     3
100
AcDbLine
 10
172.4
 20
223.899782609
 30
0.0
 11
194.25
 21
223.899782609
 31
0.0
  0
LINE
  5
1AC
330
1F
100
AcDbEntity
  8
0
  6
CONTINUOUS
 62
     3
100
AcDbLine
 10
173.9
 20
222.899782609
 30
0.0
 11
194.25
 21
222.899782609
 31
0.0
  0
LINE
  5
1AD
330
1F
100
AcDbEntity
  8
0
  6
CONTINUOUS
 62
     3
100
AcDbLine
 10
159.4
 20
236.499782609
 30
0.0
 11
159.4
 21
237.499782609
 31
0.0
  0
LINE
  5
1AE
330
1F
100
AcDbEntity
  8
0
  6
CONTINUOUS
 62
     3
100
AcDbLine
 10
159.4
 20
237.499782609
 30
0.0
 11
160.9
 21
237.499782609
 31
0.0
  0
LINE
  5
1AF
330
1F
100
AcDbEntity
  8
0
  6
CONTINUOUS
 62
     3
100
AcDbLine
 10
160.9
 20
237.499782609
 30
0.0
 11
160.9
 21
235.499782609
 31
0.0
  0
LINE
  5
1B0
330
1F
100
AcDbEntity
  8
0
  6
CONTINUOUS
 62
     3
100
AcDbLine
 10
161.9
 20
235.499782609
 30
0.0
 11
161.9
 21
237.499782609
 31
0.0
  0
LINE
  5
1B1
330
1F
100
AcDbEntity
  8
0
  6
CONTINUOUS
 62
     3
100
AcDbLine
 10
161.9
 20
237.499782609
 30
0.0
 11
163.4
 21
237.499782609
 31
0.0
  0
LINE
  5
1B2
330
1F
100
AcDbEntity
  8
0
  6
CONTINUOUS
 62
     3
100
AcDbLine
 10
182.4
 20
236.499782609
 30
0.0
 11
182.4
 21
237.499782609
 31
0.0
  0
LINE
  5
1B3
330
1F
100
AcDbEntity
  8
0
  6
CONTINUOUS
 62
     3
100
AcDbLine
 10
182.4
 20
237.499782609
 30
0.0
 11
183.9
 21
237.499782609
 31
0.0
  0
LINE
  5
1B4
330
1F
100
AcDbEntity
  8
0
  6
CONTINUOUS
 62
     3
100
AcDbLine
 10
183.9
 20
237.499782609
 30
0.0
 11
183.9
 21
235.499782609
 31
0.0
  0
LINE
  5
1B5
330
1F
100
AcDbEntity
  8
0
  6
CONTINUOUS
 62
     3
100
AcDbLine
 10
184.9
 20
235.499782609
 30
0.0
 11
184.9
 21
237.499782609
 31
0.0
  0
LINE
  5
1B6
330
1F
100
AcDbEntity
  8
0
  6
CONTINUOUS
 62
     3
100
AcDbLine
 10
184.9
 20
237.499782609
 30
0.0
 11
186.4
 21
237.499782609
 31
0.0
  0
LINE
  5
1B7
330
1F
100
AcDbEntity
  8
0
  6
CONTINUOUS
 62
     3
100
AcDbLine
 10
161.9
 20
235.499782609
 30
0.0
 11
175.9
 21
235.499782609
 31
0.0
  0
LINE
  5
1B8
330
1F
100
AcDbEntity
  8
0
  6
CONTINUOUS
 62
     3
100
AcDbLine
 10
163.4
 20
237.499782609
 30
0.0
 11
163.4
 21
236.499782609
 31
0.0
  0
LINE
  5
1B9
330
1F
100
AcDbEntity
  8
0
  6
CONTINUOUS
 62
     3
100
AcDbLine
 10
152.15
 20
236.499782609
 30
0.0
 11
159.4
 21
236.499782609
 31
0.0
  0
LINE
  5
1BA
330
1F
100
AcDbEntity
  8
0
  6
CONTINUOUS
 62
     3
100
AcDbLine
 10
152.15
 20
236.499782609
 30
0.0
 11
159.4
 21
236.499782609
 31
0.0
  0
LINE
  5
1BB
330
1F
100
AcDbEntity
  8
0
  6
CONTINUOUS
 62
     3
100
AcDbLine
 10
163.4
 20
236.499782609
 30
0.0
 11
182.4
 21
236.499782609
 31
0.0
  0
LINE
  5
1BC
330
1F
100
AcDbEntity
  8
0
  6
CONTINUOUS
 62
     3
100
AcDbLine
 10
163.4
 20
236.499782609
 30
0.0
 11
182.4
 21
236.499782609
 31
0.0
  0
LINE
  5
1BD
330
1F
100
AcDbEntity
  8
0
  6
CONTINUOUS
 62
     3
100
AcDbLine
 10
175.9
 20
235.499782609
 30
0.0
 11
183.9
 21
235.499782609
 31
0.0
  0
LINE
  5
1BE
330
1F
100
AcDbEntity
  8
0
  6
CONTINUOUS
 62
     3
100
AcDbLine
 10
186.4
 20
237.499782609
 30
0.0
 11
186.4
 21
236.499782609
 31
0.0
  0
LINE
  5
1BF
330
1F
100
AcDbEntity
  8
0
  6
CONTINUOUS
 62
     3
100
AcDbLine
 10
209.4
 20
236.499782609
 30
0.0
 11
209.4
 21
237.499782609
 31
0.0
  0
LINE
  5
1C0
330
1F
100
AcDbEntity
  8
0
  6
CONTINUOUS
 62
     3
100
AcDbLine
 10
209.4
 20
237.499782609
 30
0.0
 11
207.9
 21
237.499782609
 31
0.0
  0
LINE
  5
1C1
330
1F
100
AcDbEntity
  8
0
  6
CONTINUOUS
 62
     3
100
AcDbLine
 10
207.9
 20
237.499782609
 30
0.0
 11
207.9
 21
235.499782609
 31
0.0
  0
LINE
  5
1C2
330
1F
100
AcDbEntity
  8
0
  6
CONTINUOUS
 62
     3
100
AcDbLine
 10
206.9
 20
235.499782609
 30
0.0
 11
206.9
 21
237.499782609
 31
0.0
  0
LINE
  5
1C3
330
1F
100
AcDbEntity
  8
0
  6
CONTINUOUS
 62
     3
100
AcDbLine
 10
206.9
 20
237.499782609
 30
0.0
 11
205.4
 21
237.499782609
 31
0.0
  0
LINE
  5
1C4
330
1F
100
AcDbEntity
  8
0
  6
CONTINUOUS
 62
     3
100
AcDbLine
 10
205.4
 20
237.499782609
 30
0.0
 11
205.4
 21
236.499782609
 31
0.0
  0
LINE
  5
1C5
330
1F
100
AcDbEntity
  8
0
  6
CONTINUOUS
 62
     3
100
AcDbLine
 10
205.4
 20
236.499782609
 30
0.0
 11
186.4
 21
236.499782609
 31
0.0
  0
LINE
  5
1C6
330
1F
100
AcDbEntity
  8
0
  6
CONTINUOUS
 62
     3
100
AcDbLine
 10
216.65
 20
236.499782609
 30
0.0
 11
209.4
 21
236.499782609
 31
0.0
  0
LINE
  5
1C7
330
1F
100
AcDbEntity
  8
0
  6
CONTINUOUS
 62
     3
100
AcDbLine
 10
206.9
 20
235.499782609
 30
0.0
 11
184.9
 21
235.499782609
 31
0.0
  0
LINE
  5
1C8
330
1F
100
AcDbEntity
  8
0
  6
CONTINUOUS
 62
     3
100
AcDbLine
 10
159.4
 20
226.499782609
 30
0.0
 11
159.4
 21
225.499782609
 31
0.0
  0
LINE
  5
1C9
330
1F
100
AcDbEntity
  8
0
  6
CONTINUOUS
 62
     3
100
AcDbLine
 10
159.4
 20
225.499782609
 30
0.0
 11
160.9
 21
225.499782609
 31
0.0
  0
LINE
  5
1CA
330
1F
100
AcDbEntity
  8
0
  6
CONTINUOUS
 62
     3
100
AcDbLine
 10
160.9
 20
225.499782609
 30
0.0
 11
160.9
 21
227.499782609
 31
0.0
  0
LINE
  5
1CB
330
1F
100
AcDbEntity
  8
0
  6
CONTINUOUS
 62
     3
100
AcDbLine
 10
161.9
 20
227.499782609
 30
0.0
 11
161.9
 21
225.499782609
 31
0.0
  0
LINE
  5
1CC
330
1F
100
AcDbEntity
  8
0
  6
CONTINUOUS
 62
     3
100
AcDbLine
 10
161.9
 20
225.499782609
 30
0.0
 11
163.4
 21
225.499782609
 31
0.0
  0
LINE
  5
1CD
330
1F
100
AcDbEntity
  8
0
  6
CONTINUOUS
 62
     3
100
AcDbLine
 10
182.4
 20
226.499782609
 30
0.0
 11
182.4
 21
225.499782609
 31
0.0
  0
LINE
  5
1CE
330
1F
100
AcDbEntity
  8
0
  6
CONTINUOUS
 62
     3
100
AcDbLine
 10
182.4
 20
225.499782609
 30
0.0
 11
183.9
 21
225.499782609
 31
0.0
  0
LINE
  5
1CF
330
1F
100
AcDbEntity
  8
0
  6
CONTINUOUS
 62
     3
100
AcDbLine
 10
183.9
 20
225.499782609
 30
0.0
 11
183.9
 21
227.499782609
 31
0.0
  0
LINE
  5
1D0
330
1F
100
AcDbEntity
  8
0
  6
CONTINUOUS
 62
     3
100
AcDbLine
 10
184.9
 20
227.499782609
 30
0.0
 11
184.9
 21
225.499782609
 31
0.0
  0
LINE
  5
1D1
330
1F
100
AcDbEntity
  8
0
  6
CONTINUOUS
 62
     3
100
AcDbLine
 10
184.9
 20
225.499782609
 30
0.0
 11
186.4
 21
225.499782609
 31
0.0
  0
LINE
  5
1D2
330
1F
100
AcDbEntity
  8
0
  6
CONTINUOUS
 62
     3
100
AcDbLine
 10
161.9
 20
227.499782609
 30
0.0
 11
175.9
 21
227.499782609
 31
0.0
  0
LINE
  5
1D3
330
1F
100
AcDbEntity
  8
0
  6
CONTINUOUS
 62
     3
100
AcDbLine
 10
163.4
 20
225.499782609
 30
0.0
 11
163.4
 21
226.499782609
 31
0.0
  0
LINE
  5
1D4
330
1F
100
AcDbEntity
  8
0
  6
CONTINUOUS
 62
     3
100
AcDbLine
 10
163.4
 20
226.499782609
 30
0.0
 11
182.4
 21
226.499782609
 31
0.0
  0
LINE
  5
1D5
330
1F
100
AcDbEntity
  8
0
  6
CONTINUOUS
 62
     3
100
AcDbLine
 10
163.4
 20
226.499782609
 30
0.0
 11
182.4
 21
226.499782609
 31
0.0
  0
LINE
  5
1D6
330
1F
100
AcDbEntity
  8
0
  6
CONTINUOUS
 62
     3
100
AcDbLine
 10
175.9
 20
227.499782609
 30
0.0
 11
183.9
 21
227.499782609
 31
0.0
  0
LINE
  5
1D7
330
1F
100
AcDbEntity
  8
0
  6
CONTINUOUS
 62
     3
100
AcDbLine
 10
186.4
 20
225.499782609
 30
0.0
 11
186.4
 21
226.499782609
 31
0.0
  0
LINE
  5
1D8
330
1F
100
AcDbEntity
  8
0
  6
CONTINUOUS
 62
     3
100
AcDbLine
 10
209.4
 20
226.499782609
 30
0.0
 11
209.4
 21
225.499782609
 31
0.0
  0
LINE
  5
1D9
330
1F
100
AcDbEntity
  8
0
  6
CONTINUOUS
 62
     3
100
AcDbLine
 10
209.4
 20
225.499782609
 30
0.0
 11
207.9
 21
225.499782609
 31
0.0
  0
LINE
  5
1DA
330
1F
100
AcDbEntity
  8
0
  6
CONTINUOUS
 62
     3
100
AcDbLine
 10
207.9
 20
225.499782609
 30
0.0
 11
207.9
 21
227.499782609
 31
0.0
  0
LINE
  5
1DB
330
1F
100
AcDbEntity
  8
0
  6
CONTINUOUS
 62
     3
100
AcDbLine
 10
206.9
 20
227.499782609
 30
0.0
 11
206.9
 21
225.499782609
 31
0.0
  0
LINE
  5
1DC
330
1F
100
AcDbEntity
  8
0
  6
CONTINUOUS
 62
     3
100
AcDbLine
 10
206.9
 20
225.499782609
 30
0.0
 11
205.4
 21
225.499782609
 31
0.0
  0
LINE
  5
1DD
330
1F
100
AcDbEntity
  8
0
  6
CONTINUOUS
 62
     3
100
AcDbLine
 10
205.4
 20
225.499782609
 30
0.0
 11
205.4
 21
226.499782609
 31
0.0
  0
LINE
  5
1DE
330
1F
100
AcDbEntity
  8
0
  6
CONTINUOUS
 62
     3
100
AcDbLine
 10
205.4
 20
226.499782609
 30
0.0
 11
186.4
 21
226.499782609
 31
0.0
  0
LINE
  5
1DF
330
1F
100
AcDbEntity
  8
0
  6
CONTINUOUS
 62
     3
100
AcDbLine
 10
206.9
 20
227.499782609
 30
0.0
 11
184.9
 21
227.499782609
 31
0.0
  0
LINE
  5
1E0
330
1F
100
AcDbEntity
  8
0
  6
CONTINUOUS
 62
     3
100
AcDbLine
 10
216.65
 20
226.499782609
 30
0.0
 11
209.4
 21
226.499782609
 31
0.0
  0
LINE
  5
1E1
330
1F
100
AcDbEntity
  8
0
  6
CONTINUOUS
 62
     3
100
AcDbLine
 10
186.755
 20
226.499782609
 30
0.0
 11
205.4
 21
226.499782609
 31
0.0
  0
LINE
  5
1E2
330
1F
100
AcDbEntity
  8
0
  6
CONTINUOUS
 62
     3
100
AcDbLine
 10
163.4
 20
226.499782609
 30
0.0
 11
182.4
 21
226.499782609
 31
0.0
  0
LINE
  5
1E3
330
1F
100
AcDbEntity
  8
0
  6
CONTINUOUS
 62
     3
100
AcDbLine
 10
152.15
 20
226.499782609
 30
0.0
 11
159.4
 21
226.499782609
 31
0.0
  0
LINE
  5
1E4
330
1F
100
AcDbEntity
  8
0
  6
CONTINUOUS
 62
     3
100
AcDbLine
 10
222.55
 20
229.499782609
 30
0.0
 11
224.05
 21
229.499782609
 31
0.0
  0
POLYLINE
  5
1E5
330
1F
100
AcDbEntity
  8
0
  6
CONTINUOUS
 62
     3
100
AcDb2dPolyline
 66
     1
 10
0.0
 20
0.0
 30
0.0
  0
VERTEX
  5
1E6
330
1E5
100
AcDbEntity
  8
0
100
AcDbVertex
100
AcDb2dVertex
 10
220.15
 20
233.499782609
 30
0.0
  0
VERTEX
  5
1E7
330
1E5
100
AcDbEntity
  8
0
100
AcDbVertex
100
AcDb2dVertex
 10
222.55
 20
233.499782609
 30
0.0
  0
VERTEX
  5
1E8
330
1E5
100
AcDbEntity
  8
0
100
AcDbVertex
100
AcDb2dVertex
 10
222.55
 20
229.499782609
 30
0.0
  0
SEQEND
  5
1E9
330
1E5
100
AcDbEntity
  8
0
  6
CONTINUOUS
 62
     3
  0
LINE
  5
1EA
330
1F
100
AcDbEntity
  8
0
  6
CONTINUOUS
 62
     3
100
AcDbLine
 10
222.55
 20
228.499782609
 30
0.0
 11
224.05
 21
228.499782609
 31
0.0
  0
LINE
  5
1EB
330
1F
100
AcDbEntity
  8
0
  6
CONTINUOUS
 62
     3
100
AcDbLine
 10
222.55
 20
223.899782609
 30
0.0
 11
222.55
 21
228.499782609
 31
0.0
  0
LINE
  5
1EC
330
1F
100
AcDbEntity
  8
0
  6
CONTINUOUS
 62
     3
100
AcDbLine
 10
220.15
 20
223.899782609
 30
0.0
 11
222.55
 21
223.899782609
 31
0.0
  0
LINE
  5
1ED
330
1F
100
AcDbEntity
  8
0
  6
CONTINUOUS
 62
     3
100
AcDbLine
 10
207.9
 20
227.499782609
 30
0.0
 11
215.65
 21
227.499782609
 31
0.0
  0
LINE
  5
1EE
330
1F
100
AcDbEntity
  8
0
  6
CONTINUOUS
 62
     3
100
AcDbLine
 10
215.65
 20
235.499782609
 30
0.0
 11
215.65
 21
227.499782609
 31
0.0
  0
LINE
  5
1EF
330
1F
100
AcDbEntity
  8
0
  6
CONTINUOUS
 62
     3
100
AcDbLine
 10
207.9
 20
235.499782609
 30
0.0
 11
215.65
 21
235.499782609
 31
0.0
  0
LINE
  5
1F0
330
1F
100
AcDbEntity
  8
0
  6
CONTINUOUS
 62
     3
100
AcDbLine
 10
148.65
 20
233.499782609
 30
0.0
 11
146.25
 21
233.499782609
 31
0.0
  0
LINE
  5
1F1
330
1F
100
AcDbEntity
  8
0
  6
CONTINUOUS
 62
     3
100
AcDbLine
 10
148.65
 20
223.899782609
 30
0.0
 11
146.25
 21
223.899782609
 31
0.0
  0
LINE
  5
1F2
330
1F
100
AcDbEntity
  8
0
  6
CONTINUOUS
 62
     3
100
AcDbLine
 10
146.25
 20
228.499782609
 30
0.0
 11
146.25
 21
223.899782609
 31
0.0
  0
LINE
  5
1F3
330
1F
100
AcDbEntity
  8
0
  6
CONTINUOUS
 62
     3
100
AcDbLine
 10
146.25
 20
233.499782609
 30
0.0
 11
146.25
 21
229.499782609
 31
0.0
  0
LINE
  5
1F4
330
1F
100
AcDbEntity
  8
0
  6
CONTINUOUS
 62
     3
100
AcDbLine
 10
146.25
 20
228.499782609
 30
0.0
 11
144.75
 21
228.499782609
 31
0.0
  0
LINE
  5
1F5
330
1F
100
AcDbEntity
  8
0
  6
CONTINUOUS
 62
     3
100
AcDbLine
 10
146.25
 20
229.499782609
 30
0.0
 11
144.75
 21
229.499782609
 31
0.0
  0
LINE
  5
1F6
330
1F
100
AcDbEntity
  8
0
  6
CONTINUOUS
 62
     3
100
AcDbLine
 10
160.9
 20
235.499782609
 30
0.0
 11
153.15
 21
235.499782609
 31
0.0
  0
LINE
  5
1F7
330
1F
100
AcDbEntity
  8
0
  6
CONTINUOUS
 62
     3
100
AcDbLine
 10
160.9
 20
227.499782609
 30
0.0
 11
153.15
 21
227.499782609
 31
0.0
  0
LINE
  5
1F8
330
1F
100
AcDbEntity
  8
0
  6
CONTINUOUS
 62
     3
100
AcDbLine
 10
153.15
 20
235.499782609
 30
0.0
 11
153.15
 21
227.499782609
 31
0.0
  0
LINE
  5
1F9
330
1F
100
AcDbEntity
  8
0
  6
CONTINUOUS
 62
     2
100
AcDbLine
 10
154.899743131
 20
255.399782609
 30
0.0
 11
154.899743131
 21
254.899782609
 31
0.0
  0
LINE
  5
1FA
330
1F
100
AcDbEntity
  8
0
  6
CONTINUOUS
 62
     2
100
AcDbLine
 10
154.899743131
 20
255.899782609
 30
0.0
 11
154.899743131
 21
255.399782609
 31
0.0
  0
LINE
  5
1FB
330
1F
100
AcDbEntity
  8
0
  6
CONTINUOUS
 62
     2
100
AcDbLine
 10
152.399743131
 20
253.399782609
 30
0.0
 11
152.399743131
 21
254.899782609
 31
0.0
  0
LINE
  5
1FC
330
1F
100
AcDbEntity
  8
0
  6
CONTINUOUS
 62
     2
100
AcDbLine
 10
152.399743131
 20
255.899782609
 30
0.0
 11
152.399743131
 21
257.399782609
 31
0.0
  0
LINE
  5
1FD
330
1F
100
AcDbEntity
  8
0
  6
CONTINUOUS
 62
     2
100
AcDbLine
 10
150.899743131
 20
254.899782609
 30
0.0
 11
150.899743131
 21
255.899782609
 31
0.0
  0
LINE
  5
1FE
330
1F
100
AcDbEntity
  8
0
  6
CONTINUOUS
 62
     2
100
AcDbLine
 10
152.399743131
 20
254.899782609
 30
0.0
 11
150.899743131
 21
254.899782609
 31
0.0
  0
LINE
  5
1FF
330
1F
100
AcDbEntity
  8
0
  6
CONTINUOUS
 62
     2
100
AcDbLine
 10
150.899743131
 20
255.899782609
 30
0.0
 11
152.399743131
 21
255.899782609
 31
0.0
  0
LINE
  5
200
330
1F
100
AcDbEntity
  8
0
  6
CONTINUOUS
 62
     2
100
AcDbLine
 10
153.399743131
 20
254.899782609
 30
0.0
 11
153.399743131
 21
253.399782609
 31
0.0
  0
LINE
  5
201
330
1F
100
AcDbEntity
  8
0
  6
CONTINUOUS
 62
     2
100
AcDbLine
 10
153.399743131
 20
257.399782609
 30
0.0
 11
153.399743131
 21
255.899782609
 31
0.0
  0
LINE
  5
202
330
1F
100
AcDbEntity
  8
0
  6
CONTINUOUS
 62
     2
100
AcDbLine
 10
154.899743131
 20
254.899782609
 30
0.0
 11
153.399743131
 21
254.899782609
 31
0.0
  0
LINE
  5
203
330
1F
100
AcDbEntity
  8
0
  6
CONTINUOUS
 62
     2
100
AcDbLine
 10
153.399743131
 20
255.899782609
 30
0.0
 11
154.899743131
 21
255.899782609
 31
0.0
  0
LINE
  5
204
330
1F
100
AcDbEntity
  8
0
  6
CONTINUOUS
 62
     2
100
AcDbLine
 10
153.399743131
 20
253.399782609
 30
0.0
 11
152.399743131
 21
253.399782609
 31
0.0
  0
LINE
  5
205
330
1F
100
AcDbEntity
  8
0
  6
CONTINUOUS
 62
     2
100
AcDbLine
 10
152.399743131
 20
257.399782609
 30
0.0
 11
153.399743131
 21
257.399782609
 31
0.0
  0
CIRCLE
  5
206
330
1F
100
AcDbEntity
  8
0
  6
CONTINUOUS
 62
     2
100
AcDbCircle
 10
152.899743131
 20
255.399782609
 30
0.0
 40
2.799999999999999
  0
LINE
  5
207
330
1F
100
AcDbEntity
  8
0
  6
CONTINUOUS
 62
     2
100
AcDbLine
 10
149.899743131
 20
249.999782609
 30
0.0
 11
149.899743131
 21
261.399782609
 31
0.0
  0
LINE
  5
208
330
1F
100
AcDbEntity
  8
0
  6
CONTINUOUS
 62
     2
100
AcDbLine
 10
155.899743131
 20
249.999782609
 30
0.0
 11
155.899743131
 21
261.399782609
 31
0.0
  0
LINE
  5
209
330
1F
100
AcDbEntity
  8
0
  6
CONTINUOUS
 62
     2
100
AcDbLine
 10
161.899743131
 20
255.399782609
 30
0.0
 11
161.899743131
 21
254.899782609
 31
0.0
  0
LINE
  5
20A
330
1F
100
AcDbEntity
  8
0
  6
CONTINUOUS
 62
     2
100
AcDbLine
 10
161.899743131
 20
255.899782609
 30
0.0
 11
161.899743131
 21
255.399782609
 31
0.0
  0
LINE
  5
20B
330
1F
100
AcDbEntity
  8
0
  6
CONTINUOUS
 62
     2
100
AcDbLine
 10
159.399743131
 20
253.399782609
 30
0.0
 11
159.399743131
 21
254.899782609
 31
0.0
  0
LINE
  5
20C
330
1F
100
AcDbEntity
  8
0
  6
CONTINUOUS
 62
     2
100
AcDbLine
 10
159.399743131
 20
255.899782609
 30
0.0
 11
159.399743131
 21
257.399782609
 31
0.0
  0
LINE
  5
20D
330
1F
100
AcDbEntity
  8
0
  6
CONTINUOUS
 62
     2
100
AcDbLine
 10
157.899743131
 20
254.899782609
 30
0.0
 11
157.899743131
 21
255.899782609
 31
0.0
  0
LINE
  5
20E
330
1F
100
AcDbEntity
  8
0
  6
CONTINUOUS
 62
     2
100
AcDbLine
 10
159.399743131
 20
254.899782609
 30
0.0
 11
157.899743131
 21
254.899782609
 31
0.0
  0
LINE
  5
20F
330
1F
100
AcDbEntity
  8
0
  6
CONTINUOUS
 62
     2
100
AcDbLine
 10
157.899743131
 20
255.899782609
 30
0.0
 11
159.399743131
 21
255.899782609
 31
0.0
  0
LINE
  5
210
330
1F
100
AcDbEntity
  8
0
  6
CONTINUOUS
 62
     2
100
AcDbLine
 10
160.399743131
 20
254.899782609
 30
0.0
 11
160.399743131
 21
253.399782609
 31
0.0
  0
LINE
  5
211
330
1F
100
AcDbEntity
  8
0
  6
CONTINUOUS
 62
     2
100
AcDbLine
 10
160.399743131
 20
257.399782609
 30
0.0
 11
160.399743131
 21
255.899782609
 31
0.0
  0
LINE
  5
212
330
1F
100
AcDbEntity
  8
0
  6
CONTINUOUS
 62
     2
100
AcDbLine
 10
161.899743131
 20
254.899782609
 30
0.0
 11
160.399743131
 21
254.899782609
 31
0.0
  0
LINE
  5
213
330
1F
100
AcDbEntity
  8
0
  6
CONTINUOUS
 62
     2
100
AcDbLine
 10
160.399743131
 20
255.899782609
 30
0.0
 11
161.899743131
 21
255.899782609
 31
0.0
  0
LINE
  5
214
330
1F
100
AcDbEntity
  8
0
  6
CONTINUOUS
 62
     2
100
AcDbLine
 10
160.399743131
 20
253.399782609
 30
0.0
 11
159.399743131
 21
253.399782609
 31
0.0
  0
LINE
  5
215
330
1F
100
AcDbEntity
  8
0
  6
CONTINUOUS
 62
     2
100
AcDbLine
 10
159.399743131
 20
257.399782609
 30
0.0
 11
160.399743131
 21
257.399782609
 31
0.0
  0
CIRCLE
  5
216
330
1F
100
AcDbEntity
  8
0
  6
CONTINUOUS
 62
     2
100
AcDbCircle
 10
159.899743131
 20
255.399782609
 30
0.0
 40
2.799999999999999
  0
LINE
  5
217
330
1F
100
AcDbEntity
  8
0
  6
CONTINUOUS
 62
     2
100
AcDbLine
 10
156.899743131
 20
249.999782609
 30
0.0
 11
156.899743131
 21
261.399782609
 31
0.0
  0
LINE
  5
218
330
1F
100
AcDbEntity
  8
0
  6
CONTINUOUS
 62
     2
100
AcDbLine
 10
162.899743131
 20
249.999782609
 30
0.0
 11
162.899743131
 21
261.399782609
 31
0.0
  0
LINE
  5
219
330
1F
100
AcDbEntity
  8
0
  6
CONTINUOUS
 62
     2
100
AcDbLine
 10
148.899743131
 20
261.399782609
 30
0.0
 11
148.899743131
 21
249.999782609
 31
0.0
  0
LINE
  5
21A
330
1F
100
AcDbEntity
  8
0
  6
CONTINUOUS
 62
     2
100
AcDbLine
 10
148.899743131
 20
249.999782609
 30
0.0
 11
148.899743131
 21
261.399782609
 31
0.0
  0
LINE
  5
21B
330
1F
100
AcDbEntity
  8
0
  6
CONTINUOUS
 62
     2
100
AcDbLine
 10
148.899743131
 20
261.399782609
 30
0.0
 11
163.899743131
 21
261.399782609
 31
0.0
  0
LINE
  5
21C
330
1F
100
AcDbEntity
  8
0
  6
CONTINUOUS
 62
     2
100
AcDbLine
 10
163.899743131
 20
249.999782609
 30
0.0
 11
163.899743131
 21
261.399782609
 31
0.0
  0
LINE
  5
21D
330
1F
100
AcDbEntity
  8
0
  6
CONTINUOUS
 62
     2
100
AcDbLine
 10
148.899743131
 20
249.999782609
 30
0.0
 11
163.899743131
 21
249.999782609
 31
0.0
  0
LINE
  5
21E
330
1F
100
AcDbEntity
  8
0
  6
CONTINUOUS
 62
     2
100
AcDbLine
 10
180.899743131
 20
255.399782609
 30
0.0
 11
180.899743131
 21
254.899782609
 31
0.0
  0
LINE
  5
21F
330
1F
100
AcDbEntity
  8
0
  6
CONTINUOUS
 62
     2
100
AcDbLine
 10
180.899743131
 20
255.899782609
 30
0.0
 11
180.899743131
 21
255.399782609
 31
0.0
  0
LINE
  5
220
330
1F
100
AcDbEntity
  8
0
  6
CONTINUOUS
 62
     2
100
AcDbLine
 10
178.3997431309999
 20
253.399782609
 30
0.0
 11
178.3997431309999
 21
254.899782609
 31
0.0
  0
LINE
  5
221
330
1F
100
AcDbEntity
  8
0
  6
CONTINUOUS
 62
     2
100
AcDbLine
 10
178.3997431309999
 20
255.899782609
 30
0.0
 11
178.3997431309999
 21
257.399782609
 31
0.0
  0
LINE
  5
222
330
1F
100
AcDbEntity
  8
0
  6
CONTINUOUS
 62
     2
100
AcDbLine
 10
176.899743131
 20
254.899782609
 30
0.0
 11
176.899743131
 21
255.899782609
 31
0.0
  0
LINE
  5
223
330
1F
100
AcDbEntity
  8
0
  6
CONTINUOUS
 62
     2
100
AcDbLine
 10
178.3997431309999
 20
254.899782609
 30
0.0
 11
176.899743131
 21
254.899782609
 31
0.0
  0
LINE
  5
224
330
1F
100
AcDbEntity
  8
0
  6
CONTINUOUS
 62
     2
100
AcDbLine
 10
176.899743131
 20
255.899782609
 30
0.0
 11
178.3997431309999
 21
255.899782609
 31
0.0
  0
LINE
  5
225
330
1F
100
AcDbEntity
  8
0
  6
CONTINUOUS
 62
     2
100
AcDbLine
 10
179.399743131
 20
254.899782609
 30
0.0
 11
179.399743131
 21
253.399782609
 31
0.0
  0
LINE
  5
226
330
1F
100
AcDbEntity
  8
0
  6
CONTINUOUS
 62
     2
100
AcDbLine
 10
179.399743131
 20
257.399782609
 30
0.0
 11
179.399743131
 21
255.899782609
 31
0.0
  0
LINE
  5
227
330
1F
100
AcDbEntity
  8
0
  6
CONTINUOUS
 62
     2
100
AcDbLine
 10
180.899743131
 20
254.899782609
 30
0.0
 11
179.399743131
 21
254.899782609
 31
0.0
  0
LINE
  5
228
330
1F
100
AcDbEntity
  8
0
  6
CONTINUOUS
 62
     2
100
AcDbLine
 10
179.399743131
 20
255.899782609
 30
0.0
 11
180.899743131
 21
255.899782609
 31
0.0
  0
LINE
  5
229
330
1F
100
AcDbEntity
  8
0
  6
CONTINUOUS
 62
     2
100
AcDbLine
 10
179.399743131
 20
253.399782609
 30
0.0
 11
178.3997431309999
 21
253.399782609
 31
0.0
  0
LINE
  5
22A
330
1F
100
AcDbEntity
  8
0
  6
CONTINUOUS
 62
     2
100
AcDbLine
 10
178.3997431309999
 20
257.399782609
 30
0.0
 11
179.399743131
 21
257.399782609
 31
0.0
  0
CIRCLE
  5
22B
330
1F
100
AcDbEntity
  8
0
  6
CONTINUOUS
 62
     2
100
AcDbCircle
 10
178.899743131
 20
255.399782609
 30
0.0
 40
2.799999999999999
  0
LINE
  5
22C
330
1F
100
AcDbEntity
  8
0
  6
CONTINUOUS
 62
     2
100
AcDbLine
 10
175.899743131
 20
249.999782609
 30
0.0
 11
175.899743131
 21
261.399782609
 31
0.0
  0
LINE
  5
22D
330
1F
100
AcDbEntity
  8
0
  6
CONTINUOUS
 62
     2
100
AcDbLine
 10
181.899743131
 20
249.999782609
 30
0.0
 11
181.899743131
 21
261.399782609
 31
0.0
  0
LINE
  5
22E
330
1F
100
AcDbEntity
  8
0
  6
CONTINUOUS
 62
     2
100
AcDbLine
 10
187.899743131
 20
255.399782609
 30
0.0
 11
187.899743131
 21
254.899782609
 31
0.0
  0
LINE
  5
22F
330
1F
100
AcDbEntity
  8
0
  6
CONTINUOUS
 62
     2
100
AcDbLine
 10
187.899743131
 20
255.899782609
 30
0.0
 11
187.899743131
 21
255.399782609
 31
0.0
  0
LINE
  5
230
330
1F
100
AcDbEntity
  8
0
  6
CONTINUOUS
 62
     2
100
AcDbLine
 10
185.399743131
 20
253.399782609
 30
0.0
 11
185.399743131
 21
254.899782609
 31
0.0
  0
LINE
  5
231
330
1F
100
AcDbEntity
  8
0
  6
CONTINUOUS
 62
     2
100
AcDbLine
 10
185.399743131
 20
255.899782609
 30
0.0
 11
185.399743131
 21
257.399782609
 31
0.0
  0
LINE
  5
232
330
1F
100
AcDbEntity
  8
0
  6
CONTINUOUS
 62
     2
100
AcDbLine
 10
183.899743131
 20
254.899782609
 30
0.0
 11
183.899743131
 21
255.899782609
 31
0.0
  0
LINE
  5
233
330
1F
100
AcDbEntity
  8
0
  6
CONTINUOUS
 62
     2
100
AcDbLine
 10
185.399743131
 20
254.899782609
 30
0.0
 11
183.899743131
 21
254.899782609
 31
0.0
  0
LINE
  5
234
330
1F
100
AcDbEntity
  8
0
  6
CONTINUOUS
 62
     2
100
AcDbLine
 10
183.899743131
 20
255.899782609
 30
0.0
 11
185.399743131
 21
255.899782609
 31
0.0
  0
LINE
  5
235
330
1F
100
AcDbEntity
  8
0
  6
CONTINUOUS
 62
     2
100
AcDbLine
 10
186.399743131
 20
254.899782609
 30
0.0
 11
186.399743131
 21
253.399782609
 31
0.0
  0
LINE
  5
236
330
1F
100
AcDbEntity
  8
0
  6
CONTINUOUS
 62
     2
100
AcDbLine
 10
186.399743131
 20
257.399782609
 30
0.0
 11
186.399743131
 21
255.899782609
 31
0.0
  0
LINE
  5
237
330
1F
100
AcDbEntity
  8
0
  6
CONTINUOUS
 62
     2
100
AcDbLine
 10
187.899743131
 20
254.899782609
 30
0.0
 11
186.399743131
 21
254.899782609
 31
0.0
  0
LINE
  5
238
330
1F
100
AcDbEntity
  8
0
  6
CONTINUOUS
 62
     2
100
AcDbLine
 10
186.399743131
 20
255.899782609
 30
0.0
 11
187.899743131
 21
255.899782609
 31
0.0
  0
LINE
  5
239
330
1F
100
AcDbEntity
  8
0
  6
CONTINUOUS
 62
     2
100
AcDbLine
 10
186.399743131
 20
253.399782609
 30
0.0
 11
185.399743131
 21
253.399782609
 31
0.0
  0
LINE
  5
23A
330
1F
100
AcDbEntity
  8
0
  6
CONTINUOUS
 62
     2
100
AcDbLine
 10
185.399743131
 20
257.399782609
 30
0.0
 11
186.399743131
 21
257.399782609
 31
0.0
  0
CIRCLE
  5
23B
330
1F
100
AcDbEntity
  8
0
  6
CONTINUOUS
 62
     2
100
AcDbCircle
 10
185.8997431309999
 20
255.399782609
 30
0.0
 40
2.799999999999999
  0
LINE
  5
23C
330
1F
100
AcDbEntity
  8
0
  6
CONTINUOUS
 62
     2
100
AcDbLine
 10
182.899743131
 20
249.999782609
 30
0.0
 11
182.899743131
 21
261.399782609
 31
0.0
  0
LINE
  5
23D
330
1F
100
AcDbEntity
  8
0
  6
CONTINUOUS
 62
     2
100
AcDbLine
 10
188.8997431309999
 20
249.999782609
 30
0.0
 11
188.8997431309999
 21
261.399782609
 31
0.0
  0
LINE
  5
23E
330
1F
100
AcDbEntity
  8
0
  6
CONTINUOUS
 62
     2
100
AcDbLine
 10
174.899743131
 20
261.399782609
 30
0.0
 11
174.899743131
 21
249.999782609
 31
0.0
  0
LINE
  5
23F
330
1F
100
AcDbEntity
  8
0
  6
CONTINUOUS
 62
     2
100
AcDbLine
 10
174.899743131
 20
249.999782609
 30
0.0
 11
174.899743131
 21
261.399782609
 31
0.0
  0
LINE
  5
240
330
1F
100
AcDbEntity
  8
0
  6
CONTINUOUS
 62
     2
100
AcDbLine
 10
189.8997431309999
 20
249.999782609
 30
0.0
 11
189.8997431309999
 21
261.399782609
 31
0.0
  0
LINE
  5
241
330
1F
100
AcDbEntity
  8
0
  6
CONTINUOUS
 62
     2
100
AcDbLine
 10
194.8997431309999
 20
255.399782609
 30
0.0
 11
194.8997431309999
 21
254.899782609
 31
0.0
  0
LINE
  5
242
330
1F
100
AcDbEntity
  8
0
  6
CONTINUOUS
 62
     2
100
AcDbLine
 10
194.8997431309999
 20
255.899782609
 30
0.0
 11
194.8997431309999
 21
255.399782609
 31
0.0
  0
LINE
  5
243
330
1F
100
AcDbEntity
  8
0
  6
CONTINUOUS
 62
     2
100
AcDbLine
 10
192.399743131
 20
253.399782609
 30
0.0
 11
192.399743131
 21
254.899782609
 31
0.0
  0
LINE
  5
244
330
1F
100
AcDbEntity
  8
0
  6
CONTINUOUS
 62
     2
100
AcDbLine
 10
192.399743131
 20
255.899782609
 30
0.0
 11
192.399743131
 21
257.399782609
 31
0.0
  0
LINE
  5
245
330
1F
100
AcDbEntity
  8
0
  6
CONTINUOUS
 62
     2
100
AcDbLine
 10
190.899743131
 20
254.899782609
 30
0.0
 11
190.899743131
 21
255.899782609
 31
0.0
  0
LINE
  5
246
330
1F
100
AcDbEntity
  8
0
  6
CONTINUOUS
 62
     2
100
AcDbLine
 10
192.399743131
 20
254.899782609
 30
0.0
 11
190.899743131
 21
254.899782609
 31
0.0
  0
LINE
  5
247
330
1F
100
AcDbEntity
  8
0
  6
CONTINUOUS
 62
     2
100
AcDbLine
 10
190.899743131
 20
255.899782609
 30
0.0
 11
192.399743131
 21
255.899782609
 31
0.0
  0
LINE
  5
248
330
1F
100
AcDbEntity
  8
0
  6
CONTINUOUS
 62
     2
100
AcDbLine
 10
193.399743131
 20
254.899782609
 30
0.0
 11
193.399743131
 21
253.399782609
 31
0.0
  0
LINE
  5
249
330
1F
100
AcDbEntity
  8
0
  6
CONTINUOUS
 62
     2
100
AcDbLine
 10
193.399743131
 20
257.399782609
 30
0.0
 11
193.399743131
 21
255.899782609
 31
0.0
  0
LINE
  5
24A
330
1F
100
AcDbEntity
  8
0
  6
CONTINUOUS
 62
     2
100
AcDbLine
 10
194.8997431309999
 20
254.899782609
 30
0.0
 11
193.399743131
 21
254.899782609
 31
0.0
  0
LINE
  5
24B
330
1F
100
AcDbEntity
  8
0
  6
CONTINUOUS
 62
     2
100
AcDbLine
 10
193.399743131
 20
255.899782609
 30
0.0
 11
194.8997431309999
 21
255.899782609
 31
0.0
  0
LINE
  5
24C
330
1F
100
AcDbEntity
  8
0
  6
CONTINUOUS
 62
     2
100
AcDbLine
 10
193.399743131
 20
253.399782609
 30
0.0
 11
192.399743131
 21
253.399782609
 31
0.0
  0
LINE
  5
24D
330
1F
100
AcDbEntity
  8
0
  6
CONTINUOUS
 62
     2
100
AcDbLine
 10
192.399743131
 20
257.399782609
 30
0.0
 11
193.399743131
 21
257.399782609
 31
0.0
  0
CIRCLE
  5
24E
330
1F
100
AcDbEntity
  8
0
  6
CONTINUOUS
 62
     2
100
AcDbCircle
 10
192.899743131
 20
255.399782609
 30
0.0
 40
2.799999999999999
  0
LINE
  5
24F
330
1F
100
AcDbEntity
  8
0
  6
CONTINUOUS
 62
     2
100
AcDbLine
 10
189.8997431309999
 20
249.999782609
 30
0.0
 11
189.8997431309999
 21
261.399782609
 31
0.0
  0
LINE
  5
250
330
1F
100
AcDbEntity
  8
0
  6
CONTINUOUS
 62
     2
100
AcDbLine
 10
195.899743131
 20
249.999782609
 30
0.0
 11
195.899743131
 21
261.399782609
 31
0.0
  0
LINE
  5
251
330
1F
100
AcDbEntity
  8
0
  6
CONTINUOUS
 62
     2
100
AcDbLine
 10
201.899743131
 20
255.399782609
 30
0.0
 11
201.899743131
 21
254.899782609
 31
0.0
  0
LINE
  5
252
330
1F
100
AcDbEntity
  8
0
  6
CONTINUOUS
 62
     2
100
AcDbLine
 10
201.899743131
 20
255.899782609
 30
0.0
 11
201.899743131
 21
255.399782609
 31
0.0
  0
LINE
  5
253
330
1F
100
AcDbEntity
  8
0
  6
CONTINUOUS
 62
     2
100
AcDbLine
 10
199.3997431309999
 20
253.399782609
 30
0.0
 11
199.3997431309999
 21
254.899782609
 31
0.0
  0
LINE
  5
254
330
1F
100
AcDbEntity
  8
0
  6
CONTINUOUS
 62
     2
100
AcDbLine
 10
199.3997431309999
 20
255.899782609
 30
0.0
 11
199.3997431309999
 21
257.399782609
 31
0.0
  0
LINE
  5
255
330
1F
100
AcDbEntity
  8
0
  6
CONTINUOUS
 62
     2
100
AcDbLine
 10
197.899743131
 20
254.899782609
 30
0.0
 11
197.899743131
 21
255.899782609
 31
0.0
  0
LINE
  5
256
330
1F
100
AcDbEntity
  8
0
  6
CONTINUOUS
 62
     2
100
AcDbLine
 10
199.3997431309999
 20
254.899782609
 30
0.0
 11
197.899743131
 21
254.899782609
 31
0.0
  0
LINE
  5
257
330
1F
100
AcDbEntity
  8
0
  6
CONTINUOUS
 62
     2
100
AcDbLine
 10
197.899743131
 20
255.899782609
 30
0.0
 11
199.3997431309999
 21
255.899782609
 31
0.0
  0
LINE
  5
258
330
1F
100
AcDbEntity
  8
0
  6
CONTINUOUS
 62
     2
100
AcDbLine
 10
200.399743131
 20
254.899782609
 30
0.0
 11
200.399743131
 21
253.399782609
 31
0.0
  0
LINE
  5
259
330
1F
100
AcDbEntity
  8
0
  6
CONTINUOUS
 62
     2
100
AcDbLine
 10
200.399743131
 20
257.399782609
 30
0.0
 11
200.399743131
 21
255.899782609
 31
0.0
  0
LINE
  5
25A
330
1F
100
AcDbEntity
  8
0
  6
CONTINUOUS
 62
     2
100
AcDbLine
 10
201.899743131
 20
254.899782609
 30
0.0
 11
200.399743131
 21
254.899782609
 31
0.0
  0
LINE
  5
25B
330
1F
100
AcDbEntity
  8
0
  6
CONTINUOUS
 62
     2
100
AcDbLine
 10
200.399743131
 20
255.899782609
 30
0.0
 11
201.899743131
 21
255.899782609
 31
0.0
  0
LINE
  5
25C
330
1F
100
AcDbEntity
  8
0
  6
CONTINUOUS
 62
     2
100
AcDbLine
 10
200.399743131
 20
253.399782609
 30
0.0
 11
199.3997431309999
 21
253.399782609
 31
0.0
  0
LINE
  5
25D
330
1F
100
AcDbEntity
  8
0
  6
CONTINUOUS
 62
     2
100
AcDbLine
 10
199.3997431309999
 20
257.399782609
 30
0.0
 11
200.399743131
 21
257.399782609
 31
0.0
  0
CIRCLE
  5
25E
330
1F
100
AcDbEntity
  8
0
  6
CONTINUOUS
 62
     2
100
AcDbCircle
 10
199.899743131
 20
255.399782609
 30
0.0
 40
2.799999999999999
  0
LINE
  5
25F
330
1F
100
AcDbEntity
  8
0
  6
CONTINUOUS
 62
     2
100
AcDbLine
 10
196.899743131
 20
249.999782609
 30
0.0
 11
196.899743131
 21
261.399782609
 31
0.0
  0
LINE
  5
260
330
1F
100
AcDbEntity
  8
0
  6
CONTINUOUS
 62
     2
100
AcDbLine
 10
202.899743131
 20
249.999782609
 30
0.0
 11
202.899743131
 21
261.399782609
 31
0.0
  0
LINE
  5
261
330
1F
100
AcDbEntity
  8
0
  6
CONTINUOUS
 62
     2
100
AcDbLine
 10
203.899743131
 20
249.999782609
 30
0.0
 11
203.899743131
 21
261.399782609
 31
0.0
  0
LINE
  5
262
330
1F
100
AcDbEntity
  8
0
  6
CONTINUOUS
 62
     2
100
AcDbLine
 10
208.899743131
 20
255.399782609
 30
0.0
 11
208.899743131
 21
254.899782609
 31
0.0
  0
LINE
  5
263
330
1F
100
AcDbEntity
  8
0
  6
CONTINUOUS
 62
     2
100
AcDbLine
 10
208.899743131
 20
255.899782609
 30
0.0
 11
208.899743131
 21
255.399782609
 31
0.0
  0
LINE
  5
264
330
1F
100
AcDbEntity
  8
0
  6
CONTINUOUS
 62
     2
100
AcDbLine
 10
206.399743131
 20
253.399782609
 30
0.0
 11
206.399743131
 21
254.899782609
 31
0.0
  0
LINE
  5
265
330
1F
100
AcDbEntity
  8
0
  6
CONTINUOUS
 62
     2
100
AcDbLine
 10
206.399743131
 20
255.899782609
 30
0.0
 11
206.399743131
 21
257.399782609
 31
0.0
  0
LINE
  5
266
330
1F
100
AcDbEntity
  8
0
  6
CONTINUOUS
 62
     2
100
AcDbLine
 10
204.899743131
 20
254.899782609
 30
0.0
 11
204.899743131
 21
255.899782609
 31
0.0
  0
LINE
  5
267
330
1F
100
AcDbEntity
  8
0
  6
CONTINUOUS
 62
     2
100
AcDbLine
 10
206.399743131
 20
254.899782609
 30
0.0
 11
204.899743131
 21
254.899782609
 31
0.0
  0
LINE
  5
268
330
1F
100
AcDbEntity
  8
0
  6
CONTINUOUS
 62
     2
100
AcDbLine
 10
204.899743131
 20
255.899782609
 30
0.0
 11
206.399743131
 21
255.899782609
 31
0.0
  0
LINE
  5
269
330
1F
100
AcDbEntity
  8
0
  6
CONTINUOUS
 62
     2
100
AcDbLine
 10
207.399743131
 20
254.899782609
 30
0.0
 11
207.399743131
 21
253.399782609
 31
0.0
  0
LINE
  5
26A
330
1F
100
AcDbEntity
  8
0
  6
CONTINUOUS
 62
     2
100
AcDbLine
 10
207.399743131
 20
257.399782609
 30
0.0
 11
207.399743131
 21
255.899782609
 31
0.0
  0
LINE
  5
26B
330
1F
100
AcDbEntity
  8
0
  6
CONTINUOUS
 62
     2
100
AcDbLine
 10
208.899743131
 20
254.899782609
 30
0.0
 11
207.399743131
 21
254.899782609
 31
0.0
  0
LINE
  5
26C
330
1F
100
AcDbEntity
  8
0
  6
CONTINUOUS
 62
     2
100
AcDbLine
 10
207.399743131
 20
255.899782609
 30
0.0
 11
208.899743131
 21
255.899782609
 31
0.0
  0
LINE
  5
26D
330
1F
100
AcDbEntity
  8
0
  6
CONTINUOUS
 62
     2
100
AcDbLine
 10
207.399743131
 20
253.399782609
 30
0.0
 11
206.399743131
 21
253.399782609
 31
0.0
  0
LINE
  5
26E
330
1F
100
AcDbEntity
  8
0
  6
CONTINUOUS
 62
     2
100
AcDbLine
 10
206.399743131
 20
257.399782609
 30
0.0
 11
207.399743131
 21
257.399782609
 31
0.0
  0
CIRCLE
  5
26F
330
1F
100
AcDbEntity
  8
0
  6
CONTINUOUS
 62
     2
100
AcDbCircle
 10
206.899743131
 20
255.399782609
 30
0.0
 40
2.799999999999999
  0
LINE
  5
270
330
1F
100
AcDbEntity
  8
0
  6
CONTINUOUS
 62
     2
100
AcDbLine
 10
209.899743131
 20
249.999782609
 30
0.0
 11
209.899743131
 21
261.399782609
 31
0.0
  0
LINE
  5
271
330
1F
100
AcDbEntity
  8
0
  6
CONTINUOUS
 62
     2
100
AcDbLine
 10
215.899743131
 20
255.399782609
 30
0.0
 11
215.899743131
 21
254.899782609
 31
0.0
  0
LINE
  5
272
330
1F
100
AcDbEntity
  8
0
  6
CONTINUOUS
 62
     2
100
AcDbLine
 10
215.899743131
 20
255.899782609
 30
0.0
 11
215.899743131
 21
255.399782609
 31
0.0
  0
LINE
  5
273
330
1F
100
AcDbEntity
  8
0
  6
CONTINUOUS
 62
     2
100
AcDbLine
 10
213.399743131
 20
253.399782609
 30
0.0
 11
213.399743131
 21
254.899782609
 31
0.0
  0
LINE
  5
274
330
1F
100
AcDbEntity
  8
0
  6
CONTINUOUS
 62
     2
100
AcDbLine
 10
213.399743131
 20
255.899782609
 30
0.0
 11
213.399743131
 21
257.399782609
 31
0.0
  0
LINE
  5
275
330
1F
100
AcDbEntity
  8
0
  6
CONTINUOUS
 62
     2
100
AcDbLine
 10
211.899743131
 20
254.899782609
 30
0.0
 11
211.899743131
 21
255.899782609
 31
0.0
  0
LINE
  5
276
330
1F
100
AcDbEntity
  8
0
  6
CONTINUOUS
 62
     2
100
AcDbLine
 10
213.399743131
 20
254.899782609
 30
0.0
 11
211.899743131
 21
254.899782609
 31
0.0
  0
LINE
  5
277
330
1F
100
AcDbEntity
  8
0
  6
CONTINUOUS
 62
     2
100
AcDbLine
 10
211.899743131
 20
255.899782609
 30
0.0
 11
213.399743131
 21
255.899782609
 31
0.0
  0
LINE
  5
278
330
1F
100
AcDbEntity
  8
0
  6
CONTINUOUS
 62
     2
100
AcDbLine
 10
214.399743131
 20
254.899782609
 30
0.0
 11
214.399743131
 21
253.399782609
 31
0.0
  0
LINE
  5
279
330
1F
100
AcDbEntity
  8
0
  6
CONTINUOUS
 62
     2
100
AcDbLine
 10
214.399743131
 20
257.399782609
 30
0.0
 11
214.399743131
 21
255.899782609
 31
0.0
  0
LINE
  5
27A
330
1F
100
AcDbEntity
  8
0
  6
CONTINUOUS
 62
     2
100
AcDbLine
 10
215.899743131
 20
254.899782609
 30
0.0
 11
214.399743131
 21
254.899782609
 31
0.0
  0
LINE
  5
27B
330
1F
100
AcDbEntity
  8
0
  6
CONTINUOUS
 62
     2
100
AcDbLine
 10
214.399743131
 20
255.899782609
 30
0.0
 11
215.899743131
 21
255.899782609
 31
0.0
  0
LINE
  5
27C
330
1F
100
AcDbEntity
  8
0
  6
CONTINUOUS
 62
     2
100
AcDbLine
 10
214.399743131
 20
253.399782609
 30
0.0
 11
213.399743131
 21
253.399782609
 31
0.0
  0
LINE
  5
27D
330
1F
100
AcDbEntity
  8
0
  6
CONTINUOUS
 62
     2
100
AcDbLine
 10
213.399743131
 20
257.399782609
 30
0.0
 11
214.399743131
 21
257.399782609
 31
0.0
  0
CIRCLE
  5
27E
330
1F
100
AcDbEntity
  8
0
  6
CONTINUOUS
 62
     2
100
AcDbCircle
 10
213.899743131
 20
255.399782609
 30
0.0
 40
2.799999999999999
  0
LINE
  5
27F
330
1F
100
AcDbEntity
  8
0
  6
CONTINUOUS
 62
     2
100
AcDbLine
 10
210.899743131
 20
249.999782609
 30
0.0
 11
210.899743131
 21
261.399782609
 31
0.0
  0
LINE
  5
280
330
1F
100
AcDbEntity
  8
0
  6
CONTINUOUS
 62
     2
100
AcDbLine
 10
216.899743131
 20
249.999782609
 30
0.0
 11
216.899743131
 21
261.399782609
 31
0.0
  0
LINE
  5
281
330
1F
100
AcDbEntity
  8
0
  6
CONTINUOUS
 62
     2
100
AcDbLine
 10
174.899743131
 20
261.399782609
 30
0.0
 11
217.899743131
 21
261.399782609
 31
0.0
  0
LINE
  5
282
330
1F
100
AcDbEntity
  8
0
  6
CONTINUOUS
 62
     2
100
AcDbLine
 10
174.899743131
 20
249.999782609
 30
0.0
 11
217.899743131
 21
249.999782609
 31
0.0
  0
LINE
  5
283
330
1F
100
AcDbEntity
  8
0
  6
CONTINUOUS
 62
     2
100
AcDbLine
 10
217.899743131
 20
249.999782609
 30
0.0
 11
217.899743131
 21
261.399782609
 31
0.0
  0
LINE
  5
284
330
1F
100
AcDbEntity
  8
0
  6
CONTINUOUS
 62
     3
100
AcDbLine
 10
139.35
 20
263.399782609
 30
0.0
 11
140.15
 21
263.399782609
 31
0.0
  0
LINE
  5
285
330
1F
100
AcDbEntity
  8
0
  6
CONTINUOUS
 62
     3
100
AcDbLine
 10
140.45
 20
264.549782609
 30
0.0
 11
140.15
 21
263.399782609
 31
0.0
  0
LINE
  5
286
330
1F
100
AcDbEntity
  8
0
  6
CONTINUOUS
 62
     3
100
AcDbLine
 10
139.15
 20
264.549782609
 30
0.0
 11
139.35
 21
263.399782609
 31
0.0
  0
LINE
  5
287
330
1F
100
AcDbEntity
  8
0
  6
CONTINUOUS
 62
     3
100
AcDbLine
 10
140.15
 20
263.399782609
 30
0.0
 11
140.15
 21
242.199782609
 31
0.0
  0
LINE
  5
288
330
1F
100
AcDbEntity
  8
0
  6
CONTINUOUS
 62
     3
100
AcDbLine
 10
139.35
 20
220.999782609
 30
0.0
 11
140.15
 21
220.999782609
 31
0.0
  0
LINE
  5
289
330
1F
100
AcDbEntity
  8
0
  6
CONTINUOUS
 62
     3
100
AcDbLine
 10
140.45
 20
219.849782609
 30
0.0
 11
140.15
 21
220.999782609
 31
0.0
  0
LINE
  5
28A
330
1F
100
AcDbEntity
  8
0
  6
CONTINUOUS
 62
     3
100
AcDbLine
 10
139.15
 20
219.849782609
 30
0.0
 11
139.35
 21
220.999782609
 31
0.0
  0
LINE
  5
28B
330
1F
100
AcDbEntity
  8
0
  6
CONTINUOUS
 62
     3
100
AcDbLine
 10
140.15
 20
220.999782609
 30
0.0
 11
140.15
 21
242.199782609
 31
0.0
  0
LINE
  5
28C
330
1F
100
AcDbEntity
  8
0
  6
CONTINUOUS
 62
     3
100
AcDbLine
 10
229.4
 20
219.849782609
 30
0.0
 11
138.95
 21
219.849782609
 31
0.0
  0
ARC
  5
28D
330
1F
100
AcDbEntity
  8
0
  6
CONTINUOUS
 62
     3
100
AcDbCircle
 10
138.95
 20
220.149782609
 30
0.0
 40
0.3
100
AcDbArc
 50
180.0
 51
270.0
  0
LINE
  5
28E
330
1F
100
AcDbEntity
  8
0
  6
CONTINUOUS
 62
     3
100
AcDbLine
 10
229.4
 20
264.549782609
 30
0.0
 11
138.95
 21
264.549782609
 31
0.0
  0
LINE
  5
28F
330
1F
100
AcDbEntity
  8
0
  6
CONTINUOUS
 62
     3
100
AcDbLine
 10
138.65
 20
264.249782609
 30
0.0
 11
138.65
 21
220.149782609
 31
0.0
  0
ARC
  5
290
330
1F
100
AcDbEntity
  8
0
  6
CONTINUOUS
 62
     3
100
AcDbCircle
 10
138.95
 20
264.249782609
 30
0.0
 40
0.3
100
AcDbArc
 50
90.0
 51
180.0
  0
LINE
  5
291
330
1F
100
AcDbEntity
  8
0
  6
CONTINUOUS
 62
     3
100
AcDbLine
 10
229.45
 20
263.399782609
 30
0.0
 11
228.65
 21
263.399782609
 31
0.0
  0
LINE
  5
292
330
1F
100
AcDbEntity
  8
0
  6
CONTINUOUS
 62
     3
100
AcDbLine
 10
228.35
 20
264.549782609
 30
0.0
 11
228.65
 21
263.399782609
 31
0.0
  0
LINE
  5
293
330
1F
100
AcDbEntity
  8
0
  6
CONTINUOUS
 62
     3
100
AcDbLine
 10
229.65
 20
264.549782609
 30
0.0
 11
229.45
 21
263.399782609
 31
0.0
  0
LINE
  5
294
330
1F
100
AcDbEntity
  8
0
  6
CONTINUOUS
 62
     3
100
AcDbLine
 10
228.65
 20
263.399782609
 30
0.0
 11
228.65
 21
242.199782609
 31
0.0
  0
LINE
  5
295
330
1F
100
AcDbEntity
  8
0
  6
CONTINUOUS
 62
     3
100
AcDbLine
 10
229.45
 20
220.999782609
 30
0.0
 11
228.65
 21
220.999782609
 31
0.0
  0
LINE
  5
296
330
1F
100
AcDbEntity
  8
0
  6
CONTINUOUS
 62
     3
100
AcDbLine
 10
228.35
 20
219.849782609
 30
0.0
 11
228.65
 21
220.999782609
 31
0.0
  0
LINE
  5
297
330
1F
100
AcDbEntity
  8
0
  6
CONTINUOUS
 62
     3
100
AcDbLine
 10
229.65
 20
219.849782609
 30
0.0
 11
229.45
 21
220.999782609
 31
0.0
  0
LINE
  5
298
330
1F
100
AcDbEntity
  8
0
  6
CONTINUOUS
 62
     3
100
AcDbLine
 10
228.65
 20
220.999782609
 30
0.0
 11
228.65
 21
242.199782609
 31
0.0
  0
ARC
  5
299
330
1F
100
AcDbEntity
  8
0
  6
CONTINUOUS
 62
     3
100
AcDbCircle
 10
229.85
 20
220.149782609
 30
0.0
 40
0.3
100
AcDbArc
 50
270.0
 51
0.0
  0
LINE
  5
29A
330
1F
100
AcDbEntity
  8
0
  6
CONTINUOUS
 62
     3
100
AcDbLine
 10
230.15
 20
264.249782609
 30
0.0
 11
230.15
 21
220.149782609
 31
0.0
  0
ARC
  5
29B
330
1F
100
AcDbEntity
  8
0
  6
CONTINUOUS
 62
     3
100
AcDbCircle
 10
229.85
 20
264.249782609
 30
0.0
 40
0.3
100
AcDbArc
 50
0.0
 51
90.0
  0
LINE
  5
29C
330
1F
100
AcDbEntity
  8
0
  6
CONTINUOUS
 62
     2
100
AcDbLine
 10
152.899743131
 20
188.95
 30
0.0
 11
150.899743131
 21
188.95
 31
0.0
  0
LINE
  5
29D
330
1F
100
AcDbEntity
  8
0
  6
CONTINUOUS
 62
     2
100
AcDbLine
 10
150.899743131
 20
188.95
 30
0.0
 11
150.899743131
 21
187.95
 31
0.0
  0
LINE
  5
29E
330
1F
100
AcDbEntity
  8
0
  6
CONTINUOUS
 62
     2
100
AcDbLine
 10
152.099743131
 20
188.95
 30
0.0
 11
152.099743131
 21
189.15
 31
0.0
  0
LINE
  5
29F
330
1F
100
AcDbEntity
  8
0
  6
CONTINUOUS
 62
     2
100
AcDbLine
 10
152.099743131
 20
189.15
 30
0.0
 11
150.599743131
 21
189.15
 31
0.0
  0
LINE
  5
2A0
330
1F
100
AcDbEntity
  8
0
  6
CONTINUOUS
 62
     2
100
AcDbLine
 10
150.599743131
 20
189.15
 30
0.0
 11
150.399743131
 21
188.95
 31
0.0
  0
LINE
  5
2A1
330
1F
100
AcDbEntity
  8
0
  6
CONTINUOUS
 62
     2
100
AcDbLine
 10
152.899743131
 20
188.95
 30
0.0
 11
154.899743131
 21
188.95
 31
0.0
  0
LINE
  5
2A2
330
1F
100
AcDbEntity
  8
0
  6
CONTINUOUS
 62
     2
100
AcDbLine
 10
154.899743131
 20
188.95
 30
0.0
 11
154.899743131
 21
187.95
 31
0.0
  0
LINE
  5
2A3
330
1F
100
AcDbEntity
  8
0
  6
CONTINUOUS
 62
     2
100
AcDbLine
 10
153.699743131
 20
188.95
 30
0.0
 11
153.699743131
 21
189.15
 31
0.0
  0
LINE
  5
2A4
330
1F
100
AcDbEntity
  8
0
  6
CONTINUOUS
 62
     2
100
AcDbLine
 10
153.699743131
 20
189.15
 30
0.0
 11
155.199743131
 21
189.15
 31
0.0
  0
LINE
  5
2A5
330
1F
100
AcDbEntity
  8
0
  6
CONTINUOUS
 62
     2
100
AcDbLine
 10
155.199743131
 20
189.15
 30
0.0
 11
155.399743131
 21
188.95
 31
0.0
  0
ARC
  5
2A6
330
1F
100
AcDbEntity
  8
0
  6
CONTINUOUS
 62
     2
100
AcDbCircle
 10
151.099743131
 20
190.95
 30
0.0
 40
1.0
100
AcDbArc
 50
90.0
 51
180.0
  0
LINE
  5
2A7
330
1F
100
AcDbEntity
  8
0
  6
CONTINUOUS
 62
     2
100
AcDbLine
 10
150.099743131
 20
189.95
 30
0.0
 11
152.899743131
 21
189.95
 31
0.0
  0
LINE
  5
2A8
330
1F
100
AcDbEntity
  8
0
  6
CONTINUOUS
 62
     2
100
AcDbLine
 10
150.099743131
 20
190.95
 30
0.0
 11
150.099743131
 21
189.95
 31
0.0
  0
ARC
  5
2A9
330
1F
100
AcDbEntity
  8
0
  6
CONTINUOUS
 62
     2
100
AcDbCircle
 10
154.699743131
 20
190.95
 30
0.0
 40
1.0
100
AcDbArc
 50
0.0
 51
90.0
  0
LINE
  5
2AA
330
1F
100
AcDbEntity
  8
0
  6
CONTINUOUS
 62
     2
100
AcDbLine
 10
154.699743131
 20
191.95
 30
0.0
 11
151.099743131
 21
191.95
 31
0.0
  0
ARC
  5
2AB
330
1F
100
AcDbEntity
  8
0
  6
CONTINUOUS
 62
     2
100
AcDbCircle
 10
150.299743131
 20
189.55
 30
0.0
 40
0.4
100
AcDbArc
 50
90.00005632300001
 51
180.0
  0
LINE
  5
2AC
330
1F
100
AcDbEntity
  8
0
  6
CONTINUOUS
 62
     2
100
AcDbLine
 10
150.899743131
 20
188.95
 30
0.0
 11
149.899743131
 21
188.95
 31
0.0
  0
LINE
  5
2AD
330
1F
100
AcDbEntity
  8
0
  6
CONTINUOUS
 62
     2
100
AcDbLine
 10
154.799743131
 20
188.95
 30
0.0
 11
155.899743131
 21
188.95
 31
0.0
  0
ARC
  5
2AE
330
1F
100
AcDbEntity
  8
0
  6
CONTINUOUS
 62
     2
100
AcDbCircle
 10
155.499743131
 20
189.55
 30
0.0
 40
0.4
100
AcDbArc
 50
0.0
 51
89.999943677
  0
LINE
  5
2AF
330
1F
100
AcDbEntity
  8
0
  6
CONTINUOUS
 62
     2
100
AcDbLine
 10
155.699743131
 20
190.95
 30
0.0
 11
155.699743131
 21
189.95
 31
0.0
  0
LINE
  5
2B0
330
1F
100
AcDbEntity
  8
0
  6
CONTINUOUS
 62
     2
100
AcDbLine
 10
155.699743131
 20
189.95
 30
0.0
 11
152.899743131
 21
189.95
 31
0.0
  0
LINE
  5
2B1
330
1F
100
AcDbEntity
  8
0
  6
CONTINUOUS
 62
     2
100
AcDbLine
 10
148.899743131
 20
194.45
 30
0.0
 11
149.899743131
 21
194.45
 31
0.0
  0
LINE
  5
2B2
330
1F
100
AcDbEntity
  8
0
  6
CONTINUOUS
 62
     2
100
AcDbLine
 10
149.899743131
 20
187.95
 30
0.0
 11
155.899743131
 21
187.95
 31
0.0
  0
LINE
  5
2B3
330
1F
100
AcDbEntity
  8
0
  6
CONTINUOUS
 62
     2
100
AcDbLine
 10
159.899743131
 20
188.95
 30
0.0
 11
157.899743131
 21
188.95
 31
0.0
  0
LINE
  5
2B4
330
1F
100
AcDbEntity
  8
0
  6
CONTINUOUS
 62
     2
100
AcDbLine
 10
157.899743131
 20
188.95
 30
0.0
 11
157.899743131
 21
187.95
 31
0.0
  0
LINE
  5
2B5
330
1F
100
AcDbEntity
  8
0
  6
CONTINUOUS
 62
     2
100
AcDbLine
 10
159.099743131
 20
188.95
 30
0.0
 11
159.099743131
 21
189.15
 31
0.0
  0
LINE
  5
2B6
330
1F
100
AcDbEntity
  8
0
  6
CONTINUOUS
 62
     2
100
AcDbLine
 10
159.099743131
 20
189.15
 30
0.0
 11
157.599743131
 21
189.15
 31
0.0
  0
LINE
  5
2B7
330
1F
100
AcDbEntity
  8
0
  6
CONTINUOUS
 62
     2
100
AcDbLine
 10
157.599743131
 20
189.15
 30
0.0
 11
157.399743131
 21
188.95
 31
0.0
  0
LINE
  5
2B8
330
1F
100
AcDbEntity
  8
0
  6
CONTINUOUS
 62
     2
100
AcDbLine
 10
159.899743131
 20
188.95
 30
0.0
 11
161.899743131
 21
188.95
 31
0.0
  0
LINE
  5
2B9
330
1F
100
AcDbEntity
  8
0
  6
CONTINUOUS
 62
     2
100
AcDbLine
 10
161.899743131
 20
188.95
 30
0.0
 11
161.899743131
 21
187.95
 31
0.0
  0
LINE
  5
2BA
330
1F
100
AcDbEntity
  8
0
  6
CONTINUOUS
 62
     2
100
AcDbLine
 10
160.699743131
 20
188.95
 30
0.0
 11
160.699743131
 21
189.15
 31
0.0
  0
LINE
  5
2BB
330
1F
100
AcDbEntity
  8
0
  6
CONTINUOUS
 62
     2
100
AcDbLine
 10
160.699743131
 20
189.15
 30
0.0
 11
162.199743131
 21
189.15
 31
0.0
  0
LINE
  5
2BC
330
1F
100
AcDbEntity
  8
0
  6
CONTINUOUS
 62
     2
100
AcDbLine
 10
162.199743131
 20
189.15
 30
0.0
 11
162.399743131
 21
188.95
 31
0.0
  0
ARC
  5
2BD
330
1F
100
AcDbEntity
  8
0
  6
CONTINUOUS
 62
     2
100
AcDbCircle
 10
158.099743131
 20
190.95
 30
0.0
 40
1.0
100
AcDbArc
 50
90.0
 51
180.0
  0
LINE
  5
2BE
330
1F
100
AcDbEntity
  8
0
  6
CONTINUOUS
 62
     2
100
AcDbLine
 10
157.099743131
 20
189.95
 30
0.0
 11
159.899743131
 21
189.95
 31
0.0
  0
LINE
  5
2BF
330
1F
100
AcDbEntity
  8
0
  6
CONTINUOUS
 62
     2
100
AcDbLine
 10
157.099743131
 20
190.95
 30
0.0
 11
157.099743131
 21
189.95
 31
0.0
  0
ARC
  5
2C0
330
1F
100
AcDbEntity
  8
0
  6
CONTINUOUS
 62
     2
100
AcDbCircle
 10
161.699743131
 20
190.95
 30
0.0
 40
1.0
100
AcDbArc
 50
0.0
 51
90.0
  0
LINE
  5
2C1
330
1F
100
AcDbEntity
  8
0
  6
CONTINUOUS
 62
     2
100
AcDbLine
 10
161.699743131
 20
191.95
 30
0.0
 11
158.099743131
 21
191.95
 31
0.0
  0
ARC
  5
2C2
330
1F
100
AcDbEntity
  8
0
  6
CONTINUOUS
 62
     2
100
AcDbCircle
 10
157.299743131
 20
189.55
 30
0.0
 40
0.4
100
AcDbArc
 50
90.00005632300001
 51
180.0
  0
LINE
  5
2C3
330
1F
100
AcDbEntity
  8
0
  6
CONTINUOUS
 62
     2
100
AcDbLine
 10
157.899743131
 20
188.95
 30
0.0
 11
156.899743131
 21
188.95
 31
0.0
  0
LINE
  5
2C4
330
1F
100
AcDbEntity
  8
0
  6
CONTINUOUS
 62
     2
100
AcDbLine
 10
161.799743131
 20
188.95
 30
0.0
 11
162.899743131
 21
188.95
 31
0.0
  0
ARC
  5
2C5
330
1F
100
AcDbEntity
  8
0
  6
CONTINUOUS
 62
     2
100
AcDbCircle
 10
162.499743131
 20
189.55
 30
0.0
 40
0.4
100
AcDbArc
 50
0.0
 51
89.999943677
  0
LINE
  5
2C6
330
1F
100
AcDbEntity
  8
0
  6
CONTINUOUS
 62
     2
100
AcDbLine
 10
162.699743131
 20
190.95
 30
0.0
 11
162.699743131
 21
189.95
 31
0.0
  0
LINE
  5
2C7
330
1F
100
AcDbEntity
  8
0
  6
CONTINUOUS
 62
     2
100
AcDbLine
 10
162.699743131
 20
189.95
 30
0.0
 11
159.899743131
 21
189.95
 31
0.0
  0
LINE
  5
2C8
330
1F
100
AcDbEntity
  8
0
  6
CONTINUOUS
 62
     2
100
AcDbLine
 10
155.899743131
 20
194.45
 30
0.0
 11
156.899743131
 21
194.45
 31
0.0
  0
LINE
  5
2C9
330
1F
100
AcDbEntity
  8
0
  6
CONTINUOUS
 62
     2
100
AcDbLine
 10
156.899743131
 20
187.95
 30
0.0
 11
162.899743131
 21
187.95
 31
0.0
  0
LINE
  5
2CA
330
1F
100
AcDbEntity
  8
0
  6
CONTINUOUS
 62
     2
100
AcDbLine
 10
162.899743131
 20
194.45
 30
0.0
 11
163.899743131
 21
194.45
 31
0.0
  0
LINE
  5
2CB
330
1F
100
AcDbEntity
  8
0
  6
CONTINUOUS
 62
     2
100
AcDbLine
 10
180.899743131
 20
188.95
 30
0.0
 11
178.899743131
 21
188.95
 31
0.0
  0
LINE
  5
2CC
330
1F
100
AcDbEntity
  8
0
  6
CONTINUOUS
 62
     2
100
AcDbLine
 10
178.899743131
 20
188.95
 30
0.0
 11
178.899743131
 21
187.95
 31
0.0
  0
LINE
  5
2CD
330
1F
100
AcDbEntity
  8
0
  6
CONTINUOUS
 62
     2
100
AcDbLine
 10
180.099743131
 20
188.95
 30
0.0
 11
180.099743131
 21
189.15
 31
0.0
  0
LINE
  5
2CE
330
1F
100
AcDbEntity
  8
0
  6
CONTINUOUS
 62
     2
100
AcDbLine
 10
180.099743131
 20
189.15
 30
0.0
 11
178.599743131
 21
189.15
 31
0.0
  0
LINE
  5
2CF
330
1F
100
AcDbEntity
  8
0
  6
CONTINUOUS
 62
     2
100
AcDbLine
 10
178.599743131
 20
189.15
 30
0.0
 11
178.3997431309999
 21
188.95
 31
0.0
  0
LINE
  5
2D0
330
1F
100
AcDbEntity
  8
0
  6
CONTINUOUS
 62
     2
100
AcDbLine
 10
180.899743131
 20
188.95
 30
0.0
 11
182.899743131
 21
188.95
 31
0.0
  0
LINE
  5
2D1
330
1F
100
AcDbEntity
  8
0
  6
CONTINUOUS
 62
     2
100
AcDbLine
 10
182.899743131
 20
188.95
 30
0.0
 11
182.899743131
 21
187.95
 31
0.0
  0
LINE
  5
2D2
330
1F
100
AcDbEntity
  8
0
  6
CONTINUOUS
 62
     2
100
AcDbLine
 10
181.699743131
 20
188.95
 30
0.0
 11
181.699743131
 21
189.15
 31
0.0
  0
LINE
  5
2D3
330
1F
100
AcDbEntity
  8
0
  6
CONTINUOUS
 62
     2
100
AcDbLine
 10
181.699743131
 20
189.15
 30
0.0
 11
183.199743131
 21
189.15
 31
0.0
  0
LINE
  5
2D4
330
1F
100
AcDbEntity
  8
0
  6
CONTINUOUS
 62
     2
100
AcDbLine
 10
183.199743131
 20
189.15
 30
0.0
 11
183.399743131
 21
188.95
 31
0.0
  0
ARC
  5
2D5
330
1F
100
AcDbEntity
  8
0
  6
CONTINUOUS
 62
     2
100
AcDbCircle
 10
179.099743131
 20
190.95
 30
0.0
 40
1.0
100
AcDbArc
 50
90.0
 51
180.0
  0
LINE
  5
2D6
330
1F
100
AcDbEntity
  8
0
  6
CONTINUOUS
 62
     2
100
AcDbLine
 10
178.099743131
 20
189.95
 30
0.0
 11
180.899743131
 21
189.95
 31
0.0
  0
LINE
  5
2D7
330
1F
100
AcDbEntity
  8
0
  6
CONTINUOUS
 62
     2
100
AcDbLine
 10
178.099743131
 20
190.95
 30
0.0
 11
178.099743131
 21
189.95
 31
0.0
  0
ARC
  5
2D8
330
1F
100
AcDbEntity
  8
0
  6
CONTINUOUS
 62
     2
100
AcDbCircle
 10
182.699743131
 20
190.95
 30
0.0
 40
1.0
100
AcDbArc
 50
0.0
 51
90.0
  0
LINE
  5
2D9
330
1F
100
AcDbEntity
  8
0
  6
CONTINUOUS
 62
     2
100
AcDbLine
 10
182.699743131
 20
191.95
 30
0.0
 11
179.099743131
 21
191.95
 31
0.0
  0
ARC
  5
2DA
330
1F
100
AcDbEntity
  8
0
  6
CONTINUOUS
 62
     2
100
AcDbCircle
 10
178.299743131
 20
189.55
 30
0.0
 40
0.4
100
AcDbArc
 50
90.00005632300001
 51
180.0
  0
LINE
  5
2DB
330
1F
100
AcDbEntity
  8
0
  6
CONTINUOUS
 62
     2
100
AcDbLine
 10
178.899743131
 20
188.95
 30
0.0
 11
177.899743131
 21
188.95
 31
0.0
  0
LINE
  5
2DC
330
1F
100
AcDbEntity
  8
0
  6
CONTINUOUS
 62
     2
100
AcDbLine
 10
182.799743131
 20
188.95
 30
0.0
 11
183.899743131
 21
188.95
 31
0.0
  0
ARC
  5
2DD
330
1F
100
AcDbEntity
  8
0
  6
CONTINUOUS
 62
     2
100
AcDbCircle
 10
183.4997431309999
 20
189.55
 30
0.0
 40
0.4
100
AcDbArc
 50
0.0
 51
89.999943677
  0
LINE
  5
2DE
330
1F
100
AcDbEntity
  8
0
  6
CONTINUOUS
 62
     2
100
AcDbLine
 10
183.699743131
 20
190.95
 30
0.0
 11
183.699743131
 21
189.95
 31
0.0
  0
LINE
  5
2DF
330
1F
100
AcDbEntity
  8
0
  6
CONTINUOUS
 62
     2
100
AcDbLine
 10
183.699743131
 20
189.95
 30
0.0
 11
180.899743131
 21
189.95
 31
0.0
  0
LINE
  5
2E0
330
1F
100
AcDbEntity
  8
0
  6
CONTINUOUS
 62
     2
100
AcDbLine
 10
176.899743131
 20
194.45
 30
0.0
 11
177.899743131
 21
194.45
 31
0.0
  0
LINE
  5
2E1
330
1F
100
AcDbEntity
  8
0
  6
CONTINUOUS
 62
     2
100
AcDbLine
 10
177.899743131
 20
187.95
 30
0.0
 11
183.899743131
 21
187.95
 31
0.0
  0
LINE
  5
2E2
330
1F
100
AcDbEntity
  8
0
  6
CONTINUOUS
 62
     2
100
AcDbLine
 10
187.899743131
 20
188.95
 30
0.0
 11
185.8997431309999
 21
188.95
 31
0.0
  0
LINE
  5
2E3
330
1F
100
AcDbEntity
  8
0
  6
CONTINUOUS
 62
     2
100
AcDbLine
 10
185.8997431309999
 20
188.95
 30
0.0
 11
185.8997431309999
 21
187.95
 31
0.0
  0
LINE
  5
2E4
330
1F
100
AcDbEntity
  8
0
  6
CONTINUOUS
 62
     2
100
AcDbLine
 10
187.099743131
 20
188.95
 30
0.0
 11
187.099743131
 21
189.15
 31
0.0
  0
LINE
  5
2E5
330
1F
100
AcDbEntity
  8
0
  6
CONTINUOUS
 62
     2
100
AcDbLine
 10
187.099743131
 20
189.15
 30
0.0
 11
185.599743131
 21
189.15
 31
0.0
  0
LINE
  5
2E6
330
1F
100
AcDbEntity
  8
0
  6
CONTINUOUS
 62
     2
100
AcDbLine
 10
185.599743131
 20
189.15
 30
0.0
 11
185.399743131
 21
188.95
 31
0.0
  0
LINE
  5
2E7
330
1F
100
AcDbEntity
  8
0
  6
CONTINUOUS
 62
     2
100
AcDbLine
 10
187.899743131
 20
188.95
 30
0.0
 11
189.8997431309999
 21
188.95
 31
0.0
  0
LINE
  5
2E8
330
1F
100
AcDbEntity
  8
0
  6
CONTINUOUS
 62
     2
100
AcDbLine
 10
189.8997431309999
 20
188.95
 30
0.0
 11
189.8997431309999
 21
187.95
 31
0.0
  0
LINE
  5
2E9
330
1F
100
AcDbEntity
  8
0
  6
CONTINUOUS
 62
     2
100
AcDbLine
 10
188.699743131
 20
188.95
 30
0.0
 11
188.699743131
 21
189.15
 31
0.0
  0
LINE
  5
2EA
330
1F
100
AcDbEntity
  8
0
  6
CONTINUOUS
 62
     2
100
AcDbLine
 10
188.699743131
 20
189.15
 30
0.0
 11
190.199743131
 21
189.15
 31
0.0
  0
LINE
  5
2EB
330
1F
100
AcDbEntity
  8
0
  6
CONTINUOUS
 62
     2
100
AcDbLine
 10
190.199743131
 20
189.15
 30
0.0
 11
190.399743131
 21
188.95
 31
0.0
  0
ARC
  5
2EC
330
1F
100
AcDbEntity
  8
0
  6
CONTINUOUS
 62
     2
100
AcDbCircle
 10
186.099743131
 20
190.95
 30
0.0
 40
1.0
100
AcDbArc
 50
90.0
 51
180.0
  0
LINE
  5
2ED
330
1F
100
AcDbEntity
  8
0
  6
CONTINUOUS
 62
     2
100
AcDbLine
 10
185.099743131
 20
189.95
 30
0.0
 11
187.899743131
 21
189.95
 31
0.0
  0
LINE
  5
2EE
330
1F
100
AcDbEntity
  8
0
  6
CONTINUOUS
 62
     2
100
AcDbLine
 10
185.099743131
 20
190.95
 30
0.0
 11
185.099743131
 21
189.95
 31
0.0
  0
ARC
  5
2EF
330
1F
100
AcDbEntity
  8
0
  6
CONTINUOUS
 62
     2
100
AcDbCircle
 10
189.699743131
 20
190.95
 30
0.0
 40
1.0
100
AcDbArc
 50
0.0
 51
90.0
  0
LINE
  5
2F0
330
1F
100
AcDbEntity
  8
0
  6
CONTINUOUS
 62
     2
100
AcDbLine
 10
189.699743131
 20
191.95
 30
0.0
 11
186.099743131
 21
191.95
 31
0.0
  0
ARC
  5
2F1
330
1F
100
AcDbEntity
  8
0
  6
CONTINUOUS
 62
     2
100
AcDbCircle
 10
185.299743131
 20
189.55
 30
0.0
 40
0.4
100
AcDbArc
 50
90.00005632300001
 51
180.0
  0
LINE
  5
2F2
330
1F
100
AcDbEntity
  8
0
  6
CONTINUOUS
 62
     2
100
AcDbLine
 10
185.8997431309999
 20
188.95
 30
0.0
 11
184.899743131
 21
188.95
 31
0.0
  0
LINE
  5
2F3
330
1F
100
AcDbEntity
  8
0
  6
CONTINUOUS
 62
     2
100
AcDbLine
 10
189.799743131
 20
188.95
 30
0.0
 11
190.899743131
 21
188.95
 31
0.0
  0
ARC
  5
2F4
330
1F
100
AcDbEntity
  8
0
  6
CONTINUOUS
 62
     2
100
AcDbCircle
 10
190.4997431309999
 20
189.55
 30
0.0
 40
0.4
100
AcDbArc
 50
0.0
 51
89.999943677
  0
LINE
  5
2F5
330
1F
100
AcDbEntity
  8
0
  6
CONTINUOUS
 62
     2
100
AcDbLine
 10
190.699743131
 20
190.95
 30
0.0
 11
190.699743131
 21
189.95
 31
0.0
  0
LINE
  5
2F6
330
1F
100
AcDbEntity
  8
0
  6
CONTINUOUS
 62
     2
100
AcDbLine
 10
190.699743131
 20
189.95
 30
0.0
 11
187.899743131
 21
189.95
 31
0.0
  0
LINE
  5
2F7
330
1F
100
AcDbEntity
  8
0
  6
CONTINUOUS
 62
     2
100
AcDbLine
 10
183.899743131
 20
194.45
 30
0.0
 11
184.899743131
 21
194.45
 31
0.0
  0
LINE
  5
2F8
330
1F
100
AcDbEntity
  8
0
  6
CONTINUOUS
 62
     2
100
AcDbLine
 10
184.899743131
 20
187.95
 30
0.0
 11
190.899743131
 21
187.95
 31
0.0
  0
LINE
  5
2F9
330
1F
100
AcDbEntity
  8
0
  6
CONTINUOUS
 62
     2
100
AcDbLine
 10
194.8997431309999
 20
188.95
 30
0.0
 11
192.899743131
 21
188.95
 31
0.0
  0
LINE
  5
2FA
330
1F
100
AcDbEntity
  8
0
  6
CONTINUOUS
 62
     2
100
AcDbLine
 10
192.899743131
 20
188.95
 30
0.0
 11
192.899743131
 21
187.95
 31
0.0
  0
LINE
  5
2FB
330
1F
100
AcDbEntity
  8
0
  6
CONTINUOUS
 62
     2
100
AcDbLine
 10
194.099743131
 20
188.95
 30
0.0
 11
194.099743131
 21
189.15
 31
0.0
  0
LINE
  5
2FC
330
1F
100
AcDbEntity
  8
0
  6
CONTINUOUS
 62
     2
100
AcDbLine
 10
194.099743131
 20
189.15
 30
0.0
 11
192.599743131
 21
189.15
 31
0.0
  0
LINE
  5
2FD
330
1F
100
AcDbEntity
  8
0
  6
CONTINUOUS
 62
     2
100
AcDbLine
 10
192.599743131
 20
189.15
 30
0.0
 11
192.399743131
 21
188.95
 31
0.0
  0
LINE
  5
2FE
330
1F
100
AcDbEntity
  8
0
  6
CONTINUOUS
 62
     2
100
AcDbLine
 10
194.8997431309999
 20
188.95
 30
0.0
 11
196.899743131
 21
188.95
 31
0.0
  0
LINE
  5
2FF
330
1F
100
AcDbEntity
  8
0
  6
CONTINUOUS
 62
     2
100
AcDbLine
 10
196.899743131
 20
188.95
 30
0.0
 11
196.899743131
 21
187.95
 31
0.0
  0
LINE
  5
300
330
1F
100
AcDbEntity
  8
0
  6
CONTINUOUS
 62
     2
100
AcDbLine
 10
195.699743131
 20
188.95
 30
0.0
 11
195.699743131
 21
189.15
 31
0.0
  0
LINE
  5
301
330
1F
100
AcDbEntity
  8
0
  6
CONTINUOUS
 62
     2
100
AcDbLine
 10
195.699743131
 20
189.15
 30
0.0
 11
197.199743131
 21
189.15
 31
0.0
  0
LINE
  5
302
330
1F
100
AcDbEntity
  8
0
  6
CONTINUOUS
 62
     2
100
AcDbLine
 10
197.199743131
 20
189.15
 30
0.0
 11
197.399743131
 21
188.95
 31
0.0
  0
ARC
  5
303
330
1F
100
AcDbEntity
  8
0
  6
CONTINUOUS
 62
     2
100
AcDbCircle
 10
193.099743131
 20
190.95
 30
0.0
 40
1.0
100
AcDbArc
 50
90.0
 51
180.0
  0
LINE
  5
304
330
1F
100
AcDbEntity
  8
0
  6
CONTINUOUS
 62
     2
100
AcDbLine
 10
192.099743131
 20
189.95
 30
0.0
 11
194.8997431309999
 21
189.95
 31
0.0
  0
LINE
  5
305
330
1F
100
AcDbEntity
  8
0
  6
CONTINUOUS
 62
     2
100
AcDbLine
 10
192.099743131
 20
190.95
 30
0.0
 11
192.099743131
 21
189.95
 31
0.0
  0
ARC
  5
306
330
1F
100
AcDbEntity
  8
0
  6
CONTINUOUS
 62
     2
100
AcDbCircle
 10
196.699743131
 20
190.95
 30
0.0
 40
1.0
100
AcDbArc
 50
0.0
 51
90.0
  0
LINE
  5
307
330
1F
100
AcDbEntity
  8
0
  6
CONTINUOUS
 62
     2
100
AcDbLine
 10
196.699743131
 20
191.95
 30
0.0
 11
193.099743131
 21
191.95
 31
0.0
  0
ARC
  5
308
330
1F
100
AcDbEntity
  8
0
  6
CONTINUOUS
 62
     2
100
AcDbCircle
 10
192.299743131
 20
189.55
 30
0.0
 40
0.4
100
AcDbArc
 50
90.00005632300001
 51
180.0
  0
LINE
  5
309
330
1F
100
AcDbEntity
  8
0
  6
CONTINUOUS
 62
     2
100
AcDbLine
 10
192.899743131
 20
188.95
 30
0.0
 11
191.899743131
 21
188.95
 31
0.0
  0
LINE
  5
30A
330
1F
100
AcDbEntity
  8
0
  6
CONTINUOUS
 62
     2
100
AcDbLine
 10
196.799743131
 20
188.95
 30
0.0
 11
197.899743131
 21
188.95
 31
0.0
  0
ARC
  5
30B
330
1F
100
AcDbEntity
  8
0
  6
CONTINUOUS
 62
     2
100
AcDbCircle
 10
197.499743131
 20
189.55
 30
0.0
 40
0.4
100
AcDbArc
 50
0.0
 51
89.999943677
  0
LINE
  5
30C
330
1F
100
AcDbEntity
  8
0
  6
CONTINUOUS
 62
     2
100
AcDbLine
 10
197.699743131
 20
190.95
 30
0.0
 11
197.699743131
 21
189.95
 31
0.0
  0
LINE
  5
30D
330
1F
100
AcDbEntity
  8
0
  6
CONTINUOUS
 62
     2
100
AcDbLine
 10
197.699743131
 20
189.95
 30
0.0
 11
194.8997431309999
 21
189.95
 31
0.0
  0
LINE
  5
30E
330
1F
100
AcDbEntity
  8
0
  6
CONTINUOUS
 62
     2
100
AcDbLine
 10
191.899743131
 20
187.95
 30
0.0
 11
197.899743131
 21
187.95
 31
0.0
  0
LINE
  5
30F
330
1F
100
AcDbEntity
  8
0
  6
CONTINUOUS
 62
     2
100
AcDbLine
 10
201.899743131
 20
188.95
 30
0.0
 11
199.899743131
 21
188.95
 31
0.0
  0
LINE
  5
310
330
1F
100
AcDbEntity
  8
0
  6
CONTINUOUS
 62
     2
100
AcDbLine
 10
199.899743131
 20
188.95
 30
0.0
 11
199.899743131
 21
187.95
 31
0.0
  0
LINE
  5
311
330
1F
100
AcDbEntity
  8
0
  6
CONTINUOUS
 62
     2
100
AcDbLine
 10
201.099743131
 20
188.95
 30
0.0
 11
201.099743131
 21
189.15
 31
0.0
  0
LINE
  5
312
330
1F
100
AcDbEntity
  8
0
  6
CONTINUOUS
 62
     2
100
AcDbLine
 10
201.099743131
 20
189.15
 30
0.0
 11
199.599743131
 21
189.15
 31
0.0
  0
LINE
  5
313
330
1F
100
AcDbEntity
  8
0
  6
CONTINUOUS
 62
     2
100
AcDbLine
 10
199.599743131
 20
189.15
 30
0.0
 11
199.3997431309999
 21
188.95
 31
0.0
  0
LINE
  5
314
330
1F
100
AcDbEntity
  8
0
  6
CONTINUOUS
 62
     2
100
AcDbLine
 10
201.899743131
 20
188.95
 30
0.0
 11
203.899743131
 21
188.95
 31
0.0
  0
LINE
  5
315
330
1F
100
AcDbEntity
  8
0
  6
CONTINUOUS
 62
     2
100
AcDbLine
 10
203.899743131
 20
188.95
 30
0.0
 11
203.899743131
 21
187.95
 31
0.0
  0
LINE
  5
316
330
1F
100
AcDbEntity
  8
0
  6
CONTINUOUS
 62
     2
100
AcDbLine
 10
202.699743131
 20
188.95
 30
0.0
 11
202.699743131
 21
189.15
 31
0.0
  0
LINE
  5
317
330
1F
100
AcDbEntity
  8
0
  6
CONTINUOUS
 62
     2
100
AcDbLine
 10
202.699743131
 20
189.15
 30
0.0
 11
204.199743131
 21
189.15
 31
0.0
  0
LINE
  5
318
330
1F
100
AcDbEntity
  8
0
  6
CONTINUOUS
 62
     2
100
AcDbLine
 10
204.199743131
 20
189.15
 30
0.0
 11
204.399743131
 21
188.95
 31
0.0
  0
ARC
  5
319
330
1F
100
AcDbEntity
  8
0
  6
CONTINUOUS
 62
     2
100
AcDbCircle
 10
200.099743131
 20
190.95
 30
0.0
 40
1.0
100
AcDbArc
 50
90.0
 51
180.0
  0
LINE
  5
31A
330
1F
100
AcDbEntity
  8
0
  6
CONTINUOUS
 62
     2
100
AcDbLine
 10
199.099743131
 20
189.95
 30
0.0
 11
201.899743131
 21
189.95
 31
0.0
  0
LINE
  5
31B
330
1F
100
AcDbEntity
  8
0
  6
CONTINUOUS
 62
     2
100
AcDbLine
 10
199.099743131
 20
190.95
 30
0.0
 11
199.099743131
 21
189.95
 31
0.0
  0
ARC
  5
31C
330
1F
100
AcDbEntity
  8
0
  6
CONTINUOUS
 62
     2
100
AcDbCircle
 10
203.699743131
 20
190.95
 30
0.0
 40
1.0
100
AcDbArc
 50
0.0
 51
90.0
  0
LINE
  5
31D
330
1F
100
AcDbEntity
  8
0
  6
CONTINUOUS
 62
     2
100
AcDbLine
 10
203.699743131
 20
191.95
 30
0.0
 11
200.099743131
 21
191.95
 31
0.0
  0
ARC
  5
31E
330
1F
100
AcDbEntity
  8
0
  6
CONTINUOUS
 62
     2
100
AcDbCircle
 10
199.299743131
 20
189.55
 30
0.0
 40
0.4
100
AcDbArc
 50
90.00005632300001
 51
180.0
  0
LINE
  5
31F
330
1F
100
AcDbEntity
  8
0
  6
CONTINUOUS
 62
     2
100
AcDbLine
 10
199.899743131
 20
188.95
 30
0.0
 11
198.899743131
 21
188.95
 31
0.0
  0
LINE
  5
320
330
1F
100
AcDbEntity
  8
0
  6
CONTINUOUS
 62
     2
100
AcDbLine
 10
203.799743131
 20
188.95
 30
0.0
 11
204.899743131
 21
188.95
 31
0.0
  0
ARC
  5
321
330
1F
100
AcDbEntity
  8
0
  6
CONTINUOUS
 62
     2
100
AcDbCircle
 10
204.499743131
 20
189.55
 30
0.0
 40
0.4
100
AcDbArc
 50
0.0
 51
89.999943677
  0
LINE
  5
322
330
1F
100
AcDbEntity
  8
0
  6
CONTINUOUS
 62
     2
100
AcDbLine
 10
204.699743131
 20
190.95
 30
0.0
 11
204.699743131
 21
189.95
 31
0.0
  0
LINE
  5
323
330
1F
100
AcDbEntity
  8
0
  6
CONTINUOUS
 62
     2
100
AcDbLine
 10
204.699743131
 20
189.95
 30
0.0
 11
201.899743131
 21
189.95
 31
0.0
  0
LINE
  5
324
330
1F
100
AcDbEntity
  8
0
  6
CONTINUOUS
 62
     2
100
AcDbLine
 10
197.899743131
 20
194.45
 30
0.0
 11
198.899743131
 21
194.45
 31
0.0
  0
LINE
  5
325
330
1F
100
AcDbEntity
  8
0
  6
CONTINUOUS
 62
     2
100
AcDbLine
 10
198.899743131
 20
187.95
 30
0.0
 11
204.899743131
 21
187.95
 31
0.0
  0
LINE
  5
326
330
1F
100
AcDbEntity
  8
0
  6
CONTINUOUS
 62
     2
100
AcDbLine
 10
190.899743131
 20
194.45
 30
0.0
 11
191.899743131
 21
194.45
 31
0.0
  0
LINE
  5
327
330
1F
100
AcDbEntity
  8
0
  6
CONTINUOUS
 62
     2
100
AcDbLine
 10
148.899743131
 20
194.45
 30
0.0
 11
148.899743131
 21
186.9499999999999
 31
0.0
  0
LINE
  5
328
330
1F
100
AcDbEntity
  8
0
  6
CONTINUOUS
 62
     2
100
AcDbLine
 10
163.899743131
 20
186.9499999999999
 30
0.0
 11
163.899743131
 21
194.45
 31
0.0
  0
LINE
  5
329
330
1F
100
AcDbEntity
  8
0
  6
CONTINUOUS
 62
     2
100
AcDbLine
 10
162.899743131
 20
186.9499999999999
 30
0.0
 11
162.899743131
 21
194.45
 31
0.0
  0
LINE
  5
32A
330
1F
100
AcDbEntity
  8
0
  6
CONTINUOUS
 62
     2
100
AcDbLine
 10
156.899743131
 20
186.9499999999999
 30
0.0
 11
156.899743131
 21
194.45
 31
0.0
  0
LINE
  5
32B
330
1F
100
AcDbEntity
  8
0
  6
CONTINUOUS
 62
     2
100
AcDbLine
 10
155.899743131
 20
186.9499999999999
 30
0.0
 11
155.899743131
 21
194.45
 31
0.0
  0
LINE
  5
32C
330
1F
100
AcDbEntity
  8
0
  6
CONTINUOUS
 62
     2
100
AcDbLine
 10
149.899743131
 20
186.9499999999999
 30
0.0
 11
149.899743131
 21
194.45
 31
0.0
  0
LINE
  5
32D
330
1F
100
AcDbEntity
  8
0
  6
CONTINUOUS
 62
     2
100
AcDbLine
 10
148.899743131
 20
186.9499999999999
 30
0.0
 11
148.899743131
 21
194.45
 31
0.0
  0
LINE
  5
32E
330
1F
100
AcDbEntity
  8
0
  6
CONTINUOUS
 62
     2
100
AcDbLine
 10
176.899743131
 20
186.9499999999999
 30
0.0
 11
176.899743131
 21
194.45
 31
0.0
  0
LINE
  5
32F
330
1F
100
AcDbEntity
  8
0
  6
CONTINUOUS
 62
     2
100
AcDbLine
 10
176.899743131
 20
194.45
 30
0.0
 11
176.899743131
 21
186.9499999999999
 31
0.0
  0
LINE
  5
330
330
1F
100
AcDbEntity
  8
0
  6
CONTINUOUS
 62
     2
100
AcDbLine
 10
177.899743131
 20
186.9499999999999
 30
0.0
 11
177.899743131
 21
194.45
 31
0.0
  0
LINE
  5
331
330
1F
100
AcDbEntity
  8
0
  6
CONTINUOUS
 62
     2
100
AcDbLine
 10
183.899743131
 20
186.9499999999999
 30
0.0
 11
183.899743131
 21
194.45
 31
0.0
  0
LINE
  5
332
330
1F
100
AcDbEntity
  8
0
  6
CONTINUOUS
 62
     2
100
AcDbLine
 10
184.899743131
 20
186.9499999999999
 30
0.0
 11
184.899743131
 21
194.45
 31
0.0
  0
LINE
  5
333
330
1F
100
AcDbEntity
  8
0
  6
CONTINUOUS
 62
     2
100
AcDbLine
 10
190.899743131
 20
186.9499999999999
 30
0.0
 11
190.899743131
 21
194.45
 31
0.0
  0
LINE
  5
334
330
1F
100
AcDbEntity
  8
0
  6
CONTINUOUS
 62
     2
100
AcDbLine
 10
191.899743131
 20
186.9499999999999
 30
0.0
 11
191.899743131
 21
194.45
 31
0.0
  0
LINE
  5
335
330
1F
100
AcDbEntity
  8
0
  6
CONTINUOUS
 62
     2
100
AcDbLine
 10
197.899743131
 20
186.9499999999999
 30
0.0
 11
197.899743131
 21
194.45
 31
0.0
  0
LINE
  5
336
330
1F
100
AcDbEntity
  8
0
  6
CONTINUOUS
 62
     2
100
AcDbLine
 10
198.899743131
 20
186.9499999999999
 30
0.0
 11
198.899743131
 21
194.45
 31
0.0
  0
LINE
  5
337
330
1F
100
AcDbEntity
  8
0
  6
CONTINUOUS
 62
     2
100
AcDbLine
 10
218.899743131
 20
194.45
 30
0.0
 11
219.899743131
 21
194.45
 31
0.0
  0
LINE
  5
338
330
1F
100
AcDbEntity
  8
0
  6
CONTINUOUS
 62
     2
100
AcDbLine
 10
219.899743131
 20
186.9499999999999
 30
0.0
 11
219.899743131
 21
194.45
 31
0.0
  0
LINE
  5
339
330
1F
100
AcDbEntity
  8
0
  6
CONTINUOUS
 62
     2
100
AcDbLine
 10
208.899743131
 20
188.95
 30
0.0
 11
206.899743131
 21
188.95
 31
0.0
  0
LINE
  5
33A
330
1F
100
AcDbEntity
  8
0
  6
CONTINUOUS
 62
     2
100
AcDbLine
 10
206.899743131
 20
188.95
 30
0.0
 11
206.899743131
 21
187.95
 31
0.0
  0
LINE
  5
33B
330
1F
100
AcDbEntity
  8
0
  6
CONTINUOUS
 62
     2
100
AcDbLine
 10
208.099743131
 20
188.95
 30
0.0
 11
208.099743131
 21
189.15
 31
0.0
  0
LINE
  5
33C
330
1F
100
AcDbEntity
  8
0
  6
CONTINUOUS
 62
     2
100
AcDbLine
 10
208.099743131
 20
189.15
 30
0.0
 11
206.599743131
 21
189.15
 31
0.0
  0
LINE
  5
33D
330
1F
100
AcDbEntity
  8
0
  6
CONTINUOUS
 62
     2
100
AcDbLine
 10
206.599743131
 20
189.15
 30
0.0
 11
206.399743131
 21
188.95
 31
0.0
  0
LINE
  5
33E
330
1F
100
AcDbEntity
  8
0
  6
CONTINUOUS
 62
     2
100
AcDbLine
 10
208.899743131
 20
188.95
 30
0.0
 11
210.899743131
 21
188.95
 31
0.0
  0
LINE
  5
33F
330
1F
100
AcDbEntity
  8
0
  6
CONTINUOUS
 62
     2
100
AcDbLine
 10
210.899743131
 20
188.95
 30
0.0
 11
210.899743131
 21
187.95
 31
0.0
  0
LINE
  5
340
330
1F
100
AcDbEntity
  8
0
  6
CONTINUOUS
 62
     2
100
AcDbLine
 10
209.699743131
 20
188.95
 30
0.0
 11
209.699743131
 21
189.15
 31
0.0
  0
LINE
  5
341
330
1F
100
AcDbEntity
  8
0
  6
CONTINUOUS
 62
     2
100
AcDbLine
 10
209.699743131
 20
189.15
 30
0.0
 11
211.199743131
 21
189.15
 31
0.0
  0
LINE
  5
342
330
1F
100
AcDbEntity
  8
0
  6
CONTINUOUS
 62
     2
100
AcDbLine
 10
211.199743131
 20
189.15
 30
0.0
 11
211.399743131
 21
188.95
 31
0.0
  0
ARC
  5
343
330
1F
100
AcDbEntity
  8
0
  6
CONTINUOUS
 62
     2
100
AcDbCircle
 10
207.099743131
 20
190.95
 30
0.0
 40
1.0
100
AcDbArc
 50
90.0
 51
180.0
  0
LINE
  5
344
330
1F
100
AcDbEntity
  8
0
  6
CONTINUOUS
 62
     2
100
AcDbLine
 10
206.099743131
 20
189.95
 30
0.0
 11
208.899743131
 21
189.95
 31
0.0
  0
LINE
  5
345
330
1F
100
AcDbEntity
  8
0
  6
CONTINUOUS
 62
     2
100
AcDbLine
 10
206.099743131
 20
190.95
 30
0.0
 11
206.099743131
 21
189.95
 31
0.0
  0
ARC
  5
346
330
1F
100
AcDbEntity
  8
0
  6
CONTINUOUS
 62
     2
100
AcDbCircle
 10
210.699743131
 20
190.95
 30
0.0
 40
1.0
100
AcDbArc
 50
0.0
 51
90.0
  0
LINE
  5
347
330
1F
100
AcDbEntity
  8
0
  6
CONTINUOUS
 62
     2
100
AcDbLine
 10
210.699743131
 20
191.95
 30
0.0
 11
207.099743131
 21
191.95
 31
0.0
  0
ARC
  5
348
330
1F
100
AcDbEntity
  8
0
  6
CONTINUOUS
 62
     2
100
AcDbCircle
 10
206.299743131
 20
189.55
 30
0.0
 40
0.4
100
AcDbArc
 50
90.00005632300001
 51
180.0
  0
LINE
  5
349
330
1F
100
AcDbEntity
  8
0
  6
CONTINUOUS
 62
     2
100
AcDbLine
 10
206.899743131
 20
188.95
 30
0.0
 11
205.899743131
 21
188.95
 31
0.0
  0
LINE
  5
34A
330
1F
100
AcDbEntity
  8
0
  6
CONTINUOUS
 62
     2
100
AcDbLine
 10
210.799743131
 20
188.95
 30
0.0
 11
211.899743131
 21
188.95
 31
0.0
  0
ARC
  5
34B
330
1F
100
AcDbEntity
  8
0
  6
CONTINUOUS
 62
     2
100
AcDbCircle
 10
211.499743131
 20
189.55
 30
0.0
 40
0.4
100
AcDbArc
 50
0.0
 51
89.999943677
  0
LINE
  5
34C
330
1F
100
AcDbEntity
  8
0
  6
CONTINUOUS
 62
     2
100
AcDbLine
 10
211.699743131
 20
190.95
 30
0.0
 11
211.699743131
 21
189.95
 31
0.0
  0
LINE
  5
34D
330
1F
100
AcDbEntity
  8
0
  6
CONTINUOUS
 62
     2
100
AcDbLine
 10
211.699743131
 20
189.95
 30
0.0
 11
208.899743131
 21
189.95
 31
0.0
  0
LINE
  5
34E
330
1F
100
AcDbEntity
  8
0
  6
CONTINUOUS
 62
     2
100
AcDbLine
 10
205.899743131
 20
187.95
 30
0.0
 11
211.899743131
 21
187.95
 31
0.0
  0
LINE
  5
34F
330
1F
100
AcDbEntity
  8
0
  6
CONTINUOUS
 62
     2
100
AcDbLine
 10
215.899743131
 20
188.95
 30
0.0
 11
213.899743131
 21
188.95
 31
0.0
  0
LINE
  5
350
330
1F
100
AcDbEntity
  8
0
  6
CONTINUOUS
 62
     2
100
AcDbLine
 10
213.899743131
 20
188.95
 30
0.0
 11
213.899743131
 21
187.95
 31
0.0
  0
LINE
  5
351
330
1F
100
AcDbEntity
  8
0
  6
CONTINUOUS
 62
     2
100
AcDbLine
 10
215.099743131
 20
188.95
 30
0.0
 11
215.099743131
 21
189.15
 31
0.0
  0
LINE
  5
352
330
1F
100
AcDbEntity
  8
0
  6
CONTINUOUS
 62
     2
100
AcDbLine
 10
215.099743131
 20
189.15
 30
0.0
 11
213.599743131
 21
189.15
 31
0.0
  0
LINE
  5
353
330
1F
100
AcDbEntity
  8
0
  6
CONTINUOUS
 62
     2
100
AcDbLine
 10
213.599743131
 20
189.15
 30
0.0
 11
213.399743131
 21
188.95
 31
0.0
  0
LINE
  5
354
330
1F
100
AcDbEntity
  8
0
  6
CONTINUOUS
 62
     2
100
AcDbLine
 10
215.899743131
 20
188.95
 30
0.0
 11
217.899743131
 21
188.95
 31
0.0
  0
LINE
  5
355
330
1F
100
AcDbEntity
  8
0
  6
CONTINUOUS
 62
     2
100
AcDbLine
 10
217.899743131
 20
188.95
 30
0.0
 11
217.899743131
 21
187.95
 31
0.0
  0
LINE
  5
356
330
1F
100
AcDbEntity
  8
0
  6
CONTINUOUS
 62
     2
100
AcDbLine
 10
216.699743131
 20
188.95
 30
0.0
 11
216.699743131
 21
189.15
 31
0.0
  0
LINE
  5
357
330
1F
100
AcDbEntity
  8
0
  6
CONTINUOUS
 62
     2
100
AcDbLine
 10
216.699743131
 20
189.15
 30
0.0
 11
218.199743131
 21
189.15
 31
0.0
  0
LINE
  5
358
330
1F
100
AcDbEntity
  8
0
  6
CONTINUOUS
 62
     2
100
AcDbLine
 10
218.199743131
 20
189.15
 30
0.0
 11
218.399743131
 21
188.95
 31
0.0
  0
ARC
  5
359
330
1F
100
AcDbEntity
  8
0
  6
CONTINUOUS
 62
     2
100
AcDbCircle
 10
214.099743131
 20
190.95
 30
0.0
 40
1.0
100
AcDbArc
 50
90.0
 51
180.0
  0
LINE
  5
35A
330
1F
100
AcDbEntity
  8
0
  6
CONTINUOUS
 62
     2
100
AcDbLine
 10
213.099743131
 20
189.95
 30
0.0
 11
215.899743131
 21
189.95
 31
0.0
  0
LINE
  5
35B
330
1F
100
AcDbEntity
  8
0
  6
CONTINUOUS
 62
     2
100
AcDbLine
 10
213.099743131
 20
190.95
 30
0.0
 11
213.099743131
 21
189.95
 31
0.0
  0
ARC
  5
35C
330
1F
100
AcDbEntity
  8
0
  6
CONTINUOUS
 62
     2
100
AcDbCircle
 10
217.699743131
 20
190.95
 30
0.0
 40
1.0
100
AcDbArc
 50
0.0
 51
90.0
  0
LINE
  5
35D
330
1F
100
AcDbEntity
  8
0
  6
CONTINUOUS
 62
     2
100
AcDbLine
 10
217.699743131
 20
191.95
 30
0.0
 11
214.099743131
 21
191.95
 31
0.0
  0
ARC
  5
35E
330
1F
100
AcDbEntity
  8
0
  6
CONTINUOUS
 62
     2
100
AcDbCircle
 10
213.299743131
 20
189.55
 30
0.0
 40
0.4
100
AcDbArc
 50
90.00005632300001
 51
180.0
  0
LINE
  5
35F
330
1F
100
AcDbEntity
  8
0
  6
CONTINUOUS
 62
     2
100
AcDbLine
 10
213.899743131
 20
188.95
 30
0.0
 11
212.899743131
 21
188.95
 31
0.0
  0
LINE
  5
360
330
1F
100
AcDbEntity
  8
0
  6
CONTINUOUS
 62
     2
100
AcDbLine
 10
217.799743131
 20
188.95
 30
0.0
 11
218.899743131
 21
188.95
 31
0.0
  0
ARC
  5
361
330
1F
100
AcDbEntity
  8
0
  6
CONTINUOUS
 62
     2
100
AcDbCircle
 10
218.499743131
 20
189.55
 30
0.0
 40
0.4
100
AcDbArc
 50
0.0
 51
89.999943677
  0
LINE
  5
362
330
1F
100
AcDbEntity
  8
0
  6
CONTINUOUS
 62
     2
100
AcDbLine
 10
218.699743131
 20
190.95
 30
0.0
 11
218.699743131
 21
189.95
 31
0.0
  0
LINE
  5
363
330
1F
100
AcDbEntity
  8
0
  6
CONTINUOUS
 62
     2
100
AcDbLine
 10
218.699743131
 20
189.95
 30
0.0
 11
215.899743131
 21
189.95
 31
0.0
  0
LINE
  5
364
330
1F
100
AcDbEntity
  8
0
  6
CONTINUOUS
 62
     2
100
AcDbLine
 10
211.899743131
 20
194.45
 30
0.0
 11
212.899743131
 21
194.45
 31
0.0
  0
LINE
  5
365
330
1F
100
AcDbEntity
  8
0
  6
CONTINUOUS
 62
     2
100
AcDbLine
 10
212.899743131
 20
187.95
 30
0.0
 11
218.899743131
 21
187.95
 31
0.0
  0
LINE
  5
366
330
1F
100
AcDbEntity
  8
0
  6
CONTINUOUS
 62
     2
100
AcDbLine
 10
204.899743131
 20
194.45
 30
0.0
 11
205.899743131
 21
194.45
 31
0.0
  0
LINE
  5
367
330
1F
100
AcDbEntity
  8
0
  6
CONTINUOUS
 62
     2
100
AcDbLine
 10
205.899743131
 20
186.9499999999999
 30
0.0
 11
205.899743131
 21
194.45
 31
0.0
  0
LINE
  5
368
330
1F
100
AcDbEntity
  8
0
  6
CONTINUOUS
 62
     2
100
AcDbLine
 10
204.899743131
 20
186.9499999999999
 30
0.0
 11
204.899743131
 21
194.45
 31
0.0
  0
LINE
  5
369
330
1F
100
AcDbEntity
  8
0
  6
CONTINUOUS
 62
     2
100
AcDbLine
 10
212.899743131
 20
186.9499999999999
 30
0.0
 11
212.899743131
 21
194.45
 31
0.0
  0
LINE
  5
36A
330
1F
100
AcDbEntity
  8
0
  6
CONTINUOUS
 62
     2
100
AcDbLine
 10
211.899743131
 20
186.9499999999999
 30
0.0
 11
211.899743131
 21
194.45
 31
0.0
  0
LINE
  5
36B
330
1F
100
AcDbEntity
  8
0
  6
CONTINUOUS
 62
     2
100
AcDbLine
 10
218.899743131
 20
186.9499999999999
 30
0.0
 11
218.899743131
 21
194.45
 31
0.0
  0
LINE
  5
36C
330
1F
100
AcDbEntity
  8
0
  6
CONTINUOUS
 62
     5
100
AcDbLine
 10
145.25
 20
234.499782609
 30
0.0
 11
145.25
 21
222.899782609
 31
0.0
  0
LINE
  5
36D
330
1F
100
AcDbEntity
  8
0
  6
CONTINUOUS
 62
     5
100
AcDbLine
 10
170.4
 20
230.849782609
 30
0.0
 11
170.4
 21
225.859782609
 31
0.0
  0
LINE
  5
36E
330
1F
100
AcDbEntity
  8
0
  6
CONTINUOUS
 62
     5
100
AcDbLine
 10
177.4
 20
230.849782609
 30
0.0
 11
177.4
 21
225.789782609
 31
0.0
  0
LINE
  5
36F
330
1F
100
AcDbEntity
  8
0
  6
CONTINUOUS
 62
     5
100
AcDbLine
 10
163.4
 20
230.849782609
 30
0.0
 11
163.4
 21
225.859782609
 31
0.0
  0
LINE
  5
370
330
1F
100
AcDbEntity
  8
0
  6
CONTINUOUS
 62
     5
100
AcDbLine
 10
156.4
 20
230.849782609
 30
0.0
 11
156.4
 21
225.789782609
 31
0.0
  0
LINE
  5
371
330
1F
100
AcDbEntity
  8
0
  6
CONTINUOUS
 62
     5
100
AcDbLine
 10
149.4
 20
230.849782609
 30
0.0
 11
149.4
 21
225.999782609
 31
0.0
  0
LINE
  5
372
330
1F
100
AcDbEntity
  8
0
  6
CONTINUOUS
 62
     5
100
AcDbLine
 10
205.4
 20
230.849782609
 30
0.0
 11
205.4
 21
225.859782609
 31
0.0
  0
LINE
  5
373
330
1F
100
AcDbEntity
  8
0
  6
CONTINUOUS
 62
     5
100
AcDbLine
 10
198.4
 20
230.849782609
 30
0.0
 11
198.4
 21
225.789782609
 31
0.0
  0
LINE
  5
374
330
1F
100
AcDbEntity
  8
0
  6
CONTINUOUS
 62
     5
100
AcDbLine
 10
191.4
 20
230.849782609
 30
0.0
 11
191.4
 21
225.999782609
 31
0.0
  0
LINE
  5
375
330
1F
100
AcDbEntity
  8
0
  6
CONTINUOUS
 62
     5
100
AcDbLine
 10
145.25
 20
234.499782609
 30
0.0
 11
187.25
 21
234.499782609
 31
0.0
  0
LINE
  5
376
330
1F
100
AcDbEntity
  8
0
  6
CONTINUOUS
 62
     5
100
AcDbLine
 10
145.25
 20
222.899782609
 30
0.0
 11
187.25
 21
222.899782609
 31
0.0
  0
LINE
  5
377
330
1F
100
AcDbEntity
  8
0
  6
CONTINUOUS
 62
     5
100
AcDbLine
 10
212.4
 20
230.849782609
 30
0.0
 11
212.4
 21
225.859782609
 31
0.0
  0
LINE
  5
378
330
1F
100
AcDbEntity
  8
0
  6
CONTINUOUS
 62
     5
100
AcDbLine
 10
219.4
 20
230.849782609
 30
0.0
 11
219.4
 21
225.789782609
 31
0.0
  0
LINE
  5
379
330
1F
100
AcDbEntity
  8
0
  6
CONTINUOUS
 62
     5
100
AcDbLine
 10
223.55
 20
222.899782609
 30
0.0
 11
187.25
 21
222.899782609
 31
0.0
  0
LINE
  5
37A
330
1F
100
AcDbEntity
  8
0
  6
CONTINUOUS
 62
     5
100
AcDbLine
 10
223.3
 20
228.999782609
 30
0.0
 11
187.4
 21
228.999782609
 31
0.0
  0
POLYLINE
  5
37B
330
1F
100
AcDbEntity
  8
0
  6
CONTINUOUS
 62
     5
100
AcDb2dPolyline
 66
     1
 10
0.0
 20
0.0
 30
0.0
  0
VERTEX
  5
37C
330
37B
100
AcDbEntity
  8
0
100
AcDbVertex
100
AcDb2dVertex
 10
187.25
 20
234.499782609
 30
0.0
  0
VERTEX
  5
37D
330
37B
100
AcDbEntity
  8
0
100
AcDbVertex
100
AcDb2dVertex
 10
223.55
 20
234.499782609
 30
0.0
  0
VERTEX
  5
37E
330
37B
100
AcDbEntity
  8
0
100
AcDbVertex
100
AcDb2dVertex
 10
223.55
 20
222.899782609
 30
0.0
  0
SEQEND
  5
37F
330
37B
100
AcDbEntity
  8
0
  6
CONTINUOUS
 62
     5
  0
POINT
  5
380
330
1F
100
AcDbEntity
  8
0
  6
CONTINUOUS
 62
     3
100
AcDbPoint
 10
180.5881818179999
 20
81.5
 30
0.0
  0
LINE
  5
381
330
1F
100
AcDbEntity
  8
0
  6
CONTINUOUS
 62
     3
100
AcDbLine
 10
177.9
 20
81.79999999999998
 30
0.0
 11
177.9
 21
82.24999999999999
 31
0.0
  0
LINE
  5
382
330
1F
100
AcDbEntity
  8
0
  6
CONTINUOUS
 62
     3
100
AcDbLine
 10
177.75
 20
82.05
 30
0.0
 11
178.0
 21
82.05
 31
0.0
  0
LINE
  5
383
330
1F
100
AcDbEntity
  8
0
  6
CONTINUOUS
 62
     3
100
AcDbLine
 10
179.875454545
 20
76.6
 30
0.0
 11
180.559090909
 21
81.3
 31
0.0
  0
LINE
  5
384
330
1F
100
AcDbEntity
  8
0
  6
CONTINUOUS
 62
     3
100
AcDbLine
 10
179.9
 20
76.55
 30
0.0
 11
180.7
 21
75.35
 31
0.0
  0
LINE
  5
385
330
1F
100
AcDbEntity
  8
0
  6
CONTINUOUS
 62
     3
100
AcDbLine
 10
180.4
 20
75.04999999999998
 30
0.0
 11
180.55
 21
75.17
 31
0.0
  0
LINE
  5
386
330
1F
100
AcDbEntity
  8
0
  6
CONTINUOUS
 62
     3
100
AcDbLine
 10
180.7
 20
75.29
 30
0.0
 11
180.9
 21
75.45
 31
0.0
  0
LINE
  5
387
330
1F
100
AcDbEntity
  8
0
  6
CONTINUOUS
 62
     3
100
AcDbLine
 10
175.059090909
 20
81.3
 30
0.0
 11
174.324545455
 21
76.25
 31
0.0
  0
LINE
  5
388
330
1F
100
AcDbEntity
  8
0
  6
CONTINUOUS
 62
     3
100
AcDbLine
 10
174.3
 20
76.25
 30
0.0
 11
173.2
 21
75.27692307699999
 31
0.0
  0
LINE
  5
389
330
1F
100
AcDbEntity
  8
0
  6
CONTINUOUS
 62
     3
100
AcDbLine
 10
180.4
 20
75.04999999999998
 30
0.0
 11
173.4
 21
75.04999999999998
 31
0.0
  0
LINE
  5
38A
330
1F
100
AcDbEntity
  8
0
  6
CONTINUOUS
 62
     3
100
AcDbLine
 10
173.05
 20
75.54999999999998
 30
0.0
 11
173.225
 21
75.3
 31
0.0
  0
LINE
  5
38B
330
1F
100
AcDbEntity
  8
0
  6
CONTINUOUS
 62
     3
100
AcDbLine
 10
181.65
 20
81.9
 30
0.0
 11
181.85
 21
81.79999999999998
 31
0.0
  0
LINE
  5
38C
330
1F
100
AcDbEntity
  8
0
  6
CONTINUOUS
 62
     3
100
AcDbLine
 10
181.7
 20
82.2
 30
0.0
 11
182.0
 21
82.4
 31
0.0
  0
LINE
  5
38D
330
1F
100
AcDbEntity
  8
0
  6
CONTINUOUS
 62
     3
100
AcDbLine
 10
174.25
 20
82.15
 30
0.0
 11
174.0
 21
82.4
 31
0.0
  0
LINE
  5
38E
330
1F
100
AcDbEntity
  8
0
  6
CONTINUOUS
 62
     3
100
AcDbLine
 10
174.15
 20
81.85
 30
0.0
 11
173.85
 21
81.6
 31
0.0
  0
LINE
  5
38F
330
1F
100
AcDbEntity
  8
0
  6
CONTINUOUS
 62
     3
100
AcDbLine
 10
174.15
 20
81.825
 30
0.0
 11
175.05
 21
81.3
 31
0.0
  0
LINE
  5
390
330
1F
100
AcDbEntity
  8
0
  6
CONTINUOUS
 62
     3
100
AcDbLine
 10
172.978571429
 20
75.6
 30
0.0
 11
173.835714286
 21
81.6
 31
0.0
  0
LINE
  5
391
330
1F
100
AcDbEntity
  8
0
  6
CONTINUOUS
 62
     3
100
AcDbLine
 10
175.2
 20
82.6
 30
0.0
 11
174.25
 21
82.212962963
 31
0.0
  0
LINE
  5
392
330
1F
100
AcDbEntity
  8
0
  6
CONTINUOUS
 62
     3
100
AcDbLine
 10
180.35
 20
82.55
 30
0.0
 11
181.3
 21
82.05
 31
0.0
  0
LINE
  5
393
330
1F
100
AcDbEntity
  8
0
  6
CONTINUOUS
 62
     3
100
AcDbLine
 10
181.3
 20
82.05
 30
0.0
 11
180.1
 21
81.4
 31
0.0
  0
LINE
  5
394
330
1F
100
AcDbEntity
  8
0
  6
CONTINUOUS
 62
     3
100
AcDbLine
 10
175.7
 20
82.6
 30
0.0
 11
174.5
 21
82.0
 31
0.0
  0
LINE
  5
395
330
1F
100
AcDbEntity
  8
0
  6
CONTINUOUS
 62
     3
100
AcDbLine
 10
175.3
 20
81.45000000000002
 30
0.0
 11
174.55
 21
81.9
 31
0.0
  0
LINE
  5
396
330
1F
100
AcDbEntity
  8
0
  6
CONTINUOUS
 62
     3
100
AcDbLine
 10
181.874545455
 20
81.75
 30
0.0
 11
180.965454545
 21
75.5
 31
0.0
  0
LINE
  5
397
330
1F
100
AcDbEntity
  8
0
  6
CONTINUOUS
 62
     3
100
AcDbLine
 10
181.7
 20
82.131818182
 30
0.0
 11
180.75
 21
82.65
 31
0.0
  0
LINE
  5
398
330
1F
100
AcDbEntity
  8
0
  6
CONTINUOUS
 62
     3
100
AcDbLine
 10
180.55
 20
81.35
 30
0.0
 11
181.65
 21
81.92200000000001
 31
0.0
  0
LINE
  5
399
330
1F
100
AcDbEntity
  8
0
  6
CONTINUOUS
 62
     3
100
AcDbLine
 10
179.7
 20
76.29999999999998
 30
0.0
 11
174.75
 21
76.29999999999998
 31
0.0
  0
LINE
  5
39A
330
1F
100
AcDbEntity
  8
0
  6
CONTINUOUS
 62
     3
100
AcDbLine
 10
179.7
 20
76.35
 30
0.0
 11
180.5
 21
75.1
 31
0.0
  0
LINE
  5
39B
330
1F
100
AcDbEntity
  8
0
  6
CONTINUOUS
 62
     3
100
AcDbLine
 10
174.75
 20
76.29999999999998
 30
0.0
 11
173.4
 21
75.1
 31
0.0
  0
POINT
  5
39C
330
1F
100
AcDbEntity
  8
0
  6
CONTINUOUS
 62
     3
100
AcDbPoint
 10
173.4
 20
75.04999999999998
 30
0.0
  0
LINE
  5
39D
330
1F
100
AcDbEntity
  8
0
  6
CONTINUOUS
 62
     3
100
AcDbLine
 10
175.35
 20
81.4
 30
0.0
 11
180.1
 21
81.4
 31
0.0
  0
LINE
  5
39E
330
1F
100
AcDbEntity
  8
0
  6
CONTINUOUS
 62
     3
100
AcDbLine
 10
180.3
 20
82.65
 30
0.0
 11
175.75
 21
82.65
 31
0.0
  0
LINE
  5
39F
330
1F
100
AcDbEntity
  8
0
  6
CONTINUOUS
 62
     3
100
AcDbLine
 10
176.2
 20
87.79999999999998
 30
0.0
 11
175.35
 21
88.8
 31
0.0
  0
LINE
  5
3A0
330
1F
100
AcDbEntity
  8
0
  6
CONTINUOUS
 62
     3
100
AcDbLine
 10
175.95
 20
87.75
 30
0.0
 11
175.15
 21
88.65
 31
0.0
  0
LINE
  5
3A1
330
1F
100
AcDbEntity
  8
0
  6
CONTINUOUS
 62
     3
100
AcDbLine
 10
181.25
 20
87.85
 30
0.0
 11
182.45
 21
88.85
 31
0.0
  0
LINE
  5
3A2
330
1F
100
AcDbEntity
  8
0
  6
CONTINUOUS
 62
     3
100
AcDbLine
 10
182.6
 20
88.65
 30
0.0
 11
181.45
 21
87.65
 31
0.0
  0
LINE
  5
3A3
330
1F
100
AcDbEntity
  8
0
  6
CONTINUOUS
 62
     3
100
AcDbLine
 10
182.8127272729999
 20
88.45
 30
0.0
 11
181.961818182
 21
82.35
 31
0.0
  0
LINE
  5
3A4
330
1F
100
AcDbEntity
  8
0
  6
CONTINUOUS
 62
     3
100
AcDbLine
 10
182.718181818
 20
88.6
 30
0.0
 11
182.8
 21
88.49999999999999
 31
0.0
  0
LINE
  5
3A5
330
1F
100
AcDbEntity
  8
0
  6
CONTINUOUS
 62
     3
100
AcDbLine
 10
182.35
 20
89.04999999999998
 30
0.0
 11
182.554545455
 21
88.8
 31
0.0
  0
LINE
  5
3A6
330
1F
100
AcDbEntity
  8
0
  6
CONTINUOUS
 62
     3
100
AcDbLine
 10
180.740909091
 20
82.55
 30
0.0
 11
181.446363636
 21
87.65
 31
0.0
  0
LINE
  5
3A7
330
1F
100
AcDbEntity
  8
0
  6
CONTINUOUS
 62
     3
100
AcDbLine
 10
175.968181818
 20
87.79999999999998
 30
0.0
 11
175.233636364
 21
82.5
 31
0.0
  0
LINE
  5
3A8
330
1F
100
AcDbEntity
  8
0
  6
CONTINUOUS
 62
     3
100
AcDbLine
 10
181.2
 20
87.79999999999998
 30
0.0
 11
176.1
 21
87.79999999999998
 31
0.0
  0
LINE
  5
3A9
330
1F
100
AcDbEntity
  8
0
  6
CONTINUOUS
 62
     3
100
AcDbLine
 10
173.985714286
 20
82.4
 30
0.0
 11
174.828571429
 21
88.55
 31
0.0
  0
LINE
  5
3AA
330
1F
100
AcDbEntity
  8
0
  6
CONTINUOUS
 62
     3
100
AcDbLine
 10
175.45
 20
89.0
 30
0.0
 11
175.4
 21
88.965384616
 31
0.0
  0
LINE
  5
3AB
330
1F
100
AcDbEntity
  8
0
  6
CONTINUOUS
 62
     3
100
AcDbLine
 10
175.1
 20
88.75769230799999
 30
0.0
 11
174.8
 21
88.55
 31
0.0
  0
LINE
  5
3AC
330
1F
100
AcDbEntity
  8
0
  6
CONTINUOUS
 62
     3
100
AcDbLine
 10
175.35
 20
88.8
 30
0.0
 11
175.3
 21
88.85
 31
0.0
  0
LINE
  5
3AD
330
1F
100
AcDbEntity
  8
0
  6
CONTINUOUS
 62
     3
100
AcDbLine
 10
175.3
 20
88.85
 30
0.0
 11
175.4
 21
88.95000000000002
 31
0.0
  0
LINE
  5
3AE
330
1F
100
AcDbEntity
  8
0
  6
CONTINUOUS
 62
     3
100
AcDbLine
 10
175.15
 20
88.65
 30
0.0
 11
175.1
 21
88.75
 31
0.0
  0
POINT
  5
3AF
330
1F
100
AcDbEntity
  8
0
  6
CONTINUOUS
 62
     3
100
AcDbPoint
 10
193.588181818
 20
81.5
 30
0.0
  0
LINE
  5
3B0
330
1F
100
AcDbEntity
  8
0
  6
CONTINUOUS
 62
     3
100
AcDbLine
 10
190.9
 20
81.79999999999998
 30
0.0
 11
190.9
 21
82.24999999999999
 31
0.0
  0
LINE
  5
3B1
330
1F
100
AcDbEntity
  8
0
  6
CONTINUOUS
 62
     3
100
AcDbLine
 10
190.75
 20
82.05
 30
0.0
 11
191.0
 21
82.05
 31
0.0
  0
LINE
  5
3B2
330
1F
100
AcDbEntity
  8
0
  6
CONTINUOUS
 62
     3
100
AcDbLine
 10
192.875454545
 20
76.6
 30
0.0
 11
193.559090909
 21
81.3
 31
0.0
  0
LINE
  5
3B3
330
1F
100
AcDbEntity
  8
0
  6
CONTINUOUS
 62
     3
100
AcDbLine
 10
192.9
 20
76.55
 30
0.0
 11
193.7
 21
75.35
 31
0.0
  0
LINE
  5
3B4
330
1F
100
AcDbEntity
  8
0
  6
CONTINUOUS
 62
     3
100
AcDbLine
 10
193.4
 20
75.04999999999998
 30
0.0
 11
193.55
 21
75.17
 31
0.0
  0
LINE
  5
3B5
330
1F
100
AcDbEntity
  8
0
  6
CONTINUOUS
 62
     3
100
AcDbLine
 10
193.7
 20
75.29
 30
0.0
 11
193.9
 21
75.45
 31
0.0
  0
LINE
  5
3B6
330
1F
100
AcDbEntity
  8
0
  6
CONTINUOUS
 62
     3
100
AcDbLine
 10
188.059090909
 20
81.3
 30
0.0
 11
187.324545455
 21
76.25
 31
0.0
  0
LINE
  5
3B7
330
1F
100
AcDbEntity
  8
0
  6
CONTINUOUS
 62
     3
100
AcDbLine
 10
187.3
 20
76.25
 30
0.0
 11
186.2
 21
75.27692307699999
 31
0.0
  0
LINE
  5
3B8
330
1F
100
AcDbEntity
  8
0
  6
CONTINUOUS
 62
     3
100
AcDbLine
 10
193.4
 20
75.04999999999998
 30
0.0
 11
186.4
 21
75.04999999999998
 31
0.0
  0
LINE
  5
3B9
330
1F
100
AcDbEntity
  8
0
  6
CONTINUOUS
 62
     3
100
AcDbLine
 10
186.05
 20
75.54999999999998
 30
0.0
 11
186.225
 21
75.3
 31
0.0
  0
LINE
  5
3BA
330
1F
100
AcDbEntity
  8
0
  6
CONTINUOUS
 62
     3
100
AcDbLine
 10
194.65
 20
81.9
 30
0.0
 11
194.85
 21
81.79999999999998
 31
0.0
  0
LINE
  5
3BB
330
1F
100
AcDbEntity
  8
0
  6
CONTINUOUS
 62
     3
100
AcDbLine
 10
194.7
 20
82.2
 30
0.0
 11
195.0
 21
82.4
 31
0.0
  0
LINE
  5
3BC
330
1F
100
AcDbEntity
  8
0
  6
CONTINUOUS
 62
     3
100
AcDbLine
 10
187.25
 20
82.15
 30
0.0
 11
187.0
 21
82.4
 31
0.0
  0
LINE
  5
3BD
330
1F
100
AcDbEntity
  8
0
  6
CONTINUOUS
 62
     3
100
AcDbLine
 10
187.15
 20
81.85
 30
0.0
 11
186.85
 21
81.6
 31
0.0
  0
LINE
  5
3BE
330
1F
100
AcDbEntity
  8
0
  6
CONTINUOUS
 62
     3
100
AcDbLine
 10
187.15
 20
81.825
 30
0.0
 11
188.05
 21
81.3
 31
0.0
  0
LINE
  5
3BF
330
1F
100
AcDbEntity
  8
0
  6
CONTINUOUS
 62
     3
100
AcDbLine
 10
185.978571429
 20
75.6
 30
0.0
 11
186.835714286
 21
81.6
 31
0.0
  0
LINE
  5
3C0
330
1F
100
AcDbEntity
  8
0
  6
CONTINUOUS
 62
     3
100
AcDbLine
 10
188.2
 20
82.6
 30
0.0
 11
187.25
 21
82.212962963
 31
0.0
  0
LINE
  5
3C1
330
1F
100
AcDbEntity
  8
0
  6
CONTINUOUS
 62
     3
100
AcDbLine
 10
193.35
 20
82.55
 30
0.0
 11
194.3
 21
82.05
 31
0.0
  0
LINE
  5
3C2
330
1F
100
AcDbEntity
  8
0
  6
CONTINUOUS
 62
     3
100
AcDbLine
 10
194.3
 20
82.05
 30
0.0
 11
193.1
 21
81.4
 31
0.0
  0
LINE
  5
3C3
330
1F
100
AcDbEntity
  8
0
  6
CONTINUOUS
 62
     3
100
AcDbLine
 10
188.7
 20
82.6
 30
0.0
 11
187.5
 21
82.0
 31
0.0
  0
LINE
  5
3C4
330
1F
100
AcDbEntity
  8
0
  6
CONTINUOUS
 62
     3
100
AcDbLine
 10
188.3
 20
81.45000000000002
 30
0.0
 11
187.55
 21
81.9
 31
0.0
  0
LINE
  5
3C5
330
1F
100
AcDbEntity
  8
0
  6
CONTINUOUS
 62
     3
100
AcDbLine
 10
194.874545455
 20
81.75
 30
0.0
 11
193.965454545
 21
75.5
 31
0.0
  0
LINE
  5
3C6
330
1F
100
AcDbEntity
  8
0
  6
CONTINUOUS
 62
     3
100
AcDbLine
 10
194.7
 20
82.131818182
 30
0.0
 11
193.75
 21
82.65
 31
0.0
  0
LINE
  5
3C7
330
1F
100
AcDbEntity
  8
0
  6
CONTINUOUS
 62
     3
100
AcDbLine
 10
193.55
 20
81.35
 30
0.0
 11
194.65
 21
81.92200000000001
 31
0.0
  0
LINE
  5
3C8
330
1F
100
AcDbEntity
  8
0
  6
CONTINUOUS
 62
     3
100
AcDbLine
 10
192.6999999999999
 20
76.29999999999998
 30
0.0
 11
187.75
 21
76.29999999999998
 31
0.0
  0
LINE
  5
3C9
330
1F
100
AcDbEntity
  8
0
  6
CONTINUOUS
 62
     3
100
AcDbLine
 10
192.6999999999999
 20
76.35
 30
0.0
 11
193.5
 21
75.1
 31
0.0
  0
LINE
  5
3CA
330
1F
100
AcDbEntity
  8
0
  6
CONTINUOUS
 62
     3
100
AcDbLine
 10
187.75
 20
76.29999999999998
 30
0.0
 11
186.4
 21
75.1
 31
0.0
  0
POINT
  5
3CB
330
1F
100
AcDbEntity
  8
0
  6
CONTINUOUS
 62
     3
100
AcDbPoint
 10
186.4
 20
75.04999999999998
 30
0.0
  0
LINE
  5
3CC
330
1F
100
AcDbEntity
  8
0
  6
CONTINUOUS
 62
     3
100
AcDbLine
 10
188.35
 20
81.4
 30
0.0
 11
193.1
 21
81.4
 31
0.0
  0
LINE
  5
3CD
330
1F
100
AcDbEntity
  8
0
  6
CONTINUOUS
 62
     3
100
AcDbLine
 10
193.3
 20
82.65
 30
0.0
 11
188.75
 21
82.65
 31
0.0
  0
LINE
  5
3CE
330
1F
100
AcDbEntity
  8
0
  6
CONTINUOUS
 62
     3
100
AcDbLine
 10
189.2
 20
87.79999999999998
 30
0.0
 11
188.35
 21
88.8
 31
0.0
  0
LINE
  5
3CF
330
1F
100
AcDbEntity
  8
0
  6
CONTINUOUS
 62
     3
100
AcDbLine
 10
188.95
 20
87.75
 30
0.0
 11
188.15
 21
88.65
 31
0.0
  0
LINE
  5
3D0
330
1F
100
AcDbEntity
  8
0
  6
CONTINUOUS
 62
     3
100
AcDbLine
 10
194.25
 20
87.85
 30
0.0
 11
195.45
 21
88.85
 31
0.0
  0
LINE
  5
3D1
330
1F
100
AcDbEntity
  8
0
  6
CONTINUOUS
 62
     3
100
AcDbLine
 10
195.6
 20
88.65
 30
0.0
 11
194.45
 21
87.65
 31
0.0
  0
LINE
  5
3D2
330
1F
100
AcDbEntity
  8
0
  6
CONTINUOUS
 62
     3
100
AcDbLine
 10
195.812727273
 20
88.45
 30
0.0
 11
194.961818182
 21
82.35
 31
0.0
  0
LINE
  5
3D3
330
1F
100
AcDbEntity
  8
0
  6
CONTINUOUS
 62
     3
100
AcDbLine
 10
195.718181818
 20
88.6
 30
0.0
 11
195.8
 21
88.49999999999999
 31
0.0
  0
LINE
  5
3D4
330
1F
100
AcDbEntity
  8
0
  6
CONTINUOUS
 62
     3
100
AcDbLine
 10
195.35
 20
89.04999999999998
 30
0.0
 11
195.554545455
 21
88.8
 31
0.0
  0
LINE
  5
3D5
330
1F
100
AcDbEntity
  8
0
  6
CONTINUOUS
 62
     3
100
AcDbLine
 10
193.740909091
 20
82.55
 30
0.0
 11
194.446363636
 21
87.65
 31
0.0
  0
LINE
  5
3D6
330
1F
100
AcDbEntity
  8
0
  6
CONTINUOUS
 62
     3
100
AcDbLine
 10
188.968181818
 20
87.79999999999998
 30
0.0
 11
188.233636364
 21
82.5
 31
0.0
  0
LINE
  5
3D7
330
1F
100
AcDbEntity
  8
0
  6
CONTINUOUS
 62
     3
100
AcDbLine
 10
194.2
 20
87.79999999999998
 30
0.0
 11
189.1
 21
87.79999999999998
 31
0.0
  0
LINE
  5
3D8
330
1F
100
AcDbEntity
  8
0
  6
CONTINUOUS
 62
     3
100
AcDbLine
 10
186.985714286
 20
82.4
 30
0.0
 11
187.828571429
 21
88.55
 31
0.0
  0
LINE
  5
3D9
330
1F
100
AcDbEntity
  8
0
  6
CONTINUOUS
 62
     3
100
AcDbLine
 10
188.45
 20
89.04999999999998
 30
0.0
 11
195.4
 21
89.04999999999998
 31
0.0
  0
LINE
  5
3DA
330
1F
100
AcDbEntity
  8
0
  6
CONTINUOUS
 62
     3
100
AcDbLine
 10
188.45
 20
89.0
 30
0.0
 11
188.4
 21
88.965384616
 31
0.0
  0
LINE
  5
3DB
330
1F
100
AcDbEntity
  8
0
  6
CONTINUOUS
 62
     3
100
AcDbLine
 10
188.1
 20
88.75769230799999
 30
0.0
 11
187.8
 21
88.55
 31
0.0
  0
LINE
  5
3DC
330
1F
100
AcDbEntity
  8
0
  6
CONTINUOUS
 62
     3
100
AcDbLine
 10
188.35
 20
88.8
 30
0.0
 11
188.3
 21
88.85
 31
0.0
  0
LINE
  5
3DD
330
1F
100
AcDbEntity
  8
0
  6
CONTINUOUS
 62
     3
100
AcDbLine
 10
188.3
 20
88.85
 30
0.0
 11
188.4
 21
88.95000000000002
 31
0.0
  0
LINE
  5
3DE
330
1F
100
AcDbEntity
  8
0
  6
CONTINUOUS
 62
     3
100
AcDbLine
 10
188.15
 20
88.65
 30
0.0
 11
188.1
 21
88.75
 31
0.0
  0
POINT
  5
3DF
330
1F
100
AcDbEntity
  8
0
  6
CONTINUOUS
 62
     3
100
AcDbPoint
 10
167.588181818
 20
81.5
 30
0.0
  0
LINE
  5
3E0
330
1F
100
AcDbEntity
  8
0
  6
CONTINUOUS
 62
     3
100
AcDbLine
 10
164.9
 20
81.79999999999998
 30
0.0
 11
164.9
 21
82.24999999999999
 31
0.0
  0
LINE
  5
3E1
330
1F
100
AcDbEntity
  8
0
  6
CONTINUOUS
 62
     3
100
AcDbLine
 10
164.75
 20
82.05
 30
0.0
 11
165.0
 21
82.05
 31
0.0
  0
POINT
  5
3E2
330
1F
100
AcDbEntity
  8
0
  6
CONTINUOUS
 62
     3
100
AcDbPoint
 10
206.588181818
 20
81.5
 30
0.0
  0
LINE
  5
3E3
330
1F
100
AcDbEntity
  8
0
  6
CONTINUOUS
 62
     3
100
AcDbLine
 10
203.9
 20
81.79999999999998
 30
0.0
 11
203.9
 21
82.24999999999999
 31
0.0
  0
LINE
  5
3E4
330
1F
100
AcDbEntity
  8
0
  6
CONTINUOUS
 62
     3
100
AcDbLine
 10
203.75
 20
82.05
 30
0.0
 11
204.0
 21
82.05
 31
0.0
  0
LINE
  5
3E5
330
1F
100
AcDbEntity
  8
0
  6
CONTINUOUS
 62
     3
100
AcDbLine
 10
205.875454545
 20
76.6
 30
0.0
 11
206.559090909
 21
81.3
 31
0.0
  0
LINE
  5
3E6
330
1F
100
AcDbEntity
  8
0
  6
CONTINUOUS
 62
     3
100
AcDbLine
 10
205.9
 20
76.55
 30
0.0
 11
206.7
 21
75.35
 31
0.0
  0
LINE
  5
3E7
330
1F
100
AcDbEntity
  8
0
  6
CONTINUOUS
 62
     3
100
AcDbLine
 10
206.4
 20
75.04999999999998
 30
0.0
 11
206.55
 21
75.17
 31
0.0
  0
LINE
  5
3E8
330
1F
100
AcDbEntity
  8
0
  6
CONTINUOUS
 62
     3
100
AcDbLine
 10
206.7
 20
75.29
 30
0.0
 11
206.9
 21
75.45
 31
0.0
  0
LINE
  5
3E9
330
1F
100
AcDbEntity
  8
0
  6
CONTINUOUS
 62
     3
100
AcDbLine
 10
201.059090909
 20
81.3
 30
0.0
 11
200.324545455
 21
76.25
 31
0.0
  0
LINE
  5
3EA
330
1F
100
AcDbEntity
  8
0
  6
CONTINUOUS
 62
     3
100
AcDbLine
 10
200.3
 20
76.25
 30
0.0
 11
199.2
 21
75.27692307699999
 31
0.0
  0
LINE
  5
3EB
330
1F
100
AcDbEntity
  8
0
  6
CONTINUOUS
 62
     3
100
AcDbLine
 10
206.4
 20
75.04999999999998
 30
0.0
 11
199.4
 21
75.04999999999998
 31
0.0
  0
LINE
  5
3EC
330
1F
100
AcDbEntity
  8
0
  6
CONTINUOUS
 62
     3
100
AcDbLine
 10
199.05
 20
75.54999999999998
 30
0.0
 11
199.225
 21
75.3
 31
0.0
  0
LINE
  5
3ED
330
1F
100
AcDbEntity
  8
0
  6
CONTINUOUS
 62
     3
100
AcDbLine
 10
207.65
 20
81.9
 30
0.0
 11
207.85
 21
81.79999999999998
 31
0.0
  0
LINE
  5
3EE
330
1F
100
AcDbEntity
  8
0
  6
CONTINUOUS
 62
     3
100
AcDbLine
 10
207.7
 20
82.2
 30
0.0
 11
208.0
 21
82.4
 31
0.0
  0
LINE
  5
3EF
330
1F
100
AcDbEntity
  8
0
  6
CONTINUOUS
 62
     3
100
AcDbLine
 10
200.25
 20
82.15
 30
0.0
 11
200.0
 21
82.4
 31
0.0
  0
LINE
  5
3F0
330
1F
100
AcDbEntity
  8
0
  6
CONTINUOUS
 62
     3
100
AcDbLine
 10
200.15
 20
81.85
 30
0.0
 11
199.85
 21
81.6
 31
0.0
  0
LINE
  5
3F1
330
1F
100
AcDbEntity
  8
0
  6
CONTINUOUS
 62
     3
100
AcDbLine
 10
200.15
 20
81.825
 30
0.0
 11
201.05
 21
81.3
 31
0.0
  0
LINE
  5
3F2
330
1F
100
AcDbEntity
  8
0
  6
CONTINUOUS
 62
     3
100
AcDbLine
 10
198.978571429
 20
75.6
 30
0.0
 11
199.835714286
 21
81.6
 31
0.0
  0
LINE
  5
3F3
330
1F
100
AcDbEntity
  8
0
  6
CONTINUOUS
 62
     3
100
AcDbLine
 10
201.2
 20
82.6
 30
0.0
 11
200.25
 21
82.212962963
 31
0.0
  0
LINE
  5
3F4
330
1F
100
AcDbEntity
  8
0
  6
CONTINUOUS
 62
     3
100
AcDbLine
 10
206.35
 20
82.55
 30
0.0
 11
207.3
 21
82.05
 31
0.0
  0
LINE
  5
3F5
330
1F
100
AcDbEntity
  8
0
  6
CONTINUOUS
 62
     3
100
AcDbLine
 10
207.3
 20
82.05
 30
0.0
 11
206.1
 21
81.4
 31
0.0
  0
LINE
  5
3F6
330
1F
100
AcDbEntity
  8
0
  6
CONTINUOUS
 62
     3
100
AcDbLine
 10
201.7
 20
82.6
 30
0.0
 11
200.5
 21
82.0
 31
0.0
  0
LINE
  5
3F7
330
1F
100
AcDbEntity
  8
0
  6
CONTINUOUS
 62
     3
100
AcDbLine
 10
201.3
 20
81.45000000000002
 30
0.0
 11
200.55
 21
81.9
 31
0.0
  0
LINE
  5
3F8
330
1F
100
AcDbEntity
  8
0
  6
CONTINUOUS
 62
     3
100
AcDbLine
 10
207.874545455
 20
81.75
 30
0.0
 11
206.965454545
 21
75.5
 31
0.0
  0
LINE
  5
3F9
330
1F
100
AcDbEntity
  8
0
  6
CONTINUOUS
 62
     3
100
AcDbLine
 10
207.7
 20
82.131818182
 30
0.0
 11
206.75
 21
82.65
 31
0.0
  0
LINE
  5
3FA
330
1F
100
AcDbEntity
  8
0
  6
CONTINUOUS
 62
     3
100
AcDbLine
 10
206.55
 20
81.35
 30
0.0
 11
207.65
 21
81.92200000000001
 31
0.0
  0
LINE
  5
3FB
330
1F
100
AcDbEntity
  8
0
  6
CONTINUOUS
 62
     3
100
AcDbLine
 10
205.7
 20
76.29999999999998
 30
0.0
 11
200.75
 21
76.29999999999998
 31
0.0
  0
LINE
  5
3FC
330
1F
100
AcDbEntity
  8
0
  6
CONTINUOUS
 62
     3
100
AcDbLine
 10
205.7
 20
76.35
 30
0.0
 11
206.5
 21
75.1
 31
0.0
  0
LINE
  5
3FD
330
1F
100
AcDbEntity
  8
0
  6
CONTINUOUS
 62
     3
100
AcDbLine
 10
200.75
 20
76.29999999999998
 30
0.0
 11
199.4
 21
75.1
 31
0.0
  0
POINT
  5
3FE
330
1F
100
AcDbEntity
  8
0
  6
CONTINUOUS
 62
     3
100
AcDbPoint
 10
199.4
 20
75.04999999999998
 30
0.0
  0
LINE
  5
3FF
330
1F
100
AcDbEntity
  8
0
  6
CONTINUOUS
 62
     3
100
AcDbLine
 10
201.35
 20
81.4
 30
0.0
 11
206.1
 21
81.4
 31
0.0
  0
LINE
  5
400
330
1F
100
AcDbEntity
  8
0
  6
CONTINUOUS
 62
     3
100
AcDbLine
 10
206.3
 20
82.65
 30
0.0
 11
201.75
 21
82.65
 31
0.0
  0
LINE
  5
401
330
1F
100
AcDbEntity
  8
0
  6
CONTINUOUS
 62
     3
100
AcDbLine
 10
202.2
 20
87.79999999999998
 30
0.0
 11
201.35
 21
88.8
 31
0.0
  0
LINE
  5
402
330
1F
100
AcDbEntity
  8
0
  6
CONTINUOUS
 62
     3
100
AcDbLine
 10
201.95
 20
87.75
 30
0.0
 11
201.15
 21
88.65
 31
0.0
  0
LINE
  5
403
330
1F
100
AcDbEntity
  8
0
  6
CONTINUOUS
 62
     3
100
AcDbLine
 10
207.25
 20
87.85
 30
0.0
 11
208.45
 21
88.85
 31
0.0
  0
LINE
  5
404
330
1F
100
AcDbEntity
  8
0
  6
CONTINUOUS
 62
     3
100
AcDbLine
 10
208.6
 20
88.65
 30
0.0
 11
207.45
 21
87.65
 31
0.0
  0
LINE
  5
405
330
1F
100
AcDbEntity
  8
0
  6
CONTINUOUS
 62
     3
100
AcDbLine
 10
208.812727273
 20
88.45
 30
0.0
 11
207.961818182
 21
82.35
 31
0.0
  0
LINE
  5
406
330
1F
100
AcDbEntity
  8
0
  6
CONTINUOUS
 62
     3
100
AcDbLine
 10
208.718181818
 20
88.6
 30
0.0
 11
208.8
 21
88.49999999999999
 31
0.0
  0
LINE
  5
407
330
1F
100
AcDbEntity
  8
0
  6
CONTINUOUS
 62
     3
100
AcDbLine
 10
208.35
 20
89.04999999999998
 30
0.0
 11
208.554545455
 21
88.8
 31
0.0
  0
LINE
  5
408
330
1F
100
AcDbEntity
  8
0
  6
CONTINUOUS
 62
     3
100
AcDbLine
 10
206.740909091
 20
82.55
 30
0.0
 11
207.446363636
 21
87.65
 31
0.0
  0
LINE
  5
409
330
1F
100
AcDbEntity
  8
0
  6
CONTINUOUS
 62
     3
100
AcDbLine
 10
201.968181818
 20
87.79999999999998
 30
0.0
 11
201.233636364
 21
82.5
 31
0.0
  0
LINE
  5
40A
330
1F
100
AcDbEntity
  8
0
  6
CONTINUOUS
 62
     3
100
AcDbLine
 10
207.2
 20
87.79999999999998
 30
0.0
 11
202.1
 21
87.79999999999998
 31
0.0
  0
LINE
  5
40B
330
1F
100
AcDbEntity
  8
0
  6
CONTINUOUS
 62
     3
100
AcDbLine
 10
199.985714286
 20
82.4
 30
0.0
 11
200.828571429
 21
88.55
 31
0.0
  0
LINE
  5
40C
330
1F
100
AcDbEntity
  8
0
  6
CONTINUOUS
 62
     3
100
AcDbLine
 10
201.45
 20
89.04999999999998
 30
0.0
 11
208.4
 21
89.04999999999998
 31
0.0
  0
LINE
  5
40D
330
1F
100
AcDbEntity
  8
0
  6
CONTINUOUS
 62
     3
100
AcDbLine
 10
201.45
 20
89.0
 30
0.0
 11
201.4
 21
88.965384616
 31
0.0
  0
LINE
  5
40E
330
1F
100
AcDbEntity
  8
0
  6
CONTINUOUS
 62
     3
100
AcDbLine
 10
201.1
 20
88.75769230799999
 30
0.0
 11
200.8
 21
88.55
 31
0.0
  0
LINE
  5
40F
330
1F
100
AcDbEntity
  8
0
  6
CONTINUOUS
 62
     3
100
AcDbLine
 10
201.35
 20
88.8
 30
0.0
 11
201.3
 21
88.85
 31
0.0
  0
LINE
  5
410
330
1F
100
AcDbEntity
  8
0
  6
CONTINUOUS
 62
     3
100
AcDbLine
 10
201.3
 20
88.85
 30
0.0
 11
201.4
 21
88.95000000000002
 31
0.0
  0
LINE
  5
411
330
1F
100
AcDbEntity
  8
0
  6
CONTINUOUS
 62
     3
100
AcDbLine
 10
201.15
 20
88.65
 30
0.0
 11
201.1
 21
88.75
 31
0.0
  0
LINE
  5
412
330
1F
100
AcDbEntity
  8
0
  6
CONTINUOUS
 62
     3
100
AcDbLine
 10
175.45
 20
89.04999999999998
 30
0.0
 11
182.4
 21
89.04999999999998
 31
0.0
  0
LINE
  5
413
330
1F
100
AcDbEntity
  8
0
  6
CONTINUOUS
 62
     5
100
AcDbLine
 10
162.35
 20
88.8
 30
0.0
 11
162.3
 21
88.85
 31
0.0
  0
LINE
  5
414
330
1F
100
AcDbEntity
  8
0
  6
CONTINUOUS
 62
     5
100
AcDbLine
 10
162.15
 20
88.65
 30
0.0
 11
162.1
 21
88.75
 31
0.0
  0
LINE
  5
415
330
1F
100
AcDbEntity
  8
0
  6
CONTINUOUS
 62
     3
100
AcDbLine
 10
169.645150115
 20
88.68926097
 30
0.0
 11
168.45
 21
87.65
 31
0.0
  0
LINE
  5
416
330
1F
100
AcDbEntity
  8
0
  6
CONTINUOUS
 62
     3
100
AcDbLine
 10
169.645150115
 20
88.68926097
 30
0.0
 11
169.816832187
 21
88.47942732700001
 31
0.0
  0
LINE
  5
417
330
1F
100
AcDbEntity
  8
0
  6
CONTINUOUS
 62
     3
100
AcDbLine
 10
167.754408884
 20
82.64759515399999
 30
0.0
 11
168.446363636
 21
87.65
 31
0.0
  0
LINE
  5
418
330
1F
100
AcDbEntity
  8
0
  6
CONTINUOUS
 62
     3
100
AcDbLine
 10
168.64375
 20
82.1625
 30
0.0
 11
167.754408884
 21
82.64759515399999
 31
0.0
  0
LINE
  5
419
330
1F
100
AcDbEntity
  8
0
  6
CONTINUOUS
 62
     3
100
AcDbLine
 10
169.816832187
 20
88.47942732700001
 30
0.0
 11
168.965593165
 21
82.37706211
 31
0.0
  0
LINE
  5
41A
330
1F
100
AcDbEntity
  8
0
  6
CONTINUOUS
 62
     3
100
AcDbLine
 10
168.64375
 20
82.1625
 30
0.0
 11
168.965593165
 21
82.37706211
 31
0.0
  0
LINE
  5
41B
330
1F
100
AcDbEntity
  8
0
  6
CONTINUOUS
 62
     3
100
AcDbLine
 10
167.16
 20
82.65
 30
0.0
 11
168.3
 21
82.05
 31
0.0
  0
LINE
  5
41C
330
1F
100
AcDbEntity
  8
0
  6
CONTINUOUS
 62
     3
100
AcDbLine
 10
167.16
 20
82.65
 30
0.0
 11
162.8
 21
82.65
 31
0.0
  0
LINE
  5
41D
330
1F
100
AcDbEntity
  8
0
  6
CONTINUOUS
 62
     3
100
AcDbLine
 10
162.8
 20
82.65
 30
0.0
 11
161.436363636
 21
81.968181818
 31
0.0
  0
LINE
  5
41E
330
1F
100
AcDbEntity
  8
0
  6
CONTINUOUS
 62
     3
100
AcDbLine
 10
162.383333333
 20
81.4
 30
0.0
 11
161.436363636
 21
81.968181818
 31
0.0
  0
LINE
  5
41F
330
1F
100
AcDbEntity
  8
0
  6
CONTINUOUS
 62
     3
100
AcDbLine
 10
162.383333333
 20
81.4
 30
0.0
 11
167.1
 21
81.4
 31
0.0
  0
LINE
  5
420
330
1F
100
AcDbEntity
  8
0
  6
CONTINUOUS
 62
     3
100
AcDbLine
 10
168.3
 20
82.05
 30
0.0
 11
167.1
 21
81.4
 31
0.0
  0
LINE
  5
421
330
1F
100
AcDbEntity
  8
0
  6
CONTINUOUS
 62
     3
100
AcDbLine
 10
167.567702596
 20
81.35920535
 30
0.0
 11
168.65
 21
81.92200000000001
 31
0.0
  0
LINE
  5
422
330
1F
100
AcDbEntity
  8
0
  6
CONTINUOUS
 62
     3
100
AcDbLine
 10
168.65
 20
81.9
 30
0.0
 11
168.879661017
 21
81.785169492
 31
0.0
  0
LINE
  5
423
330
1F
100
AcDbEntity
  8
0
  6
CONTINUOUS
 62
     3
100
AcDbLine
 10
168.879661017
 20
81.785169492
 30
0.0
 11
167.965843621
 21
75.50267489699999
 31
0.0
  0
LINE
  5
424
330
1F
100
AcDbEntity
  8
0
  6
CONTINUOUS
 62
     3
100
AcDbLine
 10
167.726086957
 20
75.310869565
 30
0.0
 11
167.965843621
 21
75.50267489699999
 31
0.0
  0
LINE
  5
425
330
1F
100
AcDbEntity
  8
0
  6
CONTINUOUS
 62
     3
100
AcDbLine
 10
166.873880597
 20
76.589179105
 30
0.0
 11
167.726086957
 21
75.310869565
 31
0.0
  0
LINE
  5
426
330
1F
100
AcDbEntity
  8
0
  6
CONTINUOUS
 62
     3
100
AcDbLine
 10
166.873880597
 20
76.589179105
 30
0.0
 11
167.567702596
 21
81.35920535
 31
0.0
  0
LINE
  5
427
330
1F
100
AcDbEntity
  8
0
  6
CONTINUOUS
 62
     5
100
AcDbLine
 10
169.35
 20
89.04999999999998
 30
0.0
 11
169.487837838
 21
88.88153153200001
 31
0.0
  0
LINE
  5
428
330
1F
100
AcDbEntity
  8
0
  6
CONTINUOUS
 62
     5
100
AcDbLine
 10
168.19
 20
87.79999999999998
 30
0.0
 11
169.487837838
 21
88.88153153200001
 31
0.0
  0
LINE
  5
429
330
1F
100
AcDbEntity
  8
0
  6
CONTINUOUS
 62
     5
100
AcDbLine
 10
168.19
 20
87.79999999999998
 30
0.0
 11
163.2
 21
87.79999999999998
 31
0.0
  0
LINE
  5
42A
330
1F
100
AcDbEntity
  8
0
  6
CONTINUOUS
 62
     5
100
AcDbLine
 10
162.959734382
 20
87.73904882
 30
0.0
 11
162.15
 21
88.65
 31
0.0
  0
LINE
  5
42B
330
1F
100
AcDbEntity
  8
0
  6
CONTINUOUS
 62
     5
100
AcDbLine
 10
163.2
 20
87.79999999999998
 30
0.0
 11
162.304054054
 21
88.854054054
 31
0.0
  0
LINE
  5
42C
330
1F
100
AcDbEntity
  8
0
  6
CONTINUOUS
 62
     5
100
AcDbLine
 10
162.522222222
 20
89.04999999999998
 30
0.0
 11
169.35
 21
89.04999999999998
 31
0.0
  0
LINE
  5
42D
330
1F
100
AcDbEntity
  8
0
  6
CONTINUOUS
 62
     5
100
AcDbLine
 10
162.1
 20
88.75769230799999
 30
0.0
 11
161.831566479
 21
88.571853716
 31
0.0
  0
LINE
  5
42E
330
1F
100
AcDbEntity
  8
0
  6
CONTINUOUS
 62
     5
100
AcDbLine
 10
162.304054054
 20
88.854054054
 30
0.0
 11
162.45
 21
89.0
 31
0.0
  0
LINE
  5
42F
330
1F
100
AcDbEntity
  8
0
  6
CONTINUOUS
 62
     5
100
AcDbLine
 10
162.522222222
 20
89.04999999999998
 30
0.0
 11
162.45
 21
89.0
 31
0.0
  0
LINE
  5
430
330
1F
100
AcDbEntity
  8
0
  6
CONTINUOUS
 62
     5
100
AcDbLine
 10
162.959734382
 20
87.73904882
 30
0.0
 11
162.250337997
 21
82.620508073
 31
0.0
  0
LINE
  5
431
330
1F
100
AcDbEntity
  8
0
  6
CONTINUOUS
 62
     5
100
AcDbLine
 10
162.250337997
 20
82.620508073
 30
0.0
 11
161.205263158
 21
82.194736842
 31
0.0
  0
LINE
  5
432
330
1F
100
AcDbEntity
  8
0
  6
CONTINUOUS
 62
     5
100
AcDbLine
 10
160.987436159
 20
82.41256384100001
 30
0.0
 11
161.831566479
 21
88.571853716
 31
0.0
  0
LINE
  5
433
330
1F
100
AcDbEntity
  8
0
  6
CONTINUOUS
 62
     5
100
AcDbLine
 10
161.205263158
 20
82.194736842
 30
0.0
 11
160.987436159
 21
82.41256384100001
 31
0.0
  0
LINE
  5
434
330
1F
100
AcDbEntity
  8
0
  6
CONTINUOUS
 62
     5
100
AcDbLine
 10
161.132352941
 20
81.835294118
 30
0.0
 11
162.05
 21
81.3
 31
0.0
  0
LINE
  5
435
330
1F
100
AcDbEntity
  8
0
  6
CONTINUOUS
 62
     5
100
AcDbLine
 10
161.132352941
 20
81.835294118
 30
0.0
 11
160.833783784
 21
81.58648648699999
 31
0.0
  0
LINE
  5
436
330
1F
100
AcDbEntity
  8
0
  6
CONTINUOUS
 62
     4
100
AcDbLine
 10
210.4
 20
82.05
 30
0.0
 11
210.4
 21
90.65
 31
0.0
  0
LINE
  5
437
330
1F
100
AcDbEntity
  8
0
  6
CONTINUOUS
 62
     4
100
AcDbLine
 10
210.4
 20
90.65
 30
0.0
 11
158.4
 21
90.65
 31
0.0
  0
LINE
  5
438
330
1F
100
AcDbEntity
  8
0
  6
CONTINUOUS
 62
     4
100
AcDbLine
 10
158.4
 20
90.65
 30
0.0
 11
158.4
 21
73.45
 31
0.0
  0
LINE
  5
439
330
1F
100
AcDbEntity
  8
0
  6
CONTINUOUS
 62
     4
100
AcDbLine
 10
158.4
 20
73.45
 30
0.0
 11
210.4
 21
73.45
 31
0.0
  0
LINE
  5
43A
330
1F
100
AcDbEntity
  8
0
  6
CONTINUOUS
 62
     4
100
AcDbLine
 10
210.4
 20
73.45
 30
0.0
 11
210.4
 21
82.05
 31
0.0
  0
POINT
  5
43B
330
1F
100
AcDbEntity
  8
0
  6
CONTINUOUS
 62
     5
100
AcDbPoint
 10
160.4
 20
75.04999999999998
 30
0.0
  0
LINE
  5
43C
330
1F
100
AcDbEntity
  8
0
  6
CONTINUOUS
 62
     5
100
AcDbLine
 10
161.75
 20
76.29999999999998
 30
0.0
 11
160.34375
 21
75.04999999999998
 31
0.0
  0
LINE
  5
43D
330
1F
100
AcDbEntity
  8
0
  6
CONTINUOUS
 62
     5
100
AcDbLine
 10
162.059090909
 20
81.3
 30
0.0
 11
161.328170144
 21
76.27491974299998
 31
0.0
  0
LINE
  5
43E
330
1F
100
AcDbEntity
  8
0
  6
CONTINUOUS
 62
     5
100
AcDbLine
 10
159.984745763
 20
75.643220339
 30
0.0
 11
160.833783784
 21
81.58648648699999
 31
0.0
  0
LINE
  5
43F
330
1F
100
AcDbEntity
  8
0
  6
CONTINUOUS
 62
     5
100
AcDbLine
 10
161.328170144
 20
76.27491974299998
 30
0.0
 11
160.225415677
 21
75.299406176
 31
0.0
  0
LINE
  5
440
330
1F
100
AcDbEntity
  8
0
  6
CONTINUOUS
 62
     5
100
AcDbLine
 10
159.984745763
 20
75.643220339
 30
0.0
 11
160.225415677
 21
75.299406176
 31
0.0
  0
LINE
  5
441
330
1F
100
AcDbEntity
  8
0
  6
CONTINUOUS
 62
     5
100
AcDbLine
 10
166.732
 20
76.29999999999998
 30
0.0
 11
161.75
 21
76.29999999999998
 31
0.0
  0
LINE
  5
442
330
1F
100
AcDbEntity
  8
0
  6
CONTINUOUS
 62
     5
100
AcDbLine
 10
166.732
 20
76.29999999999998
 30
0.0
 11
167.487301587
 21
75.11984127
 31
0.0
  0
LINE
  5
443
330
1F
100
AcDbEntity
  8
0
  6
CONTINUOUS
 62
     5
100
AcDbLine
 10
167.4
 20
75.04999999999998
 30
0.0
 11
167.487301587
 21
75.11984127
 31
0.0
  0
LINE
  5
444
330
1F
100
AcDbEntity
  8
0
  6
CONTINUOUS
 62
     5
100
AcDbLine
 10
167.4
 20
75.04999999999998
 30
0.0
 11
160.34375
 21
75.04999999999998
 31
0.0
  0
LINE
  5
445
330
1F
100
AcDbEntity
  8
0
  6
CONTINUOUS
 62
     3
100
AcDbLine
 10
108.240651474
 20
99.05000000000001
 30
0.0
 11
108.240651474
 21
78.35
 31
0.0
  0
LINE
  5
446
330
1F
100
AcDbEntity
  8
0
  6
CONTINUOUS
 62
     3
100
AcDbLine
 10
108.240651474
 20
78.35
 30
0.0
 11
108.240651474
 21
66.05
 31
0.0
  0
LINE
  5
447
330
1F
100
AcDbEntity
  8
0
  6
CONTINUOUS
 62
     3
100
AcDbLine
 10
103.940651474
 20
99.05000000000001
 30
0.0
 11
103.940651474
 21
100.55
 31
0.0
  0
LINE
  5
448
330
1F
100
AcDbEntity
  8
0
  6
CONTINUOUS
 62
     3
100
AcDbLine
 10
103.940651474
 20
100.55
 30
0.0
 11
109.760477141
 21
100.319054537
 31
0.0
  0
ARC
  5
449
330
1F
100
AcDbEntity
  8
0
  6
CONTINUOUS
 62
     3
100
AcDbCircle
 10
109.740651474
 20
99.819447749
 30
0.0
 40
0.5
100
AcDbArc
 50
0.0
 51
87.72755026700001
  0
LINE
  5
44A
330
1F
100
AcDbEntity
  8
0
  6
CONTINUOUS
 62
     3
100
AcDbLine
 10
102.440651474
 20
100.55
 30
0.0
 11
103.940651474
 21
100.55
 31
0.0
  0
LINE
  5
44B
330
1F
100
AcDbEntity
  8
0
  6
CONTINUOUS
 62
     3
100
AcDbLine
 10
102.440651474
 20
52.54999999999999
 30
0.0
 11
102.440651474
 21
54.2
 31
0.0
  0
LINE
  5
44C
330
1F
100
AcDbEntity
  8
0
  6
CONTINUOUS
 62
     3
100
AcDbLine
 10
102.440651474
 20
52.54999999999999
 30
0.0
 11
103.940651474
 21
52.54999999999999
 31
0.0
  0
LINE
  5
44D
330
1F
100
AcDbEntity
  8
0
  6
CONTINUOUS
 62
     3
100
AcDbLine
 10
110.678363014
 20
52.783287018
 30
0.0
 11
103.940651474
 21
52.54999999999999
 31
0.0
  0
LINE
  5
44E
330
1F
100
AcDbEntity
  8
0
  6
CONTINUOUS
 62
     3
100
AcDbLine
 10
103.940651474
 20
54.05
 30
0.0
 11
103.940651474
 21
52.54999999999999
 31
0.0
  0
ARC
  5
44F
330
1F
100
AcDbEntity
  8
0
  6
CONTINUOUS
 62
     3
100
AcDbCircle
 10
109.78163412
 20
98.55
 30
0.0
 40
0.5
100
AcDbArc
 50
4.89397779
 51
90.0
  0
ARC
  5
450
330
1F
100
AcDbEntity
  8
0
  6
CONTINUOUS
 62
     3
100
AcDbCircle
 10
-162.695179248
 20
74.924654245
 30
0.0
 40
274.0
100
AcDbArc
 50
358.3111226190001
 51
4.955376041
  0
LINE
  5
451
330
1F
100
AcDbEntity
  8
0
  6
CONTINUOUS
 62
     3
100
AcDbLine
 10
110.240651474
 20
99.819447749
 30
0.0
 11
110.240651474
 21
99.20000000000002
 31
0.0
  0
LINE
  5
452
330
1F
100
AcDbEntity
  8
0
  6
CONTINUOUS
 62
     3
100
AcDbLine
 10
108.240651474
 20
99.05000000000001
 30
0.0
 11
110.090651474
 21
99.05000000000001
 31
0.0
  0
ARC
  5
453
330
1F
100
AcDbEntity
  8
0
  6
CONTINUOUS
 62
     3
100
AcDbCircle
 10
110.090651474
 20
99.20000000000002
 30
0.0
 40
0.15
100
AcDbArc
 50
270.0
 51
0.0
  0
ARC
  5
454
330
1F
100
AcDbEntity
  8
0
  6
CONTINUOUS
 62
     3
100
AcDbCircle
 10
110.661061345
 20
65.54999999999998
 30
0.0
 40
0.5
100
AcDbArc
 50
0.0
 51
90.0
  0
LINE
  5
455
330
1F
100
AcDbEntity
  8
0
  6
CONTINUOUS
 62
     3
100
AcDbLine
 10
110.661061345
 20
54.25
 30
0.0
 11
110.661061345
 21
54.05
 31
0.0
  0
ARC
  5
456
330
1F
100
AcDbEntity
  8
0
  6
CONTINUOUS
 62
     3
100
AcDbCircle
 10
110.661061345
 20
54.75
 30
0.0
 40
0.5
100
AcDbArc
 50
270.0
 51
0.0
  0
LINE
  5
457
330
1F
100
AcDbEntity
  8
0
  6
CONTINUOUS
 62
     3
100
AcDbLine
 10
111.161061345
 20
66.55
 30
0.0
 11
111.161061345
 21
66.85
 31
0.0
  0
ARC
  5
458
330
1F
100
AcDbEntity
  8
0
  6
CONTINUOUS
 62
     3
100
AcDbCircle
 10
110.661061345
 20
66.55
 30
0.0
 40
0.5
100
AcDbArc
 50
270.0
 51
0.0
  0
LINE
  5
459
330
1F
100
AcDbEntity
  8
0
  6
CONTINUOUS
 62
     3
100
AcDbLine
 10
111.140651474
 20
53.28298757999999
 30
0.0
 11
111.140651474
 21
53.55
 31
0.0
  0
ARC
  5
45A
330
1F
100
AcDbEntity
  8
0
  6
CONTINUOUS
 62
     3
100
AcDbCircle
 10
110.640651474
 20
53.28298757999999
 30
0.0
 40
0.5
100
AcDbArc
 50
271.983021085
 51
0.0
  0
ARC
  5
45B
330
1F
100
AcDbEntity
  8
0
  6
CONTINUOUS
 62
     3
100
AcDbCircle
 10
110.640651474
 20
53.55
 30
0.0
 40
0.5
100
AcDbArc
 50
0.0
 51
87.66249877599998
  0
LINE
  5
45C
330
1F
100
AcDbEntity
  8
0
  6
CONTINUOUS
 62
     3
100
AcDbLine
 10
111.140651474
 20
54.75
 30
0.0
 11
111.140651474
 21
65.54999999999998
 31
0.0
  0
LINE
  5
45D
330
1F
100
AcDbEntity
  8
0
  6
CONTINUOUS
 62
     3
100
AcDbLine
 10
103.940651474
 20
95.54999999999998
 30
0.0
 11
104.440651474
 21
95.54999999999998
 31
0.0
  0
LINE
  5
45E
330
1F
100
AcDbEntity
  8
0
  6
CONTINUOUS
 62
     3
100
AcDbLine
 10
103.940651474
 20
95.54999999999998
 30
0.0
 11
103.940651474
 21
99.05000000000001
 31
0.0
  0
LINE
  5
45F
330
1F
100
AcDbEntity
  8
0
  6
CONTINUOUS
 62
     3
100
AcDbLine
 10
104.440651474
 20
95.54999999999998
 30
0.0
 11
104.440651474
 21
69.55
 31
0.0
  0
LINE
  5
460
330
1F
100
AcDbEntity
  8
0
  6
CONTINUOUS
 62
     3
100
AcDbLine
 10
103.940651474
 20
57.54999999999999
 30
0.0
 11
104.440651474
 21
57.54999999999999
 31
0.0
  0
LINE
  5
461
330
1F
100
AcDbEntity
  8
0
  6
CONTINUOUS
 62
     3
100
AcDbLine
 10
104.440651474
 20
57.54999999999999
 30
0.0
 11
104.440651474
 21
69.55
 31
0.0
  0
LINE
  5
462
330
1F
100
AcDbEntity
  8
0
  6
CONTINUOUS
 62
     3
100
AcDbLine
 10
103.940651474
 20
57.54999999999999
 30
0.0
 11
103.940651474
 21
54.05
 31
0.0
  0
ARC
  5
463
330
1F
100
AcDbEntity
  8
0
  6
CONTINUOUS
 62
     3
100
AcDbCircle
 10
50.44090834399999
 20
55.543417999
 30
0.0
 40
1.0
100
AcDbArc
 50
180.0
 51
269.621635311
  0
LINE
  5
464
330
1F
100
AcDbEntity
  8
0
  6
CONTINUOUS
 62
     3
100
AcDbLine
 10
49.44090834399999
 20
97.556582001
 30
0.0
 11
49.44090834399999
 21
55.543417999
 31
0.0
  0
ARC
  5
465
330
1F
100
AcDbEntity
  8
0
  6
CONTINUOUS
 62
     3
100
AcDbCircle
 10
50.44090834399999
 20
97.556582001
 30
0.0
 40
1.0
100
AcDbArc
 50
90.378364689
 51
180.0
  0
LINE
  5
466
330
1F
100
AcDbEntity
  8
0
  6
CONTINUOUS
 62
     3
100
AcDbLine
 10
61.040651474
 20
86.05
 30
0.0
 11
61.040651474
 21
67.05
 31
0.0
  0
LINE
  5
467
330
1F
100
AcDbEntity
  8
0
  6
CONTINUOUS
 62
     3
100
AcDbLine
 10
68.540651474
 20
69.05
 30
0.0
 11
68.540651474
 21
67.05
 31
0.0
  0
LINE
  5
468
330
1F
100
AcDbEntity
  8
0
  6
CONTINUOUS
 62
     3
100
AcDbLine
 10
68.540651474
 20
86.05
 30
0.0
 11
68.540651474
 21
84.04999999999998
 31
0.0
  0
LINE
  5
469
330
1F
100
AcDbEntity
  8
0
  6
CONTINUOUS
 62
     3
100
AcDbLine
 10
68.540651474
 20
69.05
 30
0.0
 11
68.540651474
 21
67.05
 31
0.0
  0
LINE
  5
46A
330
1F
100
AcDbEntity
  8
0
  6
CONTINUOUS
 62
     3
100
AcDbLine
 10
68.540651474
 20
86.05
 30
0.0
 11
68.540651474
 21
84.04999999999998
 31
0.0
  0
LINE
  5
46B
330
1F
100
AcDbEntity
  8
0
  6
CONTINUOUS
 62
     3
100
AcDbLine
 10
67.040651474
 20
69.05
 30
0.0
 11
67.040651474
 21
67.05
 31
0.0
  0
LINE
  5
46C
330
1F
100
AcDbEntity
  8
0
  6
CONTINUOUS
 62
     3
100
AcDbLine
 10
67.040651474
 20
86.05
 30
0.0
 11
67.040651474
 21
84.04999999999998
 31
0.0
  0
LINE
  5
46D
330
1F
100
AcDbEntity
  8
0
  6
CONTINUOUS
 62
     3
100
AcDbLine
 10
65.540651474
 20
69.05
 30
0.0
 11
65.540651474
 21
67.05
 31
0.0
  0
LINE
  5
46E
330
1F
100
AcDbEntity
  8
0
  6
CONTINUOUS
 62
     3
100
AcDbLine
 10
65.540651474
 20
86.05
 30
0.0
 11
65.540651474
 21
84.04999999999998
 31
0.0
  0
LINE
  5
46F
330
1F
100
AcDbEntity
  8
0
  6
CONTINUOUS
 62
     3
100
AcDbLine
 10
64.040651474
 20
69.05
 30
0.0
 11
64.040651474
 21
67.05
 31
0.0
  0
LINE
  5
470
330
1F
100
AcDbEntity
  8
0
  6
CONTINUOUS
 62
     3
100
AcDbLine
 10
64.040651474
 20
86.05
 30
0.0
 11
64.040651474
 21
84.04999999999998
 31
0.0
  0
LINE
  5
471
330
1F
100
AcDbEntity
  8
0
  6
CONTINUOUS
 62
     3
100
AcDbLine
 10
65.540651474
 20
69.05
 30
0.0
 11
65.540651474
 21
67.05
 31
0.0
  0
LINE
  5
472
330
1F
100
AcDbEntity
  8
0
  6
CONTINUOUS
 62
     3
100
AcDbLine
 10
65.540651474
 20
86.05
 30
0.0
 11
65.540651474
 21
84.04999999999998
 31
0.0
  0
LINE
  5
473
330
1F
100
AcDbEntity
  8
0
  6
CONTINUOUS
 62
     3
100
AcDbLine
 10
62.54065147399999
 20
69.05
 30
0.0
 11
62.54065147399999
 21
67.05
 31
0.0
  0
LINE
  5
474
330
1F
100
AcDbEntity
  8
0
  6
CONTINUOUS
 62
     3
100
AcDbLine
 10
62.54065147399999
 20
86.05
 30
0.0
 11
62.54065147399999
 21
84.04999999999998
 31
0.0
  0
LINE
  5
475
330
1F
100
AcDbEntity
  8
0
  6
CONTINUOUS
 62
     3
100
AcDbLine
 10
98.308522862
 20
98.872712226
 30
0.0
 11
90.23355315799999
 21
98.81938669600002
 31
0.0
  0
LINE
  5
476
330
1F
100
AcDbEntity
  8
0
  6
CONTINUOUS
 62
     3
100
AcDbLine
 10
98.308522862
 20
54.22728777399999
 30
0.0
 11
90.23355315799999
 21
54.280613304
 31
0.0
  0
LINE
  5
477
330
1F
100
AcDbEntity
  8
0
  6
CONTINUOUS
 62
     3
100
AcDbLine
 10
102.440651474
 20
100.55
 30
0.0
 11
102.440651474
 21
53.55
 31
0.0
  0
LINE
  5
478
330
1F
100
AcDbEntity
  8
0
  6
CONTINUOUS
 62
     3
100
AcDbLine
 10
110.661061345
 20
66.05
 30
0.0
 11
108.240651474
 21
66.05
 31
0.0
  0
LINE
  5
479
330
1F
100
AcDbEntity
  8
0
  6
CONTINUOUS
 62
     3
100
AcDbLine
 10
91.44065147399999
 20
85.05
 30
0.0
 11
83.440651474
 21
85.05
 31
0.0
  0
LINE
  5
47A
330
1F
100
AcDbEntity
  8
0
  6
CONTINUOUS
 62
     3
100
AcDbLine
 10
83.440651474
 20
87.05
 30
0.0
 11
91.44065147399999
 21
87.05
 31
0.0
  0
LINE
  5
47B
330
1F
100
AcDbEntity
  8
0
  6
CONTINUOUS
 62
     3
100
AcDbLine
 10
93.94065147399999
 20
87.05
 30
0.0
 11
95.940651474
 21
87.05
 31
0.0
  0
LINE
  5
47C
330
1F
100
AcDbEntity
  8
0
  6
CONTINUOUS
 62
     3
100
AcDbLine
 10
93.94065147399999
 20
85.05
 30
0.0
 11
95.940651474
 21
85.05
 31
0.0
  0
LINE
  5
47D
330
1F
100
AcDbEntity
  8
0
  6
CONTINUOUS
 62
     3
100
AcDbLine
 10
95.940651474
 20
85.05
 30
0.0
 11
95.940651474
 21
87.05
 31
0.0
  0
LINE
  5
47E
330
1F
100
AcDbEntity
  8
0
  6
CONTINUOUS
 62
     3
100
AcDbLine
 10
95.940651474
 20
88.55
 30
0.0
 11
95.940651474
 21
90.54999999999998
 31
0.0
  0
LINE
  5
47F
330
1F
100
AcDbEntity
  8
0
  6
LTYPE3
 62
     1
100
AcDbLine
 10
91.44065147399999
 20
85.05
 30
0.0
 11
93.94065147399999
 21
85.05
 31
0.0
  0
LINE
  5
480
330
1F
100
AcDbEntity
  8
0
  6
LTYPE3
 62
     1
100
AcDbLine
 10
91.44065147399999
 20
87.05
 30
0.0
 11
93.94065147399999
 21
87.05
 31
0.0
  0
LINE
  5
481
330
1F
100
AcDbEntity
  8
0
  6
CONTINUOUS
 62
     3
100
AcDbLine
 10
93.94065147399999
 20
88.55
 30
0.0
 11
95.940651474
 21
88.55
 31
0.0
  0
LINE
  5
482
330
1F
100
AcDbEntity
  8
0
  6
CONTINUOUS
 62
     3
100
AcDbLine
 10
93.94065147399999
 20
90.54999999999998
 30
0.0
 11
95.940651474
 21
90.54999999999998
 31
0.0
  0
LINE
  5
483
330
1F
100
AcDbEntity
  8
0
  6
CONTINUOUS
 62
     3
100
AcDbLine
 10
83.440651474
 20
90.54999999999998
 30
0.0
 11
91.44065147399999
 21
90.54999999999998
 31
0.0
  0
LINE
  5
484
330
1F
100
AcDbEntity
  8
0
  6
CONTINUOUS
 62
     3
100
AcDbLine
 10
83.440651474
 20
88.55
 30
0.0
 11
91.44065147399999
 21
88.55
 31
0.0
  0
LINE
  5
485
330
1F
100
AcDbEntity
  8
0
  6
LTYPE3
 62
     1
100
AcDbLine
 10
91.44065147399999
 20
88.55
 30
0.0
 11
93.94065147399999
 21
88.55
 31
0.0
  0
LINE
  5
486
330
1F
100
AcDbEntity
  8
0
  6
LTYPE3
 62
     1
100
AcDbLine
 10
91.44065147399999
 20
90.54999999999998
 30
0.0
 11
93.94065147399999
 21
90.54999999999998
 31
0.0
  0
LINE
  5
487
330
1F
100
AcDbEntity
  8
0
  6
LTYPE3
 62
     1
100
AcDbLine
 10
81.94065147399999
 20
88.55
 30
0.0
 11
83.440651474
 21
88.55
 31
0.0
  0
LINE
  5
488
330
1F
100
AcDbEntity
  8
0
  6
LTYPE3
 62
     1
100
AcDbLine
 10
83.440651474
 20
87.05
 30
0.0
 11
81.94065147399999
 21
87.05
 31
0.0
  0
LINE
  5
489
330
1F
100
AcDbEntity
  8
0
  6
LTYPE3
 62
     1
100
AcDbLine
 10
78.44065147399999
 20
87.05
 30
0.0
 11
78.44065147399999
 21
85.05
 31
0.0
  0
LINE
  5
48A
330
1F
100
AcDbEntity
  8
0
  6
LTYPE3
 62
     1
100
AcDbLine
 10
79.040651474
 20
87.05
 30
0.0
 11
78.44065147399999
 21
87.05
 31
0.0
  0
LINE
  5
48B
330
1F
100
AcDbEntity
  8
0
  6
LTYPE3
 62
     1
100
AcDbLine
 10
78.44065147399999
 20
90.54999999999998
 30
0.0
 11
78.44065147399999
 21
88.55
 31
0.0
  0
LINE
  5
48C
330
1F
100
AcDbEntity
  8
0
  6
LTYPE3
 62
     1
100
AcDbLine
 10
78.44065147399999
 20
88.55
 30
0.0
 11
80.54065147400001
 21
88.55
 31
0.0
  0
LINE
  5
48D
330
1F
100
AcDbEntity
  8
0
  6
LTYPE3
 62
     1
100
AcDbLine
 10
78.44065147399999
 20
85.05
 30
0.0
 11
80.54065147400001
 21
85.05
 31
0.0
  0
LINE
  5
48E
330
1F
100
AcDbEntity
  8
0
  6
LTYPE3
 62
     1
100
AcDbLine
 10
81.94065147399999
 20
85.05
 30
0.0
 11
83.440651474
 21
85.05
 31
0.0
  0
LINE
  5
48F
330
1F
100
AcDbEntity
  8
0
  6
LTYPE3
 62
     1
100
AcDbLine
 10
80.54065147400001
 20
85.05
 30
0.0
 11
81.94065147399999
 21
85.05
 31
0.0
  0
LINE
  5
490
330
1F
100
AcDbEntity
  8
0
  6
LTYPE3
 62
     1
100
AcDbLine
 10
80.54065147400001
 20
90.54999999999998
 30
0.0
 11
81.94065147399999
 21
90.54999999999998
 31
0.0
  0
POLYLINE
  5
491
330
1F
100
AcDbEntity
  8
0
  6
LTYPE3
 62
     1
100
AcDb2dPolyline
 66
     1
 10
0.0
 20
0.0
 30
0.0
  0
VERTEX
  5
492
330
491
100
AcDbEntity
  8
0
100
AcDbVertex
100
AcDb2dVertex
 10
81.94065147399999
 20
90.54999999999998
 30
0.0
  0
VERTEX
  5
493
330
491
100
AcDbEntity
  8
0
100
AcDbVertex
100
AcDb2dVertex
 10
82.140651474
 20
90.54999999999998
 30
0.0
  0
VERTEX
  5
494
330
491
100
AcDbEntity
  8
0
100
AcDbVertex
100
AcDb2dVertex
 10
83.440651474
 20
90.54999999999998
 30
0.0
  0
SEQEND
  5
495
330
491
100
AcDbEntity
  8
0
  6
LTYPE3
 62
     1
  0
LINE
  5
496
330
1F
100
AcDbEntity
  8
0
  6
LTYPE3
 62
     1
100
AcDbLine
 10
78.44065147399999
 20
90.54999999999998
 30
0.0
 11
80.54065147400001
 21
90.54999999999998
 31
0.0
  0
LINE
  5
497
330
1F
100
AcDbEntity
  8
0
  6
LTYPE3
 62
     1
100
AcDbLine
 10
80.640651474
 20
88.55
 30
0.0
 11
81.000651474
 21
88.55
 31
0.0
  0
POLYLINE
  5
498
330
1F
100
AcDbEntity
  8
0
  6
LTYPE3
 62
     1
100
AcDb2dPolyline
 66
     1
 10
0.0
 20
0.0
 30
0.0
  0
VERTEX
  5
499
330
498
100
AcDbEntity
  8
0
100
AcDbVertex
100
AcDb2dVertex
 10
81.000651474
 20
88.55
 30
0.0
  0
VERTEX
  5
49A
330
498
100
AcDbEntity
  8
0
100
AcDbVertex
100
AcDb2dVertex
 10
81.100651474
 20
88.55
 30
0.0
  0
VERTEX
  5
49B
330
498
100
AcDbEntity
  8
0
100
AcDbVertex
100
AcDb2dVertex
 10
81.280651474
 20
88.55
 30
0.0
  0
SEQEND
  5
49C
330
498
100
AcDbEntity
  8
0
  6
LTYPE3
 62
     1
  0
POLYLINE
  5
49D
330
1F
100
AcDbEntity
  8
0
  6
LTYPE3
 62
     1
100
AcDb2dPolyline
 66
     1
 10
0.0
 20
0.0
 30
0.0
  0
VERTEX
  5
49E
330
49D
100
AcDbEntity
  8
0
100
AcDbVertex
100
AcDb2dVertex
 10
81.280651474
 20
88.55
 30
0.0
  0
VERTEX
  5
49F
330
49D
100
AcDbEntity
  8
0
100
AcDbVertex
100
AcDb2dVertex
 10
81.530651474
 20
88.55
 30
0.0
  0
VERTEX
  5
4A0
330
49D
100
AcDbEntity
  8
0
100
AcDbVertex
100
AcDb2dVertex
 10
81.74065147399997
 20
88.55
 30
0.0
  0
VERTEX
  5
4A1
330
49D
100
AcDbEntity
  8
0
100
AcDbVertex
100
AcDb2dVertex
 10
81.94065147399999
 20
88.55
 30
0.0
  0
SEQEND
  5
4A2
330
49D
100
AcDbEntity
  8
0
  6
LTYPE3
 62
     1
  0
LINE
  5
4A3
330
1F
100
AcDbEntity
  8
0
  6
LTYPE3
 62
     1
100
AcDbLine
 10
80.54065147400001
 20
87.05
 30
0.0
 11
79.040651474
 21
87.05
 31
0.0
  0
LINE
  5
4A4
330
1F
100
AcDbEntity
  8
0
  6
LTYPE3
 62
     1
100
AcDbLine
 10
81.94065147399999
 20
87.05
 30
0.0
 11
80.54065147400001
 21
87.05
 31
0.0
  0
LINE
  5
4A5
330
1F
100
AcDbEntity
  8
0
  6
CONTINUOUS
 62
     3
100
AcDbLine
 10
91.44065147399999
 20
68.04999999999998
 30
0.0
 11
83.440651474
 21
68.04999999999998
 31
0.0
  0
LINE
  5
4A6
330
1F
100
AcDbEntity
  8
0
  6
CONTINUOUS
 62
     3
100
AcDbLine
 10
83.440651474
 20
66.05
 30
0.0
 11
91.44065147399999
 21
66.05
 31
0.0
  0
LINE
  5
4A7
330
1F
100
AcDbEntity
  8
0
  6
CONTINUOUS
 62
     3
100
AcDbLine
 10
93.94065147399999
 20
66.05
 30
0.0
 11
95.940651474
 21
66.05
 31
0.0
  0
LINE
  5
4A8
330
1F
100
AcDbEntity
  8
0
  6
CONTINUOUS
 62
     3
100
AcDbLine
 10
93.94065147399999
 20
68.04999999999998
 30
0.0
 11
95.940651474
 21
68.04999999999998
 31
0.0
  0
LINE
  5
4A9
330
1F
100
AcDbEntity
  8
0
  6
CONTINUOUS
 62
     3
100
AcDbLine
 10
95.940651474
 20
68.04999999999998
 30
0.0
 11
95.940651474
 21
66.05
 31
0.0
  0
LINE
  5
4AA
330
1F
100
AcDbEntity
  8
0
  6
CONTINUOUS
 62
     3
100
AcDbLine
 10
95.940651474
 20
64.55
 30
0.0
 11
95.940651474
 21
62.54999999999999
 31
0.0
  0
LINE
  5
4AB
330
1F
100
AcDbEntity
  8
0
  6
LTYPE3
 62
     1
100
AcDbLine
 10
91.44065147399999
 20
68.04999999999998
 30
0.0
 11
93.94065147399999
 21
68.04999999999998
 31
0.0
  0
LINE
  5
4AC
330
1F
100
AcDbEntity
  8
0
  6
LTYPE3
 62
     1
100
AcDbLine
 10
91.44065147399999
 20
66.05
 30
0.0
 11
93.94065147399999
 21
66.05
 31
0.0
  0
LINE
  5
4AD
330
1F
100
AcDbEntity
  8
0
  6
CONTINUOUS
 62
     3
100
AcDbLine
 10
93.94065147399999
 20
64.55
 30
0.0
 11
95.940651474
 21
64.55
 31
0.0
  0
LINE
  5
4AE
330
1F
100
AcDbEntity
  8
0
  6
CONTINUOUS
 62
     3
100
AcDbLine
 10
93.94065147399999
 20
62.54999999999999
 30
0.0
 11
95.940651474
 21
62.54999999999999
 31
0.0
  0
LINE
  5
4AF
330
1F
100
AcDbEntity
  8
0
  6
CONTINUOUS
 62
     3
100
AcDbLine
 10
83.440651474
 20
62.54999999999999
 30
0.0
 11
91.44065147399999
 21
62.54999999999999
 31
0.0
  0
LINE
  5
4B0
330
1F
100
AcDbEntity
  8
0
  6
CONTINUOUS
 62
     3
100
AcDbLine
 10
83.440651474
 20
64.55
 30
0.0
 11
91.44065147399999
 21
64.55
 31
0.0
  0
LINE
  5
4B1
330
1F
100
AcDbEntity
  8
0
  6
LTYPE3
 62
     1
100
AcDbLine
 10
91.44065147399999
 20
64.55
 30
0.0
 11
93.94065147399999
 21
64.55
 31
0.0
  0
LINE
  5
4B2
330
1F
100
AcDbEntity
  8
0
  6
LTYPE3
 62
     1
100
AcDbLine
 10
91.44065147399999
 20
62.54999999999999
 30
0.0
 11
93.94065147399999
 21
62.54999999999999
 31
0.0
  0
LINE
  5
4B3
330
1F
100
AcDbEntity
  8
0
  6
LTYPE3
 62
     1
100
AcDbLine
 10
81.94065147399999
 20
64.55
 30
0.0
 11
83.440651474
 21
64.55
 31
0.0
  0
LINE
  5
4B4
330
1F
100
AcDbEntity
  8
0
  6
LTYPE3
 62
     1
100
AcDbLine
 10
83.440651474
 20
66.05
 30
0.0
 11
81.94065147399999
 21
66.05
 31
0.0
  0
LINE
  5
4B5
330
1F
100
AcDbEntity
  8
0
  6
LTYPE3
 62
     1
100
AcDbLine
 10
78.44065147399999
 20
66.05
 30
0.0
 11
78.44065147399999
 21
68.04999999999998
 31
0.0
  0
LINE
  5
4B6
330
1F
100
AcDbEntity
  8
0
  6
LTYPE3
 62
     1
100
AcDbLine
 10
79.040651474
 20
66.05
 30
0.0
 11
78.44065147399999
 21
66.05
 31
0.0
  0
LINE
  5
4B7
330
1F
100
AcDbEntity
  8
0
  6
LTYPE3
 62
     1
100
AcDbLine
 10
78.44065147399999
 20
62.54999999999999
 30
0.0
 11
78.44065147399999
 21
64.55
 31
0.0
  0
LINE
  5
4B8
330
1F
100
AcDbEntity
  8
0
  6
LTYPE3
 62
     1
100
AcDbLine
 10
78.44065147399999
 20
64.55
 30
0.0
 11
80.54065147400001
 21
64.55
 31
0.0
  0
LINE
  5
4B9
330
1F
100
AcDbEntity
  8
0
  6
LTYPE3
 62
     1
100
AcDbLine
 10
78.44065147399999
 20
68.04999999999998
 30
0.0
 11
80.54065147400001
 21
68.04999999999998
 31
0.0
  0
LINE
  5
4BA
330
1F
100
AcDbEntity
  8
0
  6
LTYPE3
 62
     1
100
AcDbLine
 10
81.94065147399999
 20
68.04999999999998
 30
0.0
 11
83.440651474
 21
68.04999999999998
 31
0.0
  0
LINE
  5
4BB
330
1F
100
AcDbEntity
  8
0
  6
LTYPE3
 62
     1
100
AcDbLine
 10
80.54065147400001
 20
68.04999999999998
 30
0.0
 11
81.94065147399999
 21
68.04999999999998
 31
0.0
  0
LINE
  5
4BC
330
1F
100
AcDbEntity
  8
0
  6
LTYPE3
 62
     1
100
AcDbLine
 10
80.54065147400001
 20
62.54999999999999
 30
0.0
 11
81.94065147399999
 21
62.54999999999999
 31
0.0
  0
POLYLINE
  5
4BD
330
1F
100
AcDbEntity
  8
0
  6
LTYPE3
 62
     1
100
AcDb2dPolyline
 66
     1
 10
0.0
 20
0.0
 30
0.0
  0
VERTEX
  5
4BE
330
4BD
100
AcDbEntity
  8
0
100
AcDbVertex
100
AcDb2dVertex
 10
81.94065147399999
 20
62.54999999999999
 30
0.0
  0
VERTEX
  5
4BF
330
4BD
100
AcDbEntity
  8
0
100
AcDbVertex
100
AcDb2dVertex
 10
82.140651474
 20
62.54999999999999
 30
0.0
  0
VERTEX
  5
4C0
330
4BD
100
AcDbEntity
  8
0
100
AcDbVertex
100
AcDb2dVertex
 10
83.440651474
 20
62.54999999999999
 30
0.0
  0
SEQEND
  5
4C1
330
4BD
100
AcDbEntity
  8
0
  6
LTYPE3
 62
     1
  0
LINE
  5
4C2
330
1F
100
AcDbEntity
  8
0
  6
LTYPE3
 62
     1
100
AcDbLine
 10
78.44065147399999
 20
62.54999999999999
 30
0.0
 11
80.54065147400001
 21
62.54999999999999
 31
0.0
  0
POLYLINE
  5
4C3
330
1F
100
AcDbEntity
  8
0
  6
LTYPE3
 62
     1
100
AcDb2dPolyline
 66
     1
 10
0.0
 20
0.0
 30
0.0
  0
VERTEX
  5
4C4
330
4C3
100
AcDbEntity
  8
0
100
AcDbVertex
100
AcDb2dVertex
 10
81.000651474
 20
64.55
 30
0.0
  0
VERTEX
  5
4C5
330
4C3
100
AcDbEntity
  8
0
100
AcDbVertex
100
AcDb2dVertex
 10
81.100651474
 20
64.55
 30
0.0
  0
VERTEX
  5
4C6
330
4C3
100
AcDbEntity
  8
0
100
AcDbVertex
100
AcDb2dVertex
 10
81.280651474
 20
64.55
 30
0.0
  0
SEQEND
  5
4C7
330
4C3
100
AcDbEntity
  8
0
  6
LTYPE3
 62
     1
  0
POLYLINE
  5
4C8
330
1F
100
AcDbEntity
  8
0
  6
LTYPE3
 62
     1
100
AcDb2dPolyline
 66
     1
 10
0.0
 20
0.0
 30
0.0
  0
VERTEX
  5
4C9
330
4C8
100
AcDbEntity
  8
0
100
AcDbVertex
100
AcDb2dVertex
 10
81.280651474
 20
64.55
 30
0.0
  0
VERTEX
  5
4CA
330
4C8
100
AcDbEntity
  8
0
100
AcDbVertex
100
AcDb2dVertex
 10
81.530651474
 20
64.55
 30
0.0
  0
VERTEX
  5
4CB
330
4C8
100
AcDbEntity
  8
0
100
AcDbVertex
100
AcDb2dVertex
 10
81.74065147399997
 20
64.55
 30
0.0
  0
VERTEX
  5
4CC
330
4C8
100
AcDbEntity
  8
0
100
AcDbVertex
100
AcDb2dVertex
 10
81.94065147399999
 20
64.55
 30
0.0
  0
SEQEND
  5
4CD
330
4C8
100
AcDbEntity
  8
0
  6
LTYPE3
 62
     1
  0
LINE
  5
4CE
330
1F
100
AcDbEntity
  8
0
  6
LTYPE3
 62
     1
100
AcDbLine
 10
80.54065147400001
 20
66.05
 30
0.0
 11
79.040651474
 21
66.05
 31
0.0
  0
LINE
  5
4CF
330
1F
100
AcDbEntity
  8
0
  6
LTYPE3
 62
     1
100
AcDbLine
 10
81.94065147399999
 20
66.05
 30
0.0
 11
80.54065147400001
 21
66.05
 31
0.0
  0
ARC
  5
4D0
330
1F
100
AcDbEntity
  8
0
  6
CONTINUOUS
 62
     2
100
AcDbCircle
 10
87.440394605
 20
92.94999999999999
 30
0.0
 40
6.5
100
AcDbArc
 50
0.0
 51
180.0
  0
ARC
  5
4D1
330
1F
100
AcDbEntity
  8
0
  6
CONTINUOUS
 62
     2
100
AcDbCircle
 10
101.940394605
 20
99.55
 30
0.0
 40
0.5
100
AcDbArc
 50
0.0
 51
90.0
  0
LINE
  5
4D2
330
1F
100
AcDbEntity
  8
0
  6
CONTINUOUS
 62
     2
100
AcDbLine
 10
102.440394605
 20
99.55
 30
0.0
 11
102.440394605
 21
98.257106781
 31
0.0
  0
LINE
  5
4D3
330
1F
100
AcDbEntity
  8
0
  6
CONTINUOUS
 62
     2
100
AcDbLine
 10
79.040394605
 20
99.15
 30
0.0
 11
79.040394605
 21
91.75
 31
0.0
  0
ARC
  5
4D4
330
1F
100
AcDbEntity
  8
0
  6
CONTINUOUS
 62
     2
100
AcDbCircle
 10
78.040394605
 20
99.15
 30
0.0
 40
1.0
100
AcDbArc
 50
0.0
 51
90.0
  0
LINE
  5
4D5
330
1F
100
AcDbEntity
  8
0
  6
CONTINUOUS
 62
     2
100
AcDbLine
 10
54.440394605
 20
100.15
 30
0.0
 11
78.040394605
 21
100.15
 31
0.0
  0
ARC
  5
4D6
330
1F
100
AcDbEntity
  8
0
  6
CONTINUOUS
 62
     2
100
AcDbCircle
 10
99.29627802600002
 20
99.05000000000001
 30
0.0
 40
1.0
100
AcDbArc
 50
90.0
 51
171.119340849
  0
LINE
  5
4D7
330
1F
100
AcDbEntity
  8
0
  6
CONTINUOUS
 62
     2
100
AcDbLine
 10
101.940394605
 20
100.05
 30
0.0
 11
99.29627802600002
 21
100.05
 31
0.0
  0
LINE
  5
4D8
330
1F
100
AcDbEntity
  8
0
  6
CONTINUOUS
 62
     2
100
AcDbLine
 10
101.940394605
 20
100.05
 30
0.0
 11
99.29627802600002
 21
100.05
 31
0.0
  0
LINE
  5
4D9
330
1F
100
AcDbEntity
  8
0
  6
CONTINUOUS
 62
     2
100
AcDbLine
 10
96.07252321799999
 20
84.89562312
 30
0.0
 11
98.30826599299999
 21
99.20437687999998
 31
0.0
  0
LINE
  5
4DA
330
1F
100
AcDbEntity
  8
0
  6
CONTINUOUS
 62
     2
100
AcDbLine
 10
88.440394605
 20
84.04999999999998
 30
0.0
 11
88.440394605
 21
76.05
 31
0.0
  0
ARC
  5
4DB
330
1F
100
AcDbEntity
  8
0
  6
CONTINUOUS
 62
     2
100
AcDbCircle
 10
87.440394605
 20
60.15
 30
0.0
 40
4.0
100
AcDbArc
 50
180.0
 51
270.0
  0
POINT
  5
4DC
330
1F
100
AcDbEntity
  8
0
  6
CONTINUOUS
 62
     2
100
AcDbPoint
 10
87.440394605
 20
56.15
 30
0.0
  0
ARC
  5
4DD
330
1F
100
AcDbEntity
  8
0
  6
CONTINUOUS
 62
     2
100
AcDbCircle
 10
87.440394605
 20
60.15
 30
0.0
 40
4.0
100
AcDbArc
 50
270.0
 51
0.0
  0
ARC
  5
4DE
330
1F
100
AcDbEntity
  8
0
  6
CONTINUOUS
 62
     2
100
AcDbCircle
 10
87.440394605
 20
60.15
 30
0.0
 40
6.5
100
AcDbArc
 50
180.0
 51
0.0
  0
LINE
  5
4DF
330
1F
100
AcDbEntity
  8
0
  6
CONTINUOUS
 62
     2
100
AcDbLine
 10
88.440394605
 20
69.05
 30
0.0
 11
88.440394605
 21
76.05
 31
0.0
  0
LINE
  5
4E0
330
1F
100
AcDbEntity
  8
0
  6
CONTINUOUS
 62
     2
100
AcDbLine
 10
83.440394605
 20
62.05
 30
0.0
 11
83.440394605
 21
60.15
 31
0.0
  0
ARC
  5
4E1
330
1F
100
AcDbEntity
  8
0
  6
CONTINUOUS
 62
     2
100
AcDbCircle
 10
101.940394605
 20
53.55
 30
0.0
 40
0.5
100
AcDbArc
 50
270.0
 51
0.0
  0
LINE
  5
4E2
330
1F
100
AcDbEntity
  8
0
  6
CONTINUOUS
 62
     2
100
AcDbLine
 10
102.440394605
 20
53.55
 30
0.0
 11
102.440394605
 21
54.842893219
 31
0.0
  0
LINE
  5
4E3
330
1F
100
AcDbEntity
  8
0
  6
CONTINUOUS
 62
     2
100
AcDbLine
 10
102.293947996
 20
55.196446609
 30
0.0
 11
101.440394605
 21
56.05
 31
0.0
  0
ARC
  5
4E4
330
1F
100
AcDbEntity
  8
0
  6
CONTINUOUS
 62
     2
100
AcDbCircle
 10
101.940394605
 20
54.842893219
 30
0.0
 40
0.5
100
AcDbArc
 50
0.0
 51
45.0
  0
LINE
  5
4E5
330
1F
100
AcDbEntity
  8
0
  6
CONTINUOUS
 62
     2
100
AcDbLine
 10
88.440394605
 20
69.05
 30
0.0
 11
90.440394605
 21
69.05
 31
0.0
  0
LINE
  5
4E6
330
1F
100
AcDbEntity
  8
0
  6
CONTINUOUS
 62
     2
100
AcDbLine
 10
91.440394605
 20
68.04999999999998
 30
0.0
 11
91.440394605
 21
60.15
 31
0.0
  0
ARC
  5
4E7
330
1F
100
AcDbEntity
  8
0
  6
CONTINUOUS
 62
     2
100
AcDbCircle
 10
90.440394605
 20
68.04999999999998
 30
0.0
 40
1.0
100
AcDbArc
 50
0.0
 51
90.0
  0
LINE
  5
4E8
330
1F
100
AcDbEntity
  8
0
  6
CONTINUOUS
 62
     2
100
AcDbLine
 10
93.940394605
 20
68.04999999999998
 30
0.0
 11
93.940394605
 21
60.15
 31
0.0
  0
ARC
  5
4E9
330
1F
100
AcDbEntity
  8
0
  6
CONTINUOUS
 62
     2
100
AcDbCircle
 10
94.940394605
 20
68.04999999999998
 30
0.0
 40
1.0
100
AcDbArc
 50
90.0
 51
180.0
  0
LINE
  5
4EA
330
1F
100
AcDbEntity
  8
0
  6
CONTINUOUS
 62
     2
100
AcDbLine
 10
95.084511184
 20
69.05
 30
0.0
 11
94.940394605
 21
69.05
 31
0.0
  0
ARC
  5
4EB
330
1F
100
AcDbEntity
  8
0
  6
CONTINUOUS
 62
     2
100
AcDbCircle
 10
95.084511184
 20
68.04999999999998
 30
0.0
 40
1.0
100
AcDbArc
 50
8.880659151
 51
90.0
  0
LINE
  5
4EC
330
1F
100
AcDbEntity
  8
0
  6
CONTINUOUS
 62
     2
100
AcDbLine
 10
80.940394605
 20
60.15
 30
0.0
 11
80.940394605
 21
61.05
 31
0.0
  0
ARC
  5
4ED
330
1F
100
AcDbEntity
  8
0
  6
CONTINUOUS
 62
     2
100
AcDbCircle
 10
79.940394605
 20
61.05
 30
0.0
 40
1.0
100
AcDbArc
 50
0.0
 51
90.0
  0
LINE
  5
4EE
330
1F
100
AcDbEntity
  8
0
  6
CONTINUOUS
 62
     2
100
AcDbLine
 10
79.940394605
 20
62.05
 30
0.0
 11
79.740394605
 21
62.05
 31
0.0
  0
ARC
  5
4EF
330
1F
100
AcDbEntity
  8
0
  6
CONTINUOUS
 62
     2
100
AcDbCircle
 10
79.740394605
 20
61.35
 30
0.0
 40
0.7
100
AcDbArc
 50
90.0
 51
180.0
  0
LINE
  5
4F0
330
1F
100
AcDbEntity
  8
0
  6
CONTINUOUS
 62
     2
100
AcDbLine
 10
79.040394605
 20
53.95
 30
0.0
 11
79.040394605
 21
61.35
 31
0.0
  0
ARC
  5
4F1
330
1F
100
AcDbEntity
  8
0
  6
CONTINUOUS
 62
     2
100
AcDbCircle
 10
78.040394605
 20
53.95
 30
0.0
 40
1.0
100
AcDbArc
 50
270.0
 51
0.0
  0
POINT
  5
4F2
330
1F
100
AcDbEntity
  8
0
  6
CONTINUOUS
 62
     2
100
AcDbPoint
 10
99.409144605
 20
73.55
 30
0.0
  0
LINE
  5
4F3
330
1F
100
AcDbEntity
  8
0
  6
CONTINUOUS
 62
     2
100
AcDbLine
 10
56.04039460500001
 20
56.15
 30
0.0
 11
56.04039460500001
 21
54.15
 31
0.0
  0
LINE
  5
4F4
330
1F
100
AcDbEntity
  8
0
  6
CONTINUOUS
 62
     2
100
AcDbLine
 10
53.440394605
 20
53.95
 30
0.0
 11
53.440394605
 21
76.55
 31
0.0
  0
ARC
  5
4F5
330
1F
100
AcDbEntity
  8
0
  6
CONTINUOUS
 62
     2
100
AcDbCircle
 10
54.440394605
 20
53.95
 30
0.0
 40
1.0
100
AcDbArc
 50
180.0
 51
270.0
  0
LINE
  5
4F6
330
1F
100
AcDbEntity
  8
0
  6
CONTINUOUS
 62
     2
100
AcDbLine
 10
60.440394605
 20
76.55
 30
0.0
 11
60.440394605
 21
85.05
 31
0.0
  0
LINE
  5
4F7
330
1F
100
AcDbEntity
  8
0
  6
CONTINUOUS
 62
     2
100
AcDbLine
 10
62.440394605
 20
76.55
 30
0.0
 11
62.440394605
 21
84.04999999999998
 31
0.0
  0
LINE
  5
4F8
330
1F
100
AcDbEntity
  8
0
  6
CONTINUOUS
 62
     2
100
AcDbLine
 10
62.440394605
 20
76.55
 30
0.0
 11
62.440394605
 21
69.05
 31
0.0
  0
LINE
  5
4F9
330
1F
100
AcDbEntity
  8
0
  6
CONTINUOUS
 62
     2
100
AcDbLine
 10
60.440394605
 20
76.55
 30
0.0
 11
60.440394605
 21
68.04999999999998
 31
0.0
  0
ARC
  5
4FA
330
1F
100
AcDbEntity
  8
0
  6
CONTINUOUS
 62
     2
100
AcDbCircle
 10
61.440394605
 20
68.04999999999998
 30
0.0
 40
1.0
100
AcDbArc
 50
180.0
 51
270.0
  0
LINE
  5
4FB
330
1F
100
AcDbEntity
  8
0
  6
CONTINUOUS
 62
     2
100
AcDbLine
 10
75.440394605
 20
67.05
 30
0.0
 11
75.440394605
 21
69.05
 31
0.0
  0
LINE
  5
4FC
330
1F
100
AcDbEntity
  8
0
  6
CONTINUOUS
 62
     2
100
AcDbLine
 10
62.440394605
 20
69.05
 30
0.0
 11
75.440394605
 21
69.05
 31
0.0
  0
LINE
  5
4FD
330
1F
100
AcDbEntity
  8
0
  6
CONTINUOUS
 62
     2
100
AcDbLine
 10
71.040394605
 20
56.15
 30
0.0
 11
71.040394605
 21
54.15
 31
0.0
  0
LINE
  5
4FE
330
1F
100
AcDbEntity
  8
0
  6
CONTINUOUS
 62
     2
100
AcDbLine
 10
62.040394605
 20
54.15
 30
0.0
 11
62.040394605
 21
56.15
 31
0.0
  0
LINE
  5
4FF
330
1F
100
AcDbEntity
  8
0
  6
CONTINUOUS
 62
     2
100
AcDbLine
 10
77.040394605
 20
56.15
 30
0.0
 11
71.040394605
 21
56.15
 31
0.0
  0
LINE
  5
500
330
1F
100
AcDbEntity
  8
0
  6
CONTINUOUS
 62
     2
100
AcDbLine
 10
62.040394605
 20
56.15
 30
0.0
 11
56.04039460500001
 21
56.15
 31
0.0
  0
LINE
  5
501
330
1F
100
AcDbEntity
  8
0
  6
CONTINUOUS
 62
     2
100
AcDbLine
 10
54.440394605
 20
52.95
 30
0.0
 11
78.040394605
 21
52.95
 31
0.0
  0
LINE
  5
502
330
1F
100
AcDbEntity
  8
0
  6
CONTINUOUS
 62
     2
100
AcDbLine
 10
86.440394605
 20
84.04999999999998
 30
0.0
 11
86.440394605
 21
76.05
 31
0.0
  0
LINE
  5
503
330
1F
100
AcDbEntity
  8
0
  6
CONTINUOUS
 62
     2
100
AcDbLine
 10
86.440394605
 20
69.05
 30
0.0
 11
86.440394605
 21
76.05
 31
0.0
  0
LINE
  5
504
330
1F
100
AcDbEntity
  8
0
  6
CONTINUOUS
 62
     2
100
AcDbLine
 10
86.440394605
 20
69.05
 30
0.0
 11
84.440394605
 21
69.05
 31
0.0
  0
ARC
  5
505
330
1F
100
AcDbEntity
  8
0
  6
CONTINUOUS
 62
     2
100
AcDbCircle
 10
84.440394605
 20
68.04999999999998
 30
0.0
 40
1.0
100
AcDbArc
 50
90.0
 51
180.0
  0
LINE
  5
506
330
1F
100
AcDbEntity
  8
0
  6
CONTINUOUS
 62
     2
100
AcDbLine
 10
83.440394605
 20
62.05
 30
0.0
 11
83.440394605
 21
68.04999999999998
 31
0.0
  0
LINE
  5
507
330
1F
100
AcDbEntity
  8
0
  6
CONTINUOUS
 62
     2
100
AcDbLine
 10
61.440394605
 20
67.05
 30
0.0
 11
75.440394605
 21
67.05
 31
0.0
  0
LINE
  5
508
330
1F
100
AcDbEntity
  8
0
  6
CONTINUOUS
 62
     2
100
AcDbLine
 10
99.409144605
 20
69.05
 30
0.0
 11
101.440394605
 21
56.05
 31
0.0
  0
LINE
  5
509
330
1F
100
AcDbEntity
  8
0
  6
CONTINUOUS
 62
     2
100
AcDbLine
 10
96.07252321799999
 20
68.20437688
 30
0.0
 11
98.30826599299999
 21
53.89562312
 31
0.0
  0
LINE
  5
50A
330
1F
100
AcDbEntity
  8
0
  6
CONTINUOUS
 62
     2
100
AcDbLine
 10
101.940394605
 20
53.04999999999999
 30
0.0
 11
99.29627802600002
 21
53.04999999999999
 31
0.0
  0
ARC
  5
50B
330
1F
100
AcDbEntity
  8
0
  6
CONTINUOUS
 62
     2
100
AcDbCircle
 10
99.29627802600002
 20
54.05
 30
0.0
 40
1.0
100
AcDbArc
 50
188.880659151
 51
270.0
  0
LINE
  5
50C
330
1F
100
AcDbEntity
  8
0
  6
CONTINUOUS
 62
     2
100
AcDbLine
 10
100.409144605
 20
78.55
 30
0.0
 11
100.409144605
 21
75.54999999999998
 31
0.0
  0
LINE
  5
50D
330
1F
100
AcDbEntity
  8
0
  6
CONTINUOUS
 62
     2
100
AcDbLine
 10
100.409144605
 20
74.55
 30
0.0
 11
100.409144605
 21
77.54999999999998
 31
0.0
  0
LINE
  5
50E
330
1F
100
AcDbEntity
  8
0
  6
CONTINUOUS
 62
     2
100
AcDbLine
 10
99.409144605
 20
79.55
 30
0.0
 11
99.409144605
 21
84.04999999999998
 31
0.0
  0
ARC
  5
50F
330
1F
100
AcDbEntity
  8
0
  6
CONTINUOUS
 62
     2
100
AcDbCircle
 10
99.409144605
 20
78.55
 30
0.0
 40
1.0
100
AcDbArc
 50
0.0
 51
90.0
  0
ARC
  5
510
330
1F
100
AcDbEntity
  8
0
  6
CONTINUOUS
 62
     2
100
AcDbCircle
 10
99.409144605
 20
74.55
 30
0.0
 40
1.0
100
AcDbArc
 50
270.0
 51
0.0
  0
LINE
  5
511
330
1F
100
AcDbEntity
  8
0
  6
CONTINUOUS
 62
     2
100
AcDbLine
 10
99.409144605
 20
69.05
 30
0.0
 11
99.409144605
 21
73.55
 31
0.0
  0
ARC
  5
512
330
1F
100
AcDbEntity
  8
0
  6
CONTINUOUS
 62
     2
100
AcDbCircle
 10
87.440394605
 20
92.94999999999999
 30
0.0
 40
4.0
100
AcDbArc
 50
90.0
 51
180.0
  0
ARC
  5
513
330
1F
100
AcDbEntity
  8
0
  6
CONTINUOUS
 62
     2
100
AcDbCircle
 10
87.440394605
 20
92.94999999999999
 30
0.0
 40
4.0
100
AcDbArc
 50
0.0
 51
90.0
  0
LINE
  5
514
330
1F
100
AcDbEntity
  8
0
  6
CONTINUOUS
 62
     2
100
AcDbLine
 10
91.440394605
 20
92.94999999999999
 30
0.0
 11
91.440394605
 21
91.05
 31
0.0
  0
LINE
  5
515
330
1F
100
AcDbEntity
  8
0
  6
CONTINUOUS
 62
     2
100
AcDbLine
 10
83.440394605
 20
92.94999999999999
 30
0.0
 11
83.440394605
 21
91.05
 31
0.0
  0
ARC
  5
516
330
1F
100
AcDbEntity
  8
0
  6
CONTINUOUS
 62
     2
100
AcDbCircle
 10
79.740394605
 20
91.75
 30
0.0
 40
0.7
100
AcDbArc
 50
180.0
 51
270.0
  0
LINE
  5
517
330
1F
100
AcDbEntity
  8
0
  6
CONTINUOUS
 62
     2
100
AcDbLine
 10
79.940394605
 20
91.05
 30
0.0
 11
79.740394605
 21
91.05
 31
0.0
  0
LINE
  5
518
330
1F
100
AcDbEntity
  8
0
  6
CONTINUOUS
 62
     2
100
AcDbLine
 10
80.940394605
 20
92.94999999999999
 30
0.0
 11
80.940394605
 21
92.05
 31
0.0
  0
ARC
  5
519
330
1F
100
AcDbEntity
  8
0
  6
CONTINUOUS
 62
     2
100
AcDbCircle
 10
79.940394605
 20
92.05
 30
0.0
 40
1.0
100
AcDbArc
 50
270.0
 51
0.0
  0
LINE
  5
51A
330
1F
100
AcDbEntity
  8
0
  6
CONTINUOUS
 62
     2
100
AcDbLine
 10
102.293947996
 20
97.90355339100002
 30
0.0
 11
101.440394605
 21
97.05
 31
0.0
  0
ARC
  5
51B
330
1F
100
AcDbEntity
  8
0
  6
CONTINUOUS
 62
     2
100
AcDbCircle
 10
101.940394605
 20
98.257106781
 30
0.0
 40
0.5
100
AcDbArc
 50
315.0
 51
0.0
  0
LINE
  5
51C
330
1F
100
AcDbEntity
  8
0
  6
CONTINUOUS
 62
     2
100
AcDbLine
 10
75.440394605
 20
86.05
 30
0.0
 11
75.440394605
 21
84.04999999999998
 31
0.0
  0
ARC
  5
51D
330
1F
100
AcDbEntity
  8
0
  6
CONTINUOUS
 62
     2
100
AcDbCircle
 10
94.940394605
 20
85.05
 30
0.0
 40
1.0
100
AcDbArc
 50
180.0
 51
270.0
  0
LINE
  5
51E
330
1F
100
AcDbEntity
  8
0
  6
CONTINUOUS
 62
     2
100
AcDbLine
 10
95.084511184
 20
84.04999999999998
 30
0.0
 11
94.940394605
 21
84.04999999999998
 31
0.0
  0
ARC
  5
51F
330
1F
100
AcDbEntity
  8
0
  6
CONTINUOUS
 62
     2
100
AcDbCircle
 10
95.084511184
 20
85.05
 30
0.0
 40
1.0
100
AcDbArc
 50
270.0
 51
351.119340849
  0
LINE
  5
520
330
1F
100
AcDbEntity
  8
0
  6
CONTINUOUS
 62
     2
100
AcDbLine
 10
93.940394605
 20
85.05
 30
0.0
 11
93.940394605
 21
92.94999999999999
 31
0.0
  0
LINE
  5
521
330
1F
100
AcDbEntity
  8
0
  6
CONTINUOUS
 62
     2
100
AcDbLine
 10
99.409144605
 20
84.04999999999998
 30
0.0
 11
101.440394605
 21
97.05
 31
0.0
  0
ARC
  5
522
330
1F
100
AcDbEntity
  8
0
  6
CONTINUOUS
 62
     2
100
AcDbCircle
 10
61.440394605
 20
85.05
 30
0.0
 40
1.0
100
AcDbArc
 50
90.0
 51
180.0
  0
LINE
  5
523
330
1F
100
AcDbEntity
  8
0
  6
CONTINUOUS
 62
     2
100
AcDbLine
 10
62.440394605
 20
84.04999999999998
 30
0.0
 11
75.440394605
 21
84.04999999999998
 31
0.0
  0
LINE
  5
524
330
1F
100
AcDbEntity
  8
0
  6
CONTINUOUS
 62
     2
100
AcDbLine
 10
88.440394605
 20
84.04999999999998
 30
0.0
 11
90.440394605
 21
84.04999999999998
 31
0.0
  0
LINE
  5
525
330
1F
100
AcDbEntity
  8
0
  6
CONTINUOUS
 62
     2
100
AcDbLine
 10
91.440394605
 20
85.05
 30
0.0
 11
91.440394605
 21
92.94999999999999
 31
0.0
  0
ARC
  5
526
330
1F
100
AcDbEntity
  8
0
  6
CONTINUOUS
 62
     2
100
AcDbCircle
 10
90.440394605
 20
85.05
 30
0.0
 40
1.0
100
AcDbArc
 50
270.0
 51
0.0
  0
LINE
  5
527
330
1F
100
AcDbEntity
  8
0
  6
CONTINUOUS
 62
     2
100
AcDbLine
 10
86.440394605
 20
84.04999999999998
 30
0.0
 11
84.440394605
 21
84.04999999999998
 31
0.0
  0
ARC
  5
528
330
1F
100
AcDbEntity
  8
0
  6
CONTINUOUS
 62
     2
100
AcDbCircle
 10
84.440394605
 20
85.05
 30
0.0
 40
1.0
100
AcDbArc
 50
180.0
 51
270.0
  0
LINE
  5
529
330
1F
100
AcDbEntity
  8
0
  6
CONTINUOUS
 62
     2
100
AcDbLine
 10
83.440394605
 20
85.05
 30
0.0
 11
83.440394605
 21
91.05
 31
0.0
  0
LINE
  5
52A
330
1F
100
AcDbEntity
  8
0
  6
CONTINUOUS
 62
     2
100
AcDbLine
 10
77.040394605
 20
96.95
 30
0.0
 11
71.040394605
 21
96.95
 31
0.0
  0
LINE
  5
52B
330
1F
100
AcDbEntity
  8
0
  6
CONTINUOUS
 62
     2
100
AcDbLine
 10
62.040394605
 20
96.95
 30
0.0
 11
56.04039460500001
 21
96.95
 31
0.0
  0
LINE
  5
52C
330
1F
100
AcDbEntity
  8
0
  6
CONTINUOUS
 62
     2
100
AcDbLine
 10
56.04039460500001
 20
96.95
 30
0.0
 11
56.04039460500001
 21
98.95000000000002
 31
0.0
  0
LINE
  5
52D
330
1F
100
AcDbEntity
  8
0
  6
CONTINUOUS
 62
     2
100
AcDbLine
 10
62.040394605
 20
98.95000000000002
 30
0.0
 11
62.040394605
 21
96.95
 31
0.0
  0
LINE
  5
52E
330
1F
100
AcDbEntity
  8
0
  6
CONTINUOUS
 62
     2
100
AcDbLine
 10
71.040394605
 20
96.95
 30
0.0
 11
71.040394605
 21
98.95000000000002
 31
0.0
  0
LINE
  5
52F
330
1F
100
AcDbEntity
  8
0
  6
CONTINUOUS
 62
     2
100
AcDbLine
 10
77.040394605
 20
98.95000000000002
 30
0.0
 11
77.040394605
 21
96.95
 31
0.0
  0
LINE
  5
530
330
1F
100
AcDbEntity
  8
0
  6
CONTINUOUS
 62
     2
100
AcDbLine
 10
61.440394605
 20
86.05
 30
0.0
 11
75.440394605
 21
86.05
 31
0.0
  0
LINE
  5
531
330
1F
100
AcDbEntity
  8
0
  6
CONTINUOUS
 62
     2
100
AcDbLine
 10
53.440394605
 20
99.15
 30
0.0
 11
53.440394605
 21
76.55
 31
0.0
  0
ARC
  5
532
330
1F
100
AcDbEntity
  8
0
  6
CONTINUOUS
 62
     2
100
AcDbCircle
 10
54.440394605
 20
99.15
 30
0.0
 40
1.0
100
AcDbArc
 50
90.0
 51
180.0
  0
LINE
  5
533
330
1F
100
AcDbEntity
  8
0
  6
CONTINUOUS
 62
     2
100
AcDbLine
 10
71.040394605
 20
54.15
 30
0.0
 11
77.040394605
 21
54.15
 31
0.0
  0
LINE
  5
534
330
1F
100
AcDbEntity
  8
0
  6
CONTINUOUS
 62
     2
100
AcDbLine
 10
62.040394605
 20
54.15
 30
0.0
 11
56.04039460500001
 21
54.15
 31
0.0
  0
LINE
  5
535
330
1F
100
AcDbEntity
  8
0
  6
CONTINUOUS
 62
     2
100
AcDbLine
 10
56.04039460500001
 20
98.95000000000002
 30
0.0
 11
62.040394605
 21
98.95000000000002
 31
0.0
  0
LINE
  5
536
330
1F
100
AcDbEntity
  8
0
  6
CONTINUOUS
 62
     2
100
AcDbLine
 10
71.040394605
 20
98.95000000000002
 30
0.0
 11
77.040394605
 21
98.95000000000002
 31
0.0
  0
LINE
  5
537
330
1F
100
AcDbEntity
  8
0
  6
CONTINUOUS
 62
     3
100
AcDbLine
 10
53.440394605
 20
98.57641183
 30
0.0
 11
50.434304682
 21
98.556560196
 31
0.0
  0
LINE
  5
538
330
1F
100
AcDbEntity
  8
0
  6
CONTINUOUS
 62
     3
100
AcDbLine
 10
62.040394605
 20
98.633204558
 30
0.0
 11
56.04039460500001
 21
98.593581724
 31
0.0
  0
LINE
  5
539
330
1F
100
AcDbEntity
  8
0
  6
CONTINUOUS
 62
     3
100
AcDbLine
 10
77.040394605
 20
98.73226164200001
 30
0.0
 11
71.040394605
 21
98.692638808
 31
0.0
  0
LINE
  5
53A
330
1F
100
AcDbEntity
  8
0
  6
CONTINUOUS
 62
     3
100
AcDbLine
 10
84.57047618199998
 20
98.78198883600001
 30
0.0
 11
79.040394605
 21
98.745469253
 31
0.0
  0
LINE
  5
53B
330
1F
100
AcDbEntity
  8
0
  6
CONTINUOUS
 62
     2
100
AcDbLine
 10
56.540394605
 20
98.59688362700001
 30
0.0
 11
56.540394605
 21
98.95000000000002
 31
0.0
  0
LINE
  5
53C
330
1F
100
AcDbEntity
  8
0
  6
CONTINUOUS
 62
     2
100
AcDbLine
 10
61.540394605
 20
98.629902655
 30
0.0
 11
61.540394605
 21
98.95000000000002
 31
0.0
  0
LINE
  5
53D
330
1F
100
AcDbEntity
  8
0
  6
CONTINUOUS
 62
     2
100
AcDbLine
 10
71.540394605
 20
98.695940711
 30
0.0
 11
71.540394605
 21
98.95000000000002
 31
0.0
  0
LINE
  5
53E
330
1F
100
AcDbEntity
  8
0
  6
CONTINUOUS
 62
     2
100
AcDbLine
 10
76.540394605
 20
98.728959739
 30
0.0
 11
76.540394605
 21
98.95000000000002
 31
0.0
  0
LINE
  5
53F
330
1F
100
AcDbEntity
  8
0
  6
CONTINUOUS
 62
     2
100
AcDbLine
 10
56.540394605
 20
54.503116373
 30
0.0
 11
56.540394605
 21
54.15
 31
0.0
  0
LINE
  5
540
330
1F
100
AcDbEntity
  8
0
  6
CONTINUOUS
 62
     2
100
AcDbLine
 10
61.540394605
 20
54.47009734499999
 30
0.0
 11
61.540394605
 21
54.15
 31
0.0
  0
LINE
  5
541
330
1F
100
AcDbEntity
  8
0
  6
CONTINUOUS
 62
     2
100
AcDbLine
 10
71.540394605
 20
54.40405928899999
 30
0.0
 11
71.540394605
 21
54.15
 31
0.0
  0
LINE
  5
542
330
1F
100
AcDbEntity
  8
0
  6
CONTINUOUS
 62
     2
100
AcDbLine
 10
76.540394605
 20
54.371040261
 30
0.0
 11
76.540394605
 21
54.15
 31
0.0
  0
LINE
  5
543
330
1F
100
AcDbEntity
  8
0
  6
CONTINUOUS
 62
     3
100
AcDbLine
 10
77.040394605
 20
54.367738358
 30
0.0
 11
71.040394605
 21
54.407361192
 31
0.0
  0
LINE
  5
544
330
1F
100
AcDbEntity
  8
0
  6
CONTINUOUS
 62
     3
100
AcDbLine
 10
84.57021581899998
 20
54.318012883
 30
0.0
 11
79.040394605
 21
54.35453074699999
 31
0.0
  0
LINE
  5
545
330
1F
100
AcDbEntity
  8
0
  6
CONTINUOUS
 62
     3
100
AcDbLine
 10
53.440394605
 20
54.52358817
 30
0.0
 11
50.434304682
 21
54.543439804
 31
0.0
  0
LINE
  5
546
330
1F
100
AcDbEntity
  8
0
  6
CONTINUOUS
 62
     3
100
AcDbLine
 10
62.040394605
 20
54.466795442
 30
0.0
 11
56.04039460500001
 21
54.50641827600001
 31
0.0
  0
LINE
  5
547
330
1F
100
AcDbEntity
  8
0
  6
CONTINUOUS
 62
     3
100
AcDbLine
 10
79.040394605
 20
67.05
 30
0.0
 11
79.040394605
 21
86.05
 31
0.0
  0
LINE
  5
548
330
1F
100
AcDbEntity
  8
0
  6
CONTINUOUS
 62
     3
100
AcDbLine
 10
79.040394605
 20
86.05
 30
0.0
 11
53.440394605
 21
86.05
 31
0.0
  0
LINE
  5
549
330
1F
100
AcDbEntity
  8
0
  6
CONTINUOUS
 62
     3
100
AcDbLine
 10
79.040394605
 20
67.05
 30
0.0
 11
53.440394605
 21
67.05
 31
0.0
  0
LINE
  5
54A
330
1F
100
AcDbEntity
  8
0
  6
CONTINUOUS
 62
     3
100
AcDbLine
 10
77.540394605
 20
65.54999999999998
 30
0.0
 11
53.440394605
 21
65.54999999999998
 31
0.0
  0
LINE
  5
54B
330
1F
100
AcDbEntity
  8
0
  6
CONTINUOUS
 62
     3
100
AcDbLine
 10
77.540394605
 20
65.54999999999998
 30
0.0
 11
77.540394605
 21
52.95
 31
0.0
  0
LINE
  5
54C
330
1F
100
AcDbEntity
  8
0
  6
CONTINUOUS
 62
     3
100
AcDbLine
 10
62.54065147399999
 20
69.05
 30
0.0
 11
62.54065147399999
 21
67.05
 31
0.0
  0
LINE
  5
54D
330
1F
100
AcDbEntity
  8
0
  6
CONTINUOUS
 62
     3
100
AcDbLine
 10
62.54065147399999
 20
86.05
 30
0.0
 11
62.54065147399999
 21
84.04999999999998
 31
0.0
  0
LINE
  5
54E
330
1F
100
AcDbEntity
  8
0
  6
CONTINUOUS
 62
     2
100
AcDbLine
 10
56.04039460500001
 20
54.15
 30
0.0
 11
62.040394605
 21
54.15
 31
0.0
  0
LINE
  5
54F
330
1F
100
AcDbEntity
  8
0
  6
CONTINUOUS
 62
     2
100
AcDbLine
 10
77.040394605
 20
54.15
 30
0.0
 11
77.040394605
 21
56.15
 31
0.0
  0
LINE
  5
550
330
1F
100
AcDbEntity
  8
0
  6
CONTINUOUS
 62
     3
100
AcDbLine
 10
53.440394605
 20
87.55
 30
0.0
 11
77.540394605
 21
87.55
 31
0.0
  0
LINE
  5
551
330
1F
100
AcDbEntity
  8
0
  6
CONTINUOUS
 62
     3
100
AcDbLine
 10
77.540394605
 20
100.15
 30
0.0
 11
77.540394605
 21
87.55
 31
0.0
  0
LINE
  5
552
330
1F
100
AcDbEntity
  8
1
  6
CONTINUOUS
 62
     3
100
AcDbLine
 10
386.0096036753418
 20
73.52692611011665
 30
0.0
 11
339.2096036753418
 21
73.52692611011665
 31
0.0
  0
LINE
  5
553
330
1F
100
AcDbEntity
  8
1
  6
CONTINUOUS
 62
     3
100
AcDbLine
 10
339.2096036753418
 20
73.52692611011665
 30
0.0
 11
339.2096036753418
 21
96.92692611011665
 31
0.0
  0
LINE
  5
554
330
1F
100
AcDbEntity
  8
1
  6
CONTINUOUS
 62
     3
100
AcDbLine
 10
339.2096036753418
 20
132.8069261101166
 30
0.0
 11
386.0096036753418
 21
132.8069261101166
 31
0.0
  0
LINE
  5
555
330
1F
100
AcDbEntity
  8
1
  6
CONTINUOUS
 62
     3
100
AcDbLine
 10
386.0096036753418
 20
132.8069261101166
 30
0.0
 11
386.0096036753418
 21
109.4069261101167
 31
0.0
  0
LINE
  5
556
330
1F
100
AcDbEntity
  8
1
  6
CONTINUOUS
 62
     3
100
AcDbLine
 10
401.6096036753416
 20
132.8069261101166
 30
0.0
 11
448.4096036753418
 21
132.8069261101166
 31
0.0
  0
LINE
  5
557
330
1F
100
AcDbEntity
  8
1
  6
CONTINUOUS
 62
     3
100
AcDbLine
 10
401.6096036753416
 20
109.4069261101167
 30
0.0
 11
401.6096036753416
 21
132.8069261101166
 31
0.0
  0
LINE
  5
558
330
1F
100
AcDbEntity
  8
1
  6
CONTINUOUS
 62
     3
100
AcDbLine
 10
339.2096036753418
 20
109.4069261101167
 30
0.0
 11
339.2096036753418
 21
132.8069261101166
 31
0.0
  0
LINE
  5
559
330
1F
100
AcDbEntity
  8
1
  6
CONTINUOUS
 62
     3
100
AcDbLine
 10
386.0096036753418
 20
109.4069261101167
 30
0.0
 11
339.2096036753418
 21
109.4069261101167
 31
0.0
  0
LINE
  5
55A
330
1F
100
AcDbEntity
  8
1
  6
CONTINUOUS
 62
     3
100
AcDbLine
 10
386.0096036753418
 20
96.92692611011665
 30
0.0
 11
386.0096036753418
 21
73.52692611011665
 31
0.0
  0
LINE
  5
55B
330
1F
100
AcDbEntity
  8
1
  6
CONTINUOUS
 62
     3
100
AcDbLine
 10
339.2096036753418
 20
96.92692611011665
 30
0.0
 11
386.0096036753418
 21
96.92692611011665
 31
0.0
  0
LINE
  5
55C
330
1F
100
AcDbEntity
  8
1
  6
CONTINUOUS
 62
     3
100
AcDbLine
 10
401.6096036753416
 20
96.92692611011665
 30
0.0
 11
448.4096036753418
 21
96.92692611011665
 31
0.0
  0
LINE
  5
55D
330
1F
100
AcDbEntity
  8
1
  6
CONTINUOUS
 62
     3
100
AcDbLine
 10
401.6096036753416
 20
73.52692611011665
 30
0.0
 11
401.6096036753416
 21
96.92692611011665
 31
0.0
  0
LINE
  5
55E
330
1F
100
AcDbEntity
  8
1
  6
CONTINUOUS
 62
     3
100
AcDbLine
 10
448.4096036753418
 20
96.92692611011665
 30
0.0
 11
448.4096036753418
 21
73.52692611011665
 31
0.0
  0
LINE
  5
55F
330
1F
100
AcDbEntity
  8
1
  6
CONTINUOUS
 62
     3
100
AcDbLine
 10
448.4096036753418
 20
73.52692611011665
 30
0.0
 11
401.6096036753416
 21
73.52692611011665
 31
0.0
  0
LINE
  5
560
330
1F
100
AcDbEntity
  8
1
  6
CONTINUOUS
 62
     3
100
AcDbLine
 10
448.4096036753418
 20
132.8069261101166
 30
0.0
 11
448.4096036753418
 21
109.4069261101167
 31
0.0
  0
LINE
  5
561
330
1F
100
AcDbEntity
  8
1
  6
CONTINUOUS
 62
     3
100
AcDbLine
 10
448.4096036753418
 20
109.4069261101167
 30
0.0
 11
401.6096036753416
 21
109.4069261101167
 31
0.0
  0
TEXT
  5
562
330
1F
100
AcDbEntity
  8
1
  6
CONTINUOUS
 62
     3
100
AcDbText
 10
371.8916036753418
 20
139.8932534026512
 30
0.0
 40
5.130685679599622
  1
ＰＡＮＥＬ　ＣＵＴ
 41
0.75
  7
MS_PGOTHIC
 11
371.8916036753418
 21
138.8437949681877
 31
0.0
100
AcDbText
 73
     1
  0
LINE
  5
563
330
1F
100
AcDbEntity
  8
1
  6
CONTINUOUS
 62
     4
100
AcDbLine
 10
337.6496036753418
 20
109.4069261101167
 30
0.0
 11
325.1696036753418
 21
109.4069261101167
 31
0.0
  0
LINE
  5
564
330
1F
100
AcDbEntity
  8
1
  6
CONTINUOUS
 62
     4
100
AcDbLine
 10
328.2896036753418
 20
109.4069261101167
 30
0.0
 11
329.0971190953418
 21
112.4206146881166
 31
0.0
  0
LINE
  5
565
330
1F
100
AcDbEntity
  8
1
  6
CONTINUOUS
 62
     4
100
AcDbLine
 10
328.2896036753418
 20
109.4069261101167
 30
0.0
 11
327.4820882553419
 21
112.4206146881166
 31
0.0
  0
LINE
  5
566
330
1F
100
AcDbEntity
  8
1
  6
CONTINUOUS
 62
     4
100
AcDbLine
 10
328.2896036753418
 20
132.8069261101166
 30
0.0
 11
328.2896036753418
 21
109.4069261101167
 31
0.0
  0
TEXT
  5
567
330
1F
100
AcDbEntity
  8
1
  6
CONTINUOUS
 62
     4
100
AcDbText
 10
325.5980065769945
 20
114.3209261101166
 30
0.0
 40
2.864381074504068
  1
４５
 50
90.0
 41
0.739130435
 51
10.0
  7
MS_PGOTHIC
 11
326.1839027058704
 21
114.3209261101166
 31
0.0
100
AcDbText
 73
     1
  0
LINE
  5
568
330
1F
100
AcDbEntity
  8
1
  6
CONTINUOUS
 62
     4
100
AcDbLine
 10
337.6496036753418
 20
132.8069261101166
 30
0.0
 11
325.1696036753418
 21
132.8069261101166
 31
0.0
  0
LINE
  5
569
330
1F
100
AcDbEntity
  8
1
  6
CONTINUOUS
 62
     4
100
AcDbLine
 10
328.2896036753418
 20
132.8069261101166
 30
0.0
 11
327.4820882553419
 21
129.7932375321167
 31
0.0
  0
LINE
  5
56A
330
1F
100
AcDbEntity
  8
1
  6
CONTINUOUS
 62
     4
100
AcDbLine
 10
328.2896036753418
 20
132.8069261101166
 30
0.0
 11
329.0971190953418
 21
129.7932375321167
 31
0.0
  0
LINE
  5
56B
330
1F
100
AcDbEntity
  8
1
  6
CONTINUOUS
 62
     4
100
AcDbLine
 10
331.7216036753418
 20
121.1069261101166
 30
0.0
 11
357.1184036753418
 21
121.1069261101166
 31
0.0
  0
LINE
  5
56C
330
1F
100
AcDbEntity
  8
1
  6
CONTINUOUS
 62
     4
100
AcDbLine
 10
362.6096036753419
 20
124.0397261101166
 30
0.0
 11
362.6096036753419
 21
117.0197261101167
 31
0.0
  0
LINE
  5
56D
330
1F
100
AcDbEntity
  8
1
  6
CONTINUOUS
 62
     4
100
AcDbLine
 10
359.4584036753416
 20
121.1069261101166
 30
0.0
 11
366.4784036753418
 21
121.1069261101166
 31
0.0
  0
LINE
  5
56E
330
1F
100
AcDbEntity
  8
1
  6
CONTINUOUS
 62
     4
100
AcDbLine
 10
368.8184036753416
 20
121.1069261101166
 30
0.0
 11
419.5184036753416
 21
121.1069261101166
 31
0.0
  0
LINE
  5
56F
330
1F
100
AcDbEntity
  8
1
  6
CONTINUOUS
 62
     4
100
AcDbLine
 10
362.6096036753419
 20
114.6797261101167
 30
0.0
 11
362.6096036753419
 21
92.83972611011662
 31
0.0
  0
TEXT
  5
570
330
1F
100
AcDbEntity
  8
1
  6
CONTINUOUS
 62
     4
100
AcDbText
 10
355.9796036753415
 20
102.8808057820958
 30
0.0
 40
2.891915184821366
  1
９２
 41
0.739130435
 51
10.0
  7
MS_PGOTHIC
 11
355.9796036753415
 21
102.2892776761096
 31
0.0
100
AcDbText
 73
     1
  0
LINE
  5
571
330
1F
100
AcDbEntity
  8
1
  6
CONTINUOUS
 62
     4
100
AcDbLine
 10
339.2096036753418
 20
100.8269261101167
 30
0.0
 11
342.2232922533418
 21
100.0194106901167
 31
0.0
  0
LINE
  5
572
330
1F
100
AcDbEntity
  8
1
  6
CONTINUOUS
 62
     4
100
AcDbLine
 10
339.2096036753418
 20
100.8269261101167
 30
0.0
 11
386.0096036753418
 21
100.8269261101167
 31
0.0
  0
LINE
  5
573
330
1F
100
AcDbEntity
  8
1
  6
CONTINUOUS
 62
     4
100
AcDbLine
 10
339.2096036753418
 20
100.8269261101167
 30
0.0
 11
342.2232922533418
 21
101.6344415301166
 31
0.0
  0
LINE
  5
574
330
1F
100
AcDbEntity
  8
1
  6
CONTINUOUS
 62
     4
100
AcDbLine
 10
339.2096036753418
 20
107.8469261101167
 30
0.0
 11
339.2096036753418
 21
99.26692611011669
 31
0.0
  0
LINE
  5
575
330
1F
100
AcDbEntity
  8
1
  6
CONTINUOUS
 62
     4
100
AcDbLine
 10
386.0096036753418
 20
100.8269261101167
 30
0.0
 11
382.9959150973416
 21
101.6344415301166
 31
0.0
  0
LINE
  5
576
330
1F
100
AcDbEntity
  8
1
  6
CONTINUOUS
 62
     4
100
AcDbLine
 10
386.0096036753418
 20
100.8269261101167
 30
0.0
 11
382.9959150973416
 21
100.0194106901167
 31
0.0
  0
LINE
  5
577
330
1F
100
AcDbEntity
  8
1
  6
CONTINUOUS
 62
     4
100
AcDbLine
 10
386.0096036753418
 20
107.8469261101167
 30
0.0
 11
386.0096036753418
 21
99.26692611011669
 31
0.0
  0
LINE
  5
578
330
1F
100
AcDbEntity
  8
1
  6
CONTINUOUS
 62
     4
100
AcDbLine
 10
369.5984036753418
 20
85.22692611011665
 30
0.0
 11
414.9476036753418
 21
85.22692611011665
 31
0.0
  0
LINE
  5
579
330
1F
100
AcDbEntity
  8
1
  6
CONTINUOUS
 62
     4
100
AcDbLine
 10
358.6784036753419
 20
85.22692611011665
 30
0.0
 11
367.2584036753418
 21
85.22692611011665
 31
0.0
  0
LINE
  5
57A
330
1F
100
AcDbEntity
  8
1
  6
CONTINUOUS
 62
     4
100
AcDbLine
 10
362.6096036753419
 20
90.4997261101167
 30
0.0
 11
362.6096036753419
 21
81.13972611011665
 31
0.0
  0
LINE
  5
57B
330
1F
100
AcDbEntity
  8
1
  6
CONTINUOUS
 62
     4
100
AcDbLine
 10
331.5344036753419
 20
85.22692611011665
 30
0.0
 11
356.3384036753416
 21
85.22692611011665
 31
0.0
  0
LINE
  5
57C
330
1F
100
AcDbEntity
  8
1
  6
CONTINUOUS
 62
     4
100
AcDbLine
 10
362.6096036753419
 20
78.79972611011665
 30
0.0
 11
362.6096036753419
 21
53.09092611011664
 31
0.0
  0
LINE
  5
57D
330
1F
100
AcDbEntity
  8
1
  6
CONTINUOUS
 62
     4
100
AcDbLine
 10
362.6096036753419
 20
56.21092611011665
 30
0.0
 11
365.6232922533419
 21
55.40341069011665
 31
0.0
  0
LINE
  5
57E
330
1F
100
AcDbEntity
  8
1
  6
CONTINUOUS
 62
     4
100
AcDbLine
 10
362.6096036753419
 20
56.21092611011665
 30
0.0
 11
365.6232922533419
 21
57.01844153011665
 31
0.0
  0
LINE
  5
57F
330
1F
100
AcDbEntity
  8
1
  6
CONTINUOUS
 62
     4
100
AcDbLine
 10
425.0096036753416
 20
56.21092611011665
 30
0.0
 11
421.9959150973416
 21
55.40341069011665
 31
0.0
  0
LINE
  5
580
330
1F
100
AcDbEntity
  8
1
  6
CONTINUOUS
 62
     4
100
AcDbLine
 10
425.0096036753416
 20
56.21092611011665
 30
0.0
 11
421.9959150973416
 21
57.01844153011665
 31
0.0
  0
LINE
  5
581
330
1F
100
AcDbEntity
  8
1
  6
CONTINUOUS
 62
     4
100
AcDbLine
 10
425.0096036753416
 20
79.57972611011665
 30
0.0
 11
425.0096036753416
 21
53.09092611011664
 31
0.0
  0
LINE
  5
582
330
1F
100
AcDbEntity
  8
1
  6
CONTINUOUS
 62
     4
100
AcDbLine
 10
425.0096036753416
 20
56.21092611011665
 30
0.0
 11
362.6096036753419
 21
56.21092611011665
 31
0.0
  0
LINE
  5
583
330
1F
100
AcDbEntity
  8
1
  6
CONTINUOUS
 62
     4
100
AcDbLine
 10
418.0676036753416
 20
85.22692611011665
 30
0.0
 11
433.6676036753418
 21
85.22692611011665
 31
0.0
  0
LINE
  5
584
330
1F
100
AcDbEntity
  8
1
  6
CONTINUOUS
 62
     4
100
AcDbLine
 10
425.0096036753416
 20
88.93972611011667
 30
0.0
 11
425.0096036753416
 21
81.91972611011666
 31
0.0
  0
LINE
  5
585
330
1F
100
AcDbEntity
  8
1
  6
CONTINUOUS
 62
     4
100
AcDbLine
 10
425.0096036753416
 20
115.7717261101167
 30
0.0
 11
425.0096036753416
 21
91.27972611011664
 31
0.0
  0
LINE
  5
586
330
1F
100
AcDbEntity
  8
1
  6
CONTINUOUS
 62
     4
100
AcDbLine
 10
425.0096036753416
 20
126.6917261101167
 30
0.0
 11
425.0096036753416
 21
117.9557261101166
 31
0.0
  0
LINE
  5
587
330
1F
100
AcDbEntity
  8
1
  6
CONTINUOUS
 62
     4
100
AcDbLine
 10
421.8584036753417
 20
121.1069261101166
 30
0.0
 11
430.4384036753418
 21
121.1069261101166
 31
0.0
  0
LINE
  5
588
330
1F
100
AcDbEntity
  8
1
  6
CONTINUOUS
 62
     4
100
AcDbLine
 10
431.4384036753418
 20
121.1069261101166
 30
0.0
 11
471.7096036753417
 21
121.1069261101166
 31
0.0
  0
LINE
  5
589
330
1F
100
AcDbEntity
  8
1
  6
CONTINUOUS
 62
     4
100
AcDbLine
 10
470.2096036753418
 20
121.1069261101166
 30
0.0
 11
469.3037370173416
 21
117.7261857181166
 31
0.0
  0
LINE
  5
58A
330
1F
100
AcDbEntity
  8
1
  6
CONTINUOUS
 62
     4
100
AcDbLine
 10
470.2096036753418
 20
121.1069261101166
 30
0.0
 11
471.1154703333418
 21
117.7261857181166
 31
0.0
  0
LINE
  5
58B
330
1F
100
AcDbEntity
  8
1
  6
CONTINUOUS
 62
     4
100
AcDbLine
 10
470.2096036753418
 20
121.1069261101166
 30
0.0
 11
470.2096036753418
 21
85.22692611011665
 31
0.0
  0
LINE
  5
58C
330
1F
100
AcDbEntity
  8
1
  6
CONTINUOUS
 62
     4
100
AcDbLine
 10
470.2096036753418
 20
85.22692611011665
 30
0.0
 11
471.1154703333418
 21
88.60766650211664
 31
0.0
  0
LINE
  5
58D
330
1F
100
AcDbEntity
  8
1
  6
CONTINUOUS
 62
     4
100
AcDbLine
 10
470.2096036753418
 20
85.22692611011665
 30
0.0
 11
469.3037370173416
 21
88.60766650211664
 31
0.0
  0
LINE
  5
58E
330
1F
100
AcDbEntity
  8
1
  6
CONTINUOUS
 62
     4
100
AcDbLine
 10
434.6676036753418
 20
85.22692611011665
 30
0.0
 11
471.7096036753417
 21
85.22692611011665
 31
0.0
  0
TEXT
  5
58F
330
1F
100
AcDbEntity
  8
1
  6
CONTINUOUS
 62
     4
100
AcDbText
 10
363.5972183282146
 20
105.0725521959023
 30
0.0
 40
0.9999939155625374
  1
＋０．８
  7
MS_PGOTHIC
 11
363.5972183282146
 21
104.8680079859009
 31
0.0
100
AcDbText
 73
     1
  0
TEXT
  5
590
330
1F
100
AcDbEntity
  8
1
  6
CONTINUOUS
 62
     4
100
AcDbText
 10
363.5972183282146
 20
103.4002025897686
 30
0.0
 40
1.000006645801319
  1
－０
  7
MS_PGOTHIC
 11
363.5972183282146
 21
103.1956557758547
 31
0.0
100
AcDbText
 73
     1
  0
TEXT
  5
591
330
1F
100
AcDbEntity
  8
1
  6
CONTINUOUS
 62
     4
100
AcDbText
 10
323.5192111866197
 20
121.2256600631158
 30
0.0
 40
0.999998678496061
  1
＋０．６
 50
90.0
  7
MS_PGOTHIC
 11
323.7237563708575
 21
121.2256600631158
 31
0.0
100
AcDbText
 73
     1
  0
TEXT
  5
592
330
1F
100
AcDbEntity
  8
1
  6
CONTINUOUS
 62
     4
100
AcDbText
 10
325.1915619041408
 20
121.2256600631158
 30
0.0
 40
1.000006645801319
  1
－０
 50
90.0
  7
MS_PGOTHIC
 11
325.3961087180547
 21
121.2256600631158
 31
0.0
100
AcDbText
 73
     1
  0
TEXT
  5
593
330
1F
100
AcDbEntity
  8
1
  6
CONTINUOUS
 62
     4
100
AcDbText
 10
466.7602999734477
 20
95.80552418874277
 30
0.0
 40
4.179465188023155
  1
MIN.70
 50
90.0
 41
0.739130435
 51
10.0
  7
MS_PGOTHIC
 11
467.6151905800888
 21
95.80552418874277
 31
0.0
100
AcDbText
 73
     1
  0
TEXT
  5
594
330
1F
100
AcDbEntity
  8
1
  6
CONTINUOUS
 62
     4
100
AcDbText
 10
392.049081913368
 20
58.46283577078216
 30
0.0
 40
4.259911582192766
  1
MIN.120
 41
0.739130435
 51
10.0
  7
MS_PGOTHIC
 11
392.049081913368
 21
57.59149021987909
 31
0.0
100
AcDbText
 73
     1
  0
LINE
  5
595
330
1F
100
AcDbEntity
  8
0
 62
     2
100
AcDbLine
 10
46.54090834399999
 20
68.8
 30
0.0
 11
47.54090834399999
 21
68.3
 31
0.0
  0
LINE
  5
596
330
1F
100
AcDbEntity
  8
0
 62
     2
100
AcDbLine
 10
47.54090834399999
 20
68.3
 30
0.0
 11
48.04090834399999
 21
68.8
 31
0.0
  0
ARC
  5
597
330
1F
100
AcDbEntity
  8
0
 62
     2
100
AcDbCircle
 10
46.240908344
 20
68.6
 30
0.0
 40
0.2
100
AcDbArc
 50
90.0
 51
180.0
  0
LINE
  5
598
330
1F
100
AcDbEntity
  8
0
 62
     2
100
AcDbLine
 10
46.54090834399999
 20
68.8
 30
0.0
 11
46.240908344
 21
68.8
 31
0.0
  0
LINE
  5
599
330
1F
100
AcDbEntity
  8
0
100
AcDbLine
 10
46.54090834399999
 20
57.3
 30
0.0
 11
46.240908344
 21
57.3
 31
0.0
  0
ARC
  5
59A
330
1F
100
AcDbEntity
  8
0
 62
     2
100
AcDbCircle
 10
46.240908344
 20
57.5
 30
0.0
 40
0.2
100
AcDbArc
 50
180.0
 51
270.0
  0
LINE
  5
59B
330
1F
100
AcDbEntity
  8
0
 62
     2
100
AcDbLine
 10
47.54090834399999
 20
57.8
 30
0.0
 11
48.04090834399999
 21
57.3
 31
0.0
  0
LINE
  5
59C
330
1F
100
AcDbEntity
  8
0
 62
     2
100
AcDbLine
 10
46.54090834399999
 20
57.3
 30
0.0
 11
47.54090834399999
 21
57.8
 31
0.0
  0
LINE
  5
59D
330
1F
100
AcDbEntity
  8
0
 62
     2
100
AcDbLine
 10
46.04090834399999
 20
68.6
 30
0.0
 11
46.04090834399999
 21
57.5
 31
0.0
  0
LINE
  5
59E
330
1F
100
AcDbEntity
  8
0
 62
     2
100
AcDbLine
 10
46.240908344
 20
57.3
 30
0.0
 11
46.54090834399999
 21
57.3
 31
0.0
  0
LINE
  5
59F
330
1F
100
AcDbEntity
  8
0
100
AcDbLine
 10
47.81132434400005
 20
57.23520800000003
 30
0.0
 11
46.47756465859995
 21
56.56832815729998
 31
0.0
  0
LINE
  5
5A0
330
1F
100
AcDbEntity
  8
0
100
AcDbLine
 10
47.53132434400001
 20
57.79520800000001
 30
0.0
 11
47.81132434400005
 21
57.23520800000003
 31
0.0
  0
LINE
  5
5A1
330
1F
100
AcDbEntity
  8
0
100
AcDbLine
 10
47.53132434400001
 20
57.795208
 30
0.0
 11
46.20923650129998
 21
57.13416407864999
 31
0.0
  0
ARC
  5
5A2
330
1F
100
AcDbEntity
  8
0
100
AcDbCircle
 10
45.940908344
 20
57.64164078649988
 30
0.0
 40
1.2
100
AcDbArc
 50
180.0
 51
296.5650511770778
  0
ARC
  5
5A3
330
1F
100
AcDbEntity
  8
0
100
AcDbCircle
 10
45.940908344
 20
57.67082039324995
 30
0.0
 40
0.6
100
AcDbArc
 50
180.0
 51
296.565051177078
  0
LINE
  5
5A4
330
1F
100
AcDbEntity
  8
0
100
AcDbLine
 10
47.53132434400001
 20
68.30479199999998
 30
0.0
 11
47.81132434400005
 21
68.86479199999997
 31
0.0
  0
LINE
  5
5A5
330
1F
100
AcDbEntity
  8
0
100
AcDbLine
 10
47.53132434400001
 20
68.30479199999999
 30
0.0
 11
46.20923650129998
 21
68.96583592135
 31
0.0
  0
LINE
  5
5A6
330
1F
100
AcDbEntity
  8
0
100
AcDbLine
 10
47.81132434400005
 20
68.86479199999997
 30
0.0
 11
46.47756465859995
 21
69.53167184270002
 31
0.0
  0
ARC
  5
5A7
330
1F
100
AcDbEntity
  8
0
100
AcDbCircle
 10
45.940908344
 20
68.45835921350012
 30
0.0
 40
1.2
100
AcDbArc
 50
63.43494882292213
 51
180.0
  0
ARC
  5
5A8
330
1F
100
AcDbEntity
  8
0
100
AcDbCircle
 10
45.940908344
 20
68.42917960675005
 30
0.0
 40
0.6
100
AcDbArc
 50
63.43494882292202
 51
180.0
  0
LINE
  5
5A9
330
1F
100
AcDbEntity
  8
0
100
AcDbLine
 10
45.340908344
 20
68.42917960675005
 30
0.0
 11
45.340908344
 21
57.67082039324995
 31
0.0
  0
LINE
  5
5AA
330
1F
100
AcDbEntity
  8
0
100
AcDbLine
 10
44.740908344
 20
68.45835921350012
 30
0.0
 11
44.740908344
 21
57.64164078649988
 31
0.0
  0
LINE
  5
5AB
330
1F
100
AcDbEntity
  8
0
 62
     2
100
AcDbLine
 10
49.44090834399999
 20
68.75
 30
0.0
 11
49.44090834399999
 21
57.35
 31
0.0
  0
LINE
  5
5AC
330
1F
100
AcDbEntity
  8
0
 62
     2
100
AcDbLine
 10
48.04090834399999
 20
57.3
 30
0.0
 11
49.44090834399999
 21
57.3
 31
0.0
  0
LINE
  5
5AD
330
1F
100
AcDbEntity
  8
0
 62
     2
100
AcDbLine
 10
49.44090834399999
 20
68.8
 30
0.0
 11
48.04090834399999
 21
68.8
 31
0.0
  0
POLYLINE
  5
5AE
330
1F
100
AcDbEntity
  8
0
100
AcDb2dPolyline
 66
     1
 10
0.0
 20
0.0
 30
0.0
 70
     1
  0
VERTEX
  5
5AF
330
5AE
100
AcDbEntity
  8
0
100
AcDbVertex
100
AcDb2dVertex
 10
176.899743131
 20
192.6795839999999
 30
0.0
  0
VERTEX
  5
5B0
330
5AE
100
AcDbEntity
  8
0
100
AcDbVertex
100
AcDb2dVertex
 10
219.899743131
 20
192.6795839999999
 30
0.0
  0
VERTEX
  5
5B1
330
5AE
100
AcDbEntity
  8
0
100
AcDbVertex
100
AcDb2dVertex
 10
219.899743131
 20
195.75
 30
0.0
  0
VERTEX
  5
5B2
330
5AE
100
AcDbEntity
  8
0
100
AcDbVertex
100
AcDb2dVertex
 10
176.899743131
 20
195.75
 30
0.0
  0
VERTEX
  5
5B3
330
5AE
100
AcDbEntity
  8
0
100
AcDbVertex
100
AcDb2dVertex
 10
176.899743131
 20
192.6795839999999
 30
0.0
  0
SEQEND
  5
5B4
330
5AE
100
AcDbEntity
  8
0
  0
LINE
  5
5B5
330
1F
100
AcDbEntity
  8
0
100
AcDbLine
 10
176.899743131
 20
195.15
 30
0.0
 11
219.899743131
 21
195.15
 31
0.0
  0
LINE
  5
5B6
330
1F
100
AcDbEntity
  8
0
100
AcDbLine
 10
148.899743131
 20
195.15
 30
0.0
 11
163.899743131
 21
195.15
 31
0.0
  0
POLYLINE
  5
5B7
330
1F
100
AcDbEntity
  8
0
100
AcDb2dPolyline
 66
     1
 10
0.0
 20
0.0
 30
0.0
 70
     1
  0
VERTEX
  5
5B8
330
5B7
100
AcDbEntity
  8
0
100
AcDbVertex
100
AcDb2dVertex
 10
148.899743131
 20
192.6795839999999
 30
0.0
  0
VERTEX
  5
5B9
330
5B7
100
AcDbEntity
  8
0
100
AcDbVertex
100
AcDb2dVertex
 10
163.899743131
 20
192.6795839999999
 30
0.0
  0
VERTEX
  5
5BA
330
5B7
100
AcDbEntity
  8
0
100
AcDbVertex
100
AcDb2dVertex
 10
163.899743131
 20
195.75
 30
0.0
  0
VERTEX
  5
5BB
330
5B7
100
AcDbEntity
  8
0
100
AcDbVertex
100
AcDb2dVertex
 10
148.899743131
 20
195.75
 30
0.0
  0
VERTEX
  5
5BC
330
5B7
100
AcDbEntity
  8
0
100
AcDbVertex
100
AcDb2dVertex
 10
148.899743131
 20
192.6795839999999
 30
0.0
  0
SEQEND
  5
5BD
330
5B7
100
AcDbEntity
  8
0
  0
DIMENSION
  5
5BF
330
1F
100
AcDbEntity
  8
寸法
100
AcDbDimension
  2
*D1
 10
251.96
 20
137.65
 30
0.0
 11
249.96
 21
166.05
 31
0.0
 70
    32
  1
56.5
  3
STANDARD
100
AcDbAlignedDimension
 13
219.899743131
 23
194.45
 33
0.0
 14
235.45
 24
137.65
 34
0.0
 50
90.0
100
AcDbRotatedDimension
1001
ACAD
1000
DSTYLE
1002
{
1070
   287
1070
     1
1070
    41
1040
3.0
1070
   289
1070
     1
1070
   271
1070
     1
1070
    44
1040
0.5
1070
    42
1040
0.5
1070
   147
1040
0.5
1070
    77
1070
     1
1070
   272
1070
     2
1070
   146
1040
0.5
1070
    73
1070
     0
1070
   174
1070
     1
1070
   172
1070
     1
1070
    74
1070
     0
1070
   283
1070
     0
1070
   340
1005
5BE
1070
   140
1040
2.307732775765099
1070
   284
1070
     1
1070
    78
1070
     1
1070
   345
1005
15
1070
   346
1005
14
1002
}
  0
DIMENSION
  5
5C7
330
1F
100
AcDbEntity
  8
寸法
100
AcDbDimension
  2
*D2
 10
251.96
 20
137.65
 30
0.0
 11
249.96
 21
133.3004887590207
 31
0.0
 70
    32
  1
9.0
  3
STANDARD
100
AcDbAlignedDimension
 13
231.698309794
 23
128.9509775180415
 33
0.0
 14
235.45
 24
137.65
 34
0.0
 50
270.0
100
AcDbRotatedDimension
1001
ACAD
1000
DSTYLE
1002
{
1070
   287
1070
     1
1070
    41
1040
3.0
1070
   289
1070
     1
1070
   271
1070
     1
1070
    44
1040
0.5
1070
    42
1040
0.5
1070
   147
1040
0.5
1070
    77
1070
     1
1070
   272
1070
     2
1070
   146
1040
0.5
1070
    73
1070
     0
1070
   174
1070
     1
1070
   172
1070
     1
1070
    74
1070
     0
1070
   283
1070
     0
1070
   340
1005
5BE
1070
   140
1040
2.307338244571564
1070
   284
1070
     1
1070
    78
1070
     1
1070
   345
1005
15
1070
   346
1005
14
1002
}
  0
DIMENSION
  5
5D1
330
1F
100
AcDbEntity
  8
寸法
100
AcDbDimension
  2
*D3
 10
241.53
 20
137.65
 30
0.0
 11
239.53
 21
164.15
 31
0.0
 70
    32
  3
STANDARD
100
AcDbAlignedDimension
 13
229.9
 23
190.65
 33
0.0
 14
235.45
 24
137.65
 34
0.0
 50
90.0
100
AcDbRotatedDimension
1001
ACAD
1000
DSTYLE
1002
{
1070
   287
1070
     1
1070
    41
1040
3.0
1070
   289
1070
     1
1070
   271
1070
     1
1070
    44
1040
0.5
1070
    42
1040
0.5
1070
   147
1040
0.5
1070
    77
1070
     1
1070
   272
1070
     2
1070
   146
1040
0.5
1070
    73
1070
     0
1070
   174
1070
     1
1070
   172
1070
     1
1070
    74
1070
     0
1070
   283
1070
     0
1070
   340
1005
5BE
1070
   140
1040
2.307376384475075
1070
   284
1070
     1
1070
    78
1070
     1
1070
   345
1005
15
1070
   346
1005
14
1002
}
  0
DIMENSION
  5
5D9
330
1F
100
AcDbEntity
  8
寸法
100
AcDbDimension
  2
*D4
 10
229.9
 20
202.98
 30
0.0
 11
184.4
 21
204.98
 31
0.0
 70
    32
  1
91.5
  3
STANDARD
100
AcDbAlignedDimension
 13
138.9
 23
190.65
 33
0.0
 14
229.9
 24
190.65
 34
0.0
100
AcDbRotatedDimension
1001
ACAD
1000
DSTYLE
1002
{
1070
   287
1070
     1
1070
    41
1040
3.0
1070
   289
1070
     1
1070
   271
1070
     1
1070
    44
1040
0.5
1070
    42
1040
0.5
1070
   147
1040
0.5
1070
    77
1070
     1
1070
   272
1070
     2
1070
   146
1040
0.5
1070
    73
1070
     0
1070
   174
1070
     1
1070
   172
1070
     1
1070
    74
1070
     0
1070
   283
1070
     0
1070
   340
1005
5BE
1070
   140
1040
2.307560413354531
1070
   284
1070
     1
1070
    78
1070
     1
1070
   345
1005
15
1070
   346
1005
14
1002
}
  0
LINE
  5
5E1
330
1F
100
AcDbEntity
  8
寸法
  6
ACAD_ISO04W100
100
AcDbLine
 10
35.0
 20
76.55
 30
0.0
 11
283.4
 21
76.55
 31
0.0
  0
LINE
  5
5E2
330
1F
100
AcDbEntity
  8
寸法
  6
ACAD_ISO04W100
100
AcDbLine
 10
184.4
 20
46.9
 30
0.0
 11
184.4
 21
304.2
 31
0.0
  0
DIMENSION
  5
5E3
330
1F
100
AcDbEntity
  8
寸法
100
AcDbDimension
  2
*D5
 10
129.72
 20
76.55
 30
0.0
 11
127.72
 21
79.30000000000001
 31
0.0
 70
    32
  3
STANDARD
100
AcDbAlignedDimension
 13
160.833783784
 23
82.05
 33
0.0
 14
136.4
 24
76.55
 34
0.0
 50
90.0
100
AcDbRotatedDimension
1001
ACAD
1000
DSTYLE
1002
{
1070
   287
1070
     1
1070
    41
1040
3.0
1070
   289
1070
     1
1070
   271
1070
     1
1070
    44
1040
0.5
1070
    42
1040
0.5
1070
   147
1040
0.5
1070
    77
1070
     1
1070
   272
1070
     2
1070
   146
1040
0.5
1070
    73
1070
     0
1070
   174
1070
     1
1070
   172
1070
     1
1070
    74
1070
     0
1070
   283
1070
     0
1070
   340
1005
5BE
1070
   140
1040
2.308056828735553
1070
   284
1070
     1
1070
    78
1070
     1
1070
   345
1005
15
1070
   346
1005
14
1002
}
  0
DIMENSION
  5
5ED
330
1F
100
AcDbEntity
  8
寸法
100
AcDbDimension
  2
*D6
 10
232.4
 20
40.0
 30
0.0
 11
184.4
 21
42.0
 31
0.0
 70
    32
  3
STANDARD
100
AcDbAlignedDimension
 13
136.4
 23
53.55
 33
0.0
 14
232.4
 24
53.55
 34
0.0
100
AcDbRotatedDimension
1001
ACAD
1000
DSTYLE
1002
{
1070
   287
1070
     1
1070
    41
1040
3.0
1070
   289
1070
     1
1070
   271
1070
     1
1070
    44
1040
0.5
1070
    42
1040
0.5
1070
   147
1040
0.5
1070
    77
1070
     1
1070
   272
1070
     2
1070
   146
1040
0.5
1070
    73
1070
     0
1070
   174
1070
     1
1070
   172
1070
     1
1070
    74
1070
     0
1070
   283
1070
     0
1070
   340
1005
5BE
1070
   140
1040
2.307204379826179
1070
   284
1070
     1
1070
    78
1070
     1
1070
   345
1005
15
1070
   346
1005
14
1002
}
  0
DIMENSION
  5
5F5
330
1F
100
AcDbEntity
  8
寸法
100
AcDbDimension
  2
*D7
 10
177.9
 20
107.855
 30
0.0
 11
171.4
 21
109.855
 31
0.0
 70
    32
  3
STANDARD
100
AcDbAlignedDimension
 13
164.9
 23
89.76
 33
0.0
 14
177.9
 24
90.1
 34
0.0
100
AcDbRotatedDimension
1001
ACAD
1000
DSTYLE
1002
{
1070
   287
1070
     1
1070
    41
1040
3.0
1070
   289
1070
     1
1070
   271
1070
     1
1070
    44
1040
0.5
1070
    42
1040
0.5
1070
   147
1040
0.5
1070
    77
1070
     1
1070
   272
1070
     2
1070
   146
1040
0.5
1070
    73
1070
     0
1070
   174
1070
     1
1070
   172
1070
     1
1070
    74
1070
     0
1070
   283
1070
     0
1070
   340
1005
5BE
1070
   140
1040
2.307303192724833
1070
   284
1070
     1
1070
    78
1070
     1
1070
   345
1005
15
1070
   346
1005
14
1002
}
  0
DIMENSION
  5
5FD
330
1F
100
AcDbEntity
  8
寸法
100
AcDbDimension
  2
*D8
 10
203.9
 20
113.126
 30
0.0
 11
184.4
 21
115.126
 31
0.0
 70
    32
  3
STANDARD
100
AcDbAlignedDimension
 13
164.9
 23
89.76
 33
0.0
 14
203.9
 24
89.96999999999998
 34
0.0
100
AcDbRotatedDimension
1001
ACAD
1000
DSTYLE
1002
{
1070
   287
1070
     1
1070
    41
1040
3.0
1070
   289
1070
     1
1070
   271
1070
     1
1070
    44
1040
0.5
1070
    42
1040
0.5
1070
   147
1040
0.5
1070
    77
1070
     1
1070
   272
1070
     2
1070
   146
1040
0.5
1070
    73
1070
     0
1070
   174
1070
     1
1070
   172
1070
     1
1070
    74
1070
     0
1070
   283
1070
     0
1070
   340
1005
5BE
1070
   140
1040
2.307376384475075
1070
   284
1070
     1
1070
    78
1070
     1
1070
   345
1005
15
1070
   346
1005
14
1002
}
  0
LINE
  5
605
330
1F
100
AcDbEntity
  8
0
 62
     3
100
AcDbLine
 10
136.4
 20
99.05000000000001
 30
0.0
 11
232.4
 21
99.05000000000001
 31
0.0
  0
DIMENSION
  5
606
330
1F
100
AcDbEntity
  8
寸法
100
AcDbDimension
  2
*D9
 10
241.53
 20
75.04999999999998
 30
0.0
 11
239.53
 21
82.05000000000001
 31
0.0
 70
    32
  3
STANDARD
100
AcDbAlignedDimension
 13
208.35
 23
89.04999999999998
 33
0.0
 14
206.4
 24
75.04999999999998
 34
0.0
 50
90.0
100
AcDbRotatedDimension
1001
ACAD
1000
DSTYLE
1002
{
1070
   287
1070
     1
1070
    41
1040
3.0
1070
   289
1070
     1
1070
   271
1070
     1
1070
    44
1040
0.5
1070
    42
1040
0.5
1070
   147
1040
0.5
1070
    77
1070
     1
1070
   272
1070
     2
1070
   146
1040
0.5
1070
    73
1070
     0
1070
   174
1070
     1
1070
   172
1070
     1
1070
    74
1070
     0
1070
   283
1070
     0
1070
   340
1005
5BE
1070
   140
1040
2.307303192724833
1070
   284
1070
     1
1070
    78
1070
     1
1070
   345
1005
15
1070
   346
1005
14
1002
}
  0
DIMENSION
  5
60E
330
1F
100
AcDbEntity
  8
寸法
100
AcDbDimension
  2
*D10
 10
251.96
 20
100.55
 30
0.0
 11
249.96
 21
76.55000000000001
 31
0.0
 70
    32
  3
STANDARD
100
AcDbAlignedDimension
 13
231.4
 23
52.55
 33
0.0
 14
231.4
 24
100.55
 34
0.0
 50
270.0
100
AcDbRotatedDimension
1001
ACAD
1000
DSTYLE
1002
{
1070
   287
1070
     1
1070
    41
1040
3.0
1070
   289
1070
     1
1070
   271
1070
     1
1070
    44
1040
0.5
1070
    42
1040
0.5
1070
   147
1040
0.5
1070
    77
1070
     1
1070
   272
1070
     2
1070
   146
1040
0.5
1070
    73
1070
     0
1070
   174
1070
     1
1070
   172
1070
     1
1070
    74
1070
     0
1070
   283
1070
     0
1070
   340
1005
5BE
1070
   140
1040
2.307214931816624
1070
   284
1070
     1
1070
    78
1070
     1
1070
   345
1005
15
1070
   346
1005
14
1002
}
  0
DIMENSION
  5
616
330
1F
100
AcDbEntity
  8
寸法
100
AcDbDimension
  2
*D11
 10
261.6
 20
195.75
 30
0.0
 11
259.6
 21
162.35
 31
0.0
 70
    32
  1
67.0
  3
STANDARD
100
AcDbAlignedDimension
 13
231.667059794
 23
128.95
 33
0.0
 14
219.899743131
 24
195.75
 34
0.0
 50
270.0
100
AcDbRotatedDimension
1001
ACAD
1000
DSTYLE
1002
{
1070
   287
1070
     1
1070
    41
1040
3.0
1070
   289
1070
     1
1070
   271
1070
     1
1070
    44
1040
0.5
1070
    42
1040
0.5
1070
   147
1040
0.5
1070
    77
1070
     1
1070
   272
1070
     2
1070
   146
1040
0.5
1070
    73
1070
     0
1070
   174
1070
     1
1070
   172
1070
     1
1070
    74
1070
     0
1070
   283
1070
     0
1070
   340
1005
5BE
1070
   140
1040
2.307205153429944
1070
   284
1070
     1
1070
    78
1070
     1
1070
   345
1005
15
1070
   346
1005
14
1002
}
  0
VIEWPORT
  5
61E
330
1B
100
AcDbEntity
 67
     1
  8
0
100
AcDbViewport
 68
     1
 10
0.0
 20
0.0
 30
0.0
 40
228.2899453212849
 41
138.371925
 68
     1
 69
     1
1001
ACAD
1000
MVIEW
1002
{
1070
    16
1010
0.0
1020
0.0
1030
0.0
1010
0.0
1020
0.0
1030
1.0
1040
0.0
1040
138.371925
1040
113.6482712819816
1040
76.425
1040
50.0
1040
0.0
1040
0.0
1070
     0
1070
   100
1070
     0
1070
     3
1070
     0
1070
     0
1070
     0
1070
     0
1040
0.0
1040
0.0
1040
0.0
1040
10.0
1040
10.0
1040
10.0
1040
10.0
1070
     0
1002
{
1002
}
1002
}
  0
VIEWPORT
  5
620
330
1B
100
AcDbEntity
 67
     1
  8
寸法
100
AcDbViewport
 68
     2
 10
113.6482712819816
 20
76.425
 30
0.0
 40
223.8136718836126
 41
135.65875
 68
     2
 69
     2
1001
ACAD
1000
MVIEW
1002
{
1070
    16
1010
0.0
1020
0.0
1030
0.0
1010
0.0
1020
0.0
1030
1.0
1040
0.0
1040
271.3174999999999
1040
253.3548018376709
1040
171.85
1040
50.0
1040
0.0
1040
0.0
1070
     0
1070
   100
1070
     0
1070
     3
1070
     0
1070
     0
1070
     0
1070
     0
1040
0.0
1040
0.0
1040
0.0
1040
10.0
1040
10.0
1040
10.0
1040
10.0
1070
     0
1002
{
1002
}
1002
}
  0
POLYLINE
  5
621
102
{ACAD_REACTORS
330
620
102
}
330
1B
100
AcDbEntity
 67
     1
  8
RCVIEWPORTFRAME
100
AcDb2dPolyline
 66
     1
 10
0.0
 20
0.0
 30
0.0
 70
     1
  0
VERTEX
  5
622
330
621
100
AcDbEntity
 67
     1
  8
RCVIEWPORTFRAME
100
AcDbVertex
100
AcDb2dVertex
 10
1.741435340175329
 20
8.595625000000013
 30
0.0
  0
VERTEX
  5
623
330
621
100
AcDbEntity
 67
     1
  8
RCVIEWPORTFRAME
100
AcDbVertex
100
AcDb2dVertex
 10
225.555107223788
 20
8.595625000000013
 30
0.0
  0
VERTEX
  5
624
330
621
100
AcDbEntity
 67
     1
  8
RCVIEWPORTFRAME
100
AcDbVertex
100
AcDb2dVertex
 10
225.555107223788
 20
144.254375
 30
0.0
  0
VERTEX
  5
625
330
621
100
AcDbEntity
 67
     1
  8
RCVIEWPORTFRAME
100
AcDbVertex
100
AcDb2dVertex
 10
1.741435340175329
 20
144.254375
 30
0.0
  0
SEQEND
  5
626
330
621
100
AcDbEntity
 67
     1
  8
RCVIEWPORTFRAME
  0
ENDSEC
  0
SECTION
  2
OBJECTS
  0
DICTIONARY
  5
C
330
0
100
AcDbDictionary
  3
ACAD_GROUP
350
D
  3
ACAD_IMAGE_VARS
350
6F
  3
ACAD_LAYOUT
350
1A
  3
ACAD_MATERIAL
350
43
  3
ACAD_MLEADERSTYLE
350
6B
  3
ACAD_MLINESTYLE
350
17
  3
ACAD_PLOTSETTINGS
350
19
  3
ACAD_SCALELIST
350
47
  3
ACAD_VISUALSTYLE
350
2A
  3
ACDBVARIABLEDICTIONARY
350
628
  3
DWGPROPS
350
62F
1001
ACAD
1000
TREAT_AS_HARD
1070
     0
  0
DICTIONARY
  5
D
102
{ACAD_REACTORS
330
C
102
}
330
C
100
AcDbDictionary
1001
ACAD
1000
TREAT_AS_HARD
1070
     0
  0
RASTERVARIABLES
  5
6F
102
{ACAD_REACTORS
330
C
102
}
330
C
100
AcDbRasterVariables
 90
        0
 70
     0
 71
     1
 72
     0
  0
DICTIONARY
  5
1A
102
{ACAD_REACTORS
330
C
102
}
330
C
100
AcDbDictionary
1001
ACAD
1000
TREAT_AS_HARD
1070
     0
  0
DICTIONARY
  5
43
102
{ACAD_REACTORS
330
C
102
}
330
C
100
AcDbDictionary
  3
BYBLOCK
350
45
  3
BYLAYER
350
44
  3
GLOBAL
350
46
1001
ACAD
1000
TREAT_AS_HARD
1070
     0
  0
DICTIONARY
  5
6B
102
{ACAD_REACTORS
330
C
102
}
330
C
100
AcDbDictionary
  3
STANDARD
350
6C
1001
ACAD
1000
TREAT_AS_HARD
1070
     0
  0
DICTIONARY
  5
17
102
{ACAD_REACTORS
330
C
102
}
330
C
100
AcDbDictionary
  3
STANDARD
350
18
1001
ACAD
1000
TREAT_AS_HARD
1070
     0
  0
DICTIONARY
  5
19
102
{ACAD_REACTORS
330
C
102
}
330
C
100
AcDbDictionary
1001
ACAD
1000
TREAT_AS_HARD
1070
     0
  0
DICTIONARY
  5
47
102
{ACAD_REACTORS
330
C
102
}
330
C
100
AcDbDictionary
  3
A0
350
48
  3
A1
350
49
  3
A2
350
4A
  3
A3
350
4B
  3
A4
350
4C
  3
A5
350
4D
  3
A6
350
4E
  3
A7
350
4F
  3
A8
350
50
  3
A9
350
51
  3
B0
350
52
  3
B1
350
53
  3
B2
350
54
  3
B3
350
55
  3
B4
350
56
  3
B5
350
57
  3
B6
350
58
  3
B7
350
59
  3
B8
350
5A
  3
B9
350
5B
  3
C0
350
5C
  3
C1
350
5D
  3
C2
350
5E
  3
C3
350
5F
  3
C4
350
60
  3
C5
350
61
  3
C6
350
62
  3
C7
350
63
  3
C8
350
64
  3
C9
350
65
  3
D0
350
66
  3
D1
350
67
  3
D2
350
68
1001
ACAD
1000
TREAT_AS_HARD
1070
     0
  0
DICTIONARY
  5
2A
102
{ACAD_REACTORS
330
C
102
}
330
C
100
AcDbDictionary
  3
2DWIREFRAME
350
2F
  3
BASIC
350
32
  3
BRIGHTEN
350
36
  3
COLORCHANGE
350
3A
  3
CONCEPTUAL
350
34
  3
DIM
350
35
  3
EDGECOLOROFF
350
3D
  3
FACEPATTERN
350
39
  3
FLAT
350
2B
  3
FLATWITHEDGES
350
2C
  3
GOURAUD
350
2D
  3
GOURAUDWITHEDGES
350
2E
  3
HIDDEN
350
31
  3
JITTEROFF
350
3B
  3
LINEPATTERN
350
38
  3
OVERHANGOFF
350
3C
  3
REALISTIC
350
33
  3
SHADED
350
42
  3
SHADED_WITH_EDGES
350
41
  3
SHADES_OF_GRAY
350
3E
  3
SKETCHY
350
3F
  3
THICKEN
350
37
  3
WIREFRAME
350
30
  3
X-RAY
350
40
1001
ACAD
1000
TREAT_AS_HARD
1070
     0
  0
DICTIONARY
  5
628
102
{ACAD_REACTORS
330
C
102
}
330
C
100
AcDbDictionary
  3
CANNOSCALE
350
630
  3
CMLEADERSTYLE
350
62A
  3
CTABLESTYLE
350
629
  3
DIMASSOC
350
62D
  3
HIDETEXT
350
62E
  3
MSLTSCALE
350
631
1001
ACAD
1000
TREAT_AS_HARD
1070
     0
  0
XRECORD
  5
62F
102
{ACAD_REACTORS
330
C
102
}
330
C
100
AcDbXrecord
  1
DWGPROPS COOKIE
  2

  3

  4

  6

  7

  8
yamakinoriaki
  9

300
=
301
=
302
=
303
=
304
=
305
=
306
=
307
=
308
=
309
=
 40
0.0
 41
2460515.205937072
 42
2460515.205938959
  1

 90
        0
  0
MATERIAL
  5
45
102
{ACAD_REACTORS
330
43
102
}
102
{ACAD_XDICTIONARY
360
634
102
}
330
43
100
AcDbMaterial
  1
BYBLOCK
  0
MATERIAL
  5
44
102
{ACAD_REACTORS
330
43
102
}
102
{ACAD_XDICTIONARY
360
632
102
}
330
43
100
AcDbMaterial
  1
BYLAYER
  0
MATERIAL
  5
46
102
{ACAD_REACTORS
330
43
102
}
102
{ACAD_XDICTIONARY
360
636
102
}
330
43
100
AcDbMaterial
  1
GLOBAL
  0
ACAD_PROXY_OBJECT
  5
6C
102
{ACAD_REACTORS
330
6B
102
}
330
6B
100
AcDbZombieObject
 90
      499
 91
      505
 93
      610
310
40901902A4063FBFFFFFE056BD1B81E855B9FC0AD7A3703D0AD73F4214DD185B99185C9900AD7A3703D0AC73F90141901A02B5E8DC0F42B1CFC02B5E8DC0F42B1CFE5764000000000000300FC0
340
14
340
0
340
11
340
0
 94
        0
1001
ACAD_MLEADERVER
1070
     2
  0
MLINESTYLE
  5
18
102
{ACAD_REACTORS
330
17
102
}
330
17
100
AcDbMlineStyle
  2
Standard
 70
     0
  3

 62
   256
 51
90.0
 52
90.0
 71
     2
 49
0.5
 62
   256
  6
BYLAYER
 49
-0.5
 62
   256
  6
BYLAYER
  0
ACAD_PROXY_OBJECT
  5
48
102
{ACAD_REACTORS
330
47
102
}
330
47
100
AcDbZombieObject
 90
      499
 91
      503
 93
       41
310
903313A31580
  0
ACAD_PROXY_OBJECT
  5
49
102
{ACAD_REACTORS
330
47
102
}
330
47
100
AcDbZombieObject
 90
      499
 91
      503
 93
      105
310
903313A324000000000000004000
  0
ACAD_PROXY_OBJECT
  5
4A
102
{ACAD_REACTORS
330
47
102
}
330
47
100
AcDbZombieObject
 90
      499
 91
      503
 93
      105
310
903313A344000000000000104000
  0
ACAD_PROXY_OBJECT
  5
4B
102
{ACAD_REACTORS
330
47
102
}
330
47
100
AcDbZombieObject
 90
      499
 91
      503
 93
      105
310
903313A354000000000000144000
  0
ACAD_PROXY_OBJECT
  5
4C
102
{ACAD_REACTORS
330
47
102
}
330
47
100
AcDbZombieObject
 90
      499
 91
      503
 93
      105
310
903313A384000000000000204000
  0
ACAD_PROXY_OBJECT
  5
4D
102
{ACAD_REACTORS
330
47
102
}
330
47
100
AcDbZombieObject
 90
      499
 91
      503
 93
      113
310
904313A31304000000000000244000
  0
ACAD_PROXY_OBJECT
  5
4E
102
{ACAD_REACTORS
330
47
102
}
330
47
100
AcDbZombieObject
 90
      499
 91
      503
 93
      113
310
904313A31364000000000000304000
  0
ACAD_PROXY_OBJECT
  5
4F
102
{ACAD_REACTORS
330
47
102
}
330
47
100
AcDbZombieObject
 90
      499
 91
      503
 93
      113
310
904313A32304000000000000344000
  0
ACAD_PROXY_OBJECT
  5
50
102
{ACAD_REACTORS
330
47
102
}
330
47
100
AcDbZombieObject
 90
      499
 91
      503
 93
      113
310
904313A333040000000000003E4000
  0
ACAD_PROXY_OBJECT
  5
51
102
{ACAD_REACTORS
330
47
102
}
330
47
100
AcDbZombieObject
 90
      499
 91
      503
 93
      113
310
904313A34304000000000000444000
  0
ACAD_PROXY_OBJECT
  5
52
102
{ACAD_REACTORS
330
47
102
}
330
47
100
AcDbZombieObject
 90
      499
 91
      503
 93
      113
310
904313A35304000000000000494000
  0
ACAD_PROXY_OBJECT
  5
53
102
{ACAD_REACTORS
330
47
102
}
330
47
100
AcDbZombieObject
 90
      499
 91
      503
 93
      121
310
905313A3130304000000000000594000
  0
ACAD_PROXY_OBJECT
  5
54
102
{ACAD_REACTORS
330
47
102
}
330
47
100
AcDbZombieObject
 90
      499
 91
      503
 93
      105
310
903323A310000000000000010100
  0
ACAD_PROXY_OBJECT
  5
55
102
{ACAD_REACTORS
330
47
102
}
330
47
100
AcDbZombieObject
 90
      499
 91
      503
 93
      105
310
903343A310000000000000410100
  0
ACAD_PROXY_OBJECT
  5
56
102
{ACAD_REACTORS
330
47
102
}
330
47
100
AcDbZombieObject
 90
      499
 91
      503
 93
      105
310
903383A310000000000000810100
  0
ACAD_PROXY_OBJECT
  5
57
102
{ACAD_REACTORS
330
47
102
}
330
47
100
AcDbZombieObject
 90
      499
 91
      503
 93
      113
310
90431303A310000000000000910100
  0
ACAD_PROXY_OBJECT
  5
58
102
{ACAD_REACTORS
330
47
102
}
330
47
100
AcDbZombieObject
 90
      499
 91
      503
 93
      121
310
9053130303A310000000000001650100
  0
ACAD_PROXY_OBJECT
  5
59
102
{ACAD_REACTORS
330
47
102
}
330
47
100
AcDbZombieObject
 90
      499
 91
      503
 93
      257
310
90E312F31323822203D2031272D3022000000000000200FC000000000000284000
  0
ACAD_PROXY_OBJECT
  5
5A
102
{ACAD_REACTORS
330
47
102
}
330
47
100
AcDbZombieObject
 90
      499
 91
      503
 93
      249
310
90D312F363422203D2031272D3022000000000000240FC000000000000284000
  0
ACAD_PROXY_OBJECT
  5
5B
102
{ACAD_REACTORS
330
47
102
}
330
47
100
AcDbZombieObject
 90
      499
 91
      503
 93
      249
310
90D312F333222203D2031272D3022000000000000280FC000000000000284000
  0
ACAD_PROXY_OBJECT
  5
5C
102
{ACAD_REACTORS
330
47
102
}
330
47
100
AcDbZombieObject
 90
      499
 91
      503
 93
      249
310
90D312F313622203D2031272D30220000000000002C0FC000000000000284000
  0
ACAD_PROXY_OBJECT
  5
5D
102
{ACAD_REACTORS
330
47
102
}
330
47
100
AcDbZombieObject
 90
      499
 91
      503
 93
      249
310
90D332F333222203D2031272D30220000000000002E0FC000000000000284000
  0
ACAD_PROXY_OBJECT
  5
5E
102
{ACAD_REACTORS
330
47
102
}
330
47
100
AcDbZombieObject
 90
      499
 91
      503
 93
      241
310
90C312F3822203D2031272D3022000000000000300FC000000000000284000
  0
ACAD_PROXY_OBJECT
  5
5F
102
{ACAD_REACTORS
330
47
102
}
330
47
100
AcDbZombieObject
 90
      499
 91
      503
 93
      249
310
90D332F313622203D2031272D3022000000000000320FC000000000000284000
  0
ACAD_PROXY_OBJECT
  5
60
102
{ACAD_REACTORS
330
47
102
}
330
47
100
AcDbZombieObject
 90
      499
 91
      503
 93
      241
310
90C312F3422203D2031272D3022000000000000340FC000000000000284000
  0
ACAD_PROXY_OBJECT
  5
61
102
{ACAD_REACTORS
330
47
102
}
330
47
100
AcDbZombieObject
 90
      499
 91
      503
 93
      241
310
90C332F3822203D2031272D3022000000000000360FC000000000000284000
  0
ACAD_PROXY_OBJECT
  5
62
102
{ACAD_REACTORS
330
47
102
}
330
47
100
AcDbZombieObject
 90
      499
 91
      503
 93
      241
310
90C312F3222203D2031272D3022000000000000380FC000000000000284000
  0
ACAD_PROXY_OBJECT
  5
63
102
{ACAD_REACTORS
330
47
102
}
330
47
100
AcDbZombieObject
 90
      499
 91
      503
 93
      241
310
90C332F3422203D2031272D30220000000000003A0FC000000000000284000
  0
ACAD_PROXY_OBJECT
  5
64
102
{ACAD_REACTORS
330
47
102
}
330
47
100
AcDbZombieObject
 90
      499
 91
      503
 93
      161
310
90A3122203D2031272D30224000000000000284000
  0
ACAD_PROXY_OBJECT
  5
65
102
{ACAD_REACTORS
330
47
102
}
330
47
100
AcDbZombieObject
 90
      499
 91
      503
 93
      257
310
90E312D312F3222203D2031272D30220000000000003E0FC000000000000284000
  0
ACAD_PROXY_OBJECT
  5
66
102
{ACAD_REACTORS
330
47
102
}
330
47
100
AcDbZombieObject
 90
      499
 91
      503
 93
      225
310
90A3322203D2031272D302200000000000002100000000000000284000
  0
ACAD_PROXY_OBJECT
  5
67
102
{ACAD_REACTORS
330
47
102
}
330
47
100
AcDbZombieObject
 90
      499
 91
      503
 93
      225
310
90A3622203D2031272D302200000000000006100000000000000284000
  0
ACAD_PROXY_OBJECT
  5
68
102
{ACAD_REACTORS
330
47
102
}
330
47
100
AcDbZombieObject
 90
      499
 91
      503
 93
      249
310
90D31272D3022203D2031272D30220000000000000A100000000000000284000
  0
ACAD_PROXY_OBJECT
  5
2F
102
{ACAD_REACTORS
330
2A
102
}
330
2A
100
AcDbZombieObject
 90
      499
 91
      501
 93
      436
310
42CC9915DA5C99599C985B595049028333333333333E33F0000000000000F90107901411070040501600405405064090741402480A0340
1001
ACAD
1000
AcDbSavedByObjectVersion
1070
     0
  0
ACAD_PROXY_OBJECT
  5
32
102
{ACAD_REACTORS
330
2A
102
}
330
2A
100
AcDbZombieObject
 90
      499
 91
      501
 93
      388
310
4150985CDA58D07406404333333333333E33F0000000000000F90107A41107004050150841D405064090741402480A0350
1001
ACAD
1000
AcDbSavedByObjectVersion
1070
     0
  0
ACAD_PROXY_OBJECT
  5
36
102
{ACAD_REACTORS
330
2A
102
}
330
2A
100
AcDbZombieObject
 90
      499
 91
      501
 93
      428
310
42109C9A59DA1D195B90C409028333333333333E33F0000000000000F9010790141107004050150841D405064090741402480A029950
1001
ACAD
1000
AcDbSavedByObjectVersion
1070
     0
  0
ACAD_PROXY_OBJECT
  5
3A
102
{ACAD_REACTORS
330
2A
102
}
330
2A
100
AcDbZombieObject
 90
      499
 91
      501
 93
      452
310
42D0DBDB1BDC90DA185B99D95104090240C333333333333E33F0000000000000F90108901411070040501508421405064090741402480A0350
1001
ACAD
1000
AcDbSavedByObjectVersion
1070
     0
  0
ACAD_PROXY_OBJECT
  5
34
102
{ACAD_REACTORS
330
2A
102
}
330
2A
100
AcDbZombieObject
 90
      499
 91
      501
 93
      500
310
4290DBDB98D95C1D1D585B10940D028333333333333E33F0000000000000F90107902409070040501000000000018199010841D405064090740C02480A0340
1001
ACAD
1000
AcDbSavedByObjectVersion
1070
     0
  0
ACAD_PROXY_OBJECT
  5
35
102
{ACAD_REACTORS
330
2A
102
}
330
2A
100
AcDbZombieObject
 90
      499
 91
      501
 93
      412
310
40D11A5B50B409028333333333333E33F0000000000000F9010790141107004050150841D405064090741402480A02677FFFFFD0
1001
ACAD
1000
AcDbSavedByObjectVersion
1070
     0
  0
ACAD_PROXY_OBJECT
  5
3D
102
{ACAD_REACTORS
330
2A
102
}
330
2A
100
AcDbZombieObject
 90
      499
 91
      501
 93
      452
310
43115919D950DBDB1BDC93D999916409028333333333333E33F0000000000000F9010790141107004050150841D405064090741402480A0350
1001
ACAD
1000
AcDbSavedByObjectVersion
1070
     0
  0
ACAD_PROXY_OBJECT
  5
39
102
{ACAD_REACTORS
330
2A
102
}
330
2A
100
AcDbZombieObject
 90
      499
 91
      501
 93
      444
310
42D19858D95C185D1D195C9B90F409028333333333333E33F0000000000000F9010790141107004050150841D405064090741402480A0350
1001
ACAD
1000
AcDbSavedByObjectVersion
1070
     0
  0
ACAD_PROXY_OBJECT
  5
2B
102
{ACAD_REACTORS
330
2A
102
}
330
2A
100
AcDbZombieObject
 90
      499
 91
      501
 93
      380
310
41119B185D240901404333333333333E33F0000000000000F9010740A907004050150841D405064090741402480A1B50
1001
ACAD
1000
AcDbSavedByObjectVersion
1070
     0
  0
ACAD_PROXY_OBJECT
  5
2C
102
{ACAD_REACTORS
330
2A
102
}
330
2A
100
AcDbZombieObject
 90
      499
 91
      501
 93
      468
310
43519B185D15DA5D1A115919D95CD0140901404333333333333E33F0000000000000F90107409019070040501600405405064090741402480A1B50
1001
ACAD
1000
AcDbSavedByObjectVersion
1070
     0
  0
ACAD_PROXY_OBJECT
  5
2D
102
{ACAD_REACTORS
330
2A
102
}
330
2A
100
AcDbZombieObject
 90
      499
 91
      501
 93
      404
310
41D1DBDD5C985D5910240902404333333333333E33F0000000000000F9010740A9070040501641D405064090741402480A1B50
1001
ACAD
1000
AcDbSavedByObjectVersion
1070
     0
  0
ACAD_PROXY_OBJECT
  5
2E
102
{ACAD_REACTORS
330
2A
102
}
330
2A
100
AcDbZombieObject
 90
      499
 91
      501
 93
      492
310
4411DBDD5C985D5915DA5D1A115919D95CD0340902404333333333333E33F0000000000000F90107409019070040501600405405064090741402480A1B50
1001
ACAD
1000
AcDbSavedByObjectVersion
1070
     0
  0
ACAD_PROXY_OBJECT
  5
31
102
{ACAD_REACTORS
330
2A
102
}
330
2A
100
AcDbZombieObject
 90
      499
 91
      501
 93
      476
310
41921A5919195B90640502408333333333333E33F0000000000000F901079024090700405020000000000001110200405405064090740C02480A0340
1001
ACAD
1000
AcDbSavedByObjectVersion
1070
     0
  0
ACAD_PROXY_OBJECT
  5
3B
102
{ACAD_REACTORS
330
2A
102
}
330
2A
100
AcDbZombieObject
 90
      499
 91
      501
 93
      428
310
42529A5D1D195C93D999914409028333333333333E33F0000000000000F9010790141107004050150A41D405064090741402480A0350
1001
ACAD
1000
AcDbSavedByObjectVersion
1070
     0
  0
ACAD_PROXY_OBJECT
  5
38
102
{ACAD_REACTORS
330
2A
102
}
330
2A
100
AcDbZombieObject
 90
      499
 91
      501
 93
      444
310
42D31A5B995C185D1D195C9B90E409028333333333333E33F0000000000000F9010790141107004050750841D405064090741402483A0350
1001
ACAD
1000
AcDbSavedByObjectVersion
1070
     0
  0
ACAD_PROXY_OBJECT
  5
3C
102
{ACAD_REACTORS
330
2A
102
}
330
2A
100
AcDbZombieObject
 90
      499
 91
      501
 93
      444
310
42D3DD995C9A185B99D3D999915409028333333333333E33F0000000000000F9010790141107004050150941D405064090741402480A0350
1001
ACAD
1000
AcDbSavedByObjectVersion
1070
     0
  0
ACAD_PROXY_OBJECT
  5
33
102
{ACAD_REACTORS
330
2A
102
}
330
2A
100
AcDbZombieObject
 90
      499
 91
      501
 93
      428
310
425499585B1A5CDD1A58D08409038333333333333E33F0000000000000F9010740A907004050150800405405064090740C02480A1B40
1001
ACAD
1000
AcDbSavedByObjectVersion
1070
     0
  0
ACAD_PROXY_OBJECT
  5
42
102
{ACAD_REACTORS
330
2A
102
}
330
2A
100
AcDbZombieObject
 90
      499
 91
      501
 93
      420
310
4194DA1859195911B40902404333333333333E33F0000000000000F9010740A41107004050150800405405064090840C02480A0B40
1001
ACAD
1000
AcDbSavedByObjectVersion
1070
     0
  0
ACAD_PROXY_OBJECT
  5
41
102
{ACAD_REACTORS
330
2A
102
}
330
2A
100
AcDbZombieObject
 90
      499
 91
      501
 93
      516
310
4454DA18591959081DDA5D1A08195919D95CD1A40902404333333333333E33F0000000000000F901074090142907004050250800405405064090740C02480A0B40
1001
ACAD
1000
AcDbSavedByObjectVersion
1070
     0
  0
ACAD_PROXY_OBJECT
  5
3E
102
{ACAD_REACTORS
330
2A
102
}
330
2A
100
AcDbZombieObject
 90
      499
 91
      501
 93
      532
310
4394DA1859195CC81BD98811DC985E5174090240C333333333333E33F0000000000000F901079024090741D01000000000000111010841D405064090740C02480A0340
1001
ACAD
1000
AcDbSavedByObjectVersion
1070
     0
  0
ACAD_PROXY_OBJECT
  5
3F
102
{ACAD_REACTORS
330
2A
102
}
330
2A
100
AcDbZombieObject
 90
      499
 91
      501
 93
      476
310
41D4DAD95D18DA1E51840502408333333333333E33F0000000000000F901079024090741D01000000000000111010B41D405064090741802480A0340
1001
ACAD
1000
AcDbSavedByObjectVersion
1070
     0
  0
ACAD_PROXY_OBJECT
  5
37
102
{ACAD_REACTORS
330
2A
102
}
330
2A
100
AcDbZombieObject
 90
      499
 91
      501
 93
      412
310
41D51A1A58DAD95B90D409028333333333333E33F0000000000000F9010790141107004050150C41D405064090741402480A0350
1001
ACAD
1000
AcDbSavedByObjectVersion
1070
     0
  0
ACAD_PROXY_OBJECT
  5
30
102
{ACAD_REACTORS
330
2A
102
}
330
2A
100
AcDbZombieObject
 90
      499
 91
      501
 93
      420
310
4255DA5C99599C985B595059028333333333333E33F0000000000000F90107901411070040501600405405064090740C02480A0340
1001
ACAD
1000
AcDbSavedByObjectVersion
1070
     0
  0
ACAD_PROXY_OBJECT
  5
40
102
{ACAD_REACTORS
330
2A
102
}
330
2A
100
AcDbZombieObject
 90
      499
 91
      501
 93
      404
310
41560B54985E51940902404000000000000E03F0000000000000F9010740501907004050150841D405064090740C02480A1B40
1001
ACAD
1000
AcDbSavedByObjectVersion
1070
     0
  0
DICTIONARYVAR
  5
630
102
{ACAD_REACTORS
330
628
102
}
330
628
100
DictionaryVariables
280
     0
  1
1:1
  0
DICTIONARYVAR
  5
62A
102
{ACAD_REACTORS
330
628
102
}
330
628
100
DictionaryVariables
280
     0
  1
Standard
  0
DICTIONARYVAR
  5
629
102
{ACAD_REACTORS
330
628
102
}
330
628
100
DictionaryVariables
280
     0
  1
Standard
  0
DICTIONARYVAR
  5
62D
102
{ACAD_REACTORS
330
628
102
}
330
628
100
DictionaryVariables
280
     0
  1
2
  0
DICTIONARYVAR
  5
62E
102
{ACAD_REACTORS
330
628
102
}
330
628
100
DictionaryVariables
280
     0
  1
1
  0
DICTIONARYVAR
  5
631
102
{ACAD_REACTORS
330
628
102
}
330
628
100
DictionaryVariables
280
     0
  1
1
  0
DICTIONARY
  5
634
330
45
100
AcDbDictionary
  3
ACAD_XREC_ROUNDTRIP
360
635
1001
ACAD
1000
TREAT_AS_HARD
1070
     1
  0
DICTIONARY
  5
632
330
44
100
AcDbDictionary
  3
ACAD_XREC_ROUNDTRIP
360
633
1001
ACAD
1000
TREAT_AS_HARD
1070
     1
  0
DICTIONARY
  5
636
330
46
100
AcDbDictionary
  3
ACAD_XREC_ROUNDTRIP
360
637
1001
ACAD
1000
TREAT_AS_HARD
1070
     1
  0
XRECORD
  5
635
102
{ACAD_REACTORS
330
634
102
}
330
634
100
AcDbXrecord
102
MATERIAL
148
0.0
149
0.0
149
0.0
 93
        0
 94
      127
282
     0
 72
     1
 77
     1
171
     1
175
     1
179
     1
273
     0
  0
XRECORD
  5
633
102
{ACAD_REACTORS
330
632
102
}
330
632
100
AcDbXrecord
102
MATERIAL
148
0.0
149
0.0
149
0.0
 93
        0
 94
      127
282
     0
 72
     1
 77
     1
171
     1
175
     1
179
     1
273
     0
  0
XRECORD
  5
637
102
{ACAD_REACTORS
330
636
102
}
330
636
100
AcDbXrecord
102
MATERIAL
148
0.0
149
0.0
149
0.0
 93
        0
 94
      127
282
     0
 72
     1
 77
     1
171
     1
175
     1
179
     1
273
     0
  0
ENDSEC
  0
EOF
