  0
SECTION
  2
HEADER
  9
$ACADVER
  1
AC1014
  9
$ACADMAINTVER
 70
     0
  9
$DWGCODEPAGE
  3
ANSI_932
  9
$INSBASE
 10
0.0
 20
0.0
 30
0.0
  9
$EXTMIN
 10
44.9768
 20
13.660254
 30
0.0
  9
$EXTMAX
 10
396.348546
 20
199.817259
 30
0.0
  9
$LIMMIN
 10
0.0
 20
0.0
  9
$LIMMAX
 10
420.0
 20
297.0
  9
$ORTHOMODE
 70
     1
  9
$REGENMODE
 70
     1
  9
$FILLMODE
 70
     1
  9
$QTEXTMODE
 70
     0
  9
$MIRRTEXT
 70
     1
  9
$DRAGMODE
 70
     2
  9
$LTSCALE
 40
1.0
  9
$OSMODE
 70
   183
  9
$ATTMODE
 70
     1
  9
$TEXTSIZE
 40
0.2
  9
$TRACEWID
 40
0.05
  9
$TEXTSTYLE
  7
MS
  9
$CLAYER
  8
0
  9
$CELTYPE
  6
BYLAYER
  9
$CECOLOR
 62
   256
  9
$CELTSCALE
 40
1.0
  9
$DELOBJ
 70
     1
  9
$DISPSILH
 70
     0
  9
$DIMSCALE
 40
1.0
  9
$DIMASZ
 40
5.0
  9
$DIMEXO
 40
2.0
  9
$DIMDLI
 40
3.75
  9
$DIMRND
 40
0.0
  9
$DIMDLE
 40
0.0
  9
$DIMEXE
 40
1.0
  9
$DIMTP
 40
0.0
  9
$DIMTM
 40
0.0
  9
$DIMTXT
 40
7.0
  9
$DIMCEN
 40
2.5
  9
$DIMTSZ
 40
0.0
  9
$DIMTOL
 70
     0
  9
$DIMLIM
 70
     0
  9
$DIMTIH
 70
     0
  9
$DIMTOH
 70
     0
  9
$DIMSE1
 70
     0
  9
$DIMSE2
 70
     0
  9
$DIMTAD
 70
     1
  9
$DIMZIN
 70
     8
  9
$DIMBLK
  1

  9
$DIMASO
 70
     1
  9
$DIMSHO
 70
     1
  9
$DIMPOST
  1

  9
$DIMAPOST
  1

  9
$DIMALT
 70
     0
  9
$DIMALTD
 70
     2
  9
$DIMALTF
 40
25.4
  9
$DIMLFAC
 40
1.0
  9
$DIMTOFL
 70
     1
  9
$DIMTVP
 40
0.0
  9
$DIMTIX
 70
     0
  9
$DIMSOXD
 70
     0
  9
$DIMSAH
 70
     1
  9
$DIMBLK1
  1
_OPEN30
  9
$DIMBLK2
  1
_OPEN30
  9
$DIMSTYLE
  2
標準
  9
$DIMCLRD
 70
     0
  9
$DIMCLRE
 70
     0
  9
$DIMCLRT
 70
     0
  9
$DIMTFAC
 40
1.0
  9
$DIMGAP
 40
2.0
  9
$DIMJUST
 70
     0
  9
$DIMSD1
 70
     0
  9
$DIMSD2
 70
     0
  9
$DIMTOLJ
 70
     1
  9
$DIMTZIN
 70
     8
  9
$DIMALTZ
 70
     0
  9
$DIMALTTZ
 70
     0
  9
$DIMFIT
 70
     3
  9
$DIMUPT
 70
     0
  9
$DIMUNIT
 70
     2
  9
$DIMDEC
 70
     2
  9
$DIMTDEC
 70
     2
  9
$DIMALTU
 70
     2
  9
$DIMALTTD
 70
     2
  9
$DIMTXSTY
  7
MS
  9
$DIMAUNIT
 70
     0
  9
$LUNITS
 70
     2
  9
$LUPREC
 70
     2
  9
$SKETCHINC
 40
0.1
  9
$FILLETRAD
 40
0.5
  9
$AUNITS
 70
     0
  9
$AUPREC
 70
     2
  9
$MENU
  1
acad
  9
$ELEVATION
 40
0.0
  9
$PELEVATION
 40
0.0
  9
$THICKNESS
 40
0.0
  9
$LIMCHECK
 70
     0
  9
$BLIPMODE
 70
     0
  9
$CHAMFERA
 40
0.5
  9
$CHAMFERB
 40
0.5
  9
$CHAMFERC
 40
1.0
  9
$CHAMFERD
 40
0.0
  9
$SKPOLY
 70
     0
  9
$TDCREATE
 40
2451515.536774536
  9
$TDUPDATE
 40
2454526.493513634
  9
$TDINDWG
 40
0.1895537384
  9
$TDUSRTIMER
 40
0.1895537384
  9
$USRTIMER
 70
     1
  9
$ANGBASE
 50
0.0
  9
$ANGDIR
 70
     0
  9
$PDMODE
 70
     0
  9
$PDSIZE
 40
0.0
  9
$PLINEWID
 40
0.0
  9
$COORDS
 70
     1
  9
$SPLFRAME
 70
     0
  9
$SPLINETYPE
 70
     6
  9
$SPLINESEGS
 70
     8
  9
$ATTDIA
 70
     0
  9
$ATTREQ
 70
     1
  9
$HANDLING
 70
     1
  9
$HANDSEED
  5
20C8
  9
$SURFTAB1
 70
     6
  9
$SURFTAB2
 70
     6
  9
$SURFTYPE
 70
     6
  9
$SURFU
 70
     6
  9
$SURFV
 70
     6
  9
$UCSNAME
  2

  9
$UCSORG
 10
0.0
 20
0.0
 30
0.0
  9
$UCSXDIR
 10
1.0
 20
0.0
 30
0.0
  9
$UCSYDIR
 10
0.0
 20
1.0
 30
0.0
  9
$PUCSNAME
  2

  9
$PUCSORG
 10
0.0
 20
0.0
 30
0.0
  9
$PUCSXDIR
 10
1.0
 20
0.0
 30
0.0
  9
$PUCSYDIR
 10
0.0
 20
1.0
 30
0.0
  9
$USERI1
 70
     0
  9
$USERI2
 70
     0
  9
$USERI3
 70
     0
  9
$USERI4
 70
     0
  9
$USERI5
 70
     0
  9
$USERR1
 40
0.0
  9
$USERR2
 40
0.0
  9
$USERR3
 40
0.0
  9
$USERR4
 40
0.0
  9
$USERR5
 40
0.0
  9
$WORLDVIEW
 70
     1
  9
$SHADEDGE
 70
     3
  9
$SHADEDIF
 70
    70
  9
$TILEMODE
 70
     1
  9
$MAXACTVP
 70
    48
  9
$PINSBASE
 10
0.0
 20
0.0
 30
0.0
  9
$PLIMCHECK
 70
     0
  9
$PEXTMIN
 10
1.000000E+20
 20
1.000000E+20
 30
1.000000E+20
  9
$PEXTMAX
 10
-1.000000E+20
 20
-1.000000E+20
 30
-1.000000E+20
  9
$PLIMMIN
 10
0.0
 20
0.0
  9
$PLIMMAX
 10
420.0
 20
297.0
  9
$UNITMODE
 70
     0
  9
$VISRETAIN
 70
     1
  9
$PLINEGEN
 70
     0
  9
$PSLTSCALE
 70
     1
  9
$TREEDEPTH
 70
  3020
  9
$PICKSTYLE
 70
     1
  9
$CMLSTYLE
  2
STANDARD
  9
$CMLJUST
 70
     0
  9
$CMLSCALE
 40
1.0
  9
$PROXYGRAPHICS
 70
     1
  9
$MEASUREMENT
 70
     0
  0
ENDSEC
  0
SECTION
  2
CLASSES
  0
ENDSEC
  0
SECTION
  2
TABLES
  0
TABLE
  2
VPORT
  5
8
100
AcDbSymbolTable
 70
     3
  0
VPORT
  5
20C7
100
AcDbSymbolTableRecord
100
AcDbViewportTableRecord
  2
*ACTIVE
 70
     0
 10
0.0
 20
0.0
 11
1.0
 21
1.0
 12
220.670472
 22
106.738908
 13
0.0
 23
0.0
 14
1.0
 24
1.0
 15
5.0
 25
5.0
 16
0.0
 26
0.0
 36
1.0
 17
0.0
 27
0.0
 37
0.0
 40
189.727728
 41
1.862816
 42
50.0
 43
0.0
 44
0.0
 50
0.0
 51
0.0
 71
     0
 72
   100
 73
     1
 74
     1
 75
     0
 76
     1
 77
     0
 78
     0
  0
ENDTAB
  0
TABLE
  2
LTYPE
  5
5
100
AcDbSymbolTable
 70
     5
  0
LTYPE
  5
12
100
AcDbSymbolTableRecord
100
AcDbLinetypeTableRecord
  2
BYBLOCK
 70
     0
  3

 72
    65
 73
     0
 40
0.0
  0
LTYPE
  5
13
100
AcDbSymbolTableRecord
100
AcDbLinetypeTableRecord
  2
BYLAYER
 70
     0
  3

 72
    65
 73
     0
 40
0.0
  0
LTYPE
  5
14
100
AcDbSymbolTableRecord
100
AcDbLinetypeTableRecord
  2
CONTINUOUS
 70
     0
  3
Solid line
 72
    65
 73
     0
 40
0.0
  0
LTYPE
  5
2B
100
AcDbSymbolTableRecord
100
AcDbLinetypeTableRecord
  2
WACOM_LSTYLE_M1
 70
     0
  3
実線     [---------]
 72
    65
 73
     2
 40
24.0
 49
12.0
 74
     0
 49
12.0
 74
     0
  0
LTYPE
  5
2A2
100
AcDbSymbolTableRecord
100
AcDbLinetypeTableRecord
  2
WACOM_LSTYLE_M3
 70
     0
  3
点線     [- - - - -]
 72
    65
 73
     2
 40
2.0
 49
1.0
 74
     0
 49
-1.0
 74
     0
  0
LTYPE
  5
2A4
100
AcDbSymbolTableRecord
100
AcDbLinetypeTableRecord
  2
WACOM_LSTYLE_M5
 70
     0
  3
二点鎖線 [-- - - --]
 72
    65
 73
     6
 40
10.0
 49
5.0
 74
     0
 49
-1.0
 74
     0
 49
1.0
 74
     0
 49
-1.0
 74
     0
 49
1.0
 74
     0
 49
-1.0
 74
     0
  0
LTYPE
  5
1CE1
100
AcDbSymbolTableRecord
100
AcDbLinetypeTableRecord
  2
ACAD_ISO08W100
 70
     0
  3
ISO long-dash short-dash ____ __ ____ __ ____ _
 72
    65
 73
     4
 40
36.0
 49
24.0
 74
     0
 49
-3.0
 74
     0
 49
6.0
 74
     0
 49
-3.0
 74
     0
  0
ENDTAB
  0
TABLE
  2
LAYER
  5
2
100
AcDbSymbolTable
 70
     3
  0
LAYER
  5
E
100
AcDbSymbolTableRecord
100
AcDbLayerTableRecord
  2
0
 70
     0
 62
     7
  6
CONTINUOUS
  0
LAYER
  5
93C
100
AcDbSymbolTableRecord
100
AcDbLayerTableRecord
  2
DEFPOINTS
 70
     0
 62
     7
  6
CONTINUOUS
  0
LAYER
  5
1CE2
100
AcDbSymbolTableRecord
100
AcDbLayerTableRecord
  2
1
 70
     0
 62
     7
  6
ACAD_ISO08W100
  0
ENDTAB
  0
TABLE
  2
STYLE
  5
3
100
AcDbSymbolTable
 70
     3
  0
STYLE
  5
F
100
AcDbSymbolTableRecord
100
AcDbTextStyleTableRecord
  2
STANDARD
 70
     0
 40
0.0
 41
1.0
 50
0.0
 71
     0
 42
0.2
  3
txt
  4

  0
STYLE
  5
2F
100
AcDbSymbolTableRecord
100
AcDbTextStyleTableRecord
  2
MS
 70
     0
 40
0.0
 41
1.0
 50
0.0
 71
     0
 42
2.5
  3
MS Gothic.ttf
  4

1001
ACAD
1000
MS Gothic
1071
    32817
  0
STYLE
  5
93F
100
AcDbSymbolTableRecord
100
AcDbTextStyleTableRecord
  2
WACOM_STRING_H
 70
     0
 40
0.0
 41
1.0
 50
0.0
 71
     0
 42
0.2
  3
MS Gothic.ttf
  4

1001
ACAD
1000
MS Gothic
1071
    32817
  0
ENDTAB
  0
TABLE
  2
VIEW
  5
6
100
AcDbSymbolTable
 70
     0
  0
ENDTAB
  0
TABLE
  2
UCS
  5
7
100
AcDbSymbolTable
 70
     0
  0
ENDTAB
  0
TABLE
  2
APPID
  5
9
100
AcDbSymbolTable
 70
     8
  0
APPID
  5
10
100
AcDbSymbolTableRecord
100
AcDbRegAppTableRecord
  2
ACAD
 70
     0
  0
APPID
  5
24
100
AcDbSymbolTableRecord
100
AcDbRegAppTableRecord
  2
CONTENTTABDATA
 70
     0
  0
APPID
  5
25
100
AcDbSymbolTableRecord
100
AcDbRegAppTableRecord
  2
CONTENTCURRENTTAB
 70
     0
  0
APPID
  5
696
100
AcDbSymbolTableRecord
100
AcDbRegAppTableRecord
  2
WACOM_STRING
 70
     0
  0
APPID
  5
697
100
AcDbSymbolTableRecord
100
AcDbRegAppTableRecord
  2
WACOM_DIM_LNG
 70
     0
  0
APPID
  5
698
100
AcDbSymbolTableRecord
100
AcDbRegAppTableRecord
  2
WACOM_DRSYM_LEADER
 70
     0
  0
APPID
  5
699
100
AcDbSymbolTableRecord
100
AcDbRegAppTableRecord
  2
WACOM_DRSYM_ARROW
 70
     0
  0
APPID
  5
69A
100
AcDbSymbolTableRecord
100
AcDbRegAppTableRecord
  2
WACOM_DIMVAL_POINT
 70
     0
  0
ENDTAB
  0
TABLE
  2
DIMSTYLE
  5
A
100
AcDbSymbolTable
 70
     2
  0
DIMSTYLE
105
1D
100
AcDbSymbolTableRecord
100
AcDbDimStyleTableRecord
  2
STANDARD
 70
     0
  3

  4

  5

  6

  7

 40
1.0
 41
0.18
 42
0.0625
 43
0.38
 44
0.18
 45
0.0
 46
0.0
 47
0.0
 48
0.0
140
0.18
141
0.09
142
0.0
143
25.4
144
1.0
145
0.0
146
1.0
147
0.09
 71
     0
 72
     0
 73
     1
 74
     1
 75
     0
 76
     0
 77
     0
 78
     0
170
     0
171
     2
172
     0
173
     0
174
     0
175
     0
176
     0
177
     0
178
     0
270
     2
271
     4
272
     4
273
     2
274
     2
340
F
275
     0
280
     0
281
     0
282
     0
283
     1
284
     0
285
     0
286
     0
287
     3
288
     0
  0
DIMSTYLE
105
2D3
102
{ACAD_REACTORS
330
1098
330
10A5
330
1AEA
330
1AEC
330
1AEB
330
1AE7
330
1AE8
330
1AE9
330
1AF1
330
1AF0
330
1AEF
330
1B60
330
1B61
102
}
100
AcDbSymbolTableRecord
100
AcDbDimStyleTableRecord
  2
標準
 70
     0
  3

  4

  5

  6
_OPEN30
  7
_OPEN30
 40
1.0
 41
5.0
 42
2.0
 43
3.75
 44
1.0
 45
0.0
 46
0.0
 47
0.0
 48
0.0
140
7.0
141
2.5
142
0.0
143
25.4
144
1.0
145
0.0
146
1.0
147
2.0
 71
     0
 72
     0
 73
     0
 74
     0
 75
     0
 76
     0
 77
     1
 78
     8
170
     0
171
     2
172
     1
173
     1
174
     0
175
     0
176
     0
177
     0
178
     0
270
     2
271
     2
272
     2
273
     2
274
     2
340
2F
275
     0
280
     0
281
     0
282
     0
283
     1
284
     8
285
     0
286
     0
287
     3
288
     0
  0
ENDTAB
  0
TABLE
  2
BLOCK_RECORD
  5
1
100
AcDbSymbolTable
 70
    14
  0
BLOCK_RECORD
  5
18
100
AcDbSymbolTableRecord
100
AcDbBlockTableRecord
  2
*MODEL_SPACE
  0
BLOCK_RECORD
  5
15
100
AcDbSymbolTableRecord
100
AcDbBlockTableRecord
  2
*PAPER_SPACE
  0
BLOCK_RECORD
  5
108C
100
AcDbSymbolTableRecord
100
AcDbBlockTableRecord
  2
*D0
  0
BLOCK_RECORD
  5
1099
100
AcDbSymbolTableRecord
100
AcDbBlockTableRecord
  2
*D1
  0
BLOCK_RECORD
  5
129A
100
AcDbSymbolTableRecord
100
AcDbBlockTableRecord
  2
_OPEN30
  0
BLOCK_RECORD
  5
1AF2
100
AcDbSymbolTableRecord
100
AcDbBlockTableRecord
  2
*D3
  0
BLOCK_RECORD
  5
1AFE
100
AcDbSymbolTableRecord
100
AcDbBlockTableRecord
  2
*D4
  0
BLOCK_RECORD
  5
1B0A
100
AcDbSymbolTableRecord
100
AcDbBlockTableRecord
  2
*D5
  0
BLOCK_RECORD
  5
1B16
100
AcDbSymbolTableRecord
100
AcDbBlockTableRecord
  2
*D6
  0
BLOCK_RECORD
  5
1B22
100
AcDbSymbolTableRecord
100
AcDbBlockTableRecord
  2
*D7
  0
BLOCK_RECORD
  5
1B2E
100
AcDbSymbolTableRecord
100
AcDbBlockTableRecord
  2
*D8
  0
BLOCK_RECORD
  5
1B3A
100
AcDbSymbolTableRecord
100
AcDbBlockTableRecord
  2
*D9
  0
BLOCK_RECORD
  5
1B46
100
AcDbSymbolTableRecord
100
AcDbBlockTableRecord
  2
*D10
  0
BLOCK_RECORD
  5
1B52
100
AcDbSymbolTableRecord
100
AcDbBlockTableRecord
  2
*D11
  0
BLOCK_RECORD
  5
1B64
100
AcDbSymbolTableRecord
100
AcDbBlockTableRecord
  2
*D12
  0
BLOCK_RECORD
  5
1B70
100
AcDbSymbolTableRecord
100
AcDbBlockTableRecord
  2
*D13
  0
ENDTAB
  0
ENDSEC
  0
SECTION
  2
BLOCKS
  0
BLOCK
  5
19
100
AcDbEntity
  8
0
100
AcDbBlockBegin
  2
*MODEL_SPACE
 70
     0
 10
0.0
 20
0.0
 30
0.0
  3
*MODEL_SPACE
  1

  0
ENDBLK
  5
1A
100
AcDbEntity
  8
0
100
AcDbBlockEnd
  0
BLOCK
  5
16
100
AcDbEntity
 67
     1
  8
0
100
AcDbBlockBegin
  2
*PAPER_SPACE
 70
     0
 10
0.0
 20
0.0
 30
0.0
  3
*PAPER_SPACE
  1

  0
ENDBLK
  5
17
100
AcDbEntity
 67
     1
  8
0
100
AcDbBlockEnd
  0
BLOCK
  5
20AF
100
AcDbEntity
  8
0
100
AcDbBlockBegin
  2
*D0
 70
     1
 10
0.0
 20
0.0
 30
0.0
  3
*D0
  1

  0
LINE
  5
20B0
100
AcDbEntity
  8
0
  6
BYBLOCK
 62
     0
100
AcDbLine
 10
96.50008
 20
175.5014
 30
0.0
 11
115.9968
 21
175.5014
 31
0.0
  0
LINE
  5
20B1
100
AcDbEntity
  8
0
  6
BYBLOCK
 62
     0
100
AcDbLine
 10
98.0
 20
70.0
 30
0.0
 11
115.9968
 21
70.0
 31
0.0
  0
LINE
  5
20B2
100
AcDbEntity
  8
0
  6
BYBLOCK
 62
     0
100
AcDbLine
 10
114.9968
 20
170.5014
 30
0.0
 11
114.9968
 21
75.0
 31
0.0
  0
INSERT
  5
20B3
100
AcDbEntity
  8
0
  6
BYBLOCK
 62
     0
100
AcDbBlockReference
  2
_OPEN30
 10
114.9968
 20
175.5014
 30
0.0
 41
5.0
 42
5.0
 43
5.0
 50
90.0
  0
INSERT
  5
20B4
100
AcDbEntity
  8
0
  6
BYBLOCK
 62
     0
100
AcDbBlockReference
  2
_OPEN30
 10
114.9968
 20
70.0
 30
0.0
 41
5.0
 42
5.0
 43
5.0
 50
270.0
  0
MTEXT
  5
20B5
100
AcDbEntity
  8
0
  6
BYBLOCK
 62
     0
100
AcDbMText
 10
109.4968
 20
122.7507
 30
0.0
 40
7.0
 41
0.0
 71
     5
 72
     1
  1
\A1;105.5
  7
MS
 11
0.0
 21
1.0
 31
0.0
  0
POINT
  5
20B6
100
AcDbEntity
  8
DEFPOINTS
  6
BYBLOCK
 62
     0
100
AcDbPoint
 10
94.50008
 20
175.5014
 30
0.0
  0
POINT
  5
20B7
100
AcDbEntity
  8
DEFPOINTS
  6
BYBLOCK
 62
     0
100
AcDbPoint
 10
96.0
 20
70.0
 30
0.0
  0
POINT
  5
20B8
100
AcDbEntity
  8
DEFPOINTS
  6
BYBLOCK
 62
     0
100
AcDbPoint
 10
114.9968
 20
70.0
 30
0.0
  0
ENDBLK
  5
20B9
100
AcDbEntity
  8
0
100
AcDbBlockEnd
  0
BLOCK
  5
20A4
100
AcDbEntity
  8
0
100
AcDbBlockBegin
  2
*D1
 70
     1
 10
0.0
 20
0.0
 30
0.0
  3
*D1
  1

  0
LINE
  5
20A5
100
AcDbEntity
  8
0
  6
BYBLOCK
 62
     0
100
AcDbLine
 10
97.0
 20
70.0
 30
0.0
 11
115.9968
 21
70.0
 31
0.0
  0
LINE
  5
20A6
100
AcDbEntity
  8
0
  6
BYBLOCK
 62
     0
100
AcDbLine
 10
97.0
 20
50.0
 30
0.0
 11
115.9968
 21
50.0
 31
0.0
  0
LINE
  5
20A7
100
AcDbEntity
  8
0
  6
BYBLOCK
 62
     0
100
AcDbLine
 10
114.9968
 20
65.0
 30
0.0
 11
114.9968
 21
55.0
 31
0.0
  0
INSERT
  5
20A8
100
AcDbEntity
  8
0
  6
BYBLOCK
 62
     0
100
AcDbBlockReference
  2
_OPEN30
 10
114.9968
 20
70.0
 30
0.0
 41
5.0
 42
5.0
 43
5.0
 50
90.0
  0
INSERT
  5
20A9
100
AcDbEntity
  8
0
  6
BYBLOCK
 62
     0
100
AcDbBlockReference
  2
_OPEN30
 10
114.9968
 20
50.0
 30
0.0
 41
5.0
 42
5.0
 43
5.0
 50
270.0
  0
MTEXT
  5
20AA
100
AcDbEntity
  8
0
  6
BYBLOCK
 62
     0
100
AcDbMText
 10
108.661573
 20
60.0
 30
0.0
 40
7.0
 41
0.0
 71
     5
 72
     1
  1
\A1;(20)
  7
MS
 11
0.0
 21
1.0
 31
0.0
  0
POINT
  5
20AB
100
AcDbEntity
  8
DEFPOINTS
  6
BYBLOCK
 62
     0
100
AcDbPoint
 10
95.0
 20
70.0
 30
0.0
  0
POINT
  5
20AC
100
AcDbEntity
  8
DEFPOINTS
  6
BYBLOCK
 62
     0
100
AcDbPoint
 10
95.0
 20
50.0
 30
0.0
  0
POINT
  5
20AD
100
AcDbEntity
  8
DEFPOINTS
  6
BYBLOCK
 62
     0
100
AcDbPoint
 10
114.9968
 20
50.0
 30
0.0
  0
ENDBLK
  5
20AE
100
AcDbEntity
  8
0
100
AcDbBlockEnd
  0
BLOCK
  5
129B
100
AcDbEntity
  8
0
100
AcDbBlockBegin
  2
_OPEN30
 70
     0
 10
0.0
 20
0.0
 30
0.0
  3
_OPEN30
  1

  0
LINE
  5
129C
100
AcDbEntity
  8
0
  6
BYBLOCK
 62
     0
100
AcDbLine
 10
-1.0
 20
0.267949
 30
0.0
 11
0.0
 21
0.0
 31
0.0
  0
LINE
  5
129D
100
AcDbEntity
  8
0
  6
BYBLOCK
 62
     0
100
AcDbLine
 10
0.0
 20
0.0
 30
0.0
 11
-1.0
 21
-0.267949
 31
0.0
  0
LINE
  5
129E
100
AcDbEntity
  8
0
  6
BYBLOCK
 62
     0
100
AcDbLine
 10
0.0
 20
0.0
 30
0.0
 11
-1.0
 21
0.0
 31
0.0
  0
ENDBLK
  5
129F
100
AcDbEntity
  8
0
100
AcDbBlockEnd
  0
BLOCK
  5
1F16
100
AcDbEntity
  8
0
100
AcDbBlockBegin
  2
*D3
 70
     1
 10
0.0
 20
0.0
 30
0.0
  3
*D3
  1

  0
LINE
  5
1F17
100
AcDbEntity
  8
0
  6
BYBLOCK
 62
     0
100
AcDbLine
 10
160.4888
 20
177.5
 30
0.0
 11
160.4888
 21
191.0
 31
0.0
  0
LINE
  5
1F18
100
AcDbEntity
  8
0
  6
BYBLOCK
 62
     0
100
AcDbLine
 10
239.4888
 20
177.5
 30
0.0
 11
239.4888
 21
191.0
 31
0.0
  0
LINE
  5
1F19
100
AcDbEntity
  8
0
  6
BYBLOCK
 62
     0
100
AcDbLine
 10
165.4888
 20
190.0
 30
0.0
 11
234.4888
 21
190.0
 31
0.0
  0
INSERT
  5
1F1A
100
AcDbEntity
  8
0
  6
BYBLOCK
 62
     0
100
AcDbBlockReference
  2
_OPEN30
 10
160.4888
 20
190.0
 30
0.0
 41
5.0
 42
5.0
 43
5.0
 50
180.0
  0
INSERT
  5
1F1B
100
AcDbEntity
  8
0
  6
BYBLOCK
 62
     0
100
AcDbBlockReference
  2
_OPEN30
 10
239.4888
 20
190.0
 30
0.0
 41
5.0
 42
5.0
 43
5.0
  0
MTEXT
  5
1F1C
100
AcDbEntity
  8
0
  6
BYBLOCK
 62
     0
100
AcDbMText
 10
199.9768
 20
195.5
 30
0.0
 40
7.0
 41
0.0
 71
     5
 72
     1
  1
\A1;79
  7
MS
  0
POINT
  5
1F1D
100
AcDbEntity
  8
DEFPOINTS
  6
BYBLOCK
 62
     0
100
AcDbPoint
 10
160.4888
 20
175.5
 30
0.0
  0
POINT
  5
1F1E
100
AcDbEntity
  8
DEFPOINTS
  6
BYBLOCK
 62
     0
100
AcDbPoint
 10
239.4888
 20
175.5
 30
0.0
  0
POINT
  5
1F1F
100
AcDbEntity
  8
DEFPOINTS
  6
BYBLOCK
 62
     0
100
AcDbPoint
 10
239.4888
 20
190.0
 30
0.0
  0
ENDBLK
  5
1F20
100
AcDbEntity
  8
0
100
AcDbBlockEnd
  0
BLOCK
  5
1FA9
100
AcDbEntity
  8
0
100
AcDbBlockBegin
  2
*D4
 70
     1
 10
0.0
 20
0.0
 30
0.0
  3
*D4
  1

  0
LINE
  5
1FAA
100
AcDbEntity
  8
0
  6
BYBLOCK
 62
     0
100
AcDbLine
 10
182.4768
 20
48.0
 30
0.0
 11
182.4768
 21
29.0
 31
0.0
  0
LINE
  5
1FAB
100
AcDbEntity
  8
0
  6
BYBLOCK
 62
     0
100
AcDbLine
 10
217.4768
 20
48.0
 30
0.0
 11
217.4768
 21
29.0
 31
0.0
  0
LINE
  5
1FAC
100
AcDbEntity
  8
0
  6
BYBLOCK
 62
     0
100
AcDbLine
 10
187.4768
 20
30.0
 30
0.0
 11
212.4768
 21
30.0
 31
0.0
  0
INSERT
  5
1FAD
100
AcDbEntity
  8
0
  6
BYBLOCK
 62
     0
100
AcDbBlockReference
  2
_OPEN30
 10
182.4768
 20
30.0
 30
0.0
 41
5.0
 42
5.0
 43
5.0
 50
180.0
  0
INSERT
  5
1FAE
100
AcDbEntity
  8
0
  6
BYBLOCK
 62
     0
100
AcDbBlockReference
  2
_OPEN30
 10
217.4768
 20
30.0
 30
0.0
 41
5.0
 42
5.0
 43
5.0
  0
MTEXT
  5
1FAF
100
AcDbEntity
  8
0
  6
BYBLOCK
 62
     0
100
AcDbMText
 10
199.9768
 20
35.5
 30
0.0
 40
7.0
 41
0.0
 71
     5
 72
     1
  1
\A1;35.4
  7
MS
  0
POINT
  5
1FB0
100
AcDbEntity
  8
DEFPOINTS
  6
BYBLOCK
 62
     0
100
AcDbPoint
 10
182.4768
 20
50.0
 30
0.0
  0
POINT
  5
1FB1
100
AcDbEntity
  8
DEFPOINTS
  6
BYBLOCK
 62
     0
100
AcDbPoint
 10
217.4768
 20
50.0
 30
0.0
  0
POINT
  5
1FB2
100
AcDbEntity
  8
DEFPOINTS
  6
BYBLOCK
 62
     0
100
AcDbPoint
 10
217.4768
 20
30.0
 30
0.0
  0
ENDBLK
  5
1FB3
100
AcDbEntity
  8
0
100
AcDbBlockEnd
  0
BLOCK
  5
1F9E
100
AcDbEntity
  8
0
100
AcDbBlockBegin
  2
*D5
 70
     1
 10
0.0
 20
0.0
 30
0.0
  3
*D5
  1

  0
LINE
  5
1F9F
100
AcDbEntity
  8
0
  6
BYBLOCK
 62
     0
100
AcDbLine
 10
149.9768
 20
48.0
 30
0.0
 11
149.9768
 21
14.0
 31
0.0
  0
LINE
  5
1FA0
100
AcDbEntity
  8
0
  6
BYBLOCK
 62
     0
100
AcDbLine
 10
245.9768
 20
48.0
 30
0.0
 11
245.9768
 21
14.0
 31
0.0
  0
LINE
  5
1FA1
100
AcDbEntity
  8
0
  6
BYBLOCK
 62
     0
100
AcDbLine
 10
154.9768
 20
15.0
 30
0.0
 11
240.9768
 21
15.0
 31
0.0
  0
INSERT
  5
1FA2
100
AcDbEntity
  8
0
  6
BYBLOCK
 62
     0
100
AcDbBlockReference
  2
_OPEN30
 10
149.9768
 20
15.0
 30
0.0
 41
5.0
 42
5.0
 43
5.0
 50
180.0
  0
INSERT
  5
1FA3
100
AcDbEntity
  8
0
  6
BYBLOCK
 62
     0
100
AcDbBlockReference
  2
_OPEN30
 10
245.9768
 20
15.0
 30
0.0
 41
5.0
 42
5.0
 43
5.0
  0
MTEXT
  5
1FA4
100
AcDbEntity
  8
0
  6
BYBLOCK
 62
     0
100
AcDbMText
 10
197.9768
 20
20.5
 30
0.0
 40
7.0
 41
0.0
 71
     5
 72
     1
  1
\A1;97MAX
  7
MS
  0
POINT
  5
1FA5
100
AcDbEntity
  8
DEFPOINTS
  6
BYBLOCK
 62
     0
100
AcDbPoint
 10
149.9768
 20
50.0
 30
0.0
  0
POINT
  5
1FA6
100
AcDbEntity
  8
DEFPOINTS
  6
BYBLOCK
 62
     0
100
AcDbPoint
 10
245.9768
 20
50.0
 30
0.0
  0
POINT
  5
1FA7
100
AcDbEntity
  8
DEFPOINTS
  6
BYBLOCK
 62
     0
100
AcDbPoint
 10
245.9768
 20
15.0
 30
0.0
  0
ENDBLK
  5
1FA8
100
AcDbEntity
  8
0
100
AcDbBlockEnd
  0
BLOCK
  5
2099
100
AcDbEntity
  8
0
100
AcDbBlockBegin
  2
*D6
 70
     1
 10
0.0
 20
0.0
 30
0.0
  3
*D6
  1

  0
LINE
  5
209A
100
AcDbEntity
  8
0
  6
BYBLOCK
 62
     0
100
AcDbLine
 10
96.50008
 20
175.5014
 30
0.0
 11
130.9768
 21
175.5014
 31
0.0
  0
LINE
  5
209B
100
AcDbEntity
  8
0
  6
BYBLOCK
 62
     0
100
AcDbLine
 10
96.9768
 20
50.0
 30
0.0
 11
130.9768
 21
50.0
 31
0.0
  0
LINE
  5
209C
100
AcDbEntity
  8
0
  6
BYBLOCK
 62
     0
100
AcDbLine
 10
129.9768
 20
170.5014
 30
0.0
 11
129.9768
 21
55.0
 31
0.0
  0
INSERT
  5
209D
100
AcDbEntity
  8
0
  6
BYBLOCK
 62
     0
100
AcDbBlockReference
  2
_OPEN30
 10
129.9768
 20
175.5014
 30
0.0
 41
5.0
 42
5.0
 43
5.0
 50
90.0
  0
INSERT
  5
209E
100
AcDbEntity
  8
0
  6
BYBLOCK
 62
     0
100
AcDbBlockReference
  2
_OPEN30
 10
129.9768
 20
50.0
 30
0.0
 41
5.0
 42
5.0
 43
5.0
 50
270.0
  0
MTEXT
  5
209F
100
AcDbEntity
  8
0
  6
BYBLOCK
 62
     0
100
AcDbMText
 10
124.4768
 20
112.7507
 30
0.0
 40
7.0
 41
0.0
 71
     5
 72
     1
  1
\A1;126MAX
  7
MS
 11
0.0
 21
1.0
 31
0.0
  0
POINT
  5
20A0
100
AcDbEntity
  8
DEFPOINTS
  6
BYBLOCK
 62
     0
100
AcDbPoint
 10
94.50008
 20
175.5014
 30
0.0
  0
POINT
  5
20A1
100
AcDbEntity
  8
DEFPOINTS
  6
BYBLOCK
 62
     0
100
AcDbPoint
 10
94.9768
 20
50.0
 30
0.0
  0
POINT
  5
20A2
100
AcDbEntity
  8
DEFPOINTS
  6
BYBLOCK
 62
     0
100
AcDbPoint
 10
129.9768
 20
50.0
 30
0.0
  0
ENDBLK
  5
20A3
100
AcDbEntity
  8
0
100
AcDbBlockEnd
  0
BLOCK
  5
1FB4
100
AcDbEntity
  8
0
100
AcDbBlockBegin
  2
*D7
 70
     1
 10
0.0
 20
0.0
 30
0.0
  3
*D7
  1

  0
LINE
  5
1FB5
100
AcDbEntity
  8
0
  6
BYBLOCK
 62
     0
100
AcDbLine
 10
44.9768
 20
48.0
 30
0.0
 11
44.9768
 21
14.0
 31
0.0
  0
LINE
  5
1FB6
100
AcDbEntity
  8
0
  6
BYBLOCK
 62
     0
100
AcDbLine
 10
94.9768
 20
48.0
 30
0.0
 11
94.9768
 21
14.0
 31
0.0
  0
LINE
  5
1FB7
100
AcDbEntity
  8
0
  6
BYBLOCK
 62
     0
100
AcDbLine
 10
49.9768
 20
15.0
 30
0.0
 11
89.9768
 21
15.0
 31
0.0
  0
INSERT
  5
1FB8
100
AcDbEntity
  8
0
  6
BYBLOCK
 62
     0
100
AcDbBlockReference
  2
_OPEN30
 10
44.9768
 20
15.0
 30
0.0
 41
5.0
 42
5.0
 43
5.0
 50
180.0
  0
INSERT
  5
1FB9
100
AcDbEntity
  8
0
  6
BYBLOCK
 62
     0
100
AcDbBlockReference
  2
_OPEN30
 10
94.9768
 20
15.0
 30
0.0
 41
5.0
 42
5.0
 43
5.0
  0
MTEXT
  5
1FBA
100
AcDbEntity
  8
0
  6
BYBLOCK
 62
     0
100
AcDbMText
 10
69.9768
 20
20.5
 30
0.0
 40
7.0
 41
0.0
 71
     5
 72
     1
  1
\A1;51MAX
  7
MS
  0
POINT
  5
1FBB
100
AcDbEntity
  8
DEFPOINTS
  6
BYBLOCK
 62
     0
100
AcDbPoint
 10
44.9768
 20
50.0
 30
0.0
  0
POINT
  5
1FBC
100
AcDbEntity
  8
DEFPOINTS
  6
BYBLOCK
 62
     0
100
AcDbPoint
 10
94.9768
 20
50.0
 30
0.0
  0
POINT
  5
1FBD
100
AcDbEntity
  8
DEFPOINTS
  6
BYBLOCK
 62
     0
100
AcDbPoint
 10
94.9768
 20
15.0
 30
0.0
  0
ENDBLK
  5
1FBE
100
AcDbEntity
  8
0
100
AcDbBlockEnd
  0
BLOCK
  5
1F0B
100
AcDbEntity
  8
0
100
AcDbBlockBegin
  2
*D8
 70
     1
 10
0.0
 20
0.0
 30
0.0
  3
*D8
  1

  0
LINE
  5
1F0C
100
AcDbEntity
  8
0
  6
BYBLOCK
 62
     0
100
AcDbLine
 10
45.47281
 20
177.4054
 30
0.0
 11
45.47281
 21
191.0
 31
0.0
  0
LINE
  5
1F0D
100
AcDbEntity
  8
0
  6
BYBLOCK
 62
     0
100
AcDbLine
 10
94.50008
 20
177.5014
 30
0.0
 11
94.50008
 21
191.0
 31
0.0
  0
LINE
  5
1F0E
100
AcDbEntity
  8
0
  6
BYBLOCK
 62
     0
100
AcDbLine
 10
50.47281
 20
190.0
 30
0.0
 11
89.50008
 21
190.0
 31
0.0
  0
INSERT
  5
1F0F
100
AcDbEntity
  8
0
  6
BYBLOCK
 62
     0
100
AcDbBlockReference
  2
_OPEN30
 10
45.47281
 20
190.0
 30
0.0
 41
5.0
 42
5.0
 43
5.0
 50
180.0
  0
INSERT
  5
1F10
100
AcDbEntity
  8
0
  6
BYBLOCK
 62
     0
100
AcDbBlockReference
  2
_OPEN30
 10
94.50008
 20
190.0
 30
0.0
 41
5.0
 42
5.0
 43
5.0
  0
MTEXT
  5
1F11
100
AcDbEntity
  8
0
  6
BYBLOCK
 62
     0
100
AcDbMText
 10
69.9768
 20
195.5
 30
0.0
 40
7.0
 41
0.0
 71
     5
 72
     1
  1
\A1;49
  7
MS
  0
POINT
  5
1F12
100
AcDbEntity
  8
DEFPOINTS
  6
BYBLOCK
 62
     0
100
AcDbPoint
 10
45.47281
 20
175.4054
 30
0.0
  0
POINT
  5
1F13
100
AcDbEntity
  8
DEFPOINTS
  6
BYBLOCK
 62
     0
100
AcDbPoint
 10
94.50008
 20
175.5014
 30
0.0
  0
POINT
  5
1F14
100
AcDbEntity
  8
DEFPOINTS
  6
BYBLOCK
 62
     0
100
AcDbPoint
 10
94.50008
 20
190.0
 30
0.0
  0
ENDBLK
  5
1F15
100
AcDbEntity
  8
0
100
AcDbBlockEnd
  0
BLOCK
  5
1F88
100
AcDbEntity
  8
0
100
AcDbBlockBegin
  2
*D9
 70
     1
 10
0.0
 20
0.0
 30
0.0
  3
*D9
  1

  0
LINE
  5
1F89
100
AcDbEntity
  8
0
  6
BYBLOCK
 62
     0
100
AcDbLine
 10
329.9968
 20
58.0
 30
0.0
 11
329.9968
 21
34.095
 31
0.0
  0
LINE
  5
1F8A
100
AcDbEntity
  8
0
  6
BYBLOCK
 62
     0
100
AcDbLine
 10
369.9968
 20
58.0
 30
0.0
 11
369.9968
 21
34.095
 31
0.0
  0
LINE
  5
1F8B
100
AcDbEntity
  8
0
  6
BYBLOCK
 62
     0
100
AcDbLine
 10
334.9968
 20
35.095
 30
0.0
 11
364.9968
 21
35.095
 31
0.0
  0
INSERT
  5
1F8C
100
AcDbEntity
  8
0
  6
BYBLOCK
 62
     0
100
AcDbBlockReference
  2
_OPEN30
 10
329.9968
 20
35.095
 30
0.0
 41
5.0
 42
5.0
 43
5.0
 50
180.0
  0
INSERT
  5
1F8D
100
AcDbEntity
  8
0
  6
BYBLOCK
 62
     0
100
AcDbBlockReference
  2
_OPEN30
 10
369.9968
 20
35.095
 30
0.0
 41
5.0
 42
5.0
 43
5.0
  0
MTEXT
  5
1F8E
100
AcDbEntity
  8
0
  6
BYBLOCK
 62
     0
100
AcDbMText
 10
349.9968
 20
40.595
 30
0.0
 40
7.0
 41
0.0
 71
     5
 72
     1
  1
\A1;40±0.2
  7
MS
  0
POINT
  5
1F8F
100
AcDbEntity
  8
DEFPOINTS
  6
BYBLOCK
 62
     0
100
AcDbPoint
 10
329.9968
 20
60.0
 30
0.0
  0
POINT
  5
1F90
100
AcDbEntity
  8
DEFPOINTS
  6
BYBLOCK
 62
     0
100
AcDbPoint
 10
369.9968
 20
60.0
 30
0.0
  0
POINT
  5
1F91
100
AcDbEntity
  8
DEFPOINTS
  6
BYBLOCK
 62
     0
100
AcDbPoint
 10
369.9968
 20
35.095
 30
0.0
  0
ENDBLK
  5
1F92
100
AcDbEntity
  8
0
100
AcDbBlockEnd
  0
BLOCK
  5
1F93
100
AcDbEntity
  8
0
100
AcDbBlockBegin
  2
*D10
 70
     1
 10
0.0
 20
0.0
 30
0.0
  3
*D10
  1

  0
LINE
  5
1F94
100
AcDbEntity
  8
0
  6
BYBLOCK
 62
     0
100
AcDbLine
 10
324.9968
 20
58.0
 30
0.0
 11
324.9968
 21
19.095
 31
0.0
  0
LINE
  5
1F95
100
AcDbEntity
  8
0
  6
BYBLOCK
 62
     0
100
AcDbLine
 10
374.9968
 20
58.0
 30
0.0
 11
374.9968
 21
19.095
 31
0.0
  0
LINE
  5
1F96
100
AcDbEntity
  8
0
  6
BYBLOCK
 62
     0
100
AcDbLine
 10
329.9968
 20
20.095
 30
0.0
 11
369.9968
 21
20.095
 31
0.0
  0
INSERT
  5
1F97
100
AcDbEntity
  8
0
  6
BYBLOCK
 62
     0
100
AcDbBlockReference
  2
_OPEN30
 10
324.9968
 20
20.095
 30
0.0
 41
5.0
 42
5.0
 43
5.0
 50
180.0
  0
INSERT
  5
1F98
100
AcDbEntity
  8
0
  6
BYBLOCK
 62
     0
100
AcDbBlockReference
  2
_OPEN30
 10
374.9968
 20
20.095
 30
0.0
 41
5.0
 42
5.0
 43
5.0
  0
MTEXT
  5
1F99
100
AcDbEntity
  8
0
  6
BYBLOCK
 62
     0
100
AcDbMText
 10
349.9968
 20
25.595
 30
0.0
 40
7.0
 41
0.0
 71
     5
 72
     1
  1
\A1;51MAX
  7
MS
  0
POINT
  5
1F9A
100
AcDbEntity
  8
DEFPOINTS
  6
BYBLOCK
 62
     0
100
AcDbPoint
 10
324.9968
 20
60.0
 30
0.0
  0
POINT
  5
1F9B
100
AcDbEntity
  8
DEFPOINTS
  6
BYBLOCK
 62
     0
100
AcDbPoint
 10
374.9968
 20
60.0
 30
0.0
  0
POINT
  5
1F9C
100
AcDbEntity
  8
DEFPOINTS
  6
BYBLOCK
 62
     0
100
AcDbPoint
 10
374.9968
 20
20.095
 30
0.0
  0
ENDBLK
  5
1F9D
100
AcDbEntity
  8
0
100
AcDbBlockEnd
  0
BLOCK
  5
2083
100
AcDbEntity
  8
0
100
AcDbBlockBegin
  2
*D11
 70
     1
 10
0.0
 20
0.0
 30
0.0
  3
*D11
  1

  0
LINE
  5
2084
100
AcDbEntity
  8
0
  6
BYBLOCK
 62
     0
100
AcDbLine
 10
364.3468
 20
154.026
 30
0.0
 11
364.3468
 21
161.0258
 31
0.0
  0
LINE
  5
2085
100
AcDbEntity
  8
0
  6
BYBLOCK
 62
     0
100
AcDbLine
 10
372.2968
 20
154.026
 30
0.0
 11
372.2968
 21
161.0258
 31
0.0
  0
LINE
  5
2086
100
AcDbEntity
  8
0
  6
BYBLOCK
 62
     0
100
AcDbLine
 10
359.3468
 20
160.0258
 30
0.0
 11
354.3468
 21
160.0258
 31
0.0
  0
LINE
  5
2087
100
AcDbEntity
  8
0
  6
BYBLOCK
 62
     0
100
AcDbLine
 10
377.2968
 20
160.0258
 30
0.0
 11
382.2968
 21
160.0258
 31
0.0
  0
LINE
  5
2088
100
AcDbEntity
  8
0
  6
BYBLOCK
 62
     0
100
AcDbLine
 10
364.3468
 20
160.0258
 30
0.0
 11
372.2968
 21
160.0258
 31
0.0
  0
INSERT
  5
2089
100
AcDbEntity
  8
0
  6
BYBLOCK
 62
     0
100
AcDbBlockReference
  2
_OPEN30
 10
364.3468
 20
160.0258
 30
0.0
 41
5.0
 42
5.0
 43
5.0
  0
INSERT
  5
208A
100
AcDbEntity
  8
0
  6
BYBLOCK
 62
     0
100
AcDbBlockReference
  2
_OPEN30
 10
372.2968
 20
160.0258
 30
0.0
 41
5.0
 42
5.0
 43
5.0
 50
180.0
  0
MTEXT
  5
208B
100
AcDbEntity
  8
0
  6
BYBLOCK
 62
     0
100
AcDbMText
 10
368.3218
 20
165.5258
 30
0.0
 40
7.0
 41
0.0
 71
     5
 72
     1
  1
\A1;7.8
  7
MS
  0
POINT
  5
208C
100
AcDbEntity
  8
DEFPOINTS
  6
BYBLOCK
 62
     0
100
AcDbPoint
 10
364.3468
 20
152.026
 30
0.0
  0
POINT
  5
208D
100
AcDbEntity
  8
DEFPOINTS
  6
BYBLOCK
 62
     0
100
AcDbPoint
 10
372.2968
 20
152.026
 30
0.0
  0
POINT
  5
208E
100
AcDbEntity
  8
DEFPOINTS
  6
BYBLOCK
 62
     0
100
AcDbPoint
 10
372.2968
 20
160.0258
 30
0.0
  0
ENDBLK
  5
208F
100
AcDbEntity
  8
0
100
AcDbBlockEnd
  0
BLOCK
  5
1F5A
100
AcDbEntity
  8
0
100
AcDbBlockBegin
  2
*D12
 70
     1
 10
0.0
 20
0.0
 30
0.0
  3
*D12
  1

  0
LINE
  5
1F5B
100
AcDbEntity
  8
0
  6
BYBLOCK
 62
     0
100
AcDbLine
 10
377.0088
 20
152.0
 30
0.0
 11
396.0088
 21
152.0
 31
0.0
  0
LINE
  5
1F5C
100
AcDbEntity
  8
0
  6
BYBLOCK
 62
     0
100
AcDbLine
 10
377.0088
 20
60.0
 30
0.0
 11
396.0088
 21
60.0
 31
0.0
  0
LINE
  5
1F5D
100
AcDbEntity
  8
0
  6
BYBLOCK
 62
     0
100
AcDbLine
 10
395.0088
 20
147.0
 30
0.0
 11
395.0088
 21
65.0
 31
0.0
  0
INSERT
  5
1F5E
100
AcDbEntity
  8
0
  6
BYBLOCK
 62
     0
100
AcDbBlockReference
  2
_OPEN30
 10
395.0088
 20
152.0
 30
0.0
 41
5.0
 42
5.0
 43
5.0
 50
90.0
  0
INSERT
  5
1F5F
100
AcDbEntity
  8
0
  6
BYBLOCK
 62
     0
100
AcDbBlockReference
  2
_OPEN30
 10
395.0088
 20
60.0
 30
0.0
 41
5.0
 42
5.0
 43
5.0
 50
270.0
  0
MTEXT
  5
1F60
100
AcDbEntity
  8
0
  6
BYBLOCK
 62
     0
100
AcDbMText
 10
389.5088
 20
106.0
 30
0.0
 40
7.0
 41
0.0
 71
     5
 72
     1
  1
\A1;93MAX
  7
MS
 11
0.0
 21
1.0
 31
0.0
  0
POINT
  5
1F61
100
AcDbEntity
  8
DEFPOINTS
  6
BYBLOCK
 62
     0
100
AcDbPoint
 10
375.0088
 20
152.0
 30
0.0
  0
POINT
  5
1F62
100
AcDbEntity
  8
DEFPOINTS
  6
BYBLOCK
 62
     0
100
AcDbPoint
 10
375.0088
 20
60.0
 30
0.0
  0
POINT
  5
1F63
100
AcDbEntity
  8
DEFPOINTS
  6
BYBLOCK
 62
     0
100
AcDbPoint
 10
395.0088
 20
60.0
 30
0.0
  0
ENDBLK
  5
1F64
100
AcDbEntity
  8
0
100
AcDbBlockEnd
  0
BLOCK
  5
1F65
100
AcDbEntity
  8
0
100
AcDbBlockBegin
  2
*D13
 70
     1
 10
0.0
 20
0.0
 30
0.0
  3
*D13
  1

  0
LINE
  5
1F66
100
AcDbEntity
  8
0
  6
BYBLOCK
 62
     0
100
AcDbLine
 10
377.0088
 20
60.0
 30
0.0
 11
396.0088
 21
60.0
 31
0.0
  0
LINE
  5
1F67
100
AcDbEntity
  8
0
  6
BYBLOCK
 62
     0
100
AcDbLine
 10
354.5088
 20
56.0
 30
0.0
 11
396.0088
 21
56.0
 31
0.0
  0
LINE
  5
1F68
100
AcDbEntity
  8
0
  6
BYBLOCK
 62
     0
100
AcDbLine
 10
395.0088
 20
65.0
 30
0.0
 11
395.0088
 21
70.0
 31
0.0
  0
LINE
  5
1F69
100
AcDbEntity
  8
0
  6
BYBLOCK
 62
     0
100
AcDbLine
 10
395.0088
 20
51.0
 30
0.0
 11
395.0088
 21
37.585227
 31
0.0
  0
LINE
  5
1F6A
100
AcDbEntity
  8
0
  6
BYBLOCK
 62
     0
100
AcDbLine
 10
395.0088
 20
60.0
 30
0.0
 11
395.0088
 21
56.0
 31
0.0
  0
INSERT
  5
1F6B
100
AcDbEntity
  8
0
  6
BYBLOCK
 62
     0
100
AcDbBlockReference
  2
_OPEN30
 10
395.0088
 20
60.0
 30
0.0
 41
5.0
 42
5.0
 43
5.0
 50
270.0
  0
INSERT
  5
1F6C
100
AcDbEntity
  8
0
  6
BYBLOCK
 62
     0
100
AcDbBlockReference
  2
_OPEN30
 10
395.0088
 20
56.0
 30
0.0
 41
5.0
 42
5.0
 43
5.0
 50
90.0
  0
MTEXT
  5
1F6D
100
AcDbEntity
  8
0
  6
BYBLOCK
 62
     0
100
AcDbMText
 10
389.5088
 20
41.792614
 30
0.0
 40
7.0
 41
0.0
 71
     5
 72
     1
  1
\A1;4
  7
MS
 11
0.0
 21
1.0
 31
0.0
  0
POINT
  5
1F6E
100
AcDbEntity
  8
DEFPOINTS
  6
BYBLOCK
 62
     0
100
AcDbPoint
 10
375.0088
 20
60.0
 30
0.0
  0
POINT
  5
1F6F
100
AcDbEntity
  8
DEFPOINTS
  6
BYBLOCK
 62
     0
100
AcDbPoint
 10
352.5088
 20
56.0
 30
0.0
  0
POINT
  5
1F70
100
AcDbEntity
  8
DEFPOINTS
  6
BYBLOCK
 62
     0
100
AcDbPoint
 10
395.0088
 20
56.0
 30
0.0
  0
ENDBLK
  5
1F71
100
AcDbEntity
  8
0
100
AcDbBlockEnd
  0
ENDSEC
  0
SECTION
  2
ENTITIES
  0
LINE
  5
B51
100
AcDbEntity
  8
0
100
AcDbLine
 10
182.4988
 20
54.505
 30
0.0
 11
217.4988
 21
54.505
 31
0.0
  0
LINE
  5
B53
100
AcDbEntity
  8
0
  6
WACOM_LSTYLE_M5
100
AcDbLine
 10
186.7988
 20
47.705
 30
0.0
 11
212.9988
 21
47.705
 31
0.0
  0
LINE
  5
B54
100
AcDbEntity
  8
0
  6
WACOM_LSTYLE_M5
100
AcDbLine
 10
183.9988
 20
45.905
 30
0.0
 11
215.9748
 21
45.905
 31
0.0
  0
LINE
  5
B55
100
AcDbEntity
  8
0
100
AcDbLine
 10
195.9988
 20
64.505
 30
0.0
 11
203.9988
 21
64.505
 31
0.0
  0
LINE
  5
B57
100
AcDbEntity
  8
0
100
AcDbLine
 10
155.9988
 20
68.505
 30
0.0
 11
243.9988
 21
68.505
 31
0.0
  0
LINE
  5
B59
100
AcDbEntity
  8
0
100
AcDbLine
 10
160.4988
 20
175.5
 30
0.0
 11
239.4988
 21
175.5
 31
0.0
  0
LINE
  5
B5B
100
AcDbEntity
  8
0
100
AcDbLine
 10
159.9988
 20
69.9943
 30
0.0
 11
239.9988
 21
69.9943
 31
0.0
  0
LINE
  5
B5C
100
AcDbEntity
  8
0
100
AcDbLine
 10
159.9988
 20
73.7602
 30
0.0
 11
239.9988
 21
73.7602
 31
0.0
  0
LINE
  5
B5F
100
AcDbEntity
  8
0
100
AcDbLine
 10
159.9988
 20
74.0
 30
0.0
 11
160.4988
 21
175.5
 31
0.0
  0
LINE
  5
B60
100
AcDbEntity
  8
0
100
AcDbLine
 10
94.50008
 20
175.5014
 30
0.0
 11
95.0029
 21
73.4064
 31
0.0
  0
LINE
  5
B61
100
AcDbEntity
  8
0
100
AcDbLine
 10
44.9971
 20
73.4064
 30
0.0
 11
45.49992
 21
175.5014
 31
0.0
  0
LINE
  5
B62
100
AcDbEntity
  8
1
100
AcDbLine
 10
70.0
 20
44.995
 30
0.0
 11
70.0
 21
184.995
 31
0.0
  0
LINE
  5
B64
100
AcDbEntity
  8
0
100
AcDbLine
 10
45.0
 20
70.0
 30
0.0
 11
68.5
 21
70.0
 31
0.0
  0
LINE
  5
B65
100
AcDbEntity
  8
0
100
AcDbLine
 10
66.0
 20
67.0
 30
0.0
 11
68.0
 21
67.0
 31
0.0
  0
LINE
  5
B66
100
AcDbEntity
  8
0
100
AcDbLine
 10
45.0
 20
68.5
 30
0.0
 11
68.5
 21
68.5
 31
0.0
  0
LINE
  5
B67
100
AcDbEntity
  8
0
100
AcDbLine
 10
56.0
 20
54.0
 30
0.0
 11
84.0
 21
54.0
 31
0.0
  0
LINE
  5
B68
100
AcDbEntity
  8
0
100
AcDbLine
 10
47.5
 20
57.0
 30
0.0
 11
68.0
 21
57.0
 31
0.0
  0
LINE
  5
B69
100
AcDbEntity
  8
0
100
AcDbLine
 10
45.0
 20
50.0
 30
0.0
 11
95.0
 21
50.0
 31
0.0
  0
LINE
  5
B6A
100
AcDbEntity
  8
0
100
AcDbLine
 10
45.0
 20
73.2
 30
0.0
 11
67.9976
 21
73.2
 31
0.0
  0
LINE
  5
B6B
100
AcDbEntity
  8
0
100
AcDbLine
 10
65.0
 20
50.0
 30
0.0
 11
65.0
 21
54.0
 31
0.0
  0
LINE
  5
B6C
100
AcDbEntity
  8
0
100
AcDbLine
 10
57.5
 20
50.0
 30
0.0
 11
57.5
 21
54.0
 31
0.0
  0
LINE
  5
B6D
100
AcDbEntity
  8
0
100
AcDbLine
 10
56.0
 20
50.0
 30
0.0
 11
56.0
 21
54.0
 31
0.0
  0
LINE
  5
B6E
100
AcDbEntity
  8
0
100
AcDbLine
 10
56.0
 20
50.0
 30
0.0
 11
56.0
 21
54.0
 31
0.0
  0
LINE
  5
B6F
100
AcDbEntity
  8
0
100
AcDbLine
 10
45.0
 20
50.0
 30
0.0
 11
45.0
 21
68.5
 31
0.0
  0
ARC
  5
B70
100
AcDbEntity
  8
0
100
AcDbCircle
 10
50.675
 20
62.5103
 30
0.0
 40
2.2
100
AcDbArc
 50
90.0
 51
180.0
  0
LINE
  5
B71
100
AcDbEntity
  8
0
100
AcDbLine
 10
47.75
 20
62.5
 30
0.0
 11
55.25
 21
62.5
 31
0.0
  0
LINE
  5
B72
100
AcDbEntity
  8
0
100
AcDbLine
 10
47.5
 20
61.0
 30
0.0
 11
55.5
 21
61.0
 31
0.0
  0
LINE
  5
B73
100
AcDbEntity
  8
0
100
AcDbLine
 10
47.5
 20
61.0
 30
0.0
 11
55.5
 21
61.0
 31
0.0
  0
LINE
  5
B74
100
AcDbEntity
  8
0
100
AcDbLine
 10
47.5
 20
57.0
 30
0.0
 11
47.5
 21
68.5
 31
0.0
  0
LINE
  5
B75
100
AcDbEntity
  8
0
100
AcDbLine
 10
47.75
 20
61.0
 30
0.0
 11
47.75
 21
62.5
 31
0.0
  0
LINE
  5
B76
100
AcDbEntity
  8
0
100
AcDbLine
 10
49.5
 20
68.5
 30
0.0
 11
49.5
 21
70.0
 31
0.0
  0
LINE
  5
B77
100
AcDbEntity
  8
0
100
AcDbLine
 10
47.5
 20
68.5
 30
0.0
 11
47.5
 21
70.0
 31
0.0
  0
LINE
  5
B78
100
AcDbEntity
  8
0
100
AcDbLine
 10
45.0
 20
68.505
 30
0.0
 11
45.0
 21
73.2
 31
0.0
  0
LINE
  5
B79
100
AcDbEntity
  8
0
100
AcDbLine
 10
45.0
 20
68.5
 30
0.0
 11
47.5
 21
68.5
 31
0.0
  0
LINE
  5
B7A
100
AcDbEntity
  8
0
100
AcDbLine
 10
45.0
 20
67.0
 30
0.0
 11
47.5
 21
67.0
 31
0.0
  0
ARC
  5
B7B
100
AcDbEntity
  8
0
100
AcDbCircle
 10
61.175
 20
62.5103
 30
0.0
 40
2.2
100
AcDbArc
 50
90.0
 51
180.0
  0
ARC
  5
B7C
100
AcDbEntity
  8
0
100
AcDbCircle
 10
62.825
 20
62.5103
 30
0.0
 40
2.2
100
AcDbArc
 50
0.0
 51
90.0
  0
ARC
  5
B7D
100
AcDbEntity
  8
0
100
AcDbCircle
 10
52.325
 20
62.5103
 30
0.0
 40
2.2
100
AcDbArc
 50
0.0
 51
90.0
  0
LINE
  5
B7E
100
AcDbEntity
  8
0
100
AcDbLine
 10
66.0
 20
57.0
 30
0.0
 11
66.0
 21
68.5
 31
0.0
  0
LINE
  5
B7F
100
AcDbEntity
  8
0
100
AcDbLine
 10
58.0
 20
57.0
 30
0.0
 11
58.0
 21
68.5
 31
0.0
  0
LINE
  5
B80
100
AcDbEntity
  8
0
100
AcDbLine
 10
55.5
 20
57.0
 30
0.0
 11
55.5
 21
68.5
 31
0.0
  0
LINE
  5
B81
100
AcDbEntity
  8
0
100
AcDbLine
 10
58.25
 20
62.5
 30
0.0
 11
65.75
 21
62.5
 31
0.0
  0
LINE
  5
B82
100
AcDbEntity
  8
0
100
AcDbLine
 10
58.0
 20
61.0
 30
0.0
 11
66.0
 21
61.0
 31
0.0
  0
LINE
  5
B83
100
AcDbEntity
  8
0
100
AcDbLine
 10
58.0
 20
61.0
 30
0.0
 11
66.0
 21
61.0
 31
0.0
  0
LINE
  5
B84
100
AcDbEntity
  8
0
100
AcDbLine
 10
58.25
 20
61.0
 30
0.0
 11
58.25
 21
62.5
 31
0.0
  0
LINE
  5
B85
100
AcDbEntity
  8
0
100
AcDbLine
 10
55.25
 20
61.0
 30
0.0
 11
55.25
 21
62.5
 31
0.0
  0
LINE
  5
B86
100
AcDbEntity
  8
0
100
AcDbLine
 10
65.75
 20
61.0
 30
0.0
 11
65.75
 21
62.5
 31
0.0
  0
LINE
  5
B87
100
AcDbEntity
  8
0
100
AcDbLine
 10
50.675
 20
64.7103
 30
0.0
 11
52.325
 21
64.7103
 31
0.0
  0
LINE
  5
B88
100
AcDbEntity
  8
0
100
AcDbLine
 10
55.5
 20
67.0
 30
0.0
 11
58.0
 21
67.0
 31
0.0
  0
LINE
  5
B89
100
AcDbEntity
  8
0
100
AcDbLine
 10
61.175
 20
64.7103
 30
0.0
 11
62.825
 21
64.7103
 31
0.0
  0
LINE
  5
B8A
100
AcDbEntity
  8
0
100
AcDbLine
 10
66.0
 20
64.5
 30
0.0
 11
66.0
 21
67.0
 31
0.0
  0
LINE
  5
B8C
100
AcDbEntity
  8
0
100
AcDbLine
 10
67.5
 20
50.0
 30
0.0
 11
67.5
 21
54.0
 31
0.0
  0
LINE
  5
B8D
100
AcDbEntity
  8
0
100
AcDbLine
 10
72.5
 20
50.0
 30
0.0
 11
72.5
 21
54.0
 31
0.0
  0
LINE
  5
B8E
100
AcDbEntity
  8
0
100
AcDbLine
 10
75.0
 20
50.0
 30
0.0
 11
75.0
 21
54.0
 31
0.0
  0
LINE
  5
B8F
100
AcDbEntity
  8
0
100
AcDbLine
 10
82.5
 20
50.0
 30
0.0
 11
82.5
 21
54.0
 31
0.0
  0
LINE
  5
B90
100
AcDbEntity
  8
0
100
AcDbLine
 10
84.0
 20
50.0
 30
0.0
 11
84.0
 21
54.0
 31
0.0
  0
LINE
  5
B91
100
AcDbEntity
  8
0
100
AcDbLine
 10
95.0
 20
50.0
 30
0.0
 11
95.0
 21
68.5
 31
0.0
  0
LINE
  5
B92
100
AcDbEntity
  8
0
100
AcDbLine
 10
67.9976
 20
70.0
 30
0.0
 11
67.9976
 21
78.5
 31
0.0
  0
LINE
  5
B93
100
AcDbEntity
  8
0
100
AcDbLine
 10
71.9976
 20
70.0
 30
0.0
 11
71.9976
 21
78.5
 31
0.0
  0
LINE
  5
B94
100
AcDbEntity
  8
0
100
AcDbLine
 10
71.5
 20
73.5
 30
0.0
 11
71.5
 21
80.5
 31
0.0
  0
LINE
  5
B95
100
AcDbEntity
  8
0
100
AcDbLine
 10
68.5
 20
73.5
 30
0.0
 11
68.5
 21
80.5
 31
0.0
  0
LINE
  5
B96
100
AcDbEntity
  8
0
100
AcDbLine
 10
67.9976
 20
69.7
 30
0.0
 11
67.9976
 21
78.5
 31
0.0
  0
LINE
  5
B97
100
AcDbEntity
  8
0
100
AcDbLine
 10
71.9976
 20
69.7
 30
0.0
 11
71.9976
 21
78.5
 31
0.0
  0
LINE
  5
B98
100
AcDbEntity
  8
0
100
AcDbLine
 10
71.5
 20
70.0
 30
0.0
 11
95.0
 21
70.0
 31
0.0
  0
LINE
  5
B99
100
AcDbEntity
  8
0
100
AcDbLine
 10
82.0
 20
67.0
 30
0.0
 11
84.5
 21
67.0
 31
0.0
  0
LINE
  5
B9A
100
AcDbEntity
  8
0
100
AcDbLine
 10
71.5
 20
68.5
 30
0.0
 11
95.0
 21
68.5
 31
0.0
  0
LINE
  5
B9B
100
AcDbEntity
  8
0
100
AcDbLine
 10
72.0
 20
57.0
 30
0.0
 11
92.5
 21
57.0
 31
0.0
  0
LINE
  5
B9C
100
AcDbEntity
  8
0
100
AcDbLine
 10
71.9976
 20
73.2
 30
0.0
 11
95.0
 21
73.2
 31
0.0
  0
ARC
  5
B9D
100
AcDbEntity
  8
0
100
AcDbCircle
 10
77.175
 20
62.5103
 30
0.0
 40
2.2
100
AcDbArc
 50
90.0
 51
180.0
  0
ARC
  5
B9E
100
AcDbEntity
  8
0
100
AcDbCircle
 10
78.825
 20
62.5103
 30
0.0
 40
2.2
100
AcDbArc
 50
0.0
 51
90.0
  0
LINE
  5
B9F
100
AcDbEntity
  8
0
100
AcDbLine
 10
71.5
 20
56.5
 30
0.0
 11
71.5
 21
73.5
 31
0.0
  0
LINE
  5
BA0
100
AcDbEntity
  8
0
100
AcDbLine
 10
68.5
 20
56.5
 30
0.0
 11
68.5
 21
73.5
 31
0.0
  0
LINE
  5
BA1
100
AcDbEntity
  8
0
100
AcDbLine
 10
82.0
 20
57.0
 30
0.0
 11
82.0
 21
68.5
 31
0.0
  0
LINE
  5
BA2
100
AcDbEntity
  8
0
100
AcDbLine
 10
74.0
 20
57.0
 30
0.0
 11
74.0
 21
68.5
 31
0.0
  0
LINE
  5
BA3
100
AcDbEntity
  8
0
100
AcDbLine
 10
72.0
 20
57.0
 30
0.0
 11
72.0
 21
68.5
 31
0.0
  0
LINE
  5
BA4
100
AcDbEntity
  8
0
100
AcDbLine
 10
68.0
 20
57.0
 30
0.0
 11
68.0
 21
68.5
 31
0.0
  0
LINE
  5
BA5
100
AcDbEntity
  8
0
100
AcDbLine
 10
74.25
 20
62.5
 30
0.0
 11
81.75
 21
62.5
 31
0.0
  0
LINE
  5
BA6
100
AcDbEntity
  8
0
100
AcDbLine
 10
74.0
 20
61.0
 30
0.0
 11
82.0
 21
61.0
 31
0.0
  0
LINE
  5
BA7
100
AcDbEntity
  8
0
100
AcDbLine
 10
74.0
 20
61.0
 30
0.0
 11
82.0
 21
61.0
 31
0.0
  0
LINE
  5
BA8
100
AcDbEntity
  8
0
100
AcDbLine
 10
68.0
 20
55.0
 30
0.0
 11
72.0
 21
55.0
 31
0.0
  0
LINE
  5
BA9
100
AcDbEntity
  8
0
100
AcDbLine
 10
67.5
 20
54.0
 30
0.0
 11
70.0
 21
54.0
 31
0.0
  0
LINE
  5
BAA
100
AcDbEntity
  8
0
100
AcDbLine
 10
68.0
 20
55.0
 30
0.0
 11
68.0
 21
57.0
 31
0.0
  0
LINE
  5
BAB
100
AcDbEntity
  8
0
100
AcDbLine
 10
72.0
 20
55.0
 30
0.0
 11
72.0
 21
57.0
 31
0.0
  0
LINE
  5
BAC
100
AcDbEntity
  8
0
100
AcDbLine
 10
74.25
 20
61.0
 30
0.0
 11
74.25
 21
62.5
 31
0.0
  0
LINE
  5
BAD
100
AcDbEntity
  8
0
100
AcDbLine
 10
81.75
 20
61.0
 30
0.0
 11
81.75
 21
62.5
 31
0.0
  0
LINE
  5
BAE
100
AcDbEntity
  8
0
100
AcDbLine
 10
72.0
 20
67.0
 30
0.0
 11
74.0
 21
67.0
 31
0.0
  0
LINE
  5
BAF
100
AcDbEntity
  8
0
100
AcDbLine
 10
77.175
 20
64.7103
 30
0.0
 11
78.825
 21
64.7103
 31
0.0
  0
ARC
  5
BB0
100
AcDbEntity
  8
0
100
AcDbCircle
 10
87.6888
 20
62.5103
 30
0.0
 40
2.2
100
AcDbArc
 50
90.0
 51
180.0
  0
ARC
  5
BB1
100
AcDbEntity
  8
0
100
AcDbCircle
 10
89.3388
 20
62.5103
 30
0.0
 40
2.2
100
AcDbArc
 50
0.0
 51
90.0
  0
LINE
  5
BB2
100
AcDbEntity
  8
0
100
AcDbLine
 10
92.5
 20
57.0
 30
0.0
 11
92.5
 21
68.5
 31
0.0
  0
LINE
  5
BB3
100
AcDbEntity
  8
0
100
AcDbLine
 10
84.5
 20
57.0
 30
0.0
 11
84.5
 21
68.5
 31
0.0
  0
LINE
  5
BB4
100
AcDbEntity
  8
0
100
AcDbLine
 10
84.75
 20
62.5
 30
0.0
 11
92.25
 21
62.5
 31
0.0
  0
LINE
  5
BB5
100
AcDbEntity
  8
0
100
AcDbLine
 10
84.75
 20
61.0
 30
0.0
 11
92.25
 21
61.0
 31
0.0
  0
LINE
  5
BB6
100
AcDbEntity
  8
0
100
AcDbLine
 10
84.5
 20
61.0
 30
0.0
 11
92.5
 21
61.0
 31
0.0
  0
LINE
  5
BB7
100
AcDbEntity
  8
0
100
AcDbLine
 10
84.75
 20
61.0
 30
0.0
 11
84.75
 21
62.5
 31
0.0
  0
LINE
  5
BB8
100
AcDbEntity
  8
0
100
AcDbLine
 10
92.25
 20
61.0
 30
0.0
 11
92.25
 21
62.5
 31
0.0
  0
LINE
  5
BB9
100
AcDbEntity
  8
0
100
AcDbLine
 10
90.5
 20
68.5
 30
0.0
 11
92.5
 21
68.5
 31
0.0
  0
LINE
  5
BBA
100
AcDbEntity
  8
0
100
AcDbLine
 10
90.5
 20
68.5
 30
0.0
 11
90.5
 21
70.0
 31
0.0
  0
LINE
  5
BBB
100
AcDbEntity
  8
0
100
AcDbLine
 10
87.6888
 20
64.7103
 30
0.0
 11
89.3388
 21
64.7103
 31
0.0
  0
LINE
  5
BBC
100
AcDbEntity
  8
0
100
AcDbLine
 10
92.5
 20
68.5
 30
0.0
 11
92.5
 21
70.0
 31
0.0
  0
LINE
  5
BBD
100
AcDbEntity
  8
0
100
AcDbLine
 10
95.0
 20
68.505
 30
0.0
 11
95.0
 21
73.2
 31
0.0
  0
LINE
  5
BBE
100
AcDbEntity
  8
0
100
AcDbLine
 10
92.5
 20
67.0
 30
0.0
 11
95.0
 21
67.0
 31
0.0
  0
LINE
  5
BBF
100
AcDbEntity
  8
0
100
AcDbLine
 10
68.5
 20
80.5
 30
0.0
 11
71.5
 21
80.5
 31
0.0
  0
LINE
  5
BC0
100
AcDbEntity
  8
0
100
AcDbLine
 10
67.9976
 20
78.5
 30
0.0
 11
68.5
 21
78.5
 31
0.0
  0
LINE
  5
BC1
100
AcDbEntity
  8
0
100
AcDbLine
 10
71.5
 20
78.5
 30
0.0
 11
71.9976
 21
78.5
 31
0.0
  0
LINE
  5
BC2
100
AcDbEntity
  8
0
100
AcDbLine
 10
149.9988
 20
50.005
 30
0.0
 11
149.9988
 21
54.505
 31
0.0
  0
LINE
  5
BC3
100
AcDbEntity
  8
0
  6
WACOM_LSTYLE_M5
100
AcDbLine
 10
186.7988
 20
47.705
 30
0.0
 11
186.7988
 21
53.005
 31
0.0
  0
LINE
  5
BC4
100
AcDbEntity
  8
0
  6
WACOM_LSTYLE_M5
100
AcDbLine
 10
185.4988
 20
47.705
 30
0.0
 11
185.4988
 21
52.405
 31
0.0
  0
LINE
  5
BC5
100
AcDbEntity
  8
0
100
AcDbLine
 10
153.9988
 20
50.005
 30
0.0
 11
153.9988
 21
66.505
 31
0.0
  0
LINE
  5
BC6
100
AcDbEntity
  8
0
100
AcDbLine
 10
182.4988
 20
50.005
 30
0.0
 11
184.4988
 21
52.005
 31
0.0
  0
LINE
  5
BC7
100
AcDbEntity
  8
0
100
AcDbLine
 10
190.9988
 20
50.005
 30
0.0
 11
190.9988
 21
54.505
 31
0.0
  0
LINE
  5
BC8
100
AcDbEntity
  8
0
100
AcDbLine
 10
194.9988
 20
50.005
 30
0.0
 11
194.9988
 21
54.505
 31
0.0
  0
LINE
  5
BC9
100
AcDbEntity
  8
0
100
AcDbLine
 10
173.9988
 20
50.005
 30
0.0
 11
173.9988
 21
54.505
 31
0.0
  0
LINE
  5
BCA
100
AcDbEntity
  8
0
100
AcDbLine
 10
180.4988
 20
50.005
 30
0.0
 11
180.4988
 21
54.505
 31
0.0
  0
LINE
  5
BCB
100
AcDbEntity
  8
0
100
AcDbLine
 10
182.4988
 20
50.005
 30
0.0
 11
182.4988
 21
54.505
 31
0.0
  0
LINE
  5
BCC
100
AcDbEntity
  8
0
100
AcDbLine
 10
151.9988
 20
50.005
 30
0.0
 11
151.9988
 21
54.005
 31
0.0
  0
LINE
  5
BCD
100
AcDbEntity
  8
0
100
AcDbLine
 10
153.9988
 20
50.005
 30
0.0
 11
153.9988
 21
54.005
 31
0.0
  0
LINE
  5
BCE
100
AcDbEntity
  8
0
100
AcDbLine
 10
149.9988
 20
50.005
 30
0.0
 11
182.4988
 21
50.005
 31
0.0
  0
LINE
  5
BCF
100
AcDbEntity
  8
0
  6
WACOM_LSTYLE_M5
100
AcDbLine
 10
183.9988
 20
45.905
 30
0.0
 11
183.9988
 21
46.205
 31
0.0
  0
ARC
  5
BD0
100
AcDbEntity
  8
0
  6
WACOM_LSTYLE_M5
100
AcDbCircle
 10
185.4988
 20
46.205
 30
0.0
 40
1.5
100
AcDbArc
 50
90.0
 51
180.0
  0
LINE
  5
BD1
100
AcDbEntity
  8
0
100
AcDbLine
 10
190.9988
 20
50.005
 30
0.0
 11
194.9988
 21
50.005
 31
0.0
  0
LINE
  5
BD2
100
AcDbEntity
  8
0
100
AcDbLine
 10
153.9988
 20
54.505
 30
0.0
 11
182.4988
 21
54.505
 31
0.0
  0
LINE
  5
BD3
100
AcDbEntity
  8
0
100
AcDbLine
 10
156.8299
 20
69.1113
 30
0.0
 11
157.8743
 21
79.2607
 31
0.0
  0
LINE
  5
BD4
100
AcDbEntity
  8
0
100
AcDbLine
 10
149.9988
 20
54.505
 30
0.0
 11
153.9988
 21
54.505
 31
0.0
  0
LINE
  5
BD5
100
AcDbEntity
  8
0
100
AcDbLine
 10
151.9988
 20
54.005
 30
0.0
 11
151.9988
 21
54.505
 31
0.0
  0
LINE
  5
BD6
100
AcDbEntity
  8
0
100
AcDbLine
 10
153.9988
 20
66.505
 30
0.0
 11
155.9988
 21
68.505
 31
0.0
  0
LINE
  5
BD7
100
AcDbEntity
  8
0
100
AcDbLine
 10
159.9988
 20
68.505
 30
0.0
 11
160.1784
 21
69.9943
 31
0.0
  0
LINE
  5
BD8
100
AcDbEntity
  8
0
100
AcDbLine
 10
156.8299
 20
69.1113
 30
0.0
 11
157.0589
 21
68.505
 31
0.0
  0
LINE
  5
BD9
100
AcDbEntity
  8
0
100
AcDbLine
 10
159.9988
 20
69.9943
 30
0.0
 11
159.9988
 21
74.0602
 31
0.0
  0
LINE
  5
BDA
100
AcDbEntity
  8
0
100
AcDbLine
 10
159.6383
 20
76.8646
 30
0.0
 11
159.8836
 21
76.8394
 31
0.0
  0
LINE
  5
BDB
100
AcDbEntity
  8
0
100
AcDbLine
 10
159.6383
 20
76.8646
 30
0.0
 11
159.8659
 21
79.0766
 31
0.0
  0
ARC
  5
BDC
100
AcDbEntity
  8
0
100
AcDbCircle
 10
158.8478
 20
78.9273
 30
0.0
 40
1.029
100
AcDbArc
 50
6.943386
 51
161.975319
  0
LINE
  5
BDD
100
AcDbEntity
  8
0
100
AcDbLine
 10
164.9988
 20
68.505
 30
0.0
 11
164.9988
 21
70.005
 31
0.0
  0
LINE
  5
BDE
100
AcDbEntity
  8
0
100
AcDbLine
 10
174.9988
 20
68.505
 30
0.0
 11
174.9988
 21
70.005
 31
0.0
  0
LINE
  5
BDF
100
AcDbEntity
  8
0
  6
WACOM_LSTYLE_M5
100
AcDbLine
 10
183.9988
 20
53.005
 30
0.0
 11
184.8988
 21
53.005
 31
0.0
  0
LINE
  5
BE0
100
AcDbEntity
  8
0
100
AcDbLine
 10
184.4988
 20
52.005
 30
0.0
 11
184.4988
 21
53.005
 31
0.0
  0
LINE
  5
BE1
100
AcDbEntity
  8
0
  6
WACOM_LSTYLE_M5
100
AcDbLine
 10
183.9988
 20
53.005
 30
0.0
 11
184.4988
 21
53.005
 31
0.0
  0
LINE
  5
BE2
100
AcDbEntity
  8
0
100
AcDbLine
 10
182.4988
 20
53.005
 30
0.0
 11
183.9988
 21
53.005
 31
0.0
  0
LINE
  5
BE3
100
AcDbEntity
  8
0
100
AcDbLine
 10
180.4988
 20
54.505
 30
0.0
 11
182.4988
 21
54.505
 31
0.0
  0
ARC
  5
BE4
100
AcDbEntity
  8
0
  6
WACOM_LSTYLE_M5
100
AcDbCircle
 10
184.8988
 20
52.405
 30
0.0
 40
0.6
100
AcDbArc
 50
0.0
 51
90.0
  0
ARC
  5
BE5
100
AcDbEntity
  8
0
  6
WACOM_LSTYLE_M5
100
AcDbCircle
 10
185.2988
 20
53.005
 30
0.0
 40
1.5
100
AcDbArc
 50
0.0
 51
90.0
  0
LINE
  5
BE6
100
AcDbEntity
  8
0
100
AcDbLine
 10
195.9988
 20
64.505
 30
0.0
 11
195.9988
 21
68.505
 31
0.0
  0
LINE
  5
BE8
100
AcDbEntity
  8
0
100
AcDbLine
 10
45.49992
 20
175.5014
 30
0.0
 11
94.50008
 21
175.5014
 31
0.0
  0
LINE
  5
BEC
100
AcDbEntity
  8
1
100
AcDbLine
 10
199.9988
 20
44.995
 30
0.0
 11
199.9988
 21
184.995
 31
0.0
  0
CIRCLE
  5
BED
100
AcDbEntity
  8
0
100
AcDbCircle
 10
349.9968
 20
106.0
 30
0.0
 40
14.5
  0
LINE
  5
BEE
100
AcDbEntity
  8
1
100
AcDbLine
 10
349.9968
 20
55.0
 30
0.0
 11
349.9968
 21
155.0
 31
0.0
  0
LINE
  5
BF0
100
AcDbEntity
  8
0
100
AcDbLine
 10
374.9968
 20
60.0
 30
0.0
 11
374.9968
 21
152.0
 31
0.0
  0
LINE
  5
BF1
100
AcDbEntity
  8
0
100
AcDbLine
 10
324.9968
 20
60.0
 30
0.0
 11
324.9968
 21
152.0
 31
0.0
  0
CIRCLE
  5
BF2
100
AcDbEntity
  8
0
100
AcDbCircle
 10
349.9968
 20
106.0
 30
0.0
 40
14.5
  0
LINE
  5
BF3
100
AcDbEntity
  8
0
100
AcDbLine
 10
239.472893
 20
175.5
 30
0.0
 11
239.9988
 21
74.0
 31
0.0
  0
LINE
  5
BF5
100
AcDbEntity
  8
0
100
AcDbLine
 10
348.2588
 20
63.0
 30
0.0
 11
351.7468
 21
63.0
 31
0.0
  0
ARC
  5
BF8
100
AcDbEntity
  8
0
100
AcDbCircle
 10
349.9968
 20
59.509
 30
0.0
 40
2.509
100
AcDbArc
 50
184.778815
 51
355.221185
  0
LINE
  5
BF9
100
AcDbEntity
  8
0
100
AcDbLine
 10
347.4968
 20
56.0
 30
0.0
 11
352.4968
 21
56.0
 31
0.0
  0
LINE
  5
BFA
100
AcDbEntity
  8
0
100
AcDbLine
 10
348.3058
 20
69.0
 30
0.0
 11
351.7468
 21
69.0
 31
0.0
  0
LINE
  5
BFB
100
AcDbEntity
  8
0
100
AcDbLine
 10
348.2578
 20
71.0
 30
0.0
 11
351.7468
 21
71.0
 31
0.0
  0
LINE
  5
BFC
100
AcDbEntity
  8
0
100
AcDbLine
 10
348.2468
 20
83.0
 30
0.0
 11
351.7468
 21
83.0
 31
0.0
  0
LINE
  5
BFD
100
AcDbEntity
  8
0
100
AcDbLine
 10
324.9968
 20
60.0
 30
0.0
 11
374.9968
 21
60.0
 31
0.0
  0
LINE
  5
BFE
100
AcDbEntity
  8
0
  6
WACOM_LSTYLE_M5
100
AcDbLine
 10
214.4748
 20
47.705
 30
0.0
 11
214.4748
 21
52.005
 31
0.0
  0
LINE
  5
BFF
100
AcDbEntity
  8
0
  6
WACOM_LSTYLE_M5
100
AcDbLine
 10
212.9988
 20
47.705
 30
0.0
 11
212.9988
 21
53.005
 31
0.0
  0
LINE
  5
C00
100
AcDbEntity
  8
0
100
AcDbLine
 10
245.9988
 20
50.005
 30
0.0
 11
245.9988
 21
66.505
 31
0.0
  0
LINE
  5
C01
100
AcDbEntity
  8
0
100
AcDbLine
 10
215.4988
 20
52.005
 30
0.0
 11
217.4988
 21
50.005
 31
0.0
  0
LINE
  5
C02
100
AcDbEntity
  8
0
100
AcDbLine
 10
208.9988
 20
50.005
 30
0.0
 11
208.9988
 21
54.505
 31
0.0
  0
LINE
  5
C03
100
AcDbEntity
  8
0
100
AcDbLine
 10
204.9988
 20
50.005
 30
0.0
 11
204.9988
 21
54.505
 31
0.0
  0
LINE
  5
C04
100
AcDbEntity
  8
0
100
AcDbLine
 10
225.9988
 20
50.005
 30
0.0
 11
225.9988
 21
54.505
 31
0.0
  0
LINE
  5
C05
100
AcDbEntity
  8
0
100
AcDbLine
 10
219.4988
 20
50.005
 30
0.0
 11
219.4988
 21
54.505
 31
0.0
  0
LINE
  5
C06
100
AcDbEntity
  8
0
100
AcDbLine
 10
217.4988
 20
50.005
 30
0.0
 11
217.4988
 21
54.505
 31
0.0
  0
LINE
  5
C07
100
AcDbEntity
  8
0
100
AcDbLine
 10
217.4988
 20
50.005
 30
0.0
 11
245.9988
 21
50.005
 31
0.0
  0
LINE
  5
C08
100
AcDbEntity
  8
0
100
AcDbLine
 10
204.9988
 20
50.005
 30
0.0
 11
208.9988
 21
50.005
 31
0.0
  0
LINE
  5
C09
100
AcDbEntity
  8
0
  6
WACOM_LSTYLE_M5
100
AcDbLine
 10
215.9748
 20
45.905
 30
0.0
 11
215.9748
 21
46.205
 31
0.0
  0
ARC
  5
C0A
100
AcDbEntity
  8
0
  6
WACOM_LSTYLE_M5
100
AcDbCircle
 10
214.4748
 20
46.205
 30
0.0
 40
1.5
100
AcDbArc
 50
0.0
 51
90.0
  0
LINE
  5
C0B
100
AcDbEntity
  8
0
100
AcDbLine
 10
217.4988
 20
54.505
 30
0.0
 11
245.9988
 21
54.505
 31
0.0
  0
ARC
  5
C0C
100
AcDbEntity
  8
0
  6
WACOM_LSTYLE_M5
100
AcDbCircle
 10
214.4988
 20
53.005
 30
0.0
 40
1.5
100
AcDbArc
 50
90.0
 51
180.0
  0
LINE
  5
C0D
100
AcDbEntity
  8
0
100
AcDbLine
 10
203.9988
 20
64.505
 30
0.0
 11
203.9988
 21
68.505
 31
0.0
  0
LINE
  5
C0E
100
AcDbEntity
  8
0
100
AcDbLine
 10
215.9988
 20
53.005
 30
0.0
 11
217.4988
 21
53.005
 31
0.0
  0
ARC
  5
C0F
100
AcDbEntity
  8
0
  6
WACOM_LSTYLE_M5
100
AcDbCircle
 10
215.4748
 20
52.005
 30
0.0
 40
1.0
100
AcDbArc
 50
90.0
 51
180.0
  0
LINE
  5
C10
100
AcDbEntity
  8
0
  6
WACOM_LSTYLE_M5
100
AcDbLine
 10
215.4748
 20
53.005
 30
0.0
 11
215.9748
 21
53.005
 31
0.0
  0
LINE
  5
C11
100
AcDbEntity
  8
0
100
AcDbLine
 10
215.4988
 20
52.005
 30
0.0
 11
215.4988
 21
53.005
 31
0.0
  0
LINE
  5
C12
100
AcDbEntity
  8
0
  6
WACOM_LSTYLE_M5
100
AcDbLine
 10
215.4988
 20
53.005
 30
0.0
 11
215.9988
 21
53.005
 31
0.0
  0
LINE
  5
C13
100
AcDbEntity
  8
0
100
AcDbLine
 10
224.9988
 20
68.505
 30
0.0
 11
224.9988
 21
70.005
 31
0.0
  0
LINE
  5
C14
100
AcDbEntity
  8
0
100
AcDbLine
 10
242.1233
 20
79.2607
 30
0.0
 11
243.1677
 21
69.1113
 31
0.0
  0
LINE
  5
C15
100
AcDbEntity
  8
0
100
AcDbLine
 10
234.9988
 20
68.505
 30
0.0
 11
234.9988
 21
70.005
 31
0.0
  0
LINE
  5
C16
100
AcDbEntity
  8
0
100
AcDbLine
 10
239.8192
 20
69.9943
 30
0.0
 11
239.9988
 21
68.505
 31
0.0
  0
LINE
  5
C17
100
AcDbEntity
  8
0
100
AcDbLine
 10
242.9387
 20
68.505
 30
0.0
 11
243.1677
 21
69.1113
 31
0.0
  0
LINE
  5
C18
100
AcDbEntity
  8
0
100
AcDbLine
 10
243.9988
 20
68.505
 30
0.0
 11
245.9988
 21
66.505
 31
0.0
  0
LINE
  5
C19
100
AcDbEntity
  8
0
100
AcDbLine
 10
239.9988
 20
69.9943
 30
0.0
 11
239.9988
 21
74.0602
 31
0.0
  0
ARC
  5
C1A
100
AcDbEntity
  8
0
100
AcDbCircle
 10
241.1498
 20
78.9273
 30
0.0
 40
1.029
100
AcDbArc
 50
18.024681
 51
173.056614
  0
LINE
  5
C1B
100
AcDbEntity
  8
0
100
AcDbLine
 10
240.114
 20
76.8394
 30
0.0
 11
240.3593
 21
76.8646
 31
0.0
  0
LINE
  5
C1C
100
AcDbEntity
  8
0
100
AcDbLine
 10
240.1317
 20
79.0766
 30
0.0
 11
240.3593
 21
76.8646
 31
0.0
  0
LINE
  5
C1D
100
AcDbEntity
  8
0
100
AcDbLine
 10
327.6968
 20
60.04
 30
0.0
 11
327.6968
 21
76.0
 31
0.0
  0
LINE
  5
C1E
100
AcDbEntity
  8
0
100
AcDbLine
 10
335.6468
 20
60.0
 30
0.0
 11
335.6468
 21
76.0
 31
0.0
  0
LINE
  5
C1F
100
AcDbEntity
  8
0
100
AcDbLine
 10
345.9468
 20
60.0
 30
0.0
 11
345.9468
 21
76.0
 31
0.0
  0
ARC
  5
C20
100
AcDbEntity
  8
0
100
AcDbCircle
 10
340.5468
 20
70.6
 30
0.0
 40
1.0
100
AcDbArc
 50
0.0
 51
90.0
  0
ARC
  5
C21
100
AcDbEntity
  8
0
100
AcDbCircle
 10
343.3468
 20
70.6
 30
0.0
 40
1.0
100
AcDbArc
 50
90.0
 51
180.0
  0
CIRCLE
  5
C22
100
AcDbEntity
  8
0
100
AcDbCircle
 10
341.9468
 20
72.0
 30
0.0
 40
3.0
  0
ARC
  5
C23
100
AcDbEntity
  8
0
100
AcDbCircle
 10
330.3018
 20
70.6
 30
0.0
 40
1.0
100
AcDbArc
 50
0.0
 51
90.0
  0
ARC
  5
C24
100
AcDbEntity
  8
0
100
AcDbCircle
 10
333.1018
 20
70.6
 30
0.0
 40
1.0
100
AcDbArc
 50
90.0
 51
180.0
  0
CIRCLE
  5
C25
100
AcDbEntity
  8
0
100
AcDbCircle
 10
331.7018
 20
72.0
 30
0.0
 40
3.0
  0
LINE
  5
C26
100
AcDbEntity
  8
0
100
AcDbLine
 10
337.9468
 20
60.04
 30
0.0
 11
337.9468
 21
76.0
 31
0.0
  0
LINE
  5
C27
100
AcDbEntity
  8
0
100
AcDbLine
 10
348.2468
 20
60.0
 30
0.0
 11
348.2468
 21
83.0
 31
0.0
  0
LINE
  5
C28
100
AcDbEntity
  8
0
100
AcDbLine
 10
324.9968
 20
60.0
 30
0.0
 11
324.9968
 21
80.5
 31
0.0
  0
LINE
  5
C29
100
AcDbEntity
  8
0
100
AcDbLine
 10
327.6968
 20
66.0
 30
0.0
 11
335.6138
 21
66.0
 31
0.0
  0
LINE
  5
C2A
100
AcDbEntity
  8
0
100
AcDbLine
 10
327.7008
 20
68.0
 30
0.0
 11
335.6468
 21
68.0
 31
0.0
  0
LINE
  5
C2B
100
AcDbEntity
  8
0
100
AcDbLine
 10
324.9968
 20
61.5
 30
0.0
 11
327.6968
 21
61.5
 31
0.0
  0
ARC
  5
C2C
100
AcDbEntity
  8
0
100
AcDbCircle
 10
324.0588
 20
64.0
 30
0.0
 40
1.838
100
AcDbArc
 50
300.68046
 51
59.31954
  0
LINE
  5
C2D
100
AcDbEntity
  8
0
100
AcDbLine
 10
331.3018
 20
70.2
 30
0.0
 11
331.3018
 21
70.6
 31
0.0
  0
LINE
  5
C2E
100
AcDbEntity
  8
0
100
AcDbLine
 10
331.3018
 20
70.2
 30
0.0
 11
332.1018
 21
70.2
 31
0.0
  0
LINE
  5
C2F
100
AcDbEntity
  8
0
100
AcDbLine
 10
332.1018
 20
70.2
 30
0.0
 11
332.1018
 21
70.7
 31
0.0
  0
LINE
  5
C30
100
AcDbEntity
  8
0
100
AcDbLine
 10
346.4968
 20
59.3
 30
0.0
 11
346.4968
 21
60.0
 31
0.0
  0
LINE
  5
C31
100
AcDbEntity
  8
0
100
AcDbLine
 10
335.9968
 20
60.0
 30
0.0
 11
337.4968
 21
58.0
 31
0.0
  0
LINE
  5
C32
100
AcDbEntity
  8
0
100
AcDbLine
 10
337.4968
 20
58.0
 30
0.0
 11
344.4968
 21
58.0
 31
0.0
  0
LINE
  5
C33
100
AcDbEntity
  8
0
100
AcDbLine
 10
346.4968
 20
59.3
 30
0.0
 11
347.4968
 21
59.3
 31
0.0
  0
LINE
  5
C34
100
AcDbEntity
  8
0
100
AcDbLine
 10
344.4968
 20
58.0
 30
0.0
 11
347.4968
 21
56.0
 31
0.0
  0
LINE
  5
C35
100
AcDbEntity
  8
0
100
AcDbLine
 10
337.9468
 20
68.0
 30
0.0
 11
345.9108
 21
68.0
 31
0.0
  0
LINE
  5
C36
100
AcDbEntity
  8
0
100
AcDbLine
 10
337.9818
 20
66.0
 30
0.0
 11
345.9068
 21
66.0
 31
0.0
  0
LINE
  5
C37
100
AcDbEntity
  8
0
100
AcDbLine
 10
335.6468
 20
61.5
 30
0.0
 11
337.9468
 21
61.5
 31
0.0
  0
LINE
  5
C38
100
AcDbEntity
  8
0
100
AcDbLine
 10
341.5468
 20
70.2
 30
0.0
 11
341.5468
 21
70.6
 31
0.0
  0
LINE
  5
C39
100
AcDbEntity
  8
0
100
AcDbLine
 10
341.5468
 20
70.2
 30
0.0
 11
342.3468
 21
70.2
 31
0.0
  0
LINE
  5
C3A
100
AcDbEntity
  8
0
100
AcDbLine
 10
342.3468
 20
70.2
 30
0.0
 11
342.3468
 21
70.7
 31
0.0
  0
LINE
  5
C3B
100
AcDbEntity
  8
0
100
AcDbLine
 10
345.9468
 20
61.5
 30
0.0
 11
348.2468
 21
61.5
 31
0.0
  0
LINE
  5
C3C
100
AcDbEntity
  8
0
100
AcDbLine
 10
327.6968
 20
76.0
 30
0.0
 11
335.6468
 21
76.0
 31
0.0
  0
LINE
  5
C3D
100
AcDbEntity
  8
0
100
AcDbLine
 10
328.4968
 20
81.0
 30
0.0
 11
328.4968
 21
84.0333
 31
0.0
  0
LINE
  5
C3E
100
AcDbEntity
  8
0
100
AcDbLine
 10
326.4968
 20
81.0
 30
0.0
 11
326.4968
 21
84.0333
 31
0.0
  0
LINE
  5
C3F
100
AcDbEntity
  8
0
100
AcDbLine
 10
325.4968
 20
81.0
 30
0.0
 11
329.4968
 21
81.0
 31
0.0
  0
LINE
  5
C40
100
AcDbEntity
  8
0
100
AcDbLine
 10
324.9968
 20
76.0
 30
0.0
 11
324.9968
 21
80.5
 31
0.0
  0
ARC
  5
C41
100
AcDbEntity
  8
0
100
AcDbCircle
 10
325.4968
 20
80.5
 30
0.0
 40
0.5
100
AcDbArc
 50
90.0
 51
180.0
  0
LINE
  5
C42
100
AcDbEntity
  8
0
100
AcDbLine
 10
329.9968
 20
76.5
 30
0.0
 11
329.9968
 21
80.5
 31
0.0
  0
LINE
  5
C43
100
AcDbEntity
  8
0
100
AcDbLine
 10
328.7708
 20
71.5
 30
0.0
 11
330.7618
 21
71.5
 31
0.0
  0
LINE
  5
C44
100
AcDbEntity
  8
0
100
AcDbLine
 10
328.7578
 20
72.5
 30
0.0
 11
330.7748
 21
72.5
 31
0.0
  0
ARC
  5
C45
100
AcDbEntity
  8
0
100
AcDbCircle
 10
330.3018
 20
73.4
 30
0.0
 40
1.0
100
AcDbArc
 50
270.0
 51
0.0
  0
LINE
  5
C46
100
AcDbEntity
  8
0
100
AcDbLine
 10
330.2018
 20
71.6
 30
0.0
 11
330.4018
 21
71.6
 31
0.0
  0
LINE
  5
C47
100
AcDbEntity
  8
0
100
AcDbLine
 10
330.2018
 20
72.4
 30
0.0
 11
330.3018
 21
72.4
 31
0.0
  0
LINE
  5
C48
100
AcDbEntity
  8
0
100
AcDbLine
 10
330.2018
 20
71.592
 30
0.0
 11
330.2018
 21
72.407
 31
0.0
  0
ARC
  5
C49
100
AcDbEntity
  8
0
100
AcDbCircle
 10
329.4968
 20
76.5
 30
0.0
 40
0.5
100
AcDbArc
 50
270.0
 51
0.0
  0
LINE
  5
C4A
100
AcDbEntity
  8
0
100
AcDbLine
 10
333.1018
 20
71.6
 30
0.0
 11
333.2018
 21
71.6
 31
0.0
  0
LINE
  5
C4B
100
AcDbEntity
  8
0
100
AcDbLine
 10
333.0018
 20
72.4
 30
0.0
 11
333.1018
 21
72.4
 31
0.0
  0
LINE
  5
C4C
100
AcDbEntity
  8
0
100
AcDbLine
 10
333.2018
 20
71.601
 30
0.0
 11
333.2018
 21
72.379
 31
0.0
  0
LINE
  5
C4D
100
AcDbEntity
  8
0
100
AcDbLine
 10
332.6748
 20
71.5
 30
0.0
 11
334.6398
 21
71.5
 31
0.0
  0
LINE
  5
C4E
100
AcDbEntity
  8
0
100
AcDbLine
 10
332.6748
 20
72.5
 30
0.0
 11
334.6398
 21
72.5
 31
0.0
  0
LINE
  5
C4F
100
AcDbEntity
  8
0
100
AcDbLine
 10
331.3018
 20
73.3
 30
0.0
 11
331.3018
 21
73.8
 31
0.0
  0
ARC
  5
C50
100
AcDbEntity
  8
0
100
AcDbCircle
 10
333.1018
 20
73.4
 30
0.0
 40
1.0
100
AcDbArc
 50
180.0
 51
270.0
  0
LINE
  5
C51
100
AcDbEntity
  8
0
100
AcDbLine
 10
332.1018
 20
73.4
 30
0.0
 11
332.1018
 21
73.8
 31
0.0
  0
LINE
  5
C52
100
AcDbEntity
  8
0
100
AcDbLine
 10
331.3018
 20
73.8
 30
0.0
 11
332.1018
 21
73.8
 31
0.0
  0
ARC
  5
C53
100
AcDbEntity
  8
0
100
AcDbCircle
 10
329.4968
 20
80.5
 30
0.0
 40
0.5
100
AcDbArc
 50
0.0
 51
90.0
  0
LINE
  5
C54
100
AcDbEntity
  8
0
100
AcDbLine
 10
326.4968
 20
84.0333
 30
0.0
 11
328.4968
 21
84.0333
 31
0.0
  0
LINE
  5
C55
100
AcDbEntity
  8
0
100
AcDbLine
 10
337.9468
 20
76.0
 30
0.0
 11
345.9468
 21
76.0
 31
0.0
  0
LINE
  5
C56
100
AcDbEntity
  8
0
100
AcDbLine
 10
342.9198
 20
71.5
 30
0.0
 11
344.8848
 21
71.5
 31
0.0
  0
LINE
  5
C57
100
AcDbEntity
  8
0
100
AcDbLine
 10
342.9198
 20
72.5
 30
0.0
 11
344.8848
 21
72.5
 31
0.0
  0
ARC
  5
C58
100
AcDbEntity
  8
0
100
AcDbCircle
 10
343.3468
 20
73.4
 30
0.0
 40
1.0
100
AcDbArc
 50
180.0
 51
270.0
  0
LINE
  5
C59
100
AcDbEntity
  8
0
100
AcDbLine
 10
340.5468
 20
71.6
 30
0.0
 11
340.6468
 21
71.6
 31
0.0
  0
LINE
  5
C5A
100
AcDbEntity
  8
0
100
AcDbLine
 10
340.4468
 20
72.4
 30
0.0
 11
340.5468
 21
72.4
 31
0.0
  0
LINE
  5
C5B
100
AcDbEntity
  8
0
100
AcDbLine
 10
340.4468
 20
71.61
 30
0.0
 11
340.4468
 21
72.398
 31
0.0
  0
LINE
  5
C5C
100
AcDbEntity
  8
0
100
AcDbLine
 10
339.0158
 20
71.5
 30
0.0
 11
341.0068
 21
71.5
 31
0.0
  0
LINE
  5
C5D
100
AcDbEntity
  8
0
100
AcDbLine
 10
339.0028
 20
72.5
 30
0.0
 11
341.0198
 21
72.5
 31
0.0
  0
LINE
  5
C5E
100
AcDbEntity
  8
0
100
AcDbLine
 10
341.5468
 20
73.3
 30
0.0
 11
341.5468
 21
73.8
 31
0.0
  0
ARC
  5
C5F
100
AcDbEntity
  8
0
100
AcDbCircle
 10
340.5468
 20
73.4
 30
0.0
 40
1.0
100
AcDbArc
 50
270.0
 51
0.0
  0
LINE
  5
C60
100
AcDbEntity
  8
0
100
AcDbLine
 10
342.3468
 20
73.4
 30
0.0
 11
342.3468
 21
73.8
 31
0.0
  0
LINE
  5
C61
100
AcDbEntity
  8
0
100
AcDbLine
 10
341.5468
 20
73.8
 30
0.0
 11
342.3468
 21
73.8
 31
0.0
  0
LINE
  5
C62
100
AcDbEntity
  8
0
100
AcDbLine
 10
343.2468
 20
72.4
 30
0.0
 11
343.3468
 21
72.4
 31
0.0
  0
LINE
  5
C63
100
AcDbEntity
  8
0
100
AcDbLine
 10
343.3468
 20
71.6
 30
0.0
 11
343.4468
 21
71.6
 31
0.0
  0
LINE
  5
C64
100
AcDbEntity
  8
0
100
AcDbLine
 10
343.4468
 20
71.601
 30
0.0
 11
343.4468
 21
72.407
 31
0.0
  0
LINE
  5
C65
100
AcDbEntity
  8
0
100
AcDbLine
 10
372.2968
 20
60.0
 30
0.0
 11
372.2968
 21
76.0
 31
0.0
  0
LINE
  5
C66
100
AcDbEntity
  8
0
100
AcDbLine
 10
364.3468
 20
60.0
 30
0.0
 11
364.3468
 21
76.0
 31
0.0
  0
LINE
  5
C67
100
AcDbEntity
  8
0
100
AcDbLine
 10
362.0468
 20
60.0
 30
0.0
 11
362.0468
 21
76.0
 31
0.0
  0
ARC
  5
C68
100
AcDbEntity
  8
0
100
AcDbCircle
 10
366.8998
 20
70.6
 30
0.0
 40
1.0
100
AcDbArc
 50
0.0
 51
90.0
  0
ARC
  5
C69
100
AcDbEntity
  8
0
100
AcDbCircle
 10
369.6998
 20
70.6
 30
0.0
 40
1.0
100
AcDbArc
 50
90.0
 51
180.0
  0
CIRCLE
  5
C6A
100
AcDbEntity
  8
0
100
AcDbCircle
 10
368.2998
 20
72.0
 30
0.0
 40
3.0
  0
ARC
  5
C6B
100
AcDbEntity
  8
0
100
AcDbCircle
 10
356.6468
 20
70.6
 30
0.0
 40
1.0
100
AcDbArc
 50
0.0
 51
90.0
  0
ARC
  5
C6C
100
AcDbEntity
  8
0
100
AcDbCircle
 10
359.4468
 20
70.6
 30
0.0
 40
1.0
100
AcDbArc
 50
90.0
 51
180.0
  0
CIRCLE
  5
C6D
100
AcDbEntity
  8
0
100
AcDbCircle
 10
358.0468
 20
72.0
 30
0.0
 40
3.0
  0
LINE
  5
C6E
100
AcDbEntity
  8
0
100
AcDbLine
 10
354.0468
 20
59.998
 30
0.0
 11
354.0468
 21
76.0
 31
0.0
  0
LINE
  5
C6F
100
AcDbEntity
  8
0
100
AcDbLine
 10
351.7468
 20
60.0
 30
0.0
 11
351.7468
 21
83.0
 31
0.0
  0
LINE
  5
C70
100
AcDbEntity
  8
0
100
AcDbLine
 10
374.9968
 20
60.0
 30
0.0
 11
374.9968
 21
80.5
 31
0.0
  0
LINE
  5
C71
100
AcDbEntity
  8
0
100
AcDbLine
 10
364.3678
 20
66.0
 30
0.0
 11
372.2968
 21
66.0
 31
0.0
  0
LINE
  5
C72
100
AcDbEntity
  8
0
100
AcDbLine
 10
364.3468
 20
68.0
 30
0.0
 11
372.3038
 21
68.0
 31
0.0
  0
LINE
  5
C73
100
AcDbEntity
  8
0
100
AcDbLine
 10
353.4968
 20
59.3
 30
0.0
 11
353.4968
 21
60.0
 31
0.0
  0
LINE
  5
C74
100
AcDbEntity
  8
0
100
AcDbLine
 10
362.4968
 20
58.0
 30
0.0
 11
363.9968
 21
60.0
 31
0.0
  0
LINE
  5
C75
100
AcDbEntity
  8
0
100
AcDbLine
 10
355.4968
 20
58.0
 30
0.0
 11
362.4968
 21
58.0
 31
0.0
  0
LINE
  5
C76
100
AcDbEntity
  8
0
100
AcDbLine
 10
352.4968
 20
56.0
 30
0.0
 11
355.4968
 21
58.0
 31
0.0
  0
LINE
  5
C77
100
AcDbEntity
  8
0
100
AcDbLine
 10
352.4968
 20
59.3
 30
0.0
 11
353.4968
 21
59.3
 31
0.0
  0
LINE
  5
C78
100
AcDbEntity
  8
0
100
AcDbLine
 10
354.0468
 20
68.0
 30
0.0
 11
361.9978
 21
68.0
 31
0.0
  0
LINE
  5
C79
100
AcDbEntity
  8
0
100
AcDbLine
 10
354.0738
 20
66.0
 30
0.0
 11
361.9998
 21
66.0
 31
0.0
  0
LINE
  5
C7A
100
AcDbEntity
  8
0
100
AcDbLine
 10
351.7468
 20
61.5
 30
0.0
 11
354.0468
 21
61.5
 31
0.0
  0
LINE
  5
C7B
100
AcDbEntity
  8
0
100
AcDbLine
 10
357.6468
 20
70.2
 30
0.0
 11
357.6468
 21
70.6
 31
0.0
  0
LINE
  5
C7C
100
AcDbEntity
  8
0
100
AcDbLine
 10
357.6468
 20
70.2
 30
0.0
 11
358.4468
 21
70.2
 31
0.0
  0
LINE
  5
C7D
100
AcDbEntity
  8
0
100
AcDbLine
 10
358.4468
 20
70.2
 30
0.0
 11
358.4468
 21
70.7
 31
0.0
  0
LINE
  5
C7E
100
AcDbEntity
  8
0
100
AcDbLine
 10
362.0468
 20
61.5
 30
0.0
 11
364.3468
 21
61.5
 31
0.0
  0
ARC
  5
C7F
100
AcDbEntity
  8
0
100
AcDbCircle
 10
375.9348
 20
64.0
 30
0.0
 40
1.838
100
AcDbArc
 50
120.68046
 51
239.31954
  0
LINE
  5
C80
100
AcDbEntity
  8
0
100
AcDbLine
 10
372.2968
 20
61.5
 30
0.0
 11
374.9968
 21
61.5
 31
0.0
  0
LINE
  5
C81
100
AcDbEntity
  8
0
100
AcDbLine
 10
367.8998
 20
70.2
 30
0.0
 11
367.8998
 21
70.6
 31
0.0
  0
LINE
  5
C82
100
AcDbEntity
  8
0
100
AcDbLine
 10
367.8998
 20
70.2
 30
0.0
 11
368.6998
 21
70.2
 31
0.0
  0
LINE
  5
C83
100
AcDbEntity
  8
0
100
AcDbLine
 10
368.6998
 20
70.2
 30
0.0
 11
368.6998
 21
70.7
 31
0.0
  0
LINE
  5
C84
100
AcDbEntity
  8
0
100
AcDbLine
 10
364.3468
 20
76.0
 30
0.0
 11
372.2968
 21
76.0
 31
0.0
  0
ARC
  5
C85
100
AcDbEntity
  8
0
100
AcDbCircle
 10
366.8998
 20
73.4
 30
0.0
 40
1.0
100
AcDbArc
 50
270.0
 51
0.0
  0
LINE
  5
C86
100
AcDbEntity
  8
0
100
AcDbLine
 10
354.0468
 20
76.0
 30
0.0
 11
362.0468
 21
76.0
 31
0.0
  0
LINE
  5
C87
100
AcDbEntity
  8
0
100
AcDbLine
 10
359.3468
 20
72.4
 30
0.0
 11
359.5468
 21
72.4
 31
0.0
  0
LINE
  5
C88
100
AcDbEntity
  8
0
100
AcDbLine
 10
359.0198
 20
71.5
 30
0.0
 11
360.9848
 21
71.5
 31
0.0
  0
LINE
  5
C89
100
AcDbEntity
  8
0
100
AcDbLine
 10
359.0198
 20
72.5
 30
0.0
 11
360.9848
 21
72.5
 31
0.0
  0
ARC
  5
C8A
100
AcDbEntity
  8
0
100
AcDbCircle
 10
359.4468
 20
73.4
 30
0.0
 40
1.0
100
AcDbArc
 50
180.0
 51
270.0
  0
LINE
  5
C8B
100
AcDbEntity
  8
0
100
AcDbLine
 10
355.1158
 20
71.5
 30
0.0
 11
357.1068
 21
71.5
 31
0.0
  0
LINE
  5
C8C
100
AcDbEntity
  8
0
100
AcDbLine
 10
355.1028
 20
72.5
 30
0.0
 11
357.1198
 21
72.5
 31
0.0
  0
LINE
  5
C8D
100
AcDbEntity
  8
0
100
AcDbLine
 10
356.5468
 20
72.4
 30
0.0
 11
356.6468
 21
72.4
 31
0.0
  0
LINE
  5
C8E
100
AcDbEntity
  8
0
100
AcDbLine
 10
356.6468
 20
71.6
 30
0.0
 11
356.7468
 21
71.6
 31
0.0
  0
LINE
  5
C8F
100
AcDbEntity
  8
0
100
AcDbLine
 10
356.5468
 20
71.61
 30
0.0
 11
356.5468
 21
72.407
 31
0.0
  0
LINE
  5
C90
100
AcDbEntity
  8
0
100
AcDbLine
 10
357.6468
 20
73.3
 30
0.0
 11
357.6468
 21
73.8
 31
0.0
  0
ARC
  5
C91
100
AcDbEntity
  8
0
100
AcDbCircle
 10
356.6468
 20
73.4
 30
0.0
 40
1.0
100
AcDbArc
 50
270.0
 51
0.0
  0
LINE
  5
C92
100
AcDbEntity
  8
0
100
AcDbLine
 10
358.4468
 20
73.4
 30
0.0
 11
358.4468
 21
73.8
 31
0.0
  0
LINE
  5
C93
100
AcDbEntity
  8
0
100
AcDbLine
 10
357.6468
 20
73.8
 30
0.0
 11
358.4468
 21
73.8
 31
0.0
  0
LINE
  5
C94
100
AcDbEntity
  8
0
100
AcDbLine
 10
359.4468
 20
71.6
 30
0.0
 11
359.5468
 21
71.6
 31
0.0
  0
LINE
  5
C95
100
AcDbEntity
  8
0
100
AcDbLine
 10
359.5468
 20
71.592
 30
0.0
 11
359.5468
 21
72.407
 31
0.0
  0
LINE
  5
C96
100
AcDbEntity
  8
0
100
AcDbLine
 10
366.7968
 20
71.6
 30
0.0
 11
366.9998
 21
71.6
 31
0.0
  0
LINE
  5
C97
100
AcDbEntity
  8
0
100
AcDbLine
 10
366.7968
 20
72.4
 30
0.0
 11
366.8998
 21
72.4
 31
0.0
  0
LINE
  5
C98
100
AcDbEntity
  8
0
100
AcDbLine
 10
366.7968
 20
71.601
 30
0.0
 11
366.7968
 21
72.407
 31
0.0
  0
LINE
  5
C99
100
AcDbEntity
  8
0
100
AcDbLine
 10
365.3688
 20
71.5
 30
0.0
 11
367.3598
 21
71.5
 31
0.0
  0
LINE
  5
C9A
100
AcDbEntity
  8
0
100
AcDbLine
 10
365.3558
 20
72.5
 30
0.0
 11
367.3728
 21
72.5
 31
0.0
  0
LINE
  5
C9B
100
AcDbEntity
  8
0
100
AcDbLine
 10
373.4968
 20
81.0
 30
0.0
 11
373.4968
 21
84.0333
 31
0.0
  0
LINE
  5
C9C
100
AcDbEntity
  8
0
100
AcDbLine
 10
371.4968
 20
81.0
 30
0.0
 11
371.4968
 21
84.0333
 31
0.0
  0
LINE
  5
C9D
100
AcDbEntity
  8
0
100
AcDbLine
 10
374.9968
 20
76.0
 30
0.0
 11
374.9968
 21
80.5
 31
0.0
  0
LINE
  5
C9E
100
AcDbEntity
  8
0
100
AcDbLine
 10
369.9968
 20
76.5
 30
0.0
 11
369.9968
 21
80.5
 31
0.0
  0
LINE
  5
C9F
100
AcDbEntity
  8
0
100
AcDbLine
 10
369.5998
 20
72.4
 30
0.0
 11
369.7968
 21
72.4
 31
0.0
  0
LINE
  5
CA0
100
AcDbEntity
  8
0
100
AcDbLine
 10
369.6998
 20
71.6
 30
0.0
 11
369.7968
 21
71.6
 31
0.0
  0
LINE
  5
CA1
100
AcDbEntity
  8
0
100
AcDbLine
 10
369.7968
 20
71.592
 30
0.0
 11
369.7968
 21
72.398
 31
0.0
  0
LINE
  5
CA2
100
AcDbEntity
  8
0
100
AcDbLine
 10
369.2728
 20
71.5
 30
0.0
 11
371.2378
 21
71.5
 31
0.0
  0
LINE
  5
CA3
100
AcDbEntity
  8
0
100
AcDbLine
 10
369.2728
 20
72.5
 30
0.0
 11
371.2378
 21
72.5
 31
0.0
  0
LINE
  5
CA4
100
AcDbEntity
  8
0
100
AcDbLine
 10
367.8998
 20
73.3
 30
0.0
 11
367.8998
 21
73.8
 31
0.0
  0
ARC
  5
CA5
100
AcDbEntity
  8
0
100
AcDbCircle
 10
369.6998
 20
73.4
 30
0.0
 40
1.0
100
AcDbArc
 50
180.0
 51
270.0
  0
LINE
  5
CA6
100
AcDbEntity
  8
0
100
AcDbLine
 10
368.6998
 20
73.4
 30
0.0
 11
368.6998
 21
73.8
 31
0.0
  0
LINE
  5
CA7
100
AcDbEntity
  8
0
100
AcDbLine
 10
367.8998
 20
73.8
 30
0.0
 11
368.6998
 21
73.8
 31
0.0
  0
ARC
  5
CA8
100
AcDbEntity
  8
0
100
AcDbCircle
 10
370.4968
 20
76.5
 30
0.0
 40
0.5
100
AcDbArc
 50
180.0
 51
270.0
  0
LINE
  5
CA9
100
AcDbEntity
  8
0
100
AcDbLine
 10
370.4968
 20
81.0
 30
0.0
 11
374.4968
 21
81.0
 31
0.0
  0
ARC
  5
CAA
100
AcDbEntity
  8
0
100
AcDbCircle
 10
370.4968
 20
80.5
 30
0.0
 40
0.5
100
AcDbArc
 50
90.0
 51
180.0
  0
ARC
  5
CAB
100
AcDbEntity
  8
0
100
AcDbCircle
 10
374.4968
 20
80.5
 30
0.0
 40
0.5
100
AcDbArc
 50
0.0
 51
90.0
  0
LINE
  5
CAC
100
AcDbEntity
  8
0
100
AcDbLine
 10
371.4968
 20
84.0333
 30
0.0
 11
373.4968
 21
84.0333
 31
0.0
  0
LINE
  5
CAD
100
AcDbEntity
  8
0
100
AcDbLine
 10
324.9968
 20
152.0
 30
0.0
 11
374.9968
 21
152.0
 31
0.0
  0
LINE
  5
CAE
100
AcDbEntity
  8
1
100
AcDbLine
 10
320.0
 20
106.0
 30
0.0
 11
380.0
 21
106.0
 31
0.0
  0
LINE
  5
CAF
100
AcDbEntity
  8
0
100
AcDbLine
 10
348.2608
 20
141.0
 30
0.0
 11
351.7468
 21
141.0
 31
0.0
  0
LINE
  5
CB0
100
AcDbEntity
  8
0
100
AcDbLine
 10
348.2428
 20
143.0
 30
0.0
 11
351.7468
 21
143.0
 31
0.0
  0
LINE
  5
CB1
100
AcDbEntity
  8
0
100
AcDbLine
 10
348.2608
 20
149.0
 30
0.0
 11
351.6108
 21
149.0
 31
0.0
  0
LINE
  5
CB2
100
AcDbEntity
  8
0
100
AcDbLine
 10
348.2468
 20
129.0
 30
0.0
 11
351.7468
 21
129.0
 31
0.0
  0
ARC
  5
CB3
100
AcDbEntity
  8
0
100
AcDbCircle
 10
349.9968
 20
106.0
 30
0.0
 40
4.25
100
AcDbArc
 50
286.908446
 51
253.091554
  0
ARC
  5
CB4
100
AcDbEntity
  8
0
100
AcDbCircle
 10
349.9968
 20
101.75
 30
0.0
 40
1.25
100
AcDbArc
 50
171.532715
 51
8.467285
  0
CIRCLE
  5
CB5
100
AcDbEntity
  8
0
100
AcDbCircle
 10
349.9968
 20
106.0
 30
0.0
 40
5.5
  0
LINE
  5
CB8
100
AcDbEntity
  8
0
100
AcDbLine
 10
327.6968
 20
136.0
 30
0.0
 11
327.6968
 21
144.0
 31
0.0
  0
LINE
  5
CB9
100
AcDbEntity
  8
0
100
AcDbLine
 10
335.6468
 20
136.0
 30
0.0
 11
335.6468
 21
152.0
 31
0.0
  0
LINE
  5
CBA
100
AcDbEntity
  8
0
100
AcDbLine
 10
345.9468
 20
136.0
 30
0.0
 11
345.9468
 21
152.0
 31
0.0
  0
LINE
  5
CBB
100
AcDbEntity
  8
0
100
AcDbLine
 10
337.9468
 20
136.0
 30
0.0
 11
337.9468
 21
152.0
 31
0.0
  0
ARC
  5
CBC
100
AcDbEntity
  8
0
100
AcDbCircle
 10
340.5468
 20
141.4
 30
0.0
 40
1.0
100
AcDbArc
 50
270.0
 51
0.0
  0
ARC
  5
CBD
100
AcDbEntity
  8
0
100
AcDbCircle
 10
343.3468
 20
141.4
 30
0.0
 40
1.0
100
AcDbArc
 50
180.0
 51
270.0
  0
CIRCLE
  5
CBE
100
AcDbEntity
  8
0
100
AcDbCircle
 10
341.9468
 20
140.0
 30
0.0
 40
3.0
  0
ARC
  5
CBF
100
AcDbEntity
  8
0
100
AcDbCircle
 10
330.3018
 20
141.4
 30
0.0
 40
1.0
100
AcDbArc
 50
270.0
 51
0.0
  0
ARC
  5
CC0
100
AcDbEntity
  8
0
100
AcDbCircle
 10
333.1018
 20
141.4
 30
0.0
 40
1.0
100
AcDbArc
 50
180.0
 51
270.0
  0
CIRCLE
  5
CC1
100
AcDbEntity
  8
0
100
AcDbCircle
 10
331.7018
 20
140.0
 30
0.0
 40
3.0
  0
LINE
  5
CC2
100
AcDbEntity
  8
0
100
AcDbLine
 10
348.2468
 20
129.0
 30
0.0
 11
348.2468
 21
152.0
 31
0.0
  0
LINE
  5
CC4
100
AcDbEntity
  8
1
100
AcDbLine
 10
329.9968
 20
95.99925
 30
0.0
 11
329.9968
 21
116.00075
 31
0.0
  0
CIRCLE
  5
CC5
100
AcDbEntity
  8
0
100
AcDbCircle
 10
329.9968
 20
106.0
 30
0.0
 40
2.25
  0
LINE
  5
CC6
100
AcDbEntity
  8
0
100
AcDbLine
 10
333.9968
 20
102.5
 30
0.0
 11
333.9968
 21
109.5
 31
0.0
  0
LINE
  5
CC7
100
AcDbEntity
  8
0
100
AcDbLine
 10
324.9968
 20
102.0
 30
0.0
 11
333.4968
 21
102.0
 31
0.0
  0
ARC
  5
CC8
100
AcDbEntity
  8
0
100
AcDbCircle
 10
333.4968
 20
102.5
 30
0.0
 40
0.5
100
AcDbArc
 50
270.0
 51
0.0
  0
LINE
  5
CC9
100
AcDbEntity
  8
0
100
AcDbLine
 10
324.9968
 20
110.0
 30
0.0
 11
333.4968
 21
110.0
 31
0.0
  0
ARC
  5
CCA
100
AcDbEntity
  8
0
100
AcDbCircle
 10
333.4968
 20
109.5
 30
0.0
 40
0.5
100
AcDbArc
 50
0.0
 51
90.0
  0
CIRCLE
  5
CCB
100
AcDbEntity
  8
0
100
AcDbCircle
 10
341.6819
 20
102.5559
 30
0.0
 40
1.45
  0
CIRCLE
  5
CCC
100
AcDbEntity
  8
0
100
AcDbCircle
 10
346.5526
 20
97.6851
 30
0.0
 40
1.45
  0
CIRCLE
  5
CCD
100
AcDbEntity
  8
0
100
AcDbCircle
 10
341.6819
 20
109.4442
 30
0.0
 40
1.45
  0
CIRCLE
  5
CCE
100
AcDbEntity
  8
0
100
AcDbCircle
 10
346.5527
 20
114.3149
 30
0.0
 40
1.45
  0
LINE
  5
CCF
100
AcDbEntity
  8
0
100
AcDbLine
 10
327.6968
 20
136.0
 30
0.0
 11
335.6488
 21
136.0
 31
0.0
  0
LINE
  5
CD0
100
AcDbEntity
  8
0
100
AcDbLine
 10
326.4968
 20
127.4726
 30
0.0
 11
326.4968
 21
131.0
 31
0.0
  0
LINE
  5
CD1
100
AcDbEntity
  8
0
100
AcDbLine
 10
328.4968
 20
127.4726
 30
0.0
 11
328.4968
 21
131.0
 31
0.0
  0
LINE
  5
CD2
100
AcDbEntity
  8
0
100
AcDbLine
 10
326.4968
 20
127.4726
 30
0.0
 11
328.4968
 21
127.4726
 31
0.0
  0
LINE
  5
CD3
100
AcDbEntity
  8
0
100
AcDbLine
 10
325.4968
 20
131.0
 30
0.0
 11
329.4968
 21
131.0
 31
0.0
  0
LINE
  5
CD4
100
AcDbEntity
  8
0
100
AcDbLine
 10
324.9968
 20
131.5
 30
0.0
 11
324.9968
 21
136.0
 31
0.0
  0
LINE
  5
CD5
100
AcDbEntity
  8
0
100
AcDbLine
 10
324.9968
 20
131.5
 30
0.0
 11
324.9968
 21
136.0
 31
0.0
  0
ARC
  5
CD6
100
AcDbEntity
  8
0
100
AcDbCircle
 10
325.4968
 20
131.5
 30
0.0
 40
0.5
100
AcDbArc
 50
180.0
 51
270.0
  0
LINE
  5
CD7
100
AcDbEntity
  8
0
100
AcDbLine
 10
329.9968
 20
131.5
 30
0.0
 11
329.9968
 21
135.5
 31
0.0
  0
ARC
  5
CD8
100
AcDbEntity
  8
0
100
AcDbCircle
 10
329.4968
 20
131.5
 30
0.0
 40
0.5
100
AcDbArc
 50
270.0
 51
0.0
  0
LINE
  5
CD9
100
AcDbEntity
  8
0
100
AcDbLine
 10
328.7708
 20
139.5
 30
0.0
 11
330.7618
 21
139.5
 31
0.0
  0
LINE
  5
CDA
100
AcDbEntity
  8
0
100
AcDbLine
 10
328.7578
 20
140.5
 30
0.0
 11
330.7748
 21
140.5
 31
0.0
  0
ARC
  5
CDB
100
AcDbEntity
  8
0
100
AcDbCircle
 10
330.3018
 20
138.6
 30
0.0
 40
1.0
100
AcDbArc
 50
0.0
 51
90.0
  0
LINE
  5
CDC
100
AcDbEntity
  8
0
100
AcDbLine
 10
330.2018
 20
139.6
 30
0.0
 11
330.4018
 21
139.6
 31
0.0
  0
LINE
  5
CDD
100
AcDbEntity
  8
0
100
AcDbLine
 10
330.2018
 20
140.4
 30
0.0
 11
330.3018
 21
140.4
 31
0.0
  0
LINE
  5
CDE
100
AcDbEntity
  8
0
100
AcDbLine
 10
330.2018
 20
139.6
 30
0.0
 11
330.2018
 21
140.4
 31
0.0
  0
ARC
  5
CDF
100
AcDbEntity
  8
0
100
AcDbCircle
 10
329.4968
 20
135.5
 30
0.0
 40
0.5
100
AcDbArc
 50
0.0
 51
90.0
  0
LINE
  5
CE0
100
AcDbEntity
  8
0
100
AcDbLine
 10
333.1018
 20
139.6
 30
0.0
 11
333.2018
 21
139.6
 31
0.0
  0
LINE
  5
CE1
100
AcDbEntity
  8
0
100
AcDbLine
 10
333.0018
 20
140.4
 30
0.0
 11
333.2018
 21
140.4
 31
0.0
  0
LINE
  5
CE2
100
AcDbEntity
  8
0
100
AcDbLine
 10
333.2018
 20
139.6
 30
0.0
 11
333.2018
 21
140.4
 31
0.0
  0
LINE
  5
CE3
100
AcDbEntity
  8
0
100
AcDbLine
 10
332.6748
 20
139.5
 30
0.0
 11
334.6398
 21
139.5
 31
0.0
  0
LINE
  5
CE4
100
AcDbEntity
  8
0
100
AcDbLine
 10
332.6748
 20
140.5
 30
0.0
 11
334.6398
 21
140.5
 31
0.0
  0
ARC
  5
CE5
100
AcDbEntity
  8
0
100
AcDbCircle
 10
333.1018
 20
138.6
 30
0.0
 40
1.0
100
AcDbArc
 50
90.0
 51
180.0
  0
LINE
  5
CE6
100
AcDbEntity
  8
0
100
AcDbLine
 10
331.3018
 20
138.2
 30
0.0
 11
331.3018
 21
138.6
 31
0.0
  0
LINE
  5
CE7
100
AcDbEntity
  8
0
100
AcDbLine
 10
331.3018
 20
138.2
 30
0.0
 11
332.1018
 21
138.2
 31
0.0
  0
LINE
  5
CE8
100
AcDbEntity
  8
0
100
AcDbLine
 10
332.1018
 20
138.2
 30
0.0
 11
332.1018
 21
138.7
 31
0.0
  0
LINE
  5
CE9
100
AcDbEntity
  8
0
100
AcDbLine
 10
337.9468
 20
136.0
 30
0.0
 11
345.9468
 21
136.0
 31
0.0
  0
LINE
  5
CEA
100
AcDbEntity
  8
0
100
AcDbLine
 10
342.9198
 20
139.5
 30
0.0
 11
344.8848
 21
139.5
 31
0.0
  0
LINE
  5
CEB
100
AcDbEntity
  8
0
100
AcDbLine
 10
342.9198
 20
140.5
 30
0.0
 11
344.8848
 21
140.5
 31
0.0
  0
ARC
  5
CEC
100
AcDbEntity
  8
0
100
AcDbCircle
 10
343.3468
 20
138.6
 30
0.0
 40
1.0
100
AcDbArc
 50
90.0
 51
180.0
  0
LINE
  5
CED
100
AcDbEntity
  8
0
100
AcDbLine
 10
340.4468
 20
139.6
 30
0.0
 11
340.6468
 21
139.6
 31
0.0
  0
LINE
  5
CEE
100
AcDbEntity
  8
0
100
AcDbLine
 10
340.4468
 20
140.4
 30
0.0
 11
340.5468
 21
140.4
 31
0.0
  0
LINE
  5
CEF
100
AcDbEntity
  8
0
100
AcDbLine
 10
340.4468
 20
139.6
 30
0.0
 11
340.4468
 21
140.4
 31
0.0
  0
LINE
  5
CF0
100
AcDbEntity
  8
0
100
AcDbLine
 10
339.0158
 20
139.5
 30
0.0
 11
341.0068
 21
139.5
 31
0.0
  0
LINE
  5
CF1
100
AcDbEntity
  8
0
100
AcDbLine
 10
339.0028
 20
140.5
 30
0.0
 11
341.0198
 21
140.5
 31
0.0
  0
ARC
  5
CF2
100
AcDbEntity
  8
0
100
AcDbCircle
 10
340.5468
 20
138.6
 30
0.0
 40
1.0
100
AcDbArc
 50
0.0
 51
90.0
  0
LINE
  5
CF3
100
AcDbEntity
  8
0
100
AcDbLine
 10
341.5468
 20
138.2
 30
0.0
 11
341.5468
 21
138.6
 31
0.0
  0
LINE
  5
CF4
100
AcDbEntity
  8
0
100
AcDbLine
 10
341.5468
 20
138.2
 30
0.0
 11
342.3468
 21
138.2
 31
0.0
  0
LINE
  5
CF5
100
AcDbEntity
  8
0
100
AcDbLine
 10
342.3468
 20
138.2
 30
0.0
 11
342.3468
 21
138.7
 31
0.0
  0
LINE
  5
CF6
100
AcDbEntity
  8
0
100
AcDbLine
 10
343.3468
 20
139.6
 30
0.0
 11
343.4468
 21
139.6
 31
0.0
  0
LINE
  5
CF7
100
AcDbEntity
  8
0
100
AcDbLine
 10
343.2468
 20
140.4
 30
0.0
 11
343.4468
 21
140.4
 31
0.0
  0
LINE
  5
CF8
100
AcDbEntity
  8
0
100
AcDbLine
 10
343.4468
 20
139.6
 30
0.0
 11
343.4468
 21
140.4
 31
0.0
  0
LINE
  5
CF9
100
AcDbEntity
  8
0
100
AcDbLine
 10
327.6968
 20
146.0
 30
0.0
 11
335.6468
 21
146.0
 31
0.0
  0
LINE
  5
CFA
100
AcDbEntity
  8
0
100
AcDbLine
 10
327.7258
 20
144.0
 30
0.0
 11
335.6018
 21
144.0
 31
0.0
  0
LINE
  5
CFB
100
AcDbEntity
  8
0
100
AcDbLine
 10
324.9968
 20
150.5
 30
0.0
 11
327.6968
 21
150.5
 31
0.0
  0
ARC
  5
CFC
100
AcDbEntity
  8
0
100
AcDbCircle
 10
324.0588
 20
148.0
 30
0.0
 40
1.838
100
AcDbArc
 50
300.68046
 51
59.31954
  0
LINE
  5
CFD
100
AcDbEntity
  8
0
100
AcDbLine
 10
327.6968
 20
144.0
 30
0.0
 11
327.6968
 21
152.0
 31
0.0
  0
LINE
  5
CFE
100
AcDbEntity
  8
0
100
AcDbLine
 10
331.3018
 20
141.3
 30
0.0
 11
331.3018
 21
141.8
 31
0.0
  0
LINE
  5
CFF
100
AcDbEntity
  8
0
100
AcDbLine
 10
332.1018
 20
141.4
 30
0.0
 11
332.1018
 21
141.8
 31
0.0
  0
LINE
  5
D00
100
AcDbEntity
  8
0
100
AcDbLine
 10
331.3018
 20
141.8
 30
0.0
 11
332.1018
 21
141.8
 31
0.0
  0
LINE
  5
D01
100
AcDbEntity
  8
0
100
AcDbLine
 10
337.9468
 20
146.0
 30
0.0
 11
345.9468
 21
146.0
 31
0.0
  0
LINE
  5
D02
100
AcDbEntity
  8
0
100
AcDbLine
 10
337.9478
 20
144.0
 30
0.0
 11
345.8458
 21
144.0
 31
0.0
  0
LINE
  5
D03
100
AcDbEntity
  8
0
100
AcDbLine
 10
341.5468
 20
141.3
 30
0.0
 11
341.5468
 21
141.8
 31
0.0
  0
LINE
  5
D04
100
AcDbEntity
  8
0
100
AcDbLine
 10
342.3468
 20
141.4
 30
0.0
 11
342.3468
 21
141.8
 31
0.0
  0
LINE
  5
D05
100
AcDbEntity
  8
0
100
AcDbLine
 10
341.5468
 20
141.8
 30
0.0
 11
342.3468
 21
141.8
 31
0.0
  0
LINE
  5
D06
100
AcDbEntity
  8
0
100
AcDbLine
 10
335.6468
 20
150.5
 30
0.0
 11
337.9468
 21
150.5
 31
0.0
  0
LINE
  5
D07
100
AcDbEntity
  8
0
100
AcDbLine
 10
345.9468
 20
150.5
 30
0.0
 11
348.2468
 21
150.5
 31
0.0
  0
LINE
  5
D08
100
AcDbEntity
  8
0
100
AcDbLine
 10
345.9468
 20
150.5
 30
0.0
 11
346.0126
 21
150.5
 31
0.0
  0
LINE
  5
D09
100
AcDbEntity
  8
0
100
AcDbLine
 10
345.9468
 20
152.0
 30
0.0
 11
345.9468
 21
152.005
 31
0.0
  0
LINE
  5
D0A
100
AcDbEntity
  8
0
100
AcDbLine
 10
372.2968
 20
136.0
 30
0.0
 11
372.2968
 21
152.0
 31
0.0
  0
LINE
  5
D0B
100
AcDbEntity
  8
0
100
AcDbLine
 10
364.3468
 20
135.999
 30
0.0
 11
364.3468
 21
152.0
 31
0.0
  0
ARC
  5
D0C
100
AcDbEntity
  8
0
100
AcDbCircle
 10
366.8998
 20
141.4
 30
0.0
 40
1.0
100
AcDbArc
 50
270.0
 51
0.0
  0
ARC
  5
D0D
100
AcDbEntity
  8
0
100
AcDbCircle
 10
369.6998
 20
141.4
 30
0.0
 40
1.0
100
AcDbArc
 50
180.0
 51
270.0
  0
CIRCLE
  5
D0E
100
AcDbEntity
  8
0
100
AcDbCircle
 10
368.2998
 20
140.0
 30
0.0
 40
3.0
  0
ARC
  5
D0F
100
AcDbEntity
  8
0
100
AcDbCircle
 10
356.6468
 20
141.4
 30
0.0
 40
1.0
100
AcDbArc
 50
270.0
 51
0.0
  0
ARC
  5
D10
100
AcDbEntity
  8
0
100
AcDbCircle
 10
359.4468
 20
141.4
 30
0.0
 40
1.0
100
AcDbArc
 50
180.0
 51
270.0
  0
CIRCLE
  5
D11
100
AcDbEntity
  8
0
100
AcDbCircle
 10
358.0468
 20
140.0
 30
0.0
 40
3.0
  0
LINE
  5
D12
100
AcDbEntity
  8
0
100
AcDbLine
 10
362.0468
 20
136.0
 30
0.0
 11
362.0468
 21
151.974
 31
0.0
  0
LINE
  5
D13
100
AcDbEntity
  8
0
100
AcDbLine
 10
354.0468
 20
135.999
 30
0.0
 11
354.0468
 21
152.0
 31
0.0
  0
LINE
  5
D14
100
AcDbEntity
  8
0
100
AcDbLine
 10
374.9968
 20
136.0
 30
0.0
 11
374.9968
 21
152.0
 31
0.0
  0
LINE
  5
D15
100
AcDbEntity
  8
0
100
AcDbLine
 10
374.9968
 20
136.0
 30
0.0
 11
374.9968
 21
152.0
 31
0.0
  0
LINE
  5
D16
100
AcDbEntity
  8
0
100
AcDbLine
 10
374.9968
 20
136.0
 30
0.0
 11
374.9968
 21
152.0
 31
0.0
  0
LINE
  5
D17
100
AcDbEntity
  8
0
100
AcDbLine
 10
351.7468
 20
129.0
 30
0.0
 11
351.7468
 21
152.0
 31
0.0
  0
LINE
  5
D18
100
AcDbEntity
  8
0
100
AcDbLine
 10
366.4968
 20
102.0
 30
0.0
 11
374.9968
 21
102.0
 31
0.0
  0
LINE
  5
D19
100
AcDbEntity
  8
0
100
AcDbLine
 10
366.4968
 20
110.0
 30
0.0
 11
374.9968
 21
110.0
 31
0.0
  0
LINE
  5
D1A
100
AcDbEntity
  8
0
100
AcDbLine
 10
365.9968
 20
102.5
 30
0.0
 11
365.9968
 21
109.5
 31
0.0
  0
CIRCLE
  5
D1B
100
AcDbEntity
  8
0
100
AcDbCircle
 10
358.3117
 20
102.5558
 30
0.0
 40
1.45
  0
CIRCLE
  5
D1C
100
AcDbEntity
  8
0
100
AcDbCircle
 10
353.4409
 20
97.6851
 30
0.0
 40
1.45
  0
ARC
  5
D1D
100
AcDbEntity
  8
0
100
AcDbCircle
 10
366.4968
 20
102.5
 30
0.0
 40
0.5
100
AcDbArc
 50
180.0
 51
270.0
  0
CIRCLE
  5
D1E
100
AcDbEntity
  8
0
100
AcDbCircle
 10
358.3117
 20
109.4441
 30
0.0
 40
1.45
  0
CIRCLE
  5
D1F
100
AcDbEntity
  8
0
100
AcDbCircle
 10
353.441
 20
114.3149
 30
0.0
 40
1.45
  0
ARC
  5
D20
100
AcDbEntity
  8
0
100
AcDbCircle
 10
366.4968
 20
109.5
 30
0.0
 40
0.5
100
AcDbArc
 50
90.0
 51
180.0
  0
LINE
  5
D21
100
AcDbEntity
  8
1
100
AcDbLine
 10
369.9968
 20
96.0
 30
0.0
 11
369.9968
 21
116.0
 31
0.0
  0
CIRCLE
  5
D22
100
AcDbEntity
  8
0
100
AcDbCircle
 10
369.9968
 20
106.0
 30
0.0
 40
2.25
  0
ARC
  5
D23
100
AcDbEntity
  8
0
100
AcDbCircle
 10
366.8998
 20
138.6
 30
0.0
 40
1.0
100
AcDbArc
 50
0.0
 51
90.0
  0
LINE
  5
D24
100
AcDbEntity
  8
0
100
AcDbLine
 10
364.3468
 20
136.0
 30
0.0
 11
372.2968
 21
136.0
 31
0.0
  0
LINE
  5
D25
100
AcDbEntity
  8
0
100
AcDbLine
 10
359.3468
 20
140.4
 30
0.0
 11
359.5468
 21
140.4
 31
0.0
  0
LINE
  5
D26
100
AcDbEntity
  8
0
100
AcDbLine
 10
359.0198
 20
139.5
 30
0.0
 11
360.9848
 21
139.5
 31
0.0
  0
LINE
  5
D27
100
AcDbEntity
  8
0
100
AcDbLine
 10
359.0198
 20
140.5
 30
0.0
 11
360.9848
 21
140.5
 31
0.0
  0
ARC
  5
D28
100
AcDbEntity
  8
0
100
AcDbCircle
 10
359.4468
 20
138.6
 30
0.0
 40
1.0
100
AcDbArc
 50
90.0
 51
180.0
  0
LINE
  5
D29
100
AcDbEntity
  8
0
100
AcDbLine
 10
354.0468
 20
136.0
 30
0.0
 11
361.9648
 21
136.0
 31
0.0
  0
LINE
  5
D2A
100
AcDbEntity
  8
0
100
AcDbLine
 10
355.1158
 20
139.5
 30
0.0
 11
357.1068
 21
139.5
 31
0.0
  0
LINE
  5
D2B
100
AcDbEntity
  8
0
100
AcDbLine
 10
355.1028
 20
140.5
 30
0.0
 11
357.1198
 21
140.5
 31
0.0
  0
LINE
  5
D2C
100
AcDbEntity
  8
0
100
AcDbLine
 10
356.5468
 20
139.6
 30
0.0
 11
356.7468
 21
139.6
 31
0.0
  0
LINE
  5
D2D
100
AcDbEntity
  8
0
100
AcDbLine
 10
356.5468
 20
140.4
 30
0.0
 11
356.6468
 21
140.4
 31
0.0
  0
LINE
  5
D2E
100
AcDbEntity
  8
0
100
AcDbLine
 10
356.5468
 20
139.6
 30
0.0
 11
356.5468
 21
140.4
 31
0.0
  0
ARC
  5
D2F
100
AcDbEntity
  8
0
100
AcDbCircle
 10
356.6468
 20
138.6
 30
0.0
 40
1.0
100
AcDbArc
 50
0.0
 51
90.0
  0
LINE
  5
D30
100
AcDbEntity
  8
0
100
AcDbLine
 10
357.6468
 20
138.2
 30
0.0
 11
357.6468
 21
138.6
 31
0.0
  0
LINE
  5
D31
100
AcDbEntity
  8
0
100
AcDbLine
 10
357.6468
 20
138.2
 30
0.0
 11
358.4468
 21
138.2
 31
0.0
  0
LINE
  5
D32
100
AcDbEntity
  8
0
100
AcDbLine
 10
358.4468
 20
138.2
 30
0.0
 11
358.4468
 21
138.7
 31
0.0
  0
LINE
  5
D33
100
AcDbEntity
  8
0
100
AcDbLine
 10
359.4468
 20
139.6
 30
0.0
 11
359.5468
 21
139.6
 31
0.0
  0
LINE
  5
D34
100
AcDbEntity
  8
0
100
AcDbLine
 10
359.5468
 20
139.6
 30
0.0
 11
359.5468
 21
140.4
 31
0.0
  0
LINE
  5
D35
100
AcDbEntity
  8
0
100
AcDbLine
 10
366.7968
 20
139.6
 30
0.0
 11
366.9998
 21
139.6
 31
0.0
  0
LINE
  5
D36
100
AcDbEntity
  8
0
100
AcDbLine
 10
366.7968
 20
140.4
 30
0.0
 11
366.8998
 21
140.4
 31
0.0
  0
LINE
  5
D37
100
AcDbEntity
  8
0
100
AcDbLine
 10
366.7968
 20
139.6
 30
0.0
 11
366.7968
 21
140.4
 31
0.0
  0
LINE
  5
D38
100
AcDbEntity
  8
0
100
AcDbLine
 10
365.3688
 20
139.5
 30
0.0
 11
367.3598
 21
139.5
 31
0.0
  0
LINE
  5
D39
100
AcDbEntity
  8
0
100
AcDbLine
 10
365.3558
 20
140.5
 30
0.0
 11
367.3728
 21
140.5
 31
0.0
  0
LINE
  5
D3A
100
AcDbEntity
  8
0
100
AcDbLine
 10
371.4968
 20
127.4726
 30
0.0
 11
371.4968
 21
131.0
 31
0.0
  0
LINE
  5
D3B
100
AcDbEntity
  8
0
100
AcDbLine
 10
373.4968
 20
127.4726
 30
0.0
 11
373.4968
 21
131.0
 31
0.0
  0
LINE
  5
D3C
100
AcDbEntity
  8
0
100
AcDbLine
 10
371.4968
 20
127.4726
 30
0.0
 11
373.4968
 21
127.4726
 31
0.0
  0
LINE
  5
D3D
100
AcDbEntity
  8
0
100
AcDbLine
 10
374.9968
 20
131.5
 30
0.0
 11
374.9968
 21
136.0
 31
0.0
  0
LINE
  5
D3E
100
AcDbEntity
  8
0
100
AcDbLine
 10
369.9968
 20
131.5
 30
0.0
 11
369.9968
 21
135.5
 31
0.0
  0
LINE
  5
D3F
100
AcDbEntity
  8
0
100
AcDbLine
 10
370.4968
 20
131.0
 30
0.0
 11
374.4968
 21
131.0
 31
0.0
  0
ARC
  5
D40
100
AcDbEntity
  8
0
100
AcDbCircle
 10
370.4968
 20
131.5
 30
0.0
 40
0.5
100
AcDbArc
 50
180.0
 51
270.0
  0
ARC
  5
D41
100
AcDbEntity
  8
0
100
AcDbCircle
 10
374.4968
 20
131.5
 30
0.0
 40
0.5
100
AcDbArc
 50
270.0
 51
0.0
  0
LINE
  5
D42
100
AcDbEntity
  8
0
100
AcDbLine
 10
370.4968
 20
136.0
 30
0.0
 11
372.2968
 21
136.0
 31
0.0
  0
LINE
  5
D43
100
AcDbEntity
  8
0
100
AcDbLine
 10
369.6998
 20
139.6
 30
0.0
 11
369.7968
 21
139.6
 31
0.0
  0
LINE
  5
D44
100
AcDbEntity
  8
0
100
AcDbLine
 10
369.5998
 20
140.4
 30
0.0
 11
369.7968
 21
140.4
 31
0.0
  0
LINE
  5
D45
100
AcDbEntity
  8
0
100
AcDbLine
 10
369.7968
 20
139.6
 30
0.0
 11
369.7968
 21
140.4
 31
0.0
  0
LINE
  5
D46
100
AcDbEntity
  8
0
100
AcDbLine
 10
369.2728
 20
139.5
 30
0.0
 11
371.2378
 21
139.5
 31
0.0
  0
LINE
  5
D47
100
AcDbEntity
  8
0
100
AcDbLine
 10
369.2728
 20
140.5
 30
0.0
 11
371.2378
 21
140.5
 31
0.0
  0
ARC
  5
D48
100
AcDbEntity
  8
0
100
AcDbCircle
 10
369.6998
 20
138.6
 30
0.0
 40
1.0
100
AcDbArc
 50
90.0
 51
180.0
  0
LINE
  5
D49
100
AcDbEntity
  8
0
100
AcDbLine
 10
367.8998
 20
138.2
 30
0.0
 11
367.8998
 21
138.6
 31
0.0
  0
LINE
  5
D4A
100
AcDbEntity
  8
0
100
AcDbLine
 10
367.8998
 20
138.2
 30
0.0
 11
368.6998
 21
138.2
 31
0.0
  0
LINE
  5
D4B
100
AcDbEntity
  8
0
100
AcDbLine
 10
368.6998
 20
138.2
 30
0.0
 11
368.6998
 21
138.7
 31
0.0
  0
ARC
  5
D4C
100
AcDbEntity
  8
0
100
AcDbCircle
 10
370.4968
 20
135.5
 30
0.0
 40
0.5
100
AcDbArc
 50
90.0
 51
180.0
  0
LINE
  5
D4D
100
AcDbEntity
  8
0
100
AcDbLine
 10
364.3468
 20
144.0
 30
0.0
 11
372.3057
 21
144.0
 31
0.0
  0
LINE
  5
D4E
100
AcDbEntity
  8
0
100
AcDbLine
 10
364.3468
 20
146.0
 30
0.0
 11
372.2468
 21
146.0
 31
0.0
  0
LINE
  5
D4F
100
AcDbEntity
  8
0
100
AcDbLine
 10
354.0468
 20
144.0
 30
0.0
 11
362.0468
 21
144.0
 31
0.0
  0
LINE
  5
D50
100
AcDbEntity
  8
0
100
AcDbLine
 10
354.0508
 20
146.0
 30
0.0
 11
362.0468
 21
146.0
 31
0.0
  0
LINE
  5
D51
100
AcDbEntity
  8
0
100
AcDbLine
 10
357.6468
 20
141.3
 30
0.0
 11
357.6468
 21
141.8
 31
0.0
  0
LINE
  5
D52
100
AcDbEntity
  8
0
100
AcDbLine
 10
358.4468
 20
141.4
 30
0.0
 11
358.4468
 21
141.8
 31
0.0
  0
LINE
  5
D53
100
AcDbEntity
  8
0
100
AcDbLine
 10
357.6468
 20
141.8
 30
0.0
 11
358.4468
 21
141.8
 31
0.0
  0
LINE
  5
D54
100
AcDbEntity
  8
0
100
AcDbLine
 10
351.7468
 20
150.5
 30
0.0
 11
354.0468
 21
150.5
 31
0.0
  0
LINE
  5
D55
100
AcDbEntity
  8
0
100
AcDbLine
 10
362.0468
 20
150.5
 30
0.0
 11
364.3468
 21
150.5
 31
0.0
  0
ARC
  5
D56
100
AcDbEntity
  8
0
100
AcDbCircle
 10
375.9348
 20
148.0
 30
0.0
 40
1.838
100
AcDbArc
 50
120.68046
 51
239.31954
  0
LINE
  5
D57
100
AcDbEntity
  8
0
100
AcDbLine
 10
367.8998
 20
141.3
 30
0.0
 11
367.8998
 21
141.8
 31
0.0
  0
LINE
  5
D58
100
AcDbEntity
  8
0
100
AcDbLine
 10
368.6998
 20
141.4
 30
0.0
 11
368.6998
 21
141.8
 31
0.0
  0
LINE
  5
D59
100
AcDbEntity
  8
0
100
AcDbLine
 10
367.8998
 20
141.8
 30
0.0
 11
368.6998
 21
141.8
 31
0.0
  0
LINE
  5
D5A
100
AcDbEntity
  8
0
100
AcDbLine
 10
372.2968
 20
150.5
 30
0.0
 11
374.9968
 21
150.5
 31
0.0
  0
POINT
  5
100A
100
AcDbEntity
  8
0
100
AcDbPoint
 10
149.9988
 20
50.005
 30
0.0
  0
POINT
  5
100B
100
AcDbEntity
  8
0
100
AcDbPoint
 10
245.9988
 20
50.005
 30
0.0
  0
POINT
  5
1013
100
AcDbEntity
  8
0
  6
BYBLOCK
 62
     0
100
AcDbPoint
 10
182.4988
 20
50.005
 30
0.0
  0
POINT
  5
1014
100
AcDbEntity
  8
0
100
AcDbPoint
 10
217.4988
 20
50.005
 30
0.0
  0
POINT
  5
1015
100
AcDbEntity
  8
0
  6
BYBLOCK
 62
     0
100
AcDbPoint
 10
217.4988
 20
39.005
 30
0.0
  0
POINT
  5
1047
100
AcDbEntity
  8
0
100
AcDbPoint
 10
374.9968
 20
60.0
 30
0.0
  0
POINT
  5
1048
100
AcDbEntity
  8
0
100
AcDbPoint
 10
374.9968
 20
152.0
 30
0.0
  0
POINT
  5
1052
100
AcDbEntity
  8
0
100
AcDbPoint
 10
374.9968
 20
60.0
 30
0.0
  0
POINT
  5
1053
100
AcDbEntity
  8
0
100
AcDbPoint
 10
349.9968
 20
56.0
 30
0.0
  0
POINT
  5
105C
100
AcDbEntity
  8
0
100
AcDbPoint
 10
374.9968
 20
60.0
 30
0.0
  0
POINT
  5
1065
100
AcDbEntity
  8
0
100
AcDbPoint
 10
369.9968
 20
60.0
 30
0.0
  0
MTEXT
  5
1068
100
AcDbEntity
  8
0
  6
WACOM_LSTYLE_M1
 62
     7
100
AcDbMText
 10
287.2391
 20
197.1505
 30
0.0
 40
4.5
 41
0.0
 71
     9
 72
     5
  1
{\W0.7778;\T1.0857;\Q0.0000;}
  7
WACOM_STRING_H
  0
DIMENSION
  5
1098
100
AcDbEntity
  8
0
100
AcDbDimension
  2
*D0
 10
114.9968
 20
70.0
 30
0.0
 11
114.9968
 21
122.7507
 31
0.0
 70
   160
  3
標準
100
AcDbAlignedDimension
 13
94.50008
 23
175.5014
 33
0.0
 14
96.0
 24
70.0
 34
0.0
 50
90.0
100
AcDbRotatedDimension
  0
DIMENSION
  5
10A5
100
AcDbEntity
  8
0
100
AcDbDimension
  2
*D1
 10
114.9968
 20
50.0
 30
0.0
 11
114.9968
 21
60.0
 31
0.0
 70
   160
  1
(<>)
  3
標準
100
AcDbAlignedDimension
 13
95.0
 23
70.0
 33
0.0
 14
95.0
 24
50.0
 34
0.0
 50
90.0
100
AcDbRotatedDimension
  0
DIMENSION
  5
1AE7
100
AcDbEntity
  8
0
100
AcDbDimension
  2
*D6
 10
129.9768
 20
50.0
 30
0.0
 11
129.9768
 21
112.7507
 31
0.0
 70
   160
  1
126MAX
  3
標準
100
AcDbAlignedDimension
 13
94.50008
 23
175.5014
 33
0.0
 14
94.9768
 24
50.0
 34
0.0
 50
90.0
100
AcDbRotatedDimension
  0
DIMENSION
  5
1AE8
100
AcDbEntity
  8
0
100
AcDbDimension
  2
*D7
 10
94.9768
 20
15.0
 30
0.0
 11
69.9768
 21
15.0
 31
0.0
 70
   160
  1
51MAX
  3
標準
100
AcDbAlignedDimension
 13
44.9768
 23
50.0
 33
0.0
 14
94.9768
 24
50.0
 34
0.0
100
AcDbRotatedDimension
  0
DIMENSION
  5
1AE9
100
AcDbEntity
  8
0
100
AcDbDimension
  2
*D8
 10
94.50008
 20
190.0
 30
0.0
 11
69.9768
 21
190.0
 31
0.0
 70
   160
  1
49
  3
標準
100
AcDbAlignedDimension
 13
45.47281
 23
175.4054
 33
0.0
 14
94.50008
 24
175.5014
 34
0.0
100
AcDbRotatedDimension
  0
DIMENSION
  5
1AEA
100
AcDbEntity
  8
0
100
AcDbDimension
  2
*D3
 10
239.4988
 20
190.0
 30
0.0
 11
199.9868
 21
190.0
 31
0.0
 12
0.01
 22
0.0
 32
0.0
 70
   160
  3
標準
100
AcDbAlignedDimension
 13
160.4988
 23
175.5
 33
0.0
 14
239.4988
 24
175.5
 34
0.0
100
AcDbRotatedDimension
  0
DIMENSION
  5
1AEB
100
AcDbEntity
  8
0
 62
     0
100
AcDbDimension
  2
*D5
 10
245.9868
 20
15.0
 30
0.0
 11
197.9868
 21
15.0
 31
0.0
 12
0.01
 22
0.0
 32
0.0
 70
   160
  1
97MAX
  3
標準
100
AcDbAlignedDimension
 13
149.9868
 23
50.0
 33
0.0
 14
245.9868
 24
50.0
 34
0.0
100
AcDbRotatedDimension
  0
DIMENSION
  5
1AEC
100
AcDbEntity
  8
0
100
AcDbDimension
  2
*D4
 10
217.4868
 20
30.0
 30
0.0
 11
199.9868
 21
30.0
 31
0.0
 12
0.01
 22
0.0
 32
0.0
 70
   160
  1
35.4
  3
標準
100
AcDbAlignedDimension
 13
182.4868
 23
50.0
 33
0.0
 14
217.4868
 24
50.0
 34
0.0
100
AcDbRotatedDimension
  0
LEADER
  5
1AED
100
AcDbEntity
  8
0
100
AcDbLeader
  3
標準
 73
     0
 75
     1
 40
9.465909
 41
42.278409
 76
     3
 10
328.23672
 20
107.496648
 30
0.0
 10
317.0
 20
118.267045
 30
0.0
 10
312.0
 20
118.267045
 30
0.0
 77
   256
340
1AEE
  0
MTEXT
  5
1AEE
102
{ACAD_REACTORS
330
1AED
102
}
100
AcDbEntity
  8
0
100
AcDbMText
 10
310.0
 20
125.0
 30
0.0
 40
7.0
 41
0.0
 71
     6
 72
     1
  1
2-φ4.5穴
  7
MS
  0
DIMENSION
  5
1AEF
100
AcDbEntity
  8
0
100
AcDbDimension
  2
*D11
 10
372.2968
 20
160.0258
 30
0.0
 11
368.3218
 21
160.0258
 31
0.0
 70
   160
  1
7.8
  3
標準
100
AcDbAlignedDimension
 13
364.3468
 23
152.026
 33
0.0
 14
372.2968
 24
152.026
 34
0.0
100
AcDbRotatedDimension
1001
WACOM_DIM_LNG
1002
{
1070
     0
1070
     0
1070
     1
1070
     1
1070
     1
1070
     1
1002
}
1001
WACOM_DIMVAL_POINT
1002
{
1010
10.125
1020
3.25
1030
0.0
1002
}
  0
DIMENSION
  5
1AF0
100
AcDbEntity
  8
0
100
AcDbDimension
  2
*D10
 10
374.9968
 20
20.095
 30
0.0
 11
349.9968
 21
20.095
 31
0.0
 70
   160
  1
51MAX
  3
標準
100
AcDbAlignedDimension
 13
324.9968
 23
60.0
 33
0.0
 14
374.9968
 24
60.0
 34
0.0
100
AcDbRotatedDimension
  0
DIMENSION
  5
1AF1
100
AcDbEntity
  8
0
100
AcDbDimension
  2
*D9
 10
369.9968
 20
35.095
 30
0.0
 11
349.9968
 21
35.095
 31
0.0
 70
   160
  1
<>±0.2
  3
標準
100
AcDbAlignedDimension
 13
329.9968
 23
60.0
 33
0.0
 14
369.9968
 24
60.0
 34
0.0
100
AcDbRotatedDimension
  0
DIMENSION
  5
1B60
100
AcDbEntity
  8
0
100
AcDbDimension
  2
*D12
 10
395.0088
 20
60.0
 30
0.0
 11
395.0088
 21
106.0
 31
0.0
 70
   160
  1
93MAX
  3
標準
100
AcDbAlignedDimension
 13
375.0088
 23
152.0
 33
0.0
 14
375.0088
 24
60.0
 34
0.0
 50
90.0
100
AcDbRotatedDimension
  0
DIMENSION
  5
1B61
100
AcDbEntity
  8
0
100
AcDbDimension
  2
*D13
 10
395.0088
 20
56.0
 30
0.0
 11
389.5088
 21
41.792614
 31
0.0
 70
    32
  3
標準
100
AcDbAlignedDimension
 13
375.0088
 23
60.0
 33
0.0
 14
352.5088
 24
56.0
 34
0.0
 50
90.0
100
AcDbRotatedDimension
  0
MTEXT
  5
1B62
102
{ACAD_REACTORS
330
1B63
102
}
100
AcDbEntity
  8
0
100
AcDbMText
 10
310.0
 20
175.0
 30
0.0
 40
7.0
 41
0.0
 71
     6
 72
     1
  1
8-M3.5×7\Pセムスネジ
  7
MS
  0
LEADER
  5
1B63
100
AcDbEntity
  8
0
100
AcDbLeader
  3
標準
 73
     0
 75
     1
 40
22.392045
 41
46.494318
 76
     3
 10
329.81177
 20
142.329761
 30
0.0
 10
317.0
 20
161.803977
 30
0.0
 10
312.0
 20
161.803977
 30
0.0
 77
   256
340
1B62
  0
MTEXT
  5
1B7E
100
AcDbEntity
  8
0
100
AcDbMText
 10
368.3328
 20
63.0
 30
0.0
 40
3.0
 41
0.0
 71
     5
 72
     5
  1
2
  7
MS
1001
WACOM_STRING
1002
{
1070
   301
1002
}
  0
MTEXT
  5
1B7F
100
AcDbEntity
  8
0
100
AcDbMText
 10
358.0798
 20
63.0
 30
0.0
 40
3.0
 41
0.0
 71
     5
 72
     5
  1
1
  7
MS
1001
WACOM_STRING
1002
{
1070
   301
1002
}
  0
MTEXT
  5
1B80
100
AcDbEntity
  8
0
100
AcDbMText
 10
341.9468
 20
63.0
 30
0.0
 40
3.0
 41
0.0
 71
     5
 72
     5
  1
8
  7
MS
1001
WACOM_STRING
1002
{
1070
   301
1002
}
  0
MTEXT
  5
1B81
100
AcDbEntity
  8
0
100
AcDbMText
 10
331.6938
 20
63.0
 30
0.0
 40
3.0
 41
0.0
 71
     5
 72
     5
  1
7
  7
MS
1001
WACOM_STRING
1002
{
1070
   301
1002
}
  0
MTEXT
  5
1B82
100
AcDbEntity
  8
0
100
AcDbMText
 10
331.6938
 20
149.0
 30
0.0
 40
3.0
 41
0.0
 71
     5
 72
     5
  1
6
  7
MS
1001
WACOM_STRING
1002
{
1070
   301
1002
}
  0
MTEXT
  5
1B83
100
AcDbEntity
  8
0
100
AcDbMText
 10
341.9468
 20
149.0
 30
0.0
 40
3.0
 41
0.0
 71
     5
 72
     5
  1
5
  7
MS
1001
WACOM_STRING
1002
{
1070
   301
1002
}
  0
MTEXT
  5
1B84
100
AcDbEntity
  8
0
100
AcDbMText
 10
358.0438
 20
149.0
 30
0.0
 40
3.0
 41
0.0
 71
     5
 72
     5
  1
4
  7
MS
1001
WACOM_STRING
1002
{
1070
   301
1002
}
  0
MTEXT
  5
1B85
100
AcDbEntity
  8
0
100
AcDbMText
 10
368.2968
 20
149.0
 30
0.0
 40
3.0
 41
0.0
 71
     5
 72
     5
  1
3
  7
MS
1001
WACOM_STRING
1002
{
1070
   301
1002
}
  0
VIEWPORT
  5
16F
100
AcDbEntity
 67
     1
  8
0
100
AcDbViewport
 10
276.628159
 20
148.5
 30
0.0
 40
553.256318
 41
297.0
 68
    -1
 69
     1
1001
ACAD
1000
MVIEW
1002
{
1070
    16
1010
0.0
1020
0.0
1030
0.0
1010
0.0
1020
0.0
1030
1.0
1040
0.0
1040
297.0
1040
276.628159
1040
148.5
1040
50.0
1040
0.0
1040
0.0
1070
     0
1070
   100
1070
     1
1070
     1
1070
     1
1070
     1
1070
     0
1070
     0
1040
0.0
1040
0.0
1040
0.0
1040
2.0
1040
2.0
1040
5.0
1040
5.0
1070
     0
1002
{
1002
}
1002
}
  0
ENDSEC
  0
SECTION
  2
OBJECTS
  0
DICTIONARY
  5
C
100
AcDbDictionary
  3
ACAD_GROUP
350
D
  3
ACAD_MLINESTYLE
350
1B
  3
CONTENTDICTIONARY
350
23
  0
DICTIONARY
  5
D
102
{ACAD_REACTORS
330
C
102
}
100
AcDbDictionary
  0
DICTIONARY
  5
1B
102
{ACAD_REACTORS
330
C
102
}
100
AcDbDictionary
  3
STANDARD
350
1C
  0
DICTIONARY
  5
23
102
{ACAD_REACTORS
330
C
102
}
100
AcDbDictionary
  0
MLINESTYLE
  5
1C
102
{ACAD_REACTORS
330
1B
102
}
100
AcDbMlineStyle
  2
STANDARD
 70
     0
  3

 62
   256
 51
90.0
 52
90.0
 71
     2
 49
0.5
 62
   256
  6
BYLAYER
 49
-0.5
 62
   256
  6
BYLAYER
  0
ENDSEC
  0
EOF
