  0
SECTION
  2
HEADER
  9
$ACADVER
  1
AC1024
  9
$ACADMAINTVER
 70
    38
  9
$DWGCODEPAGE
  3
ANSI_932
  9
$LASTSAVEDBY
  1
hkaihatsu
  9
$INSBASE
 10
0.0
 20
0.0
 30
0.0
  9
$EXTMIN
 10
1.749999999999999
 20
39.35630656580617
 30
0.0
  9
$EXTMAX
 10
411.3397459499999
 20
300.25
 30
0.0
  9
$LIMMIN
 10
0.0
 20
0.0
  9
$LIMMAX
 10
420.0
 20
297.0
  9
$ORTHOMODE
 70
     0
  9
$REGENMODE
 70
     1
  9
$FILLMODE
 70
     1
  9
$QTEXTMODE
 70
     0
  9
$MIRRTEXT
 70
     1
  9
$LTSCALE
 40
1.0
  9
$ATTMODE
 70
     1
  9
$TEXTSIZE
 40
2.5
  9
$TRACEWID
 40
0.05
  9
$TEXTSTYLE
  7
寸法文字
  9
$CLAYER
  8
寸法線
  9
$CELTYPE
  6
BYLAYER
  9
$CECOLOR
 62
   256
  9
$CELTSCALE
 40
1.0
  9
$DISPSILH
 70
     0
  9
$DIMSCALE
 40
1.0
  9
$DIMASZ
 40
3.0
  9
$DIMEXO
 40
0.7
  9
$DIMDLI
 40
3.75
  9
$DIMRND
 40
0.0
  9
$DIMDLE
 40
0.0
  9
$DIMEXE
 40
1.0
  9
$DIMTP
 40
0.0
  9
$DIMTM
 40
0.1
  9
$DIMTXT
 40
3.0
  9
$DIMCEN
 40
2.5
  9
$DIMTSZ
 40
0.0
  9
$DIMTOL
 70
     0
  9
$DIMLIM
 70
     0
  9
$DIMTIH
 70
     0
  9
$DIMTOH
 70
     0
  9
$DIMSE1
 70
     0
  9
$DIMSE2
 70
     0
  9
$DIMTAD
 70
     1
  9
$DIMZIN
 70
     8
  9
$DIMBLK
  1

  9
$DIMASO
 70
     1
  9
$DIMSHO
 70
     1
  9
$DIMPOST
  1

  9
$DIMAPOST
  1

  9
$DIMALT
 70
     0
  9
$DIMALTD
 70
     4
  9
$DIMALTF
 40
0.0394
  9
$DIMLFAC
 40
1.0
  9
$DIMTOFL
 70
     1
  9
$DIMTVP
 40
0.0
  9
$DIMTIX
 70
     0
  9
$DIMSOXD
 70
     0
  9
$DIMSAH
 70
     1
  9
$DIMBLK1
  1
OPEN30
  9
$DIMBLK2
  1
OPEN30
  9
$DIMSTYLE
  2
標準小
  9
$DIMCLRD
 70
     0
  9
$DIMCLRE
 70
     0
  9
$DIMCLRT
 70
     0
  9
$DIMTFAC
 40
0.5
  9
$DIMGAP
 40
1.5
  9
$DIMJUST
 70
     0
  9
$DIMSD1
 70
     0
  9
$DIMSD2
 70
     0
  9
$DIMTOLJ
 70
     1
  9
$DIMTZIN
 70
     8
  9
$DIMALTZ
 70
     0
  9
$DIMALTTZ
 70
     0
  9
$DIMUPT
 70
     1
  9
$DIMDEC
 70
     2
  9
$DIMTDEC
 70
     2
  9
$DIMALTU
 70
     8
  9
$DIMALTTD
 70
     4
  9
$DIMTXSTY
  7
寸法文字
  9
$DIMAUNIT
 70
     0
  9
$DIMADEC
 70
     0
  9
$DIMALTRND
 40
0.0
  9
$DIMAZIN
 70
     0
  9
$DIMDSEP
 70
    46
  9
$DIMATFIT
 70
     3
  9
$DIMFRAC
 70
     0
  9
$DIMLDRBLK
  1

  9
$DIMLUNIT
 70
     2
  9
$DIMLWD
 70
    -2
  9
$DIMLWE
 70
    -2
  9
$DIMTMOVE
 70
     0
  9
$DIMFXL
 40
1.0
  9
$DIMFXLON
 70
     0
  9
$DIMJOGANG
 40
0.7853981633974483
  9
$DIMTFILL
 70
     0
  9
$DIMTFILLCLR
 70
     0
  9
$DIMARCSYM
 70
     0
  9
$DIMLTYPE
  6

  9
$DIMLTEX1
  6

  9
$DIMLTEX2
  6

  9
$DIMTXTDIRECTION
 70
     0
  9
$LUNITS
 70
     2
  9
$LUPREC
 70
     2
  9
$SKETCHINC
 40
0.1
  9
$FILLETRAD
 40
0.5
  9
$AUNITS
 70
     0
  9
$AUPREC
 70
     0
  9
$MENU
  1
acad
  9
$ELEVATION
 40
0.0
  9
$PELEVATION
 40
0.0
  9
$THICKNESS
 40
0.0
  9
$LIMCHECK
 70
     0
  9
$CHAMFERA
 40
0.5
  9
$CHAMFERB
 40
0.5
  9
$CHAMFERC
 40
1.0
  9
$CHAMFERD
 40
0.0
  9
$SKPOLY
 70
     0
  9
$TDCREATE
 40
2451201.386584491
  9
$TDUCREATE
 40
2451201.011584491
  9
$TDUPDATE
 40
2458669.363508889
  9
$TDUUPDATE
 40
2458668.988508889
  9
$TDINDWG
 40
1.0311285185
  9
$TDUSRTIMER
 40
1.0311285185
  9
$USRTIMER
 70
     1
  9
$ANGBASE
 50
0.0
  9
$ANGDIR
 70
     0
  9
$PDMODE
 70
     0
  9
$PDSIZE
 40
0.0
  9
$PLINEWID
 40
0.0
  9
$SPLFRAME
 70
     0
  9
$SPLINETYPE
 70
     6
  9
$SPLINESEGS
 70
     8
  9
$HANDSEED
  5
4067
  9
$SURFTAB1
 70
     6
  9
$SURFTAB2
 70
     6
  9
$SURFTYPE
 70
     6
  9
$SURFU
 70
     6
  9
$SURFV
 70
     6
  9
$UCSBASE
  2

  9
$UCSNAME
  2

  9
$UCSORG
 10
0.0
 20
0.0
 30
0.0
  9
$UCSXDIR
 10
1.0
 20
0.0
 30
0.0
  9
$UCSYDIR
 10
0.0
 20
1.0
 30
0.0
  9
$UCSORTHOREF
  2

  9
$UCSORTHOVIEW
 70
     0
  9
$UCSORGTOP
 10
0.0
 20
0.0
 30
0.0
  9
$UCSORGBOTTOM
 10
0.0
 20
0.0
 30
0.0
  9
$UCSORGLEFT
 10
0.0
 20
0.0
 30
0.0
  9
$UCSORGRIGHT
 10
0.0
 20
0.0
 30
0.0
  9
$UCSORGFRONT
 10
0.0
 20
0.0
 30
0.0
  9
$UCSORGBACK
 10
0.0
 20
0.0
 30
0.0
  9
$PUCSBASE
  2

  9
$PUCSNAME
  2

  9
$PUCSORG
 10
0.0
 20
0.0
 30
0.0
  9
$PUCSXDIR
 10
1.0
 20
0.0
 30
0.0
  9
$PUCSYDIR
 10
0.0
 20
1.0
 30
0.0
  9
$PUCSORTHOREF
  2

  9
$PUCSORTHOVIEW
 70
     0
  9
$PUCSORGTOP
 10
0.0
 20
0.0
 30
0.0
  9
$PUCSORGBOTTOM
 10
0.0
 20
0.0
 30
0.0
  9
$PUCSORGLEFT
 10
0.0
 20
0.0
 30
0.0
  9
$PUCSORGRIGHT
 10
0.0
 20
0.0
 30
0.0
  9
$PUCSORGFRONT
 10
0.0
 20
0.0
 30
0.0
  9
$PUCSORGBACK
 10
0.0
 20
0.0
 30
0.0
  9
$USERI1
 70
     0
  9
$USERI2
 70
     0
  9
$USERI3
 70
     0
  9
$USERI4
 70
     0
  9
$USERI5
 70
     0
  9
$USERR1
 40
0.0
  9
$USERR2
 40
0.0
  9
$USERR3
 40
0.0
  9
$USERR4
 40
0.0
  9
$USERR5
 40
0.0
  9
$WORLDVIEW
 70
     1
  9
$SHADEDGE
 70
     3
  9
$SHADEDIF
 70
    70
  9
$TILEMODE
 70
     0
  9
$MAXACTVP
 70
    48
  9
$PINSBASE
 10
0.0
 20
0.0
 30
0.0
  9
$PLIMCHECK
 70
     0
  9
$PEXTMIN
 10
23.98773293940792
 20
8.48817513986512
 30
-0.0015258207003583
  9
$PEXTMAX
 10
413.5079965757998
 20
287.5148169646445
 30
0.0000000349246037
  9
$PLIMMIN
 10
23.23801042338334
 20
7.738452623840542
  9
$PLIMMAX
 10
419.9415839155382
 20
288.2645510218643
  9
$UNITMODE
 70
     0
  9
$VISRETAIN
 70
     1
  9
$PLINEGEN
 70
     0
  9
$PSLTSCALE
 70
     1
  9
$TREEDEPTH
 70
  3020
  9
$CMLSTYLE
  2
STANDARD
  9
$CMLJUST
 70
     0
  9
$CMLSCALE
 40
1.0
  9
$PROXYGRAPHICS
 70
     1
  9
$MEASUREMENT
 70
     0
  9
$CELWEIGHT
370
    -1
  9
$ENDCAPS
280
     0
  9
$JOINSTYLE
280
     0
  9
$LWDISPLAY
290
     0
  9
$INSUNITS
 70
     0
  9
$HYPERLINKBASE
  1

  9
$STYLESHEET
  1

  9
$XEDIT
290
     1
  9
$CEPSNTYPE
380
     0
  9
$PSTYLEMODE
290
     1
  9
$FINGERPRINTGUID
  2
{124D37AD-1647-4D4F-A583-EE502D8FDA7D}
  9
$VERSIONGUID
  2
{357B4BC4-52A8-4ACC-976C-A0E5A8E1D312}
  9
$EXTNAMES
290
     1
  9
$PSVPSCALE
 40
0.0
  9
$OLESTARTUP
290
     0
  9
$SORTENTS
280
    96
  9
$INDEXCTL
280
     0
  9
$HIDETEXT
280
     0
  9
$XCLIPFRAME
280
     2
  9
$HALOGAP
280
     0
  9
$OBSCOLOR
 70
   257
  9
$OBSLTYPE
280
     0
  9
$INTERSECTIONDISPLAY
280
     0
  9
$INTERSECTIONCOLOR
 70
   257
  9
$DIMASSOC
280
     1
  9
$PROJECTNAME
  1

  9
$CAMERADISPLAY
290
     0
  9
$LENSLENGTH
 40
50.0
  9
$CAMERAHEIGHT
 40
0.0
  9
$STEPSPERSEC
 40
2.0
  9
$STEPSIZE
 40
6.0
  9
$3DDWFPREC
 40
2.0
  9
$PSOLWIDTH
 40
0.25
  9
$PSOLHEIGHT
 40
4.0
  9
$LOFTANG1
 40
1.570796326794896
  9
$LOFTANG2
 40
1.570796326794896
  9
$LOFTMAG1
 40
0.0
  9
$LOFTMAG2
 40
0.0
  9
$LOFTPARAM
 70
     7
  9
$LOFTNORMALS
280
     1
  9
$LATITUDE
 40
37.795
  9
$LONGITUDE
 40
-122.394
  9
$NORTHDIRECTION
 40
0.0
  9
$TIMEZONE
 70
 -8000
  9
$LIGHTGLYPHDISPLAY
280
     1
  9
$TILEMODELIGHTSYNCH
280
     1
  9
$CMATERIAL
347
4005
  9
$SOLIDHIST
280
     1
  9
$SHOWHIST
280
     1
  9
$DWFFRAME
280
     2
  9
$DGNFRAME
280
     0
  9
$REALWORLDSCALE
290
     1
  9
$INTERFERECOLOR
 62
     1
  9
$INTERFEREOBJVS
345
4027
  9
$INTERFEREVPVS
346
4024
  9
$CSHADOW
280
     0
  9
$SHADOWPLANELOCATION
 40
0.0
  0
ENDSEC
  0
SECTION
  2
CLASSES
  0
CLASS
  1
DICTIONARYVAR
  2
AcDbDictionaryVar
  3
ObjectDBX Classes
 90
        0
 91
        8
280
     0
281
     0
  0
CLASS
  1
ACDBDICTIONARYWDFLT
  2
AcDbDictionaryWithDefault
  3
ObjectDBX Classes
 90
        0
 91
        1
280
     0
281
     0
  0
CLASS
  1
MATERIAL
  2
AcDbMaterial
  3
ObjectDBX Classes
 90
     1153
 91
        3
280
     0
281
     0
  0
CLASS
  1
VISUALSTYLE
  2
AcDbVisualStyle
  3
ObjectDBX Classes
 90
     4095
 91
       24
280
     0
281
     0
  0
CLASS
  1
TABLESTYLE
  2
AcDbTableStyle
  3
ObjectDBX Classes
 90
     4095
 91
        1
280
     0
281
     0
  0
CLASS
  1
SCALE
  2
AcDbScale
  3
ObjectDBX Classes
 90
     1153
 91
       17
280
     0
281
     0
  0
CLASS
  1
MLEADERSTYLE
  2
AcDbMLeaderStyle
  3
ACDB_MLEADERSTYLE_CLASS
 90
     4095
 91
        1
280
     0
281
     0
  0
CLASS
  1
CELLSTYLEMAP
  2
AcDbCellStyleMap
  3
ObjectDBX Classes
 90
     1152
 91
        1
280
     0
281
     0
  0
ENDSEC
  0
SECTION
  2
TABLES
  0
TABLE
  2
VPORT
  5
8
330
0
100
AcDbSymbolTable
 70
     1
  0
VPORT
  5
3F34
330
8
100
AcDbSymbolTableRecord
100
AcDbViewportTableRecord
  2
*ACTIVE
 70
     0
 10
0.0
 20
0.0
 11
1.0
 21
1.0
 12
206.5391551588884
 22
167.3054435291333
 13
0.0
 23
0.0
 14
1.0
 24
1.0
 15
5.0
 25
5.0
 16
0.0
 26
0.0
 36
1.0
 17
0.0
 27
0.0
 37
0.0
 40
286.2105222156632
 41
1.438489646772229
 42
50.0
 43
0.0
 44
0.0
 50
0.0
 51
0.0
 71
     0
 72
   100
 73
     1
 74
     1
 75
     0
 76
     1
 77
     0
 78
     0
281
     0
 65
     1
110
0.0
120
0.0
130
0.0
111
1.0
121
0.0
131
0.0
112
0.0
122
1.0
132
0.0
 79
     0
146
0.0
348
4023
 60
     3
 61
     5
292
     1
282
     1
141
0.0
142
0.0
 63
   250
421
  3355443
  0
ENDTAB
  0
TABLE
  2
LTYPE
  5
5
330
0
100
AcDbSymbolTable
 70
     6
  0
LTYPE
  5
12
330
5
100
AcDbSymbolTableRecord
100
AcDbLinetypeTableRecord
  2
BYBLOCK
 70
     0
  3

 72
    65
 73
     0
 40
0.0
  0
LTYPE
  5
13
330
5
100
AcDbSymbolTableRecord
100
AcDbLinetypeTableRecord
  2
BYLAYER
 70
     0
  3

 72
    65
 73
     0
 40
0.0
  0
LTYPE
  5
14
330
5
100
AcDbSymbolTableRecord
100
AcDbLinetypeTableRecord
  2
CONTINUOUS
 70
     0
  3
Solid line
 72
    65
 73
     0
 40
0.0
  0
LTYPE
  5
36
330
5
100
AcDbSymbolTableRecord
100
AcDbLinetypeTableRecord
  2
WACOM_LSTYLE_M1
 70
     0
  3
実線     [---------]
 72
    65
 73
     2
 40
24.0
 49
12.0
 74
     0
 49
12.0
 74
     0
  0
LTYPE
  5
1EC
330
5
100
AcDbSymbolTableRecord
100
AcDbLinetypeTableRecord
  2
WACOM_LSTYLE_M3
 70
     0
  3
点線     [- - - - -]
 72
    65
 73
     2
 40
2.0
 49
1.0
 74
     0
 49
-1.0
 74
     0
  0
LTYPE
  5
1ED
330
5
100
AcDbSymbolTableRecord
100
AcDbLinetypeTableRecord
  2
WACOM_LSTYLE_M4
 70
     0
  3
一点鎖線 [--- - ---]
 72
    65
 73
     4
 40
10.0
 49
7.0
 74
     0
 49
-1.0
 74
     0
 49
1.0
 74
     0
 49
-1.0
 74
     0
  0
LTYPE
  5
1EE
330
5
100
AcDbSymbolTableRecord
100
AcDbLinetypeTableRecord
  2
WACOM_LSTYLE_M5
 70
     0
  3
二点鎖線 [-- - - --]
 72
    65
 73
     6
 40
10.0
 49
5.0
 74
     0
 49
-1.0
 74
     0
 49
1.0
 74
     0
 49
-1.0
 74
     0
 49
1.0
 74
     0
 49
-1.0
 74
     0
  0
LTYPE
  5
1EF
330
5
100
AcDbSymbolTableRecord
100
AcDbLinetypeTableRecord
  2
WACOM_LSTYLE_M2
 70
     0
  3
破線     [-- -- -- ]
 72
    65
 73
     2
 40
4.0
 49
3.0
 74
     0
 49
-1.0
 74
     0
  0
ENDTAB
  0
TABLE
  2
LAYER
  5
2
330
0
100
AcDbSymbolTable
 70
    15
  0
LAYER
  5
E
330
2
100
AcDbSymbolTableRecord
100
AcDbLayerTableRecord
  2
0
 70
     0
 62
    -7
  6
CONTINUOUS
370
    -3
390
4003
347
4015
  0
LAYER
  5
37
330
2
100
AcDbSymbolTableRecord
100
AcDbLayerTableRecord
  2
文字（可変）
 70
     0
 62
     1
  6
WACOM_LSTYLE_M1
370
    -3
390
4003
347
4015
  0
LAYER
  5
38
330
2
100
AcDbSymbolTableRecord
100
AcDbLayerTableRecord
  2
文字（固定）
 70
     0
 62
     3
  6
WACOM_LSTYLE_M1
370
    -3
390
4003
347
4015
  0
LAYER
  5
39
330
2
100
AcDbSymbolTableRecord
100
AcDbLayerTableRecord
  2
枠線
 70
     0
 62
     4
  6
WACOM_LSTYLE_M1
370
    -3
390
4003
347
4015
  0
LAYER
  5
3A
330
2
100
AcDbSymbolTableRecord
100
AcDbLayerTableRecord
  2
実線（中）
 70
     0
 62
     7
  6
WACOM_LSTYLE_M1
370
    -3
390
4003
347
4015
  0
LAYER
  5
1F0
330
2
100
AcDbSymbolTableRecord
100
AcDbLayerTableRecord
  2
寸法線
 70
     0
 62
     2
  6
WACOM_LSTYLE_M1
370
    -3
390
4003
347
4015
  0
LAYER
  5
1F1
330
2
100
AcDbSymbolTableRecord
100
AcDbLayerTableRecord
  2
一点鎖線
 70
     0
 62
     3
  6
WACOM_LSTYLE_M4
370
    -3
390
4003
347
4015
  0
LAYER
  5
1F2
330
2
100
AcDbSymbolTableRecord
100
AcDbLayerTableRecord
  2
実線（太）
 70
     0
 62
    30
  6
WACOM_LSTYLE_M1
370
    -3
390
4003
347
4015
  0
LAYER
  5
1F3
330
2
100
AcDbSymbolTableRecord
100
AcDbLayerTableRecord
  2
点線
 70
     0
 62
     4
  6
WACOM_LSTYLE_M3
370
    -3
390
4003
347
4015
  0
LAYER
  5
1F4
330
2
100
AcDbSymbolTableRecord
100
AcDbLayerTableRecord
  2
実線（細）
 70
     0
 62
     4
  6
WACOM_LSTYLE_M1
370
    -3
390
4003
347
4015
  0
LAYER
  5
1F5
330
2
100
AcDbSymbolTableRecord
100
AcDbLayerTableRecord
  2
補助線
 70
     0
 62
     5
  6
WACOM_LSTYLE_M3
370
    -3
390
4003
347
4015
  0
LAYER
  5
1F6
330
2
100
AcDbSymbolTableRecord
100
AcDbLayerTableRecord
  2
DEFPOINTS
 70
     0
 62
     7
  6
WACOM_LSTYLE_M1
290
     0
370
    -3
390
4003
347
4015
  0
LAYER
  5
1F7
330
2
100
AcDbSymbolTableRecord
100
AcDbLayerTableRecord
  2
二点鎖線
 70
     0
 62
     3
  6
WACOM_LSTYLE_M5
370
    -3
390
4003
347
4015
  0
LAYER
  5
1F8
330
2
100
AcDbSymbolTableRecord
100
AcDbLayerTableRecord
  2
破線
 70
     0
 62
     4
  6
WACOM_LSTYLE_M2
370
    -3
390
4003
347
4015
  0
LAYER
  5
5DE
330
2
100
AcDbSymbolTableRecord
100
AcDbLayerTableRecord
  2
可変文字
 70
     0
 62
     1
  6
WACOM_LSTYLE_M1
370
    -3
390
4003
347
4015
  0
ENDTAB
  0
TABLE
  2
STYLE
  5
3
330
0
100
AcDbSymbolTable
 70
     5
  0
STYLE
  5
F
330
3
100
AcDbSymbolTableRecord
100
AcDbTextStyleTableRecord
  2
STANDARD
 70
     0
 40
0.0
 41
1.0
 50
0.0
 71
     0
 42
0.2
  3
txt
  4

  0
STYLE
  5
3D
330
3
100
AcDbSymbolTableRecord
100
AcDbTextStyleTableRecord
  2
寸法文字
 70
     0
 40
0.0
 41
1.0
 50
0.0
 71
     0
 42
2.5
  3
MS PGothic.ttf
  4

1001
ACAD
1000
MS PGothic
1071
    32818
  0
STYLE
  5
1F9
330
3
100
AcDbSymbolTableRecord
100
AcDbTextStyleTableRecord
  2
MSｺﾞｼｯｸ
 70
     0
 40
0.0
 41
1.0
 50
0.0
 71
     0
 42
2.5
  3
MS Gothic.ttf
  4

1001
ACAD
1000
MS Gothic
1071
    32817
  0
STYLE
  5
1FA
330
3
100
AcDbSymbolTableRecord
100
AcDbTextStyleTableRecord
  2
MS明朝
 70
     0
 40
0.0
 41
1.0
 50
0.0
 71
     0
 42
2.5
  3
MS Mincho.ttf
  4

1001
ACAD
1000
MS Mincho
1071
    32785
  0
STYLE
  5
19D8
330
3
100
AcDbSymbolTableRecord
100
AcDbTextStyleTableRecord
  2
MSPｺﾞｼｯｸ
 70
     0
 40
0.0
 41
1.0
 50
0.0
 71
     0
 42
2.5
  3
MS PGothic.ttf
  4

1001
ACAD
1000
MS PGothic
1071
    32818
  0
ENDTAB
  0
TABLE
  2
VIEW
  5
6
330
0
100
AcDbSymbolTable
 70
     0
  0
ENDTAB
  0
TABLE
  2
UCS
  5
7
330
0
100
AcDbSymbolTable
 70
     0
  0
ENDTAB
  0
TABLE
  2
APPID
  5
9
330
0
100
AcDbSymbolTable
 70
     4
  0
APPID
  5
10
330
9
100
AcDbSymbolTableRecord
100
AcDbRegAppTableRecord
  2
ACAD
 70
     0
  0
APPID
  5
24
330
9
100
AcDbSymbolTableRecord
100
AcDbRegAppTableRecord
  2
CONTENTTABDATA
 70
     0
  0
APPID
  5
25
330
9
100
AcDbSymbolTableRecord
100
AcDbRegAppTableRecord
  2
CONTENTCURRENTTAB
 70
     0
  0
APPID
  5
405C
330
9
100
AcDbSymbolTableRecord
100
AcDbRegAppTableRecord
  2
ACAD_PSEXT
 70
     0
  0
ENDTAB
  0
TABLE
  2
DIMSTYLE
  5
A
330
0
100
AcDbSymbolTable
 70
     5
100
AcDbDimStyleTable
 71
     0
  0
DIMSTYLE
105
1D
330
A
100
AcDbSymbolTableRecord
100
AcDbDimStyleTableRecord
  2
STANDARD
 70
     0
340
F
  0
DIMSTYLE
105
1FC
102
{ACAD_REACTORS
330
C3F
330
D61
330
1363
330
1DD0
330
1ECE
330
30B0
330
30CA
330
3DE6
330
2890
330
31B0
330
3383
102
}
330
A
100
AcDbSymbolTableRecord
100
AcDbDimStyleTableRecord
  2
標準
 70
     0
 41
5.0
 42
1.0
 43
3.75
 44
1.0
 73
     0
 74
     0
 77
     1
 78
     8
140
5.0
141
2.5
143
0.0394
147
2.0
171
     4
172
     1
173
     1
271
     2
272
     2
273
     8
274
     4
284
     8
340
3D
341
1283
343
1283
344
1283
  0
DIMSTYLE
105
1364
102
{ACAD_REACTORS
330
137C
330
1389
330
1DD3
330
1DD4
330
1DD2
330
2890
330
33B1
330
3B24
330
3FC7
330
1363
330
1E95
330
30CA
330
313F
330
3159
330
3562
330
3587
102
}
330
A
100
AcDbSymbolTableRecord
100
AcDbDimStyleTableRecord
  2
標準小
 70
     0
 41
3.0
 42
0.7
 43
3.75
 44
1.0
 48
0.1
 73
     0
 74
     0
 77
     1
 78
     8
140
3.0
141
2.5
143
0.0394
146
0.5
147
1.5
171
     4
172
     1
173
     1
271
     2
272
     2
273
     8
274
     4
284
     8
288
     1
340
3D
341
1283
343
1283
344
1283
  0
DIMSTYLE
105
311C
102
{ACAD_REACTORS
330
313F
330
3159
330
31B0
330
1ECE
102
}
330
A
100
AcDbSymbolTableRecord
100
AcDbDimStyleTableRecord
  2
許容差
 70
     0
 41
5.0
 42
1.0
 43
3.75
 44
1.0
 47
0.5
 71
     1
 73
     0
 74
     0
 77
     1
 78
     8
140
4.0
141
2.5
143
0.0394
146
0.6
147
1.5
171
     4
172
     1
173
     1
271
     2
272
     2
273
     8
274
     4
284
     8
340
3D
341
1283
343
1283
344
1283
  0
DIMSTYLE
105
3223
102
{ACAD_REACTORS
330
3383
330
3562
330
3587
330
1DD3
330
1DD4
102
}
330
A
100
AcDbSymbolTableRecord
100
AcDbDimStyleTableRecord
  2
標準小丸
 70
     0
 41
3.0
 42
0.7
 43
3.75
 44
1.0
 48
0.1
 73
     0
 74
     0
 77
     1
 78
     8
140
3.0
141
2.5
143
0.0394
146
0.5
147
1.5
171
     4
172
     1
173
     1
271
     2
272
     2
273
     8
274
     4
284
     8
288
     1
340
3D
341
321C
343
321C
344
321C
  0
ENDTAB
  0
TABLE
  2
BLOCK_RECORD
  5
1
330
0
100
AcDbSymbolTable
 70
    29
  0
BLOCK_RECORD
  5
18
330
1
100
AcDbSymbolTableRecord
100
AcDbBlockTableRecord
  2
*MODEL_SPACE
340
404F
 70
     0
280
     1
281
     0
  0
BLOCK_RECORD
  5
15
330
1
100
AcDbSymbolTableRecord
100
AcDbBlockTableRecord
  2
*PAPER_SPACE
340
4050
 70
     0
280
     1
281
     0
  0
BLOCK_RECORD
  5
10B5
330
1
100
AcDbSymbolTableRecord
100
AcDbBlockTableRecord
  2
*D0
340
0
 70
     0
280
     1
281
     0
  0
BLOCK_RECORD
  5
10FD
330
1
100
AcDbSymbolTableRecord
100
AcDbBlockTableRecord
  2
*D1
340
0
 70
     0
280
     1
281
     0
  0
BLOCK_RECORD
  5
1283
330
1
100
AcDbSymbolTableRecord
100
AcDbBlockTableRecord
  2
_OPEN30
340
0
102
{BLKREFS
331
2593
331
2594
331
3182
331
3183
331
3F3F
331
3F40
331
3F4C
331
3F4D
331
3F57
331
3F58
331
3DB0
331
3DB1
331
3F64
331
3F65
331
3F6F
331
3F70
331
312C
331
312D
331
3322
331
3323
331
34A5
331
34A6
331
3F7A
331
3F7B
331
3F85
331
3F86
331
3F90
331
3F91
331
31B5
331
31B6
331
35AD
331
35AE
331
3FEE
331
3FEF
331
3F9C
331
3F9D
331
3FA7
331
3FA8
331
3FB4
331
3FB5
331
3DEC
331
3DED
331
3FE2
331
3FE3
102
}
 70
     0
280
     1
281
     0
  0
BLOCK_RECORD
  5
1355
330
1
100
AcDbSymbolTableRecord
100
AcDbBlockTableRecord
  2
*D3
340
0
 70
     0
280
     1
281
     0
  0
BLOCK_RECORD
  5
1370
330
1
100
AcDbSymbolTableRecord
100
AcDbBlockTableRecord
  2
*D4
340
0
 70
     0
280
     1
281
     0
  0
BLOCK_RECORD
  5
137D
330
1
100
AcDbSymbolTableRecord
100
AcDbBlockTableRecord
  2
*D5
340
0
 70
     0
280
     1
281
     0
  0
BLOCK_RECORD
  5
1DD6
330
1
100
AcDbSymbolTableRecord
100
AcDbBlockTableRecord
  2
*D6
340
0
 70
     0
280
     1
281
     0
  0
BLOCK_RECORD
  5
1DEE
330
1
100
AcDbSymbolTableRecord
100
AcDbBlockTableRecord
  2
*D7
340
0
 70
     0
280
     1
281
     0
  0
BLOCK_RECORD
  5
1DFA
330
1
100
AcDbSymbolTableRecord
100
AcDbBlockTableRecord
  2
*D8
340
0
 70
     0
280
     1
281
     0
  0
BLOCK_RECORD
  5
1E12
330
1
100
AcDbSymbolTableRecord
100
AcDbBlockTableRecord
  2
*D9
340
0
 70
     0
280
     1
281
     0
  0
BLOCK_RECORD
  5
1E89
330
1
100
AcDbSymbolTableRecord
100
AcDbBlockTableRecord
  2
*D10
340
0
 70
     0
280
     1
281
     0
  0
BLOCK_RECORD
  5
1EC2
330
1
100
AcDbSymbolTableRecord
100
AcDbBlockTableRecord
  2
*D11
340
0
 70
     0
280
     1
281
     0
  0
BLOCK_RECORD
  5
2883
330
1
100
AcDbSymbolTableRecord
100
AcDbBlockTableRecord
  2
*D12
340
0
 70
     0
280
     1
281
     0
  0
BLOCK_RECORD
  5
304C
330
1
100
AcDbSymbolTableRecord
100
AcDbBlockTableRecord
  2
A$C3D3D0A8A
340
0
102
{BLKREFS
331
33F0
331
3451
102
}
 70
     0
280
     1
281
     0
  0
BLOCK_RECORD
  5
30A4
330
1
100
AcDbSymbolTableRecord
100
AcDbBlockTableRecord
  2
*D14
340
0
 70
     0
280
     1
281
     0
  0
BLOCK_RECORD
  5
30BE
330
1
100
AcDbSymbolTableRecord
100
AcDbBlockTableRecord
  2
*D15
340
0
 70
     0
280
     1
281
     0
  0
BLOCK_RECORD
  5
3133
330
1
100
AcDbSymbolTableRecord
100
AcDbBlockTableRecord
  2
*D16
340
0
 70
     0
280
     1
281
     0
  0
BLOCK_RECORD
  5
314D
330
1
100
AcDbSymbolTableRecord
100
AcDbBlockTableRecord
  2
*D17
340
0
 70
     0
280
     1
281
     0
  0
BLOCK_RECORD
  5
31A4
330
1
100
AcDbSymbolTableRecord
100
AcDbBlockTableRecord
  2
*D18
340
0
 70
     0
280
     1
281
     0
  0
BLOCK_RECORD
  5
321C
330
1
100
AcDbSymbolTableRecord
100
AcDbBlockTableRecord
  2
_DOTSMALL
340
0
102
{BLKREFS
331
32F4
331
32F5
331
32E9
331
32EA
102
}
 70
     0
280
     1
281
     0
  0
BLOCK_RECORD
  5
3377
330
1
100
AcDbSymbolTableRecord
100
AcDbBlockTableRecord
  2
*D20
340
0
 70
     0
280
     1
281
     0
  0
BLOCK_RECORD
  5
33BE
330
1
100
AcDbSymbolTableRecord
100
AcDbBlockTableRecord
  2
*D21
340
0
 70
     0
280
     1
281
     0
  0
BLOCK_RECORD
  5
3423
330
1
100
AcDbSymbolTableRecord
100
AcDbBlockTableRecord
  2
A$C79953EA4
340
0
102
{BLKREFS
331
3438
331
3452
102
}
 70
     0
280
     1
281
     0
  0
BLOCK_RECORD
  5
3555
330
1
100
AcDbSymbolTableRecord
100
AcDbBlockTableRecord
  2
*D23
340
0
 70
     0
280
     1
281
     0
  0
BLOCK_RECORD
  5
357B
330
1
100
AcDbSymbolTableRecord
100
AcDbBlockTableRecord
  2
*D24
340
0
 70
     0
280
     1
281
     0
  0
BLOCK_RECORD
  5
3620
330
1
100
AcDbSymbolTableRecord
100
AcDbBlockTableRecord
  2
A$C732F3514
340
0
102
{BLKREFS
331
363D
102
}
 70
     0
280
     1
281
     0
  0
BLOCK_RECORD
  5
3C9A
330
1
100
AcDbSymbolTableRecord
100
AcDbBlockTableRecord
  2
*D26
340
0
 70
     0
280
     1
281
     0
  0
BLOCK_RECORD
  5
3DE7
330
1
100
AcDbSymbolTableRecord
100
AcDbBlockTableRecord
  2
*D27
340
0
 70
     0
280
     1
281
     0
  0
BLOCK_RECORD
  5
3FBB
330
1
100
AcDbSymbolTableRecord
100
AcDbBlockTableRecord
  2
*D28
340
0
 70
     0
280
     1
281
     0
  0
ENDTAB
  0
ENDSEC
  0
SECTION
  2
BLOCKS
  0
BLOCK
  5
19
330
18
100
AcDbEntity
  8
0
100
AcDbBlockBegin
  2
*MODEL_SPACE
 70
     0
 10
0.0
 20
0.0
 30
0.0
  3
*MODEL_SPACE
  1

  0
ENDBLK
  5
1A
330
18
100
AcDbEntity
  8
0
100
AcDbBlockEnd
  0
BLOCK
  5
16
330
15
100
AcDbEntity
 67
     1
  8
0
100
AcDbBlockBegin
  2
*PAPER_SPACE
 70
     0
 10
0.0
 20
0.0
 30
0.0
  3
*PAPER_SPACE
  1

  0
ENDBLK
  5
17
330
15
100
AcDbEntity
 67
     1
  8
0
100
AcDbBlockEnd
  0
BLOCK
  5
258F
330
10B5
100
AcDbEntity
  8
0
100
AcDbBlockBegin
  2
*D0
 70
     1
 10
0.0
 20
0.0
 30
0.0
  3
*D0
  1

  0
LINE
  5
2590
330
10B5
100
AcDbEntity
  8
0
  6
ByBlock
 62
     0
440
 16777216
100
AcDbLine
 10
28.0
 20
270.5
 30
0.0
 11
9.000000000000001
 21
270.5
 31
0.0
  0
LINE
  5
2591
330
10B5
100
AcDbEntity
  8
0
  6
ByBlock
 62
     0
440
 16777216
100
AcDbLine
 10
28.0
 20
211.0
 30
0.0
 11
8.999999999999998
 21
211.0
 31
0.0
  0
LINE
  5
2592
330
10B5
100
AcDbEntity
  8
0
  6
ByBlock
 62
     0
440
 16777216
100
AcDbLine
 10
10.0
 20
265.5
 30
0.0
 11
9.999999999999998
 21
216.0
 31
0.0
  0
INSERT
  5
2593
330
10B5
100
AcDbEntity
  8
0
  6
ByBlock
 62
     0
440
 16777216
100
AcDbBlockReference
  2
_OPEN30
 10
10.0
 20
270.5
 30
0.0
 41
5.0
 42
5.0
 43
5.0
 50
90.0
  0
INSERT
  5
2594
330
10B5
100
AcDbEntity
  8
0
  6
ByBlock
 62
     0
440
 16777216
100
AcDbBlockReference
  2
_OPEN30
 10
9.999999999999998
 20
211.0
 30
0.0
 41
5.0
 42
5.0
 43
5.0
 50
270.0
  0
MTEXT
  5
2595
330
10B5
100
AcDbEntity
  8
0
  6
ByBlock
 62
     0
440
 16777216
100
AcDbMText
 10
5.5
 20
240.75
 30
0.0
 40
5.0
 41
0.0
 46
0.0
 71
     5
 72
     1
  1
\A1;59.5
  7
寸法文字
 11
0.0000000000000001
 21
1.0
 31
0.0
 73
     1
 44
1.0
  0
POINT
  5
2596
330
10B5
100
AcDbEntity
  8
DEFPOINTS
  6
ByBlock
 62
     0
440
 16777216
100
AcDbPoint
 10
29.0
 20
270.5
 30
0.0
  0
POINT
  5
2597
330
10B5
100
AcDbEntity
  8
DEFPOINTS
  6
ByBlock
 62
     0
440
 16777216
100
AcDbPoint
 10
29.0
 20
211.0
 30
0.0
  0
POINT
  5
2598
330
10B5
100
AcDbEntity
  8
DEFPOINTS
  6
ByBlock
 62
     0
440
 16777216
100
AcDbPoint
 10
9.999999999999998
 20
211.0
 30
0.0
  0
ENDBLK
  5
2599
330
10B5
100
AcDbEntity
  8
0
100
AcDbBlockEnd
  0
BLOCK
  5
317E
330
10FD
100
AcDbEntity
  8
0
100
AcDbBlockBegin
  2
*D1
 70
     1
 10
0.0
 20
0.0
 30
0.0
  3
*D1
  1

  0
LINE
  5
317F
330
10FD
100
AcDbEntity
  8
0
  6
ByBlock
 62
     0
440
 16777216
100
AcDbLine
 10
399.5
 20
65.5
 30
0.0
 11
399.5
 21
49.0
 31
0.0
  0
LINE
  5
3180
330
10FD
100
AcDbEntity
  8
0
  6
ByBlock
 62
     0
440
 16777216
100
AcDbLine
 10
300.5
 20
65.5
 30
0.0
 11
300.5
 21
49.0
 31
0.0
  0
LINE
  5
3181
330
10FD
100
AcDbEntity
  8
0
  6
ByBlock
 62
     0
440
 16777216
100
AcDbLine
 10
394.5
 20
50.0
 30
0.0
 11
305.5
 21
50.0
 31
0.0
  0
INSERT
  5
3182
330
10FD
100
AcDbEntity
  8
0
  6
ByBlock
 62
     0
440
 16777216
100
AcDbBlockReference
  2
_OPEN30
 10
399.5
 20
50.0
 30
0.0
 41
5.0
 42
5.0
 43
5.0
  0
INSERT
  5
3183
330
10FD
100
AcDbEntity
  8
0
  6
ByBlock
 62
     0
440
 16777216
100
AcDbBlockReference
  2
_OPEN30
 10
300.5
 20
50.0
 30
0.0
 41
5.0
 42
5.0
 43
5.0
 50
180.0
  0
MTEXT
  5
3184
330
10FD
100
AcDbEntity
  8
0
  6
ByBlock
 62
     0
440
 16777216
100
AcDbMText
 10
349.9985000000001
 20
54.5
 30
0.0
 40
5.0
 41
0.0
 46
0.0
 71
     5
 72
     1
  1
\A1;99
  7
寸法文字
 73
     1
 44
1.0
  0
POINT
  5
3185
330
10FD
100
AcDbEntity
  8
DEFPOINTS
  6
ByBlock
 62
     0
440
 16777216
100
AcDbPoint
 10
399.5
 20
66.5
 30
0.0
  0
POINT
  5
3186
330
10FD
100
AcDbEntity
  8
DEFPOINTS
  6
ByBlock
 62
     0
440
 16777216
100
AcDbPoint
 10
300.5
 20
66.5
 30
0.0
  0
POINT
  5
3187
330
10FD
100
AcDbEntity
  8
DEFPOINTS
  6
ByBlock
 62
     0
440
 16777216
100
AcDbPoint
 10
300.5
 20
50.0
 30
0.0
  0
ENDBLK
  5
3188
330
10FD
100
AcDbEntity
  8
0
100
AcDbBlockEnd
  0
BLOCK
  5
1284
330
1283
100
AcDbEntity
  8
0
100
AcDbBlockBegin
  2
_OPEN30
 70
     0
 10
0.0
 20
0.0
 30
0.0
  3
_OPEN30
  1

  0
LINE
  5
1285
330
1283
100
AcDbEntity
  8
0
  6
ByBlock
 62
     0
100
AcDbLine
 10
-1.0
 20
0.26794919
 30
0.0
 11
0.0
 21
0.0
 31
0.0
  0
LINE
  5
1286
330
1283
100
AcDbEntity
  8
0
  6
ByBlock
 62
     0
100
AcDbLine
 10
0.0
 20
0.0
 30
0.0
 11
-1.0
 21
-0.26794919
 31
0.0
  0
LINE
  5
1287
330
1283
100
AcDbEntity
  8
0
  6
ByBlock
 62
     0
100
AcDbLine
 10
0.0
 20
0.0
 30
0.0
 11
-1.0
 21
0.0
 31
0.0
  0
ENDBLK
  5
1288
330
1283
100
AcDbEntity
  8
0
100
AcDbBlockEnd
  0
BLOCK
  5
3F3B
330
1355
100
AcDbEntity
  8
0
100
AcDbBlockBegin
  2
*D3
 70
     1
 10
0.0
 20
0.0
 30
0.0
  3
*D3
  1

  0
LINE
  5
3F3C
330
1355
100
AcDbEntity
  8
0
  6
ByBlock
 62
     0
440
 16777216
100
AcDbLine
 10
24.3
 20
244.25
 30
0.0
 11
19.0
 21
244.25
 31
0.0
  0
LINE
  5
3F3D
330
1355
100
AcDbEntity
  8
0
  6
ByBlock
 62
     0
440
 16777216
100
AcDbLine
 10
28.3
 20
219.5
 30
0.0
 11
19.0
 21
219.5
 31
0.0
  0
LINE
  5
3F3E
330
1355
100
AcDbEntity
  8
0
  6
ByBlock
 62
     0
440
 16777216
100
AcDbLine
 10
20.0
 20
241.25
 30
0.0
 11
20.0
 21
222.5
 31
0.0
  0
INSERT
  5
3F3F
330
1355
100
AcDbEntity
  8
0
  6
ByBlock
 62
     0
440
 16777216
100
AcDbBlockReference
  2
_OPEN30
 10
20.0
 20
244.25
 30
0.0
 41
3.0
 42
3.0
 43
3.0
 50
90.0
  0
INSERT
  5
3F40
330
1355
100
AcDbEntity
  8
0
  6
ByBlock
 62
     0
440
 16777216
100
AcDbBlockReference
  2
_OPEN30
 10
20.0
 20
219.5
 30
0.0
 41
3.0
 42
3.0
 43
3.0
 50
270.0
  0
MTEXT
  5
3F41
330
1355
100
AcDbEntity
  8
0
  6
ByBlock
 62
     0
440
 16777216
100
AcDbMText
 10
17.0
 20
231.875
 30
0.0
 40
3.0
 41
0.0
 46
0.0
 71
     5
 72
     1
  1
\A1;24.75
  7
寸法文字
 11
0.0000000000000001
 21
1.0
 31
0.0
 73
     1
 44
1.0
  0
POINT
  5
3F42
330
1355
100
AcDbEntity
  8
DEFPOINTS
  6
ByBlock
 62
     0
440
 16777216
100
AcDbPoint
 10
25.0
 20
244.25
 30
0.0
  0
POINT
  5
3F43
330
1355
100
AcDbEntity
  8
DEFPOINTS
  6
ByBlock
 62
     0
440
 16777216
100
AcDbPoint
 10
29.0
 20
219.5
 30
0.0
  0
POINT
  5
3F44
330
1355
100
AcDbEntity
  8
DEFPOINTS
  6
ByBlock
 62
     0
440
 16777216
100
AcDbPoint
 10
20.0
 20
219.5
 30
0.0
  0
ENDBLK
  5
3F45
330
1355
100
AcDbEntity
  8
0
100
AcDbBlockEnd
  0
BLOCK
  5
3F46
330
1370
100
AcDbEntity
  8
0
100
AcDbBlockBegin
  2
*D4
 70
     1
 10
0.0
 20
0.0
 30
0.0
  3
*D4
  1

  0
LINE
  5
3F47
330
1370
100
AcDbEntity
  8
0
  6
ByBlock
 62
     0
440
 16777216
100
AcDbLine
 10
29.3
 20
219.5
 30
0.0
 11
19.0
 21
219.5
 31
0.0
  0
LINE
  5
3F48
330
1370
100
AcDbEntity
  8
0
  6
ByBlock
 62
     0
440
 16777216
100
AcDbLine
 10
28.3
 20
218.5
 30
0.0
 11
19.0
 21
218.5
 31
0.0
  0
LINE
  5
3F49
330
1370
100
AcDbEntity
  8
0
  6
ByBlock
 62
     0
440
 16777216
100
AcDbLine
 10
20.0
 20
222.5
 30
0.0
 11
20.0
 21
225.5
 31
0.0
  0
LINE
  5
3F4A
330
1370
100
AcDbEntity
  8
0
  6
ByBlock
 62
     0
440
 16777216
100
AcDbLine
 10
20.0
 20
215.5
 30
0.0
 11
20.0
 21
208.5965909090909
 31
0.0
  0
LINE
  5
3F4B
330
1370
100
AcDbEntity
  8
0
  6
ByBlock
 62
     0
440
 16777216
100
AcDbLine
 10
20.0
 20
219.5
 30
0.0
 11
20.0
 21
218.5
 31
0.0
  0
INSERT
  5
3F4C
330
1370
100
AcDbEntity
  8
0
  6
ByBlock
 62
     0
440
 16777216
100
AcDbBlockReference
  2
_OPEN30
 10
20.0
 20
219.5
 30
0.0
 41
3.0
 42
3.0
 43
3.0
 50
270.0
  0
INSERT
  5
3F4D
330
1370
100
AcDbEntity
  8
0
  6
ByBlock
 62
     0
440
 16777216
100
AcDbBlockReference
  2
_OPEN30
 10
20.0
 20
218.5
 30
0.0
 41
3.0
 42
3.0
 43
3.0
 50
90.0
  0
MTEXT
  5
3F4E
330
1370
100
AcDbEntity
  8
0
  6
ByBlock
 62
     0
440
 16777216
100
AcDbMText
 10
17.0
 20
210.5482954545454
 30
0.0
 40
3.0
 41
0.0
 46
0.0
 71
     5
 72
     1
  1
\A1;1
  7
寸法文字
 11
0.0000000000000001
 21
1.0
 31
0.0
 73
     1
 44
1.0
  0
POINT
  5
3F4F
330
1370
100
AcDbEntity
  8
DEFPOINTS
  6
ByBlock
 62
     0
440
 16777216
100
AcDbPoint
 10
30.0
 20
219.5
 30
0.0
  0
POINT
  5
3F50
330
1370
100
AcDbEntity
  8
DEFPOINTS
  6
ByBlock
 62
     0
440
 16777216
100
AcDbPoint
 10
29.0
 20
218.5
 30
0.0
  0
POINT
  5
3F51
330
1370
100
AcDbEntity
  8
DEFPOINTS
  6
ByBlock
 62
     0
440
 16777216
100
AcDbPoint
 10
20.0
 20
218.5
 30
0.0
  0
ENDBLK
  5
3F52
330
1370
100
AcDbEntity
  8
0
100
AcDbBlockEnd
  0
BLOCK
  5
3F53
330
137D
100
AcDbEntity
  8
0
100
AcDbBlockBegin
  2
*D5
 70
     1
 10
0.0
 20
0.0
 30
0.0
  3
*D5
  1

  0
LINE
  5
3F54
330
137D
100
AcDbEntity
  8
0
  6
ByBlock
 62
     0
440
 16777216
100
AcDbLine
 10
57.0
 20
210.8
 30
0.0
 11
57.0
 21
174.0
 31
0.0
  0
LINE
  5
3F55
330
137D
100
AcDbEntity
  8
0
  6
ByBlock
 62
     0
440
 16777216
100
AcDbLine
 10
103.0
 20
210.8
 30
0.0
 11
103.0
 21
174.0
 31
0.0
  0
LINE
  5
3F56
330
137D
100
AcDbEntity
  8
0
  6
ByBlock
 62
     0
440
 16777216
100
AcDbLine
 10
60.0
 20
175.0
 30
0.0
 11
100.0
 21
175.0
 31
0.0
  0
INSERT
  5
3F57
330
137D
100
AcDbEntity
  8
0
  6
ByBlock
 62
     0
440
 16777216
100
AcDbBlockReference
  2
_OPEN30
 10
57.0
 20
175.0
 30
0.0
 41
3.0
 42
3.0
 43
3.0
 50
180.0
  0
INSERT
  5
3F58
330
137D
100
AcDbEntity
  8
0
  6
ByBlock
 62
     0
440
 16777216
100
AcDbBlockReference
  2
_OPEN30
 10
103.0
 20
175.0
 30
0.0
 41
3.0
 42
3.0
 43
3.0
  0
MTEXT
  5
3F59
330
137D
100
AcDbEntity
  8
0
  6
ByBlock
 62
     0
440
 16777216
100
AcDbMText
 10
80.0
 20
178.0
 30
0.0
 40
3.0
 41
0.0
 46
0.0
 71
     5
 72
     1
  1
\A1;46
  7
寸法文字
 73
     1
 44
1.0
  0
POINT
  5
3F5A
330
137D
100
AcDbEntity
  8
DEFPOINTS
  6
ByBlock
 62
     0
440
 16777216
100
AcDbPoint
 10
57.0
 20
211.5
 30
0.0
  0
POINT
  5
3F5B
330
137D
100
AcDbEntity
  8
DEFPOINTS
  6
ByBlock
 62
     0
440
 16777216
100
AcDbPoint
 10
103.0
 20
211.5
 30
0.0
  0
POINT
  5
3F5C
330
137D
100
AcDbEntity
  8
DEFPOINTS
  6
ByBlock
 62
     0
440
 16777216
100
AcDbPoint
 10
103.0
 20
175.0
 30
0.0
  0
ENDBLK
  5
3F5D
330
137D
100
AcDbEntity
  8
0
100
AcDbBlockEnd
  0
BLOCK
  5
3DAC
330
1DD6
100
AcDbEntity
  8
0
100
AcDbBlockBegin
  2
*D6
 70
     1
 10
0.0
 20
0.0
 30
0.0
  3
*D6
  1

  0
LINE
  5
3DAD
330
1DD6
100
AcDbEntity
  8
0
  6
ByBlock
 62
     0
440
 16777216
100
AcDbLine
 10
150.0
 20
213.5
 30
0.0
 11
150.0
 21
164.0
 31
0.0
  0
LINE
  5
3DAE
330
1DD6
100
AcDbEntity
  8
0
  6
ByBlock
 62
     0
440
 16777216
100
AcDbLine
 10
224.0000000000001
 20
189.1
 30
0.0
 11
224.0000000000001
 21
164.0
 31
0.0
  0
LINE
  5
3DAF
330
1DD6
100
AcDbEntity
  8
0
  6
ByBlock
 62
     0
440
 16777216
100
AcDbLine
 10
155.0
 20
165.0
 30
0.0
 11
219.0000000000001
 21
165.0
 31
0.0
  0
INSERT
  5
3DB0
330
1DD6
100
AcDbEntity
  8
0
  6
ByBlock
 62
     0
440
 16777216
100
AcDbBlockReference
  2
_OPEN30
 10
150.0
 20
165.0
 30
0.0
 41
5.0
 42
5.0
 43
5.0
 50
180.0
  0
INSERT
  5
3DB1
330
1DD6
100
AcDbEntity
  8
0
  6
ByBlock
 62
     0
440
 16777216
100
AcDbBlockReference
  2
_OPEN30
 10
224.0000000000001
 20
165.0
 30
0.0
 41
5.0
 42
5.0
 43
5.0
  0
MTEXT
  5
3DB2
330
1DD6
100
AcDbEntity
  8
0
  6
ByBlock
 62
     0
440
 16777216
100
AcDbMText
 10
187.0
 20
169.5
 30
0.0
 40
5.0
 41
0.0
 46
0.0
 71
     5
 72
     1
  1
\A1;74
  7
寸法文字
 73
     1
 44
1.0
  0
POINT
  5
3DB3
330
1DD6
100
AcDbEntity
  8
DEFPOINTS
  6
ByBlock
 62
     0
440
 16777216
100
AcDbPoint
 10
150.0
 20
214.5
 30
0.0
  0
POINT
  5
3DB4
330
1DD6
100
AcDbEntity
  8
DEFPOINTS
  6
ByBlock
 62
     0
440
 16777216
100
AcDbPoint
 10
224.0000000000001
 20
190.1
 30
0.0
  0
POINT
  5
3DB5
330
1DD6
100
AcDbEntity
  8
DEFPOINTS
  6
ByBlock
 62
     0
440
 16777216
100
AcDbPoint
 10
224.0000000000001
 20
165.0
 30
0.0
  0
ENDBLK
  5
3DB6
330
1DD6
100
AcDbEntity
  8
0
100
AcDbBlockEnd
  0
BLOCK
  5
32F0
330
1DEE
100
AcDbEntity
  8
0
100
AcDbBlockBegin
  2
*D7
 70
     1
 10
0.0
 20
0.0
 30
0.0
  3
*D7
  1

  0
LINE
  5
32F1
330
1DEE
100
AcDbEntity
  8
0
  6
ByBlock
 62
     0
440
 16777216
100
AcDbLine
 10
155.0
 20
213.8
 30
0.0
 11
155.0
 21
174.0
 31
0.0
  0
LINE
  5
32F2
330
1DEE
100
AcDbEntity
  8
0
  6
ByBlock
 62
     0
440
 16777216
100
AcDbLine
 10
151.0
 20
215.1333333333333
 30
0.0
 11
151.0
 21
174.0
 31
0.0
  0
LINE
  5
32F3
330
1DEE
100
AcDbEntity
  8
0
  6
ByBlock
 62
     0
440
 16777216
100
AcDbLine
 10
155.0
 20
175.0
 30
0.0
 11
151.0
 21
175.0
 31
0.0
  0
INSERT
  5
32F4
330
1DEE
100
AcDbEntity
  8
0
  6
ByBlock
 62
     0
440
 16777216
100
AcDbBlockReference
  2
_DOTSMALL
 10
155.0
 20
175.0
 30
0.0
 41
3.0
 42
3.0
 43
3.0
  0
INSERT
  5
32F5
330
1DEE
100
AcDbEntity
  8
0
  6
ByBlock
 62
     0
440
 16777216
100
AcDbBlockReference
  2
_DOTSMALL
 10
151.0
 20
175.0
 30
0.0
 41
3.0
 42
3.0
 43
3.0
 50
180.0
  0
MTEXT
  5
32F6
330
1DEE
100
AcDbEntity
  8
0
  6
ByBlock
 62
     0
440
 16777216
100
AcDbMText
 10
153.0
 20
178.0
 30
0.0
 40
3.0
 41
0.0
 46
0.0
 71
     5
 72
     1
  1
\A1;4
  7
寸法文字
 73
     1
 44
1.0
  0
POINT
  5
32F7
330
1DEE
100
AcDbEntity
  8
DEFPOINTS
  6
ByBlock
 62
     0
440
 16777216
100
AcDbPoint
 10
155.0
 20
214.5
 30
0.0
  0
POINT
  5
32F8
330
1DEE
100
AcDbEntity
  8
DEFPOINTS
  6
ByBlock
 62
     0
440
 16777216
100
AcDbPoint
 10
151.0
 20
215.8333333333334
 30
0.0
  0
POINT
  5
32F9
330
1DEE
100
AcDbEntity
  8
DEFPOINTS
  6
ByBlock
 62
     0
440
 16777216
100
AcDbPoint
 10
151.0
 20
175.0
 30
0.0
  0
ENDBLK
  5
32FA
330
1DEE
100
AcDbEntity
  8
0
100
AcDbBlockEnd
  0
BLOCK
  5
32E4
330
1DFA
100
AcDbEntity
  8
0
100
AcDbBlockBegin
  2
*D8
 70
     1
 10
0.0
 20
0.0
 30
0.0
  3
*D8
  1

  0
LINE
  5
32E5
330
1DFA
100
AcDbEntity
  8
0
  6
ByBlock
 62
     0
440
 16777216
100
AcDbLine
 10
155.0
 20
213.8
 30
0.0
 11
155.0
 21
174.0
 31
0.0
  0
LINE
  5
32E6
330
1DFA
100
AcDbEntity
  8
0
  6
ByBlock
 62
     0
440
 16777216
100
AcDbLine
 10
158.5
 20
196.3
 30
0.0
 11
158.5
 21
174.0
 31
0.0
  0
LINE
  5
32E7
330
1DFA
100
AcDbEntity
  8
0
  6
ByBlock
 62
     0
440
 16777216
100
AcDbLine
 10
155.0
 20
175.0
 30
0.0
 11
158.5
 21
175.0
 31
0.0
  0
LINE
  5
32E8
330
1DFA
100
AcDbEntity
  8
0
  6
ByBlock
 62
     0
440
 16777216
100
AcDbLine
 10
158.5
 20
175.0
 30
0.0
 11
172.3068181818182
 21
175.0
 31
0.0
  0
INSERT
  5
32E9
330
1DFA
100
AcDbEntity
  8
0
  6
ByBlock
 62
     0
440
 16777216
100
AcDbBlockReference
  2
_DOTSMALL
 10
155.0
 20
175.0
 30
0.0
 41
3.0
 42
3.0
 43
3.0
 50
180.0
  0
INSERT
  5
32EA
330
1DFA
100
AcDbEntity
  8
0
  6
ByBlock
 62
     0
440
 16777216
100
AcDbBlockReference
  2
_DOTSMALL
 10
158.5
 20
175.0
 30
0.0
 41
3.0
 42
3.0
 43
3.0
  0
MTEXT
  5
32EB
330
1DFA
100
AcDbEntity
  8
0
  6
ByBlock
 62
     0
440
 16777216
100
AcDbMText
 10
168.4034090909091
 20
178.0
 30
0.0
 40
3.0
 41
0.0
 46
0.0
 71
     5
 72
     1
  1
\A1;3.5
  7
寸法文字
 73
     1
 44
1.0
  0
POINT
  5
32EC
330
1DFA
100
AcDbEntity
  8
DEFPOINTS
  6
ByBlock
 62
     0
440
 16777216
100
AcDbPoint
 10
155.0
 20
214.5
 30
0.0
  0
POINT
  5
32ED
330
1DFA
100
AcDbEntity
  8
DEFPOINTS
  6
ByBlock
 62
     0
440
 16777216
100
AcDbPoint
 10
158.5
 20
197.0
 30
0.0
  0
POINT
  5
32EE
330
1DFA
100
AcDbEntity
  8
DEFPOINTS
  6
ByBlock
 62
     0
440
 16777216
100
AcDbPoint
 10
158.5
 20
175.0
 30
0.0
  0
ENDBLK
  5
32EF
330
1DFA
100
AcDbEntity
  8
0
100
AcDbBlockEnd
  0
BLOCK
  5
3F5E
330
1E12
100
AcDbEntity
  8
0
100
AcDbBlockBegin
  2
*D9
 70
     1
 10
0.0
 20
0.0
 30
0.0
  3
*D9
  1

  0
LINE
  5
3F5F
330
1E12
100
AcDbEntity
  8
0
  6
ByBlock
 62
     0
440
 16777216
100
AcDbLine
 10
166.0
 20
215.1333333333334
 30
0.0
 11
166.0
 21
184.0
 31
0.0
  0
LINE
  5
3F60
330
1E12
100
AcDbEntity
  8
0
  6
ByBlock
 62
     0
440
 16777216
100
AcDbLine
 10
158.0
 20
214.6584123500822
 30
0.0
 11
158.0
 21
184.0
 31
0.0
  0
LINE
  5
3F61
330
1E12
100
AcDbEntity
  8
0
  6
ByBlock
 62
     0
440
 16777216
100
AcDbLine
 10
169.0
 20
185.0
 30
0.0
 11
172.0
 21
185.0
 31
0.0
  0
LINE
  5
3F62
330
1E12
100
AcDbEntity
  8
0
  6
ByBlock
 62
     0
440
 16777216
100
AcDbLine
 10
155.0
 20
185.0
 30
0.0
 11
152.0
 21
185.0
 31
0.0
  0
LINE
  5
3F63
330
1E12
100
AcDbEntity
  8
0
  6
ByBlock
 62
     0
440
 16777216
100
AcDbLine
 10
166.0
 20
185.0
 30
0.0
 11
158.0
 21
185.0
 31
0.0
  0
INSERT
  5
3F64
330
1E12
100
AcDbEntity
  8
0
  6
ByBlock
 62
     0
440
 16777216
100
AcDbBlockReference
  2
_OPEN30
 10
166.0
 20
185.0
 30
0.0
 41
3.0
 42
3.0
 43
3.0
 50
180.0
  0
INSERT
  5
3F65
330
1E12
100
AcDbEntity
  8
0
  6
ByBlock
 62
     0
440
 16777216
100
AcDbBlockReference
  2
_OPEN30
 10
158.0
 20
185.0
 30
0.0
 41
3.0
 42
3.0
 43
3.0
  0
MTEXT
  5
3F66
330
1E12
100
AcDbEntity
  8
0
  6
ByBlock
 62
     0
440
 16777216
100
AcDbMText
 10
162.0
 20
188.3579545454545
 30
0.0
 40
3.0
 41
0.0
 46
0.0
 71
     5
 72
     1
  1
\A1;(8)
  7
寸法文字
 73
     1
 44
1.0
  0
POINT
  5
3F67
330
1E12
100
AcDbEntity
  8
DEFPOINTS
  6
ByBlock
 62
     0
440
 16777216
100
AcDbPoint
 10
166.0
 20
215.8333333333334
 30
0.0
  0
POINT
  5
3F68
330
1E12
100
AcDbEntity
  8
DEFPOINTS
  6
ByBlock
 62
     0
440
 16777216
100
AcDbPoint
 10
158.0
 20
215.3584123500822
 30
0.0
  0
POINT
  5
3F69
330
1E12
100
AcDbEntity
  8
DEFPOINTS
  6
ByBlock
 62
     0
440
 16777216
100
AcDbPoint
 10
158.0
 20
185.0
 30
0.0
  0
ENDBLK
  5
3F6A
330
1E12
100
AcDbEntity
  8
0
100
AcDbBlockEnd
  0
BLOCK
  5
3F6B
330
1E89
100
AcDbEntity
  8
0
100
AcDbBlockBegin
  2
*D10
 70
     1
 10
0.0
 20
0.0
 30
0.0
  3
*D10
  1

  0
LINE
  5
3F6C
330
1E89
100
AcDbEntity
  8
0
  6
ByBlock
 62
     0
440
 16777216
100
AcDbLine
 10
158.0
 20
214.6584123500822
 30
0.0
 11
158.0
 21
164.0
 31
0.0
  0
LINE
  5
3F6D
330
1E89
100
AcDbEntity
  8
0
  6
ByBlock
 62
     0
440
 16777216
100
AcDbLine
 10
170.0
 20
213.8
 30
0.0
 11
170.0
 21
164.0
 31
0.0
  0
LINE
  5
3F6E
330
1E89
100
AcDbEntity
  8
0
  6
ByBlock
 62
     0
440
 16777216
100
AcDbLine
 10
161.0
 20
165.0
 30
0.0
 11
167.0
 21
165.0
 31
0.0
  0
INSERT
  5
3F6F
330
1E89
100
AcDbEntity
  8
0
  6
ByBlock
 62
     0
440
 16777216
100
AcDbBlockReference
  2
_OPEN30
 10
158.0
 20
165.0
 30
0.0
 41
3.0
 42
3.0
 43
3.0
 50
180.0
  0
INSERT
  5
3F70
330
1E89
100
AcDbEntity
  8
0
  6
ByBlock
 62
     0
440
 16777216
100
AcDbBlockReference
  2
_OPEN30
 10
170.0
 20
165.0
 30
0.0
 41
3.0
 42
3.0
 43
3.0
  0
MTEXT
  5
3F71
330
1E89
100
AcDbEntity
  8
0
  6
ByBlock
 62
     0
440
 16777216
100
AcDbMText
 10
164.0
 20
168.3579545454545
 30
0.0
 40
3.0
 41
0.0
 46
0.0
 71
     5
 72
     1
  1
\A1;(12)
  7
寸法文字
 73
     1
 44
1.0
  0
POINT
  5
3F72
330
1E89
100
AcDbEntity
  8
DEFPOINTS
  6
ByBlock
 62
     0
440
 16777216
100
AcDbPoint
 10
158.0
 20
215.3584123500822
 30
0.0
  0
POINT
  5
3F73
330
1E89
100
AcDbEntity
  8
DEFPOINTS
  6
ByBlock
 62
     0
440
 16777216
100
AcDbPoint
 10
170.0
 20
214.5
 30
0.0
  0
POINT
  5
3F74
330
1E89
100
AcDbEntity
  8
DEFPOINTS
  6
ByBlock
 62
     0
440
 16777216
100
AcDbPoint
 10
170.0
 20
165.0
 30
0.0
  0
ENDBLK
  5
3F75
330
1E89
100
AcDbEntity
  8
0
100
AcDbBlockEnd
  0
BLOCK
  5
3128
330
1EC2
100
AcDbEntity
  8
0
100
AcDbBlockBegin
  2
*D11
 70
     1
 10
0.0
 20
0.0
 30
0.0
  3
*D11
  1

  0
LINE
  5
3129
330
1EC2
100
AcDbEntity
  8
0
  6
ByBlock
 62
     0
440
 16777216
100
AcDbLine
 10
390.5
 20
113.5
 30
0.0
 11
406.0
 21
113.5
 31
0.0
  0
LINE
  5
312A
330
1EC2
100
AcDbEntity
  8
0
  6
ByBlock
 62
     0
440
 16777216
100
AcDbLine
 10
390.5
 20
56.5
 30
0.0
 11
406.0
 21
56.5
 31
0.0
  0
LINE
  5
312B
330
1EC2
100
AcDbEntity
  8
0
  6
ByBlock
 62
     0
440
 16777216
100
AcDbLine
 10
405.0
 20
108.5
 30
0.0
 11
405.0
 21
61.5
 31
0.0
  0
INSERT
  5
312C
330
1EC2
100
AcDbEntity
  8
0
  6
ByBlock
 62
     0
440
 16777216
100
AcDbBlockReference
  2
_OPEN30
 10
405.0
 20
113.5
 30
0.0
 41
5.0
 42
5.0
 43
5.0
 50
90.0
  0
INSERT
  5
312D
330
1EC2
100
AcDbEntity
  8
0
  6
ByBlock
 62
     0
440
 16777216
100
AcDbBlockReference
  2
_OPEN30
 10
405.0
 20
56.5
 30
0.0
 41
5.0
 42
5.0
 43
5.0
 50
270.0
  0
MTEXT
  5
312E
330
1EC2
100
AcDbEntity
  8
0
  6
ByBlock
 62
     0
440
 16777216
100
AcDbMText
 10
400.7136363636363
 20
85.0
 30
0.0
 40
4.0
 41
0.0
 46
0.0
 71
     5
 72
     1
  1
\A1;57{\H2.400000;\S+0.5^ -0;}
  7
寸法文字
 11
0.0000000000000001
 21
1.0
 31
0.0
 73
     1
 44
1.0
  0
POINT
  5
312F
330
1EC2
100
AcDbEntity
  8
DEFPOINTS
  6
ByBlock
 62
     0
440
 16777216
100
AcDbPoint
 10
389.5
 20
113.5
 30
0.0
  0
POINT
  5
3130
330
1EC2
100
AcDbEntity
  8
DEFPOINTS
  6
ByBlock
 62
     0
440
 16777216
100
AcDbPoint
 10
389.5
 20
56.5
 30
0.0
  0
POINT
  5
3131
330
1EC2
100
AcDbEntity
  8
DEFPOINTS
  6
ByBlock
 62
     0
440
 16777216
100
AcDbPoint
 10
405.0
 20
56.5
 30
0.0
  0
ENDBLK
  5
3132
330
1EC2
100
AcDbEntity
  8
0
100
AcDbBlockEnd
  0
BLOCK
  5
331E
330
2883
100
AcDbEntity
  8
0
100
AcDbBlockBegin
  2
*D12
 70
     1
 10
0.0
 20
0.0
 30
0.0
  3
*D12
  1

  0
LINE
  5
331F
330
2883
100
AcDbEntity
  8
0
  6
ByBlock
 62
     0
440
 16777216
100
AcDbLine
 10
28.0
 20
214.5
 30
0.0
 11
8.999999999999998
 21
214.5
 31
0.0
  0
LINE
  5
3320
330
2883
100
AcDbEntity
  8
0
  6
ByBlock
 62
     0
440
 16777216
100
AcDbLine
 10
79.0
 20
187.0
 30
0.0
 11
8.999999999999996
 21
187.0
 31
0.0
  0
LINE
  5
3321
330
2883
100
AcDbEntity
  8
0
  6
ByBlock
 62
     0
440
 16777216
100
AcDbLine
 10
10.0
 20
209.5
 30
0.0
 11
10.0
 21
192.0
 31
0.0
  0
INSERT
  5
3322
330
2883
100
AcDbEntity
  8
0
  6
ByBlock
 62
     0
440
 16777216
100
AcDbBlockReference
  2
_OPEN30
 10
10.0
 20
214.5
 30
0.0
 41
5.0
 42
5.0
 43
5.0
 50
90.0
  0
INSERT
  5
3323
330
2883
100
AcDbEntity
  8
0
  6
ByBlock
 62
     0
440
 16777216
100
AcDbBlockReference
  2
_OPEN30
 10
9.999999999999998
 20
187.0
 30
0.0
 41
5.0
 42
5.0
 43
5.0
 50
270.0
  0
MTEXT
  5
3324
330
2883
100
AcDbEntity
  8
0
  6
ByBlock
 62
     0
440
 16777216
100
AcDbMText
 10
5.5
 20
200.75
 30
0.0
 40
5.0
 41
0.0
 46
0.0
 71
     5
 72
     1
  1
\A1;27.5
  7
寸法文字
 11
0.0000000000000001
 21
1.0
 31
0.0
 73
     1
 44
1.0
  0
POINT
  5
3325
330
2883
100
AcDbEntity
  8
DEFPOINTS
  6
ByBlock
 62
     0
440
 16777216
100
AcDbPoint
 10
29.0
 20
214.5
 30
0.0
  0
POINT
  5
3326
330
2883
100
AcDbEntity
  8
DEFPOINTS
  6
ByBlock
 62
     0
440
 16777216
100
AcDbPoint
 10
80.0
 20
187.0
 30
0.0
  0
POINT
  5
3327
330
2883
100
AcDbEntity
  8
DEFPOINTS
  6
ByBlock
 62
     0
440
 16777216
100
AcDbPoint
 10
9.999999999999998
 20
187.0
 30
0.0
  0
ENDBLK
  5
3328
330
2883
100
AcDbEntity
  8
0
100
AcDbBlockEnd
  0
BLOCK
  5
3066
330
304C
100
AcDbEntity
  8
0
100
AcDbBlockBegin
  2
A$C3D3D0A8A
 70
     0
 10
0.0
 20
0.0
 30
0.0
  3
A$C3D3D0A8A
  1

  0
LINE
  5
304D
330
304C
100
AcDbEntity
  8
二点鎖線
100
AcDbLine
 10
1.784778361195947
 20
2.82074314131762
 30
0.0
 11
1.045674735186821
 21
3.126889887209699
 31
0.0
  0
LINE
  5
304E
330
304C
100
AcDbEntity
  8
二点鎖線
100
AcDbLine
 10
2.16746179356096
 20
3.744622673828985
 30
0.0
 11
1.428358167551891
 21
4.050769419721007
 31
0.0
  0
CIRCLE
  5
304F
330
304C
100
AcDbEntity
  8
二点鎖線
100
AcDbCircle
 10
2.899999609889732
 20
2.899999475208232
 30
0.0
 40
2.9
  0
LINE
  5
3050
330
304C
100
AcDbEntity
  8
二点鎖線
100
AcDbLine
 10
0.937435515157631
 20
3.388202480184986
 30
0.0
 11
1.167045574576718
 21
3.942530199691873
 31
0.0
  0
ARC
  5
3051
330
304C
100
AcDbEntity
  8
二点鎖線
100
AcDbCircle
 10
1.122211421659869
 20
3.311665793711995
 30
0.0
 40
0.2
100
AcDbArc
 50
157.5
 51
247.5
  0
ARC
  5
3052
330
304C
100
AcDbEntity
  8
二点鎖線
100
AcDbCircle
 10
1.3518214810789
 20
3.865993513218768
 30
0.0
 40
0.2
100
AcDbArc
 50
67.5
 51
157.5
  0
LINE
  5
3053
330
304C
100
AcDbEntity
  8
二点鎖線
100
AcDbLine
 10
4.75432448459253
 20
2.673109063206766
 30
0.0
 11
4.015220858583631
 21
2.979255809098845
 31
0.0
  0
ARC
  5
3054
330
304C
100
AcDbEntity
  8
二点鎖線
100
AcDbCircle
 10
3.865993647900268
 20
4.448177604019008
 30
0.0
 40
0.2
100
AcDbArc
 50
337.5
 51
67.5
  0
ARC
  5
3055
330
304C
100
AcDbEntity
  8
二点鎖線
100
AcDbCircle
 10
4.677787798119538
 20
2.488333156704413
 30
0.0
 40
0.2
100
AcDbArc
 50
337.5
 51
67.5
  0
ARC
  5
3056
330
304C
100
AcDbEntity
  8
二点鎖線
100
AcDbCircle
 10
4.448177738700508
 20
1.934005437197697
 30
0.0
 40
0.2
100
AcDbArc
 50
247.5
 51
337.5
  0
LINE
  5
3057
330
304C
100
AcDbEntity
  8
二点鎖線
100
AcDbLine
 10
4.632953645202746
 20
1.857468750724649
 30
0.0
 11
4.862563704621948
 21
2.411796470231479
 31
0.0
  0
LINE
  5
3058
330
304C
100
AcDbEntity
  8
二点鎖線
100
AcDbLine
 10
1.749229665377015
 20
1.428358032870505
 30
0.0
 11
2.05537641126898
 21
2.167461658879517
 31
0.0
  0
LINE
  5
3059
330
304C
100
AcDbEntity
  8
二点鎖線
100
AcDbLine
 10
2.673109197888265
 20
1.045674600505321
 30
0.0
 11
2.979255943780287
 21
1.78477822651439
 31
0.0
  0
ARC
  5
305A
330
304C
100
AcDbEntity
  8
二点鎖線
100
AcDbCircle
 10
1.934005571879197
 20
1.3518213463974
 30
0.0
 40
0.2
100
AcDbArc
 50
157.5
 51
247.5
  0
ARC
  5
305B
330
304C
100
AcDbEntity
  8
二点鎖線
100
AcDbCircle
 10
2.488333291385913
 20
1.122211286978426
 30
0.0
 40
0.2
100
AcDbArc
 50
247.5
 51
337.5
  0
LINE
  5
305C
330
304C
100
AcDbEntity
  8
二点鎖線
100
AcDbLine
 10
2.411796604912922
 20
0.9374353804761312
 30
0.0
 11
1.857468885406092
 21
1.167045439895161
 31
0.0
  0
ARC
  5
305D
330
304C
100
AcDbEntity
  8
二点鎖線
100
AcDbCircle
 10
1.593436645013355
 20
2.358803375061995
 30
0.0
 40
0.5
100
AcDbArc
 50
337.5
 51
67.5
  0
ARC
  5
305E
330
304C
100
AcDbEntity
  8
二点鎖線
100
AcDbCircle
 10
3.441195710035913
 20
1.593436510331798
 30
0.0
 40
0.5
100
AcDbArc
 50
67.5
 51
157.5
  0
ARC
  5
305F
330
304C
100
AcDbEntity
  8
二点鎖線
100
AcDbCircle
 10
2.358803509743495
 20
4.206562440084553
 30
0.0
 40
0.5
100
AcDbArc
 50
247.5
 51
337.5
  0
LINE
  5
3060
330
304C
100
AcDbEntity
  8
二点鎖線
100
AcDbLine
 10
2.820743275999234
 20
4.015220723901961
 30
0.0
 11
3.126890021891313
 21
4.754324349911144
 31
0.0
  0
ARC
  5
3061
330
304C
100
AcDbEntity
  8
二点鎖線
100
AcDbCircle
 10
3.311665928393381
 20
4.677787663438039
 30
0.0
 40
0.2
100
AcDbArc
 50
67.5
 51
157.5
  0
LINE
  5
3062
330
304C
100
AcDbEntity
  8
二点鎖線
100
AcDbLine
 10
4.371641052227516
 20
1.749229530695515
 30
0.0
 11
3.632537426218561
 21
2.05537627658748
 31
0.0
  0
ARC
  5
3063
330
304C
100
AcDbEntity
  8
二点鎖線
100
AcDbCircle
 10
4.206562574766167
 20
3.441195575354413
 30
0.0
 40
0.5
100
AcDbArc
 50
157.5
 51
247.5
  0
LINE
  5
3064
330
304C
100
AcDbEntity
  8
二点鎖線
100
AcDbLine
 10
3.744622808510484
 20
3.632537291536948
 30
0.0
 11
4.050769554402563
 21
4.371640917545903
 31
0.0
  0
LINE
  5
3065
330
304C
100
AcDbEntity
  8
二点鎖線
100
AcDbLine
 10
3.942530334373259
 20
4.632953510521247
 30
0.0
 11
3.388202614866429
 21
4.862563569940448
 31
0.0
  0
ENDBLK
  5
3067
330
304C
100
AcDbEntity
  8
0
100
AcDbBlockEnd
  0
BLOCK
  5
34A1
330
30A4
100
AcDbEntity
  8
0
100
AcDbBlockBegin
  2
*D14
 70
     1
 10
0.0
 20
0.0
 30
0.0
  3
*D14
  1

  0
LINE
  5
34A2
330
30A4
100
AcDbEntity
  8
0
  6
ByBlock
 62
     0
440
 16777216
100
AcDbLine
 10
300.9999999999999
 20
213.5
 30
0.0
 11
300.9999999999999
 21
154.0
 31
0.0
  0
LINE
  5
34A3
330
30A4
100
AcDbEntity
  8
0
  6
ByBlock
 62
     0
440
 16777216
100
AcDbLine
 10
399.0
 20
213.2
 30
0.0
 11
399.0
 21
154.0
 31
0.0
  0
LINE
  5
34A4
330
30A4
100
AcDbEntity
  8
0
  6
ByBlock
 62
     0
440
 16777216
100
AcDbLine
 10
306.0
 20
155.0
 30
0.0
 11
394.0
 21
155.0
 31
0.0
  0
INSERT
  5
34A5
330
30A4
100
AcDbEntity
  8
0
  6
ByBlock
 62
     0
440
 16777216
100
AcDbBlockReference
  2
_OPEN30
 10
300.9999999999999
 20
155.0
 30
0.0
 41
5.0
 42
5.0
 43
5.0
 50
180.0
  0
INSERT
  5
34A6
330
30A4
100
AcDbEntity
  8
0
  6
ByBlock
 62
     0
440
 16777216
100
AcDbBlockReference
  2
_OPEN30
 10
399.0
 20
155.0
 30
0.0
 41
5.0
 42
5.0
 43
5.0
  0
MTEXT
  5
34A7
330
30A4
100
AcDbEntity
  8
0
  6
ByBlock
 62
     0
440
 16777216
100
AcDbMText
 10
350.0
 20
159.5
 30
0.0
 40
5.0
 41
0.0
 46
0.0
 71
     5
 72
     1
  1
\A1;98
  7
寸法文字
 73
     1
 44
1.0
  0
POINT
  5
34A8
330
30A4
100
AcDbEntity
  8
DEFPOINTS
  6
ByBlock
 62
     0
440
 16777216
100
AcDbPoint
 10
300.9999999999999
 20
214.5
 30
0.0
  0
POINT
  5
34A9
330
30A4
100
AcDbEntity
  8
DEFPOINTS
  6
ByBlock
 62
     0
440
 16777216
100
AcDbPoint
 10
399.0
 20
214.2
 30
0.0
  0
POINT
  5
34AA
330
30A4
100
AcDbEntity
  8
DEFPOINTS
  6
ByBlock
 62
     0
440
 16777216
100
AcDbPoint
 10
399.0
 20
155.0
 30
0.0
  0
ENDBLK
  5
34AB
330
30A4
100
AcDbEntity
  8
0
100
AcDbBlockEnd
  0
BLOCK
  5
3F76
330
30BE
100
AcDbEntity
  8
0
100
AcDbBlockBegin
  2
*D15
 70
     1
 10
0.0
 20
0.0
 30
0.0
  3
*D15
  1

  0
LINE
  5
3F77
330
30BE
100
AcDbEntity
  8
0
  6
ByBlock
 62
     0
440
 16777216
100
AcDbLine
 10
312.0
 20
206.3
 30
0.0
 11
312.0
 21
174.0
 31
0.0
  0
LINE
  5
3F78
330
30BE
100
AcDbEntity
  8
0
  6
ByBlock
 62
     0
440
 16777216
100
AcDbLine
 10
368.0
 20
206.3
 30
0.0
 11
368.0
 21
174.0
 31
0.0
  0
LINE
  5
3F79
330
30BE
100
AcDbEntity
  8
0
  6
ByBlock
 62
     0
440
 16777216
100
AcDbLine
 10
315.0
 20
175.0
 30
0.0
 11
365.0
 21
175.0
 31
0.0
  0
INSERT
  5
3F7A
330
30BE
100
AcDbEntity
  8
0
  6
ByBlock
 62
     0
440
 16777216
100
AcDbBlockReference
  2
_OPEN30
 10
312.0
 20
175.0
 30
0.0
 41
3.0
 42
3.0
 43
3.0
 50
180.0
  0
INSERT
  5
3F7B
330
30BE
100
AcDbEntity
  8
0
  6
ByBlock
 62
     0
440
 16777216
100
AcDbBlockReference
  2
_OPEN30
 10
368.0
 20
175.0
 30
0.0
 41
3.0
 42
3.0
 43
3.0
  0
MTEXT
  5
3F7C
330
30BE
100
AcDbEntity
  8
0
  6
ByBlock
 62
     0
440
 16777216
100
AcDbMText
 10
340.0
 20
178.4517045454545
 30
0.0
 40
3.0
 41
0.0
 46
0.0
 71
     5
 72
     1
  1
\A1;φ56
  7
寸法文字
 73
     1
 44
1.0
  0
POINT
  5
3F7D
330
30BE
100
AcDbEntity
  8
DEFPOINTS
  6
ByBlock
 62
     0
440
 16777216
100
AcDbPoint
 10
312.0
 20
207.0
 30
0.0
  0
POINT
  5
3F7E
330
30BE
100
AcDbEntity
  8
DEFPOINTS
  6
ByBlock
 62
     0
440
 16777216
100
AcDbPoint
 10
368.0
 20
207.0
 30
0.0
  0
POINT
  5
3F7F
330
30BE
100
AcDbEntity
  8
DEFPOINTS
  6
ByBlock
 62
     0
440
 16777216
100
AcDbPoint
 10
368.0
 20
175.0
 30
0.0
  0
ENDBLK
  5
3F80
330
30BE
100
AcDbEntity
  8
0
100
AcDbBlockEnd
  0
BLOCK
  5
3F81
330
3133
100
AcDbEntity
  8
0
100
AcDbBlockBegin
  2
*D16
 70
     1
 10
0.0
 20
0.0
 30
0.0
  3
*D16
  1

  0
LINE
  5
3F82
330
3133
100
AcDbEntity
  8
0
  6
ByBlock
 62
     0
440
 16777216
100
AcDbLine
 10
294.3
 20
243.5
 30
0.0
 11
279.0
 21
243.5
 31
0.0
  0
LINE
  5
3F83
330
3133
100
AcDbEntity
  8
0
  6
ByBlock
 62
     0
440
 16777216
100
AcDbLine
 10
304.3
 20
215.0
 30
0.0
 11
279.0
 21
215.0
 31
0.0
  0
LINE
  5
3F84
330
3133
100
AcDbEntity
  8
0
  6
ByBlock
 62
     0
440
 16777216
100
AcDbLine
 10
280.0
 20
240.5
 30
0.0
 11
280.0
 21
218.0
 31
0.0
  0
INSERT
  5
3F85
330
3133
100
AcDbEntity
  8
0
  6
ByBlock
 62
     0
440
 16777216
100
AcDbBlockReference
  2
_OPEN30
 10
280.0
 20
243.5
 30
0.0
 41
3.0
 42
3.0
 43
3.0
 50
90.0
  0
INSERT
  5
3F86
330
3133
100
AcDbEntity
  8
0
  6
ByBlock
 62
     0
440
 16777216
100
AcDbBlockReference
  2
_OPEN30
 10
280.0
 20
215.0
 30
0.0
 41
3.0
 42
3.0
 43
3.0
 50
270.0
  0
MTEXT
  5
3F87
330
3133
100
AcDbEntity
  8
0
  6
ByBlock
 62
     0
440
 16777216
100
AcDbMText
 10
277.0
 20
229.25
 30
0.0
 40
3.0
 41
0.0
 46
0.0
 71
     5
 72
     1
  1
\A1;28.5
  7
寸法文字
 11
0.0000000000000001
 21
1.0
 31
0.0
 73
     1
 44
1.0
  0
POINT
  5
3F88
330
3133
100
AcDbEntity
  8
DEFPOINTS
  6
ByBlock
 62
     0
440
 16777216
100
AcDbPoint
 10
295.0
 20
243.5
 30
0.0
  0
POINT
  5
3F89
330
3133
100
AcDbEntity
  8
DEFPOINTS
  6
ByBlock
 62
     0
440
 16777216
100
AcDbPoint
 10
305.0
 20
215.0
 30
0.0
  0
POINT
  5
3F8A
330
3133
100
AcDbEntity
  8
DEFPOINTS
  6
ByBlock
 62
     0
440
 16777216
100
AcDbPoint
 10
280.0
 20
215.0
 30
0.0
  0
ENDBLK
  5
3F8B
330
3133
100
AcDbEntity
  8
0
100
AcDbBlockEnd
  0
BLOCK
  5
3F8C
330
314D
100
AcDbEntity
  8
0
100
AcDbBlockBegin
  2
*D17
 70
     1
 10
0.0
 20
0.0
 30
0.0
  3
*D17
  1

  0
LINE
  5
3F8D
330
314D
100
AcDbEntity
  8
0
  6
ByBlock
 62
     0
440
 16777216
100
AcDbLine
 10
300.0
 20
249.2
 30
0.0
 11
300.0
 21
296.0
 31
0.0
  0
LINE
  5
3F8E
330
314D
100
AcDbEntity
  8
0
  6
ByBlock
 62
     0
440
 16777216
100
AcDbLine
 10
380.0
 20
249.2
 30
0.0
 11
380.0
 21
296.0
 31
0.0
  0
LINE
  5
3F8F
330
314D
100
AcDbEntity
  8
0
  6
ByBlock
 62
     0
440
 16777216
100
AcDbLine
 10
303.0
 20
295.0
 30
0.0
 11
377.0
 21
295.0
 31
0.0
  0
INSERT
  5
3F90
330
314D
100
AcDbEntity
  8
0
  6
ByBlock
 62
     0
440
 16777216
100
AcDbBlockReference
  2
_OPEN30
 10
300.0
 20
295.0
 30
0.0
 41
3.0
 42
3.0
 43
3.0
 50
180.0
  0
INSERT
  5
3F91
330
314D
100
AcDbEntity
  8
0
  6
ByBlock
 62
     0
440
 16777216
100
AcDbBlockReference
  2
_OPEN30
 10
380.0
 20
295.0
 30
0.0
 41
3.0
 42
3.0
 43
3.0
  0
MTEXT
  5
3F92
330
314D
100
AcDbEntity
  8
0
  6
ByBlock
 62
     0
440
 16777216
100
AcDbMText
 10
340.0
 20
298.0
 30
0.0
 40
3.0
 41
0.0
 46
0.0
 71
     5
 72
     1
  1
\A1;80
  7
寸法文字
 73
     1
 44
1.0
  0
POINT
  5
3F93
330
314D
100
AcDbEntity
  8
DEFPOINTS
  6
ByBlock
 62
     0
440
 16777216
100
AcDbPoint
 10
300.0
 20
248.5
 30
0.0
  0
POINT
  5
3F94
330
314D
100
AcDbEntity
  8
DEFPOINTS
  6
ByBlock
 62
     0
440
 16777216
100
AcDbPoint
 10
380.0
 20
248.5
 30
0.0
  0
POINT
  5
3F95
330
314D
100
AcDbEntity
  8
DEFPOINTS
  6
ByBlock
 62
     0
440
 16777216
100
AcDbPoint
 10
380.0
 20
295.0
 30
0.0
  0
ENDBLK
  5
3F96
330
314D
100
AcDbEntity
  8
0
100
AcDbBlockEnd
  0
BLOCK
  5
31B1
330
31A4
100
AcDbEntity
  8
0
100
AcDbBlockBegin
  2
*D18
 70
     1
 10
0.0
 20
0.0
 30
0.0
  3
*D18
  1

  0
LINE
  5
31B2
330
31A4
100
AcDbEntity
  8
0
  6
ByBlock
 62
     0
440
 16777216
100
AcDbLine
 10
29.0
 20
275.0
 30
0.0
 11
29.0
 21
286.0
 31
0.0
  0
LINE
  5
31B3
330
31A4
100
AcDbEntity
  8
0
  6
ByBlock
 62
     0
440
 16777216
100
AcDbLine
 10
131.0
 20
275.0
 30
0.0
 11
131.0
 21
286.0
 31
0.0
  0
LINE
  5
31B4
330
31A4
100
AcDbEntity
  8
0
  6
ByBlock
 62
     0
440
 16777216
100
AcDbLine
 10
34.0
 20
285.0
 30
0.0
 11
126.0
 21
285.0
 31
0.0
  0
INSERT
  5
31B5
330
31A4
100
AcDbEntity
  8
0
  6
ByBlock
 62
     0
440
 16777216
100
AcDbBlockReference
  2
_OPEN30
 10
29.0
 20
285.0
 30
0.0
 41
5.0
 42
5.0
 43
5.0
 50
180.0
  0
INSERT
  5
31B6
330
31A4
100
AcDbEntity
  8
0
  6
ByBlock
 62
     0
440
 16777216
100
AcDbBlockReference
  2
_OPEN30
 10
131.0
 20
285.0
 30
0.0
 41
5.0
 42
5.0
 43
5.0
  0
MTEXT
  5
31B7
330
31A4
100
AcDbEntity
  8
0
  6
ByBlock
 62
     0
440
 16777216
100
AcDbMText
 10
80.0
 20
289.5
 30
0.0
 40
5.0
 41
0.0
 46
0.0
 71
     5
 72
     1
  1
\A1;102
  7
寸法文字
 73
     1
 44
1.0
  0
POINT
  5
31B8
330
31A4
100
AcDbEntity
  8
DEFPOINTS
  6
ByBlock
 62
     0
440
 16777216
100
AcDbPoint
 10
29.0
 20
274.0
 30
0.0
  0
POINT
  5
31B9
330
31A4
100
AcDbEntity
  8
DEFPOINTS
  6
ByBlock
 62
     0
440
 16777216
100
AcDbPoint
 10
131.0
 20
274.0
 30
0.0
  0
POINT
  5
31BA
330
31A4
100
AcDbEntity
  8
DEFPOINTS
  6
ByBlock
 62
     0
440
 16777216
100
AcDbPoint
 10
131.0
 20
285.0
 30
0.0
  0
ENDBLK
  5
31BB
330
31A4
100
AcDbEntity
  8
0
100
AcDbBlockEnd
  0
BLOCK
  5
321D
330
321C
100
AcDbEntity
  8
0
100
AcDbBlockBegin
  2
_DOTSMALL
 70
     0
 10
0.0
 20
0.0
 30
0.0
  3
_DOTSMALL
  1

  0
LWPOLYLINE
  5
321E
330
321C
100
AcDbEntity
  8
0
  6
ByBlock
 62
     0
100
AcDbPolyline
 90
        2
 70
     1
 43
0.5
 10
-0.0625
 20
0.0
 42
1.0
 10
0.0625
 20
0.0
 42
1.0
  0
ENDBLK
  5
3222
330
321C
100
AcDbEntity
  8
0
100
AcDbBlockEnd
  0
BLOCK
  5
35A9
330
3377
100
AcDbEntity
  8
0
100
AcDbBlockBegin
  2
*D20
 70
     1
 10
0.0
 20
0.0
 30
0.0
  3
*D20
  1

  0
LINE
  5
35AA
330
3377
100
AcDbEntity
  8
0
  6
ByBlock
 62
     0
440
 16777216
100
AcDbLine
 10
402.0
 20
243.0
 30
0.0
 11
421.0
 21
243.0
 31
0.0
  0
LINE
  5
35AB
330
3377
100
AcDbEntity
  8
0
  6
ByBlock
 62
     0
440
 16777216
100
AcDbLine
 10
360.0
 20
187.0
 30
0.0
 11
421.0
 21
187.0
 31
0.0
  0
LINE
  5
35AC
330
3377
100
AcDbEntity
  8
0
  6
ByBlock
 62
     0
440
 16777216
100
AcDbLine
 10
420.0
 20
238.0
 30
0.0
 11
420.0
 21
192.0
 31
0.0
  0
INSERT
  5
35AD
330
3377
100
AcDbEntity
  8
0
  6
ByBlock
 62
     0
440
 16777216
100
AcDbBlockReference
  2
_OPEN30
 10
420.0
 20
243.0
 30
0.0
 41
5.0
 42
5.0
 43
5.0
 50
90.0
  0
INSERT
  5
35AE
330
3377
100
AcDbEntity
  8
0
  6
ByBlock
 62
     0
440
 16777216
100
AcDbBlockReference
  2
_OPEN30
 10
420.0
 20
187.0
 30
0.0
 41
5.0
 42
5.0
 43
5.0
 50
270.0
  0
MTEXT
  5
35AF
330
3377
100
AcDbEntity
  8
0
  6
ByBlock
 62
     0
440
 16777216
100
AcDbMText
 10
415.5
 20
215.0
 30
0.0
 40
5.0
 41
0.0
 46
0.0
 71
     5
 72
     1
  1
\A1;56
  7
寸法文字
 11
0.0000000000000001
 21
1.0
 31
0.0
 73
     1
 44
1.0
  0
POINT
  5
35B0
330
3377
100
AcDbEntity
  8
DEFPOINTS
  6
ByBlock
 62
     0
440
 16777216
100
AcDbPoint
 10
401.0
 20
243.0
 30
0.0
  0
POINT
  5
35B1
330
3377
100
AcDbEntity
  8
DEFPOINTS
  6
ByBlock
 62
     0
440
 16777216
100
AcDbPoint
 10
359.0
 20
187.0
 30
0.0
  0
POINT
  5
35B2
330
3377
100
AcDbEntity
  8
DEFPOINTS
  6
ByBlock
 62
     0
440
 16777216
100
AcDbPoint
 10
420.0
 20
187.0
 30
0.0
  0
ENDBLK
  5
35B3
330
3377
100
AcDbEntity
  8
0
100
AcDbBlockEnd
  0
BLOCK
  5
3FEA
330
33BE
100
AcDbEntity
  8
0
100
AcDbBlockBegin
  2
*D21
 70
     1
 10
0.0
 20
0.0
 30
0.0
  3
*D21
  1

  0
LINE
  5
3FEB
330
33BE
100
AcDbEntity
  8
0
  6
ByBlock
 62
     0
440
 16777216
100
AcDbLine
 10
306.5
 20
212.8
 30
0.0
 11
306.5
 21
164.0
 31
0.0
  0
LINE
  5
3FEC
330
33BE
100
AcDbEntity
  8
0
  6
ByBlock
 62
     0
440
 16777216
100
AcDbLine
 10
373.5
 20
212.8
 30
0.0
 11
373.5
 21
164.0
 31
0.0
  0
LINE
  5
3FED
330
33BE
100
AcDbEntity
  8
0
  6
ByBlock
 62
     0
440
 16777216
100
AcDbLine
 10
309.5
 20
165.0
 30
0.0
 11
370.5
 21
165.0
 31
0.0
  0
INSERT
  5
3FEE
330
33BE
100
AcDbEntity
  8
0
  6
ByBlock
 62
     0
440
 16777216
100
AcDbBlockReference
  2
_OPEN30
 10
306.5
 20
165.0
 30
0.0
 41
3.0
 42
3.0
 43
3.0
 50
180.0
  0
INSERT
  5
3FEF
330
33BE
100
AcDbEntity
  8
0
  6
ByBlock
 62
     0
440
 16777216
100
AcDbBlockReference
  2
_OPEN30
 10
373.5
 20
165.0
 30
0.0
 41
3.0
 42
3.0
 43
3.0
  0
MTEXT
  5
3FF0
330
33BE
100
AcDbEntity
  8
0
  6
ByBlock
 62
     0
440
 16777216
100
AcDbMText
 10
340.0
 20
168.4517045454545
 30
0.0
 40
3.0
 41
0.0
 46
0.0
 71
     5
 72
     1
  1
\A1;φ67
  7
寸法文字
 73
     1
 44
1.0
  0
POINT
  5
3FF1
330
33BE
100
AcDbEntity
  8
DEFPOINTS
  6
ByBlock
 62
     0
440
 16777216
100
AcDbPoint
 10
306.5
 20
213.5
 30
0.0
  0
POINT
  5
3FF2
330
33BE
100
AcDbEntity
  8
DEFPOINTS
  6
ByBlock
 62
     0
440
 16777216
100
AcDbPoint
 10
373.5
 20
213.5
 30
0.0
  0
POINT
  5
3FF3
330
33BE
100
AcDbEntity
  8
DEFPOINTS
  6
ByBlock
 62
     0
440
 16777216
100
AcDbPoint
 10
373.5
 20
165.0
 30
0.0
  0
ENDBLK
  5
3FF4
330
33BE
100
AcDbEntity
  8
0
100
AcDbBlockEnd
  0
BLOCK
  5
3434
330
3423
100
AcDbEntity
  8
0
100
AcDbBlockBegin
  2
A$C79953EA4
 70
     0
 10
0.0
 20
0.0
 30
0.0
  3
A$C79953EA4
  1

  0
LINE
  5
3424
330
3423
100
AcDbEntity
  8
二点鎖線
100
AcDbLine
 10
0.0000001846384521
 20
0.0000001972807695
 30
0.0
 11
0.0000001846384521
 21
70.00000019728076
 31
0.0
  0
LINE
  5
3425
330
3423
100
AcDbEntity
  8
二点鎖線
100
AcDbLine
 10
12.00000018463845
 20
70.00000019728076
 30
0.0
 11
12.00000018463845
 21
0.0000001972807695
 31
0.0
  0
LINE
  5
3426
330
3423
100
AcDbEntity
  8
二点鎖線
100
AcDbLine
 10
3.000000184638452
 20
0.0000001972807695
 30
0.0
 11
0.0000001846384521
 21
3.000000197280769
 31
0.0
  0
LINE
  5
3427
330
3423
100
AcDbEntity
  8
二点鎖線
100
AcDbLine
 10
9.000000184638452
 20
0.0000001972807695
 30
0.0
 11
12.00000018463845
 21
3.000000197280769
 31
0.0
  0
LINE
  5
3428
330
3423
100
AcDbEntity
  8
二点鎖線
100
AcDbLine
 10
12.00000018463845
 20
0.0000001972807695
 30
0.0
 11
0.0000001846384521
 21
0.0000001972807695
 31
0.0
  0
LINE
  5
3429
330
3423
100
AcDbEntity
  8
二点鎖線
100
AcDbLine
 10
0.0000001846384521
 20
6.500000197280769
 30
0.0
 11
12.00000018463845
 21
6.500000197280769
 31
0.0
  0
LINE
  5
342A
330
3423
100
AcDbEntity
  8
二点鎖線
100
AcDbLine
 10
0.0000001846384521
 20
5.700000197280772
 30
0.0
 11
12.00000018463845
 21
5.700000197280772
 31
0.0
  0
LINE
  5
342B
330
3423
100
AcDbEntity
  8
二点鎖線
100
AcDbLine
 10
4.250000184638452
 20
31.75000019728077
 30
0.0
 11
4.250000184638452
 21
38.25000019728077
 31
0.0
  0
LINE
  5
342C
330
3423
100
AcDbEntity
  8
二点鎖線
100
AcDbLine
 10
7.750000184638452
 20
31.75000019728077
 30
0.0
 11
7.750000184638452
 21
38.25000019728077
 31
0.0
  0
ARC
  5
342D
330
3423
100
AcDbEntity
  8
二点鎖線
100
AcDbCircle
 10
6.000000184638452
 20
31.75000019728077
 30
0.0
 40
1.75
100
AcDbArc
 50
180.0
 51
0.0
  0
ARC
  5
342E
330
3423
100
AcDbEntity
  8
二点鎖線
100
AcDbCircle
 10
6.000000184638452
 20
38.25000019728077
 30
0.0
 40
1.75
100
AcDbArc
 50
0.0
 51
180.0
  0
LINE
  5
342F
330
3423
100
AcDbEntity
  8
二点鎖線
100
AcDbLine
 10
0.0000001846384521
 20
70.00000019728076
 30
0.0
 11
12.00000018463845
 21
70.00000019728076
 31
0.0
  0
LINE
  5
3430
330
3423
100
AcDbEntity
  8
二点鎖線
100
AcDbLine
 10
0.0000001846384521
 20
63.50000019728077
 30
0.0
 11
12.00000018463845
 21
63.50000019728077
 31
0.0
  0
LINE
  5
3431
330
3423
100
AcDbEntity
  8
二点鎖線
100
AcDbLine
 10
0.0000001846384521
 20
64.30000019728076
 30
0.0
 11
12.00000018463845
 21
64.30000019728076
 31
0.0
  0
LINE
  5
3432
330
3423
100
AcDbEntity
  8
二点鎖線
100
AcDbLine
 10
3.000000184638452
 20
70.00000019728076
 30
0.0
 11
0.0000001846384521
 21
67.00000019728077
 31
0.0
  0
LINE
  5
3433
330
3423
100
AcDbEntity
  8
二点鎖線
100
AcDbLine
 10
9.000000184638452
 20
70.00000019728076
 30
0.0
 11
12.00000018463845
 21
67.00000019728077
 31
0.0
  0
ENDBLK
  5
3435
330
3423
100
AcDbEntity
  8
0
100
AcDbBlockEnd
  0
BLOCK
  5
3F97
330
3555
100
AcDbEntity
  8
0
100
AcDbBlockBegin
  2
*D23
 70
     1
 10
0.0
 20
0.0
 30
0.0
  3
*D23
  1

  0
LINE
  5
3F98
330
3555
100
AcDbEntity
  8
0
  6
ByBlock
 62
     0
440
 16777216
100
AcDbLine
 10
374.0
 20
279.2
 30
0.0
 11
374.0
 21
286.0
 31
0.0
  0
LINE
  5
3F99
330
3555
100
AcDbEntity
  8
0
  6
ByBlock
 62
     0
440
 16777216
100
AcDbLine
 10
386.0
 20
279.2
 30
0.0
 11
386.0
 21
286.0
 31
0.0
  0
LINE
  5
3F9A
330
3555
100
AcDbEntity
  8
0
  6
ByBlock
 62
     0
440
 16777216
100
AcDbLine
 10
377.0
 20
285.0
 30
0.0
 11
383.0
 21
285.0
 31
0.0
  0
LINE
  5
3F9B
330
3555
100
AcDbEntity
  8
0
  6
ByBlock
 62
     0
440
 16777216
100
AcDbLine
 10
386.0
 20
285.0
 30
0.0
 11
395.6818181818182
 21
285.0
 31
0.0
  0
INSERT
  5
3F9C
330
3555
100
AcDbEntity
  8
0
  6
ByBlock
 62
     0
440
 16777216
100
AcDbBlockReference
  2
_OPEN30
 10
374.0
 20
285.0
 30
0.0
 41
3.0
 42
3.0
 43
3.0
 50
180.0
  0
INSERT
  5
3F9D
330
3555
100
AcDbEntity
  8
0
  6
ByBlock
 62
     0
440
 16777216
100
AcDbBlockReference
  2
_OPEN30
 10
386.0
 20
285.0
 30
0.0
 41
3.0
 42
3.0
 43
3.0
  0
MTEXT
  5
3F9E
330
3555
100
AcDbEntity
  8
0
  6
ByBlock
 62
     0
440
 16777216
100
AcDbMText
 10
392.3409090909091
 20
288.0
 30
0.0
 40
3.0
 41
0.0
 46
0.0
 71
     5
 72
     1
  1
\A1;12
  7
寸法文字
 73
     1
 44
1.0
  0
POINT
  5
3F9F
330
3555
100
AcDbEntity
  8
DEFPOINTS
  6
ByBlock
 62
     0
440
 16777216
100
AcDbPoint
 10
374.0
 20
278.5
 30
0.0
  0
POINT
  5
3FA0
330
3555
100
AcDbEntity
  8
DEFPOINTS
  6
ByBlock
 62
     0
440
 16777216
100
AcDbPoint
 10
386.0
 20
278.5
 30
0.0
  0
POINT
  5
3FA1
330
3555
100
AcDbEntity
  8
DEFPOINTS
  6
ByBlock
 62
     0
440
 16777216
100
AcDbPoint
 10
386.0
 20
285.0
 30
0.0
  0
ENDBLK
  5
3FA2
330
3555
100
AcDbEntity
  8
0
100
AcDbBlockEnd
  0
BLOCK
  5
3FA3
330
357B
100
AcDbEntity
  8
0
100
AcDbBlockBegin
  2
*D24
 70
     1
 10
0.0
 20
0.0
 30
0.0
  3
*D24
  1

  0
LINE
  5
3FA4
330
357B
100
AcDbEntity
  8
0
  6
ByBlock
 62
     0
440
 16777216
100
AcDbLine
 10
386.7
 20
278.5
 30
0.0
 11
401.0
 21
278.5
 31
0.0
  0
LINE
  5
3FA5
330
357B
100
AcDbEntity
  8
0
  6
ByBlock
 62
     0
440
 16777216
100
AcDbLine
 10
386.7
 20
208.5
 30
0.0
 11
401.0
 21
208.5
 31
0.0
  0
LINE
  5
3FA6
330
357B
100
AcDbEntity
  8
0
  6
ByBlock
 62
     0
440
 16777216
100
AcDbLine
 10
400.0
 20
275.5
 30
0.0
 11
400.0
 21
211.5
 31
0.0
  0
INSERT
  5
3FA7
330
357B
100
AcDbEntity
  8
0
  6
ByBlock
 62
     0
440
 16777216
100
AcDbBlockReference
  2
_OPEN30
 10
400.0
 20
278.5
 30
0.0
 41
3.0
 42
3.0
 43
3.0
 50
90.0
  0
INSERT
  5
3FA8
330
357B
100
AcDbEntity
  8
0
  6
ByBlock
 62
     0
440
 16777216
100
AcDbBlockReference
  2
_OPEN30
 10
400.0
 20
208.5
 30
0.0
 41
3.0
 42
3.0
 43
3.0
 50
270.0
  0
MTEXT
  5
3FA9
330
357B
100
AcDbEntity
  8
0
  6
ByBlock
 62
     0
440
 16777216
100
AcDbMText
 10
397.0
 20
249.0
 30
0.0
 40
3.0
 41
0.0
 46
0.0
 71
     5
 72
     1
  1
\A1;70
  7
寸法文字
 11
0.0000000000000001
 21
1.0
 31
0.0
 73
     1
 44
1.0
  0
POINT
  5
3FAA
330
357B
100
AcDbEntity
  8
DEFPOINTS
  6
ByBlock
 62
     0
440
 16777216
100
AcDbPoint
 10
386.0
 20
278.5
 30
0.0
  0
POINT
  5
3FAB
330
357B
100
AcDbEntity
  8
DEFPOINTS
  6
ByBlock
 62
     0
440
 16777216
100
AcDbPoint
 10
386.0
 20
208.5
 30
0.0
  0
POINT
  5
3FAC
330
357B
100
AcDbEntity
  8
DEFPOINTS
  6
ByBlock
 62
     0
440
 16777216
100
AcDbPoint
 10
400.0
 20
208.5
 30
0.0
  0
ENDBLK
  5
3FAD
330
357B
100
AcDbEntity
  8
0
100
AcDbBlockEnd
  0
BLOCK
  5
363B
330
3620
100
AcDbEntity
  8
0
100
AcDbBlockBegin
  2
A$C732F3514
 70
     0
 10
0.0
 20
0.0
 30
0.0
  3
A$C732F3514
  1

  0
LINE
  5
3621
330
3620
100
AcDbEntity
  8
二点鎖線
100
AcDbLine
 10
18.19999980652923
 20
7.199999916645026
 30
0.0
 11
18.19999980652923
 21
62.79999991664505
 31
0.0
  0
LINE
  5
3622
330
3620
100
AcDbEntity
  8
二点鎖線
100
AcDbLine
 10
17.39999980652919
 20
7.999999916645037
 30
0.0
 11
17.39999980652919
 21
61.99999991664504
 31
0.0
  0
LINE
  5
3623
330
3620
100
AcDbEntity
  8
二点鎖線
100
AcDbLine
 10
4.399999806529223
 20
6.699999916645026
 30
0.0
 11
-0.0000001934707825
 21
-0.000000083354962
 31
0.0
  0
LINE
  5
3624
330
3620
100
AcDbEntity
  8
二点鎖線
100
AcDbLine
 10
3.968285207013906
 20
7.499999916645037
 30
0.0
 11
-0.0000001934707825
 21
1.457383511361513
 31
0.0
  0
LINE
  5
3625
330
3620
100
AcDbEntity
  8
二点鎖線
100
AcDbLine
 10
-0.0000001934707825
 20
1.457383511361513
 30
0.0
 11
-0.0000001934707825
 21
-0.000000083354962
 31
0.0
  0
LINE
  5
3626
330
3620
100
AcDbEntity
  8
二点鎖線
100
AcDbLine
 10
4.399999806529223
 20
6.699999916645026
 30
0.0
 11
17.69999980652923
 21
6.699999916645026
 31
0.0
  0
LINE
  5
3627
330
3620
100
AcDbEntity
  8
二点鎖線
100
AcDbLine
 10
3.968285207013906
 20
7.499999916645037
 30
0.0
 11
16.89999980652919
 21
7.499999916645037
 31
0.0
  0
ARC
  5
3628
330
3620
100
AcDbEntity
  8
二点鎖線
100
AcDbCircle
 10
16.89999980652919
 20
7.999999916645037
 30
0.0
 40
0.5
100
AcDbArc
 50
270.0
 51
0.0
  0
ARC
  5
3629
330
3620
100
AcDbEntity
  8
二点鎖線
100
AcDbCircle
 10
17.69999980652923
 20
7.199999916645026
 30
0.0
 40
0.5
100
AcDbArc
 50
270.0
 51
0.0
  0
ARC
  5
362A
330
3620
100
AcDbEntity
  8
二点鎖線
100
AcDbCircle
 10
20.49999980652927
 20
36.69999991664508
 30
0.0
 40
1.2
100
AcDbArc
 50
0.0
 51
90.00000000000003
  0
ARC
  5
362B
330
3620
100
AcDbEntity
  8
二点鎖線
100
AcDbCircle
 10
20.49999980652927
 20
33.29999991664499
 30
0.0
 40
1.2
100
AcDbArc
 50
270.0
 51
0.0
  0
LINE
  5
362C
330
3620
100
AcDbEntity
  8
二点鎖線
100
AcDbLine
 10
19.6999998065292
 20
32.09999991664506
 30
0.0
 11
19.6999998065292
 21
37.89999991664501
 31
0.0
  0
ARC
  5
362D
330
3620
100
AcDbEntity
  8
二点鎖線
100
AcDbCircle
 10
8.660203555584672
 20
34.99996689530491
 30
0.0
 40
9.999795723242643
100
AcDbArc
 50
342.5542037948432
 51
17.44615720368354
  0
ARC
  5
362E
330
3620
100
AcDbEntity
  8
二点鎖線
100
AcDbCircle
 10
8.66687658118289
 20
34.99899081441834
 30
0.0
 40
10.99310866283732
100
AcDbArc
 50
344.1736719989361
 51
15.83143380558731
  0
LINE
  5
362F
330
3620
100
AcDbEntity
  8
二点鎖線
100
AcDbLine
 10
19.6999998065292
 20
32.09999991664506
 30
0.0
 11
20.49999980652927
 21
32.09999991664506
 31
0.0
  0
LINE
  5
3630
330
3620
100
AcDbEntity
  8
二点鎖線
100
AcDbLine
 10
18.1999998065292
 20
32.00199991664499
 30
0.0
 11
19.24299980652921
 21
32.00199991664499
 31
0.0
  0
LINE
  5
3631
330
3620
100
AcDbEntity
  8
二点鎖線
100
AcDbLine
 10
19.6999998065292
 20
37.89999991664501
 30
0.0
 11
20.49999980652927
 21
37.89999991664501
 31
0.0
  0
LINE
  5
3632
330
3620
100
AcDbEntity
  8
二点鎖線
100
AcDbLine
 10
18.1999998065292
 20
37.99799991664509
 30
0.0
 11
19.24299980652921
 21
37.99799991664509
 31
0.0
  0
LINE
  5
3633
330
3620
100
AcDbEntity
  8
二点鎖線
100
AcDbLine
 10
3.968285207013906
 20
62.49999991664504
 30
0.0
 11
16.89999980652919
 21
62.49999991664504
 31
0.0
  0
LINE
  5
3634
330
3620
100
AcDbEntity
  8
二点鎖線
100
AcDbLine
 10
4.399999806529223
 20
63.29999991664505
 30
0.0
 11
17.69999980652923
 21
63.29999991664505
 31
0.0
  0
LINE
  5
3635
330
3620
100
AcDbEntity
  8
二点鎖線
100
AcDbLine
 10
3.968285207013906
 20
62.49999991664504
 30
0.0
 11
-0.0000001934707825
 21
68.54261632192856
 31
0.0
  0
LINE
  5
3636
330
3620
100
AcDbEntity
  8
二点鎖線
100
AcDbLine
 10
4.399999806529223
 20
63.29999991664505
 30
0.0
 11
-0.0000001934707825
 21
69.99999991664504
 31
0.0
  0
LINE
  5
3637
330
3620
100
AcDbEntity
  8
二点鎖線
100
AcDbLine
 10
-0.0000001934707825
 20
69.99999991664504
 30
0.0
 11
-0.0000001934707825
 21
68.54261632192856
 31
0.0
  0
ARC
  5
3638
330
3620
100
AcDbEntity
  8
二点鎖線
100
AcDbCircle
 10
16.89999980652919
 20
61.99999991664504
 30
0.0
 40
0.5
100
AcDbArc
 50
0.0
 51
90.00000000000003
  0
ARC
  5
3639
330
3620
100
AcDbEntity
  8
二点鎖線
100
AcDbCircle
 10
17.69999980652923
 20
62.79999991664505
 30
0.0
 40
0.5
100
AcDbArc
 50
0.0
 51
90.00000000000003
  0
LINE
  5
363A
330
3620
100
AcDbEntity
  8
二点鎖線
100
AcDbLine
 10
21.69999980652921
 20
33.29999991664499
 30
0.0
 11
21.69999980652921
 21
36.69999991664508
 31
0.0
  0
ENDBLK
  5
363C
330
3620
100
AcDbEntity
  8
0
100
AcDbBlockEnd
  0
BLOCK
  5
3FAE
330
3C9A
100
AcDbEntity
  8
0
100
AcDbBlockBegin
  2
*D26
 70
     1
 10
0.0
 20
0.0
 30
0.0
  3
*D26
  1

  0
LINE
  5
3FAF
330
3C9A
100
AcDbEntity
  8
0
  6
ByBlock
 62
     0
440
 16777216
100
AcDbLine
 10
319.6875764265495
 20
197.5302607495432
 30
0.0
 11
313.9069872896705
 21
190.7620604667536
 31
0.0
  0
LINE
  5
3FB0
330
3C9A
100
AcDbEntity
  8
0
  6
ByBlock
 62
     0
440
 16777216
100
AcDbLine
 10
325.9229053444699
 20
192.2047867532356
 30
0.0
 11
320.1423162075908
 21
185.436586470446
 31
0.0
  0
LINE
  5
3FB1
330
3C9A
100
AcDbEntity
  8
0
  6
ByBlock
 62
     0
440
 16777216
100
AcDbLine
 10
312.2752174412006
 20
193.4708105773442
 30
0.0
 11
309.9939995444005
 21
195.4191547223348
 31
0.0
  0
LINE
  5
3FB2
330
3C9A
100
AcDbEntity
  8
0
  6
ByBlock
 62
     0
440
 16777216
100
AcDbLine
 10
323.0729821527211
 20
184.2486482910555
 30
0.0
 11
325.3542000495212
 21
182.3003041460649
 31
0.0
  0
LINE
  5
3FB3
330
3C9A
100
AcDbEntity
  8
0
  6
ByBlock
 62
     0
440
 16777216
100
AcDbLine
 10
314.5564353380006
 20
191.5224664323537
 30
0.0
 11
320.7917642559211
 21
186.196992436046
 31
0.0
  0
INSERT
  5
3FB4
330
3C9A
100
AcDbEntity
  8
0
  6
ByBlock
 62
     0
440
 16777216
100
AcDbBlockReference
  2
_OPEN30
 10
314.5564353380006
 20
191.5224664323537
 30
0.0
 41
3.0
 42
3.0
 43
3.0
 50
319.5
  0
INSERT
  5
3FB5
330
3C9A
100
AcDbEntity
  8
0
  6
ByBlock
 62
     0
440
 16777216
100
AcDbBlockReference
  2
_OPEN30
 10
320.7917642559211
 20
186.196992436046
 30
0.0
 41
3.0
 42
3.0
 43
3.0
 50
139.5
  0
MTEXT
  5
3FB6
330
3C9A
100
AcDbEntity
  8
0
  6
ByBlock
 62
     0
440
 16777216
100
AcDbMText
 10
319.6224439419514
 20
191.1409473309999
 30
0.0
 40
3.0
 41
0.0
 46
0.0
 71
     5
 72
     1
  1
\A1;8.2
  7
寸法文字
 11
0.7604059656000307
 21
-0.649448048330184
 31
0.0
 73
     1
 44
1.0
  0
POINT
  5
3FB7
330
3C9A
100
AcDbEntity
  8
DEFPOINTS
  6
ByBlock
 62
     0
440
 16777216
100
AcDbPoint
 10
320.1421900603806
 20
198.0625449254632
 30
0.0
  0
POINT
  5
3FB8
330
3C9A
100
AcDbEntity
  8
DEFPOINTS
  6
ByBlock
 62
     0
440
 16777216
100
AcDbPoint
 10
326.377518978301
 20
192.7370709291556
 30
0.0
  0
POINT
  5
3FB9
330
3C9A
100
AcDbEntity
  8
DEFPOINTS
  6
ByBlock
 62
     0
440
 16777216
100
AcDbPoint
 10
320.7917642559211
 20
186.196992436046
 30
0.0
  0
ENDBLK
  5
3FBA
330
3C9A
100
AcDbEntity
  8
0
100
AcDbBlockEnd
  0
BLOCK
  5
3DE8
330
3DE7
100
AcDbEntity
  8
0
100
AcDbBlockBegin
  2
*D27
 70
     1
 10
0.0
 20
0.0
 30
0.0
  3
*D27
  1

  0
LINE
  5
3DE9
330
3DE7
100
AcDbEntity
  8
0
  6
ByBlock
 62
     0
440
 16777216
100
AcDbLine
 10
255.699220410068
 20
519.8333790742256
 30
0.0
 11
269.699220410148
 21
519.8333790742256
 31
0.0
  0
LINE
  5
3DEA
330
3DE7
100
AcDbEntity
  8
0
  6
ByBlock
 62
     0
440
 16777216
100
AcDbLine
 10
255.699220410068
 20
463.8335391808878
 30
0.0
 11
269.699220410148
 21
463.8335391808878
 31
0.0
  0
LINE
  5
3DEB
330
3DE7
100
AcDbEntity
  8
0
  6
ByBlock
 62
     0
440
 16777216
100
AcDbLine
 10
268.699220410148
 20
514.8333790742255
 30
0.0
 11
268.699220410148
 21
468.8335391808878
 31
0.0
  0
INSERT
  5
3DEC
330
3DE7
100
AcDbEntity
  8
0
  6
ByBlock
 62
     0
440
 16777216
100
AcDbBlockReference
  2
_OPEN30
 10
268.699220410148
 20
519.8333790742256
 30
0.0
 41
5.0
 42
5.0
 43
5.0
 50
90.0
  0
INSERT
  5
3DED
330
3DE7
100
AcDbEntity
  8
0
  6
ByBlock
 62
     0
440
 16777216
100
AcDbBlockReference
  2
_OPEN30
 10
268.699220410148
 20
463.8335391808878
 30
0.0
 41
5.0
 42
5.0
 43
5.0
 50
270.0
  0
MTEXT
  5
3DEE
330
3DE7
100
AcDbEntity
  8
0
  6
ByBlock
 62
     0
440
 16777216
100
AcDbMText
 10
264.199220410148
 20
491.8334191008912
 30
0.0
 40
5.0
 41
0.0
 46
0.0
 71
     5
 72
     1
  1
\A1;56
  7
寸法文字
 11
0.0000000000000001
 21
1.0
 31
0.0
 73
     1
 44
1.0
  0
POINT
  5
3DEF
330
3DE7
100
AcDbEntity
  8
DEFPOINTS
  6
ByBlock
 62
     0
440
 16777216
100
AcDbPoint
 10
254.6992204100679
 20
519.8333790742256
 30
0.0
  0
POINT
  5
3DF0
330
3DE7
100
AcDbEntity
  8
DEFPOINTS
  6
ByBlock
 62
     0
440
 16777216
100
AcDbPoint
 10
254.6992204100679
 20
463.8335391808878
 30
0.0
  0
POINT
  5
3DF1
330
3DE7
100
AcDbEntity
  8
DEFPOINTS
  6
ByBlock
 62
     0
440
 16777216
100
AcDbPoint
 10
268.699220410148
 20
463.8335391808878
 30
0.0
  0
ENDBLK
  5
3DF2
330
3DE7
100
AcDbEntity
  8
0
100
AcDbBlockEnd
  0
BLOCK
  5
3FDE
330
3FBB
100
AcDbEntity
  8
0
100
AcDbBlockBegin
  2
*D28
 70
     1
 10
0.0
 20
0.0
 30
0.0
  3
*D28
  1

  0
LINE
  5
3FDF
330
3FBB
100
AcDbEntity
  8
0
  6
ByBlock
 62
     0
440
 16777216
100
AcDbLine
 10
179.3
 20
271.0
 30
0.0
 11
179.0
 21
271.0
 31
0.0
  0
LINE
  5
3FE0
330
3FBB
100
AcDbEntity
  8
0
  6
ByBlock
 62
     0
440
 16777216
100
AcDbLine
 10
179.3
 20
216.5
 30
0.0
 11
179.0
 21
216.5
 31
0.0
  0
LINE
  5
3FE1
330
3FBB
100
AcDbEntity
  8
0
  6
ByBlock
 62
     0
440
 16777216
100
AcDbLine
 10
180.0
 20
268.0
 30
0.0
 11
180.0
 21
219.5
 31
0.0
  0
INSERT
  5
3FE2
330
3FBB
100
AcDbEntity
  8
0
  6
ByBlock
 62
     0
440
 16777216
100
AcDbBlockReference
  2
_OPEN30
 10
180.0
 20
271.0
 30
0.0
 41
3.0
 42
3.0
 43
3.0
 50
90.0
  0
INSERT
  5
3FE3
330
3FBB
100
AcDbEntity
  8
0
  6
ByBlock
 62
     0
440
 16777216
100
AcDbBlockReference
  2
_OPEN30
 10
180.0
 20
216.5
 30
0.0
 41
3.0
 42
3.0
 43
3.0
 50
270.0
  0
MTEXT
  5
3FE4
330
3FBB
100
AcDbEntity
  8
0
  6
ByBlock
 62
     0
440
 16777216
100
AcDbMText
 10
177.0
 20
243.75
 30
0.0
 40
3.0
 41
0.0
 46
0.0
 71
     5
 72
     1
  1
\A1;54.5
  7
寸法文字
 11
0.0000000000000001
 21
1.0
 31
0.0
 73
     1
 44
1.0
  0
POINT
  5
3FE5
330
3FBB
100
AcDbEntity
  8
DEFPOINTS
  6
ByBlock
 62
     0
440
 16777216
100
AcDbPoint
 10
180.0
 20
271.0
 30
0.0
  0
POINT
  5
3FE6
330
3FBB
100
AcDbEntity
  8
DEFPOINTS
  6
ByBlock
 62
     0
440
 16777216
100
AcDbPoint
 10
180.0
 20
216.5
 30
0.0
  0
POINT
  5
3FE7
330
3FBB
100
AcDbEntity
  8
DEFPOINTS
  6
ByBlock
 62
     0
440
 16777216
100
AcDbPoint
 10
180.0
 20
216.5
 30
0.0
  0
ENDBLK
  5
3FE8
330
3FBB
100
AcDbEntity
  8
0
100
AcDbBlockEnd
  0
ENDSEC
  0
SECTION
  2
ENTITIES
  0
LINE
  5
B58
330
18
100
AcDbEntity
  8
一点鎖線
100
AcDbLine
 10
216.5
 20
215.0
 30
0.0
 11
249.0
 21
215.0
 31
0.0
  0
LINE
  5
C3D
330
18
100
AcDbEntity
  8
一点鎖線
100
AcDbLine
 10
80.0
 20
269.0
 30
0.0
 11
80.0
 21
279.0
 31
0.0
  0
DIMENSION
  5
C3F
330
18
100
AcDbEntity
  8
寸法線
100
AcDbDimension
280
     0
  2
*D0
 10
10.0
 20
214.5
 30
0.0
 11
10.0
 21
244.25
 31
0.0
 12
0.0
 22
3.5
 32
0.0
 70
   160
 71
     5
 42
-1.0
 73
     0
 74
     0
 75
     0
  3
標準
100
AcDbAlignedDimension
 13
29.0
 23
274.0
 33
0.0
 14
29.0
 24
214.5
 34
0.0
 50
90.0
100
AcDbRotatedDimension
  0
LINE
  5
C42
330
18
100
AcDbEntity
  8
実線（中）
100
AcDbLine
 10
30.0
 20
215.5
 30
0.0
 11
30.0
 21
273.0
 31
0.0
  0
LINE
  5
C5D
330
18
100
AcDbEntity
  8
一点鎖線
100
AcDbLine
 10
80.0
 20
212.5
 30
0.0
 11
80.0
 21
224.5
 31
0.0
  0
LINE
  5
C7B
330
18
100
AcDbEntity
  8
一点鎖線
100
AcDbLine
 10
25.0
 20
244.25
 30
0.0
 11
35.0
 21
244.25
 31
0.0
  0
LINE
  5
CB8
330
18
100
AcDbEntity
  8
実線（中）
100
AcDbLine
 10
130.0
 20
215.5
 30
0.0
 11
130.0
 21
273.0
 31
0.0
  0
LINE
  5
CE7
330
18
100
AcDbEntity
  8
一点鎖線
100
AcDbLine
 10
125.0
 20
244.25
 30
0.0
 11
135.0
 21
244.25
 31
0.0
  0
DIMENSION
  5
D61
330
18
100
AcDbEntity
  8
寸法線
100
AcDbDimension
280
     0
  2
*D1
 10
290.5
 20
55.0
 30
0.0
 11
339.9985
 21
55.0
 31
0.0
 12
-10.0
 22
5.0
 32
0.0
 70
   160
 71
     5
 42
-1.0
 73
     0
 74
     0
 75
     0
  3
標準
100
AcDbAlignedDimension
 13
389.5
 23
71.5
 33
0.0
 14
290.5
 24
71.5
 34
0.0
100
AcDbRotatedDimension
  0
LINE
  5
D92
330
18
100
AcDbEntity
  8
実線（細）
100
AcDbLine
 10
315.0
 20
139.0
 30
0.0
 11
365.0
 21
139.0
 31
0.0
  0
LINE
  5
D93
330
18
100
AcDbEntity
  8
実線（細）
100
AcDbLine
 10
315.0
 20
140.0
 30
0.0
 11
365.0
 21
140.0
 31
0.0
  0
MTEXT
  5
D94
330
18
100
AcDbEntity
  8
可変文字
100
AcDbMText
 10
315.0
 20
147.0
 30
0.0
 40
5.0
 41
0.0
 46
0.0
 71
     1
 72
     5
  1
パネルカット寸法
  7
MSPｺﾞｼｯｸ
 73
     1
 44
1.0
  0
LINE
  5
125C
330
18
100
AcDbEntity
  8
一点鎖線
100
AcDbLine
 10
74.0
 20
218.5
 30
0.0
 11
86.0
 21
218.5
 31
0.0
  0
LINE
  5
125D
330
18
100
AcDbEntity
  8
一点鎖線
100
AcDbLine
 10
103.0
 20
211.5
 30
0.0
 11
103.0
 21
227.5
 31
0.0
  0
CIRCLE
  5
125F
330
18
100
AcDbEntity
  8
実線（中）
100
AcDbCircle
 10
80.0
 20
218.5
 30
0.0
 40
2.049999999999999
  0
LINE
  5
1264
330
18
100
AcDbEntity
  8
実線（中）
100
AcDbLine
 10
78.8611359916633
 20
216.7954505667141
 30
0.0
 11
81.70454943328591
 21
219.6388640083366
 31
0.0
  0
LINE
  5
1265
330
18
100
AcDbEntity
  8
実線（中）
100
AcDbLine
 10
78.29545056671406
 20
217.3611359916634
 30
0.0
 11
81.13886400833663
 21
220.204549433286
 31
0.0
  0
CIRCLE
  5
1266
330
18
100
AcDbEntity
  8
点線
100
AcDbCircle
 10
103.0
 20
219.5
 30
0.0
 40
5.0
  0
CIRCLE
  5
1267
330
18
100
AcDbEntity
  8
点線
100
AcDbCircle
 10
103.0
 20
219.5
 30
0.0
 40
3.5
  0
LINE
  5
1268
330
18
100
AcDbEntity
  8
一点鎖線
100
AcDbLine
 10
95.0
 20
219.5
 30
0.0
 11
111.0
 21
219.5
 31
0.0
  0
ARC
  5
1269
330
18
100
AcDbEntity
  8
点線
100
AcDbCircle
 10
103.0
 20
224.5
 30
0.0
 40
0.75
100
AcDbArc
 50
184.3012223046708
 51
355.6987776953292
  0
ARC
  5
126B
330
18
100
AcDbEntity
  8
点線
100
AcDbCircle
 10
100.0610737385376
 20
223.5450849718747
 30
0.0
 40
0.75
100
AcDbArc
 50
220.3012223046708
 51
31.69877769532917
  0
ARC
  5
126C
330
18
100
AcDbEntity
  8
点線
100
AcDbCircle
 10
98.24471741852427
 20
221.0450849718747
 30
0.0
 40
0.75
100
AcDbArc
 50
256.3012223046708
 51
67.6987776953292
  0
ARC
  5
126D
330
18
100
AcDbEntity
  8
点線
100
AcDbCircle
 10
98.2447174185242
 20
217.9549150281253
 30
0.0
 40
0.75
100
AcDbArc
 50
292.3012223046708
 51
103.6987776953292
  0
ARC
  5
126E
330
18
100
AcDbEntity
  8
点線
100
AcDbCircle
 10
100.0610737385376
 20
215.4549150281253
 30
0.0
 40
0.75
100
AcDbArc
 50
328.3012223046708
 51
139.6987776953292
  0
ARC
  5
126F
330
18
100
AcDbEntity
  8
点線
100
AcDbCircle
 10
103.0
 20
214.5
 30
0.0
 40
0.75
100
AcDbArc
 50
4.30122230467079
 51
175.6987776953292
  0
ARC
  5
1270
330
18
100
AcDbEntity
  8
点線
100
AcDbCircle
 10
105.9389262614623
 20
215.4549150281253
 30
0.0
 40
0.75
100
AcDbArc
 50
40.30122230467081
 51
211.6987776953292
  0
ARC
  5
1271
330
18
100
AcDbEntity
  8
点線
100
AcDbCircle
 10
107.7552825814757
 20
217.9549150281253
 30
0.0
 40
0.75
100
AcDbArc
 50
76.30122230467081
 51
247.6987776953292
  0
ARC
  5
1272
330
18
100
AcDbEntity
  8
点線
100
AcDbCircle
 10
107.7552825814757
 20
221.0450849718748
 30
0.0
 40
0.75
100
AcDbArc
 50
112.3012223046708
 51
283.6987776953291
  0
ARC
  5
1273
330
18
100
AcDbEntity
  8
点線
100
AcDbCircle
 10
105.9389262614623
 20
223.5450849718747
 30
0.0
 40
0.75
100
AcDbArc
 50
148.3012223046708
 51
319.6987776953292
  0
LINE
  5
1274
330
18
100
AcDbEntity
  8
一点鎖線
100
AcDbLine
 10
49.0
 20
219.5
 30
0.0
 11
65.0
 21
219.5
 31
0.0
  0
LINE
  5
1275
330
18
100
AcDbEntity
  8
一点鎖線
100
AcDbLine
 10
57.0
 20
211.5
 30
0.0
 11
57.0
 21
227.5
 31
0.0
  0
DIMENSION
  5
1363
330
18
100
AcDbEntity
  8
寸法線
100
AcDbDimension
280
     0
  2
*D3
 10
20.0
 20
219.5
 30
0.0
 11
17.0
 21
231.875
 31
0.0
 70
    32
 71
     5
 42
-1.0
 73
     0
 74
     0
 75
     0
  3
標準小
100
AcDbAlignedDimension
 13
25.0
 23
244.25
 33
0.0
 14
29.0
 24
219.5
 34
0.0
 50
90.0
100
AcDbRotatedDimension
  0
DIMENSION
  5
137C
330
18
100
AcDbEntity
  8
寸法線
100
AcDbDimension
280
     0
  2
*D4
 10
20.0
 20
218.5
 30
0.0
 11
17.0
 21
210.5482954545454
 31
0.0
 70
    32
 71
     5
 42
-1.0
 73
     0
 74
     0
 75
     0
  3
標準小
100
AcDbAlignedDimension
 13
30.0
 23
219.5
 33
0.0
 14
29.0
 24
218.5
 34
0.0
 50
90.0
100
AcDbRotatedDimension
  0
DIMENSION
  5
1389
330
18
100
AcDbEntity
  8
寸法線
100
AcDbDimension
280
     0
  2
*D5
 10
103.0
 20
175.0
 30
0.0
 11
80.0
 21
175.0
 31
0.0
 70
   160
 71
     5
 42
-1.0
 73
     0
 74
     0
 75
     0
  3
標準小
100
AcDbAlignedDimension
 13
57.0
 23
211.5
 33
0.0
 14
103.0
 24
211.5
 34
0.0
100
AcDbRotatedDimension
  0
LINE
  5
138A
330
18
100
AcDbEntity
  8
実線（中）
100
AcDbLine
 10
170.0
 20
274.0
 30
0.0
 11
170.0
 21
214.5
 31
0.0
  0
LINE
  5
138B
330
18
100
AcDbEntity
  8
点線
100
AcDbLine
 10
158.0
 20
215.3584123500822
 30
0.0
 11
157.9999999999999
 21
223.6978376499177
 31
0.0
  0
LINE
  5
1390
330
18
100
AcDbEntity
  8
点線
100
AcDbLine
 10
166.0
 20
220.3164193426484
 30
0.0
 11
166.0
 21
220.3164193426484
 31
0.0
  0
LINE
  5
1391
330
18
100
AcDbEntity
  8
点線
100
AcDbLine
 10
166.0
 20
220.3164193426484
 30
0.0
 11
166.0
 21
220.3164193426484
 31
0.0
  0
LINE
  5
1399
330
18
100
AcDbEntity
  8
点線
100
AcDbLine
 10
158.4798990756585
 20
224.1974334393722
 30
0.0
 11
165.7999999999999
 21
224.491953125
 31
0.0
  0
LINE
  5
139A
330
18
100
AcDbEntity
  8
点線
100
AcDbLine
 10
158.0621001980433
 20
223.9391750971704
 30
0.0
 11
164.7
 21
223.9391750971704
 31
0.0
  0
LINE
  5
139B
330
18
100
AcDbEntity
  8
点線
100
AcDbLine
 10
158.0
 20
223.0599804347118
 30
0.0
 11
164.7
 21
223.0599804347118
 31
0.0
  0
LINE
  5
139C
330
18
100
AcDbEntity
  8
点線
100
AcDbLine
 10
158.0
 20
221.7389861892339
 30
0.0
 11
164.5
 21
221.7389861892339
 31
0.0
  0
LINE
  5
139D
330
18
100
AcDbEntity
  8
点線
100
AcDbLine
 10
158.0
 20
220.3164193426484
 30
0.0
 11
164.5
 21
220.3164193426483
 31
0.0
  0
LINE
  5
139E
330
18
100
AcDbEntity
  8
点線
100
AcDbLine
 10
158.0
 20
218.6835806573516
 30
0.0
 11
164.5
 21
218.6835806573516
 31
0.0
  0
LINE
  5
139F
330
18
100
AcDbEntity
  8
点線
100
AcDbLine
 10
158.0
 20
217.2610138107661
 30
0.0
 11
164.5
 21
217.2610138107661
 31
0.0
  0
LINE
  5
13A0
330
18
100
AcDbEntity
  8
点線
100
AcDbLine
 10
158.0
 20
215.9400195652881
 30
0.0
 11
164.7
 21
215.9400195652881
 31
0.0
  0
LINE
  5
13A1
330
18
100
AcDbEntity
  8
点線
100
AcDbLine
 10
158.0982019023967
 20
215.0608249028294
 30
0.0
 11
164.7
 21
215.0608249028294
 31
0.0
  0
LINE
  5
13A2
330
18
100
AcDbEntity
  8
点線
100
AcDbLine
 10
158.4798990756586
 20
214.8588165606277
 30
0.0
 11
165.8
 21
214.564296875
 31
0.0
  0
LINE
  5
13A6
330
18
100
AcDbEntity
  8
点線
100
AcDbLine
 10
165.0
 20
215.3608249028295
 30
0.0
 11
165.0
 21
215.6400195652881
 31
0.0
  0
LINE
  5
13A7
330
18
100
AcDbEntity
  8
点線
100
AcDbLine
 10
165.0
 20
217.761013810766
 30
0.0
 11
165.0
 21
218.1835806573516
 31
0.0
  0
LINE
  5
13A8
330
18
100
AcDbEntity
  8
点線
100
AcDbLine
 10
165.0
 20
220.8164193426483
 30
0.0
 11
165.0
 21
221.238986189234
 31
0.0
  0
LINE
  5
13A9
330
18
100
AcDbEntity
  8
点線
100
AcDbLine
 10
165.0
 20
223.3599804347119
 30
0.0
 11
165.0
 21
223.6391750971704
 31
0.0
  0
ARC
  5
13AE
330
18
100
AcDbEntity
  8
点線
100
AcDbCircle
 10
164.5
 20
220.8164193426483
 30
0.0
 40
0.5
100
AcDbArc
 50
270.0
 51
0.0
  0
ARC
  5
13B2
330
18
100
AcDbEntity
  8
点線
100
AcDbCircle
 10
164.5
 20
218.1835806573516
 30
0.0
 40
0.5
100
AcDbArc
 50
0.0
 51
90.0
  0
ARC
  5
13B3
330
18
100
AcDbEntity
  8
点線
100
AcDbCircle
 10
164.5
 20
217.761013810766
 30
0.0
 40
0.5
100
AcDbArc
 50
270.0
 51
0.0
  0
ARC
  5
13B4
330
18
100
AcDbEntity
  8
点線
100
AcDbCircle
 10
164.5
 20
221.238986189234
 30
0.0
 40
0.5
100
AcDbArc
 50
0.0
 51
90.0
  0
ARC
  5
13B7
330
18
100
AcDbEntity
  8
点線
100
AcDbCircle
 10
164.7
 20
215.3608249028295
 30
0.0
 40
0.3
100
AcDbArc
 50
270.0
 51
0.0
  0
ARC
  5
13B8
330
18
100
AcDbEntity
  8
点線
100
AcDbCircle
 10
164.7
 20
223.6391750971704
 30
0.0
 40
0.3
100
AcDbArc
 50
0.0
 51
90.0
  0
ARC
  5
13B9
330
18
100
AcDbEntity
  8
点線
100
AcDbCircle
 10
164.7
 20
215.6400195652881
 30
0.0
 40
0.3
100
AcDbArc
 50
0.0
 51
90.0
  0
ARC
  5
13BA
330
18
100
AcDbEntity
  8
点線
100
AcDbCircle
 10
164.7
 20
223.3599804347119
 30
0.0
 40
0.3
100
AcDbArc
 50
270.0
 51
0.0
  0
ARC
  5
13BB
330
18
100
AcDbEntity
  8
点線
100
AcDbCircle
 10
158.4999999999999
 20
223.6978376499177
 30
0.0
 40
0.5
100
AcDbArc
 50
92.3040171636315
 51
180.0000000000009
  0
ARC
  5
13BC
330
18
100
AcDbEntity
  8
点線
100
AcDbCircle
 10
158.5
 20
215.3584123500822
 30
0.0
 40
0.5
100
AcDbArc
 50
180.0000000000009
 51
267.6959828363687
  0
LINE
  5
13BD
330
18
100
AcDbEntity
  8
点線
100
AcDbLine
 10
165.8
 20
214.564296875
 30
0.0
 11
165.7999999999999
 21
224.491953125
 31
0.0
  0
DIMENSION
  5
1DD0
330
18
100
AcDbEntity
  8
寸法線
100
AcDbDimension
280
     0
  2
*D6
 10
244.0000000000001
 20
165.0
 30
0.0
 11
207.0
 21
165.0
 31
0.0
 12
20.0
 22
0.0
 32
0.0
 70
   160
 71
     5
 42
-1.0
 73
     0
 74
     0
 75
     0
  3
標準
100
AcDbAlignedDimension
 13
170.0
 23
214.5
 33
0.0
 14
244.0000000000001
 24
190.1
 34
0.0
 50
180.0
100
AcDbRotatedDimension
  0
DIMENSION
  5
1DD2
330
18
100
AcDbEntity
  8
寸法線
100
AcDbDimension
280
     0
  2
*D9
 10
158.0
 20
185.0
 30
0.0
 11
162.0
 21
188.3579545454545
 31
0.0
 70
    32
  1
(<>)
 71
     5
 42
-1.0
 73
     0
 74
     0
 75
     0
  3
標準小
100
AcDbAlignedDimension
 13
166.0
 23
215.8333333333334
 33
0.0
 14
158.0
 24
215.3584123500822
 34
0.0
 50
180.0
100
AcDbRotatedDimension
1001
ACAD
1000
DSTYLE
1002
{
1070
    40
1040
1.0
1002
}
  0
DIMENSION
  5
1DD3
330
18
100
AcDbEntity
  8
寸法線
100
AcDbDimension
280
     0
  2
*D7
 10
166.0
 20
175.0
 30
0.0
 11
168.0
 21
175.0
 31
0.0
 12
15.0
 22
0.0
 32
0.0
 70
   160
 71
     5
 42
-1.0
 73
     0
 74
     0
 75
     0
  3
標準小丸
100
AcDbAlignedDimension
 13
170.0
 23
214.5
 33
0.0
 14
166.0
 24
215.8333333333334
 34
0.0
 50
180.0
100
AcDbRotatedDimension
  0
DIMENSION
  5
1DD4
330
18
100
AcDbEntity
  8
寸法線
100
AcDbDimension
280
     0
  2
*D8
 10
173.5
 20
175.0
 30
0.0
 11
183.4034090909091
 21
175.0
 31
0.0
 12
15.0
 22
0.0
 32
0.0
 70
   160
 71
     5
 42
-1.0
 73
     0
 74
     0
 75
     0
  3
標準小丸
100
AcDbAlignedDimension
 13
170.0
 23
214.5
 33
0.0
 14
173.5
 24
197.0
 34
0.0
 50
180.0
100
AcDbRotatedDimension
1001
ACAD
1000
DSTYLE
1002
{
1070
    47
1040
0.2
1070
    48
1040
0.7
1002
}
  0
DIMENSION
  5
1E95
330
18
100
AcDbEntity
  8
寸法線
100
AcDbDimension
280
     0
  2
*D10
 10
170.0
 20
165.0
 30
0.0
 11
164.0
 21
165.0
 31
0.0
 70
   160
  1
(<>)
 71
     5
 42
-1.0
 73
     0
 74
     0
 75
     0
  3
標準小
100
AcDbAlignedDimension
 13
158.0
 23
215.3584123500822
 33
0.0
 14
170.0
 24
214.5
 34
0.0
100
AcDbRotatedDimension
1001
ACAD
1000
DSTYLE
1002
{
1070
    40
1040
1.0
1002
}
  0
DIMENSION
  5
1ECE
330
18
100
AcDbEntity
  8
寸法線
100
AcDbDimension
280
     0
  2
*D11
 10
405.0
 20
71.5
 30
0.0
 11
400.7136363636363
 21
100.0
 31
0.0
 12
0.0
 22
15.0
 32
0.0
 70
    32
 71
     5
 42
-1.0
 73
     0
 74
     0
 75
     0
  3
許容差
100
AcDbAlignedDimension
 13
389.5
 23
128.5
 33
0.0
 14
389.5
 24
71.5
 34
0.0
 50
90.0
100
AcDbRotatedDimension
  0
LINE
  5
1FEF
330
18
100
AcDbEntity
  8
実線（中）
100
AcDbLine
 10
82.80127983700941
 20
224.5
 30
0.0
 11
91.77812478930283
 21
258.0020414536273
 31
0.0
  0
LINE
  5
1FF0
330
18
100
AcDbEntity
  8
実線（中）
100
AcDbLine
 10
83.62950078133749
 20
224.5
 30
0.0
 11
92.55086545033408
 21
257.7949862175453
 31
0.0
  0
LINE
  5
1FF2
102
{ACAD_REACTORS
330
32E3
102
}
330
18
100
AcDbEntity
  8
実線（中）
100
AcDbLine
 10
68.35355339059326
 20
224.5
 30
0.0
 11
46.9427579795289
 21
245.9107954110644
 31
0.0
  0
LINE
  5
1FF3
102
{ACAD_REACTORS
330
32E3
102
}
330
18
100
AcDbEntity
  8
実線（中）
100
AcDbLine
 10
67.64644660940676
 20
224.5
 30
0.0
 11
46.58920458893563
 21
245.5572420204711
 31
0.0
  0
LINE
  5
1FF4
330
18
100
AcDbEntity
  8
実線（中）
100
AcDbLine
 10
76.37049921866247
 20
224.5
 30
0.0
 11
67.44913454966589
 21
257.7949862175453
 31
0.0
  0
LINE
  5
1FF5
330
18
100
AcDbEntity
  8
実線（中）
100
AcDbLine
 10
77.15120410105678
 20
224.6773323573119
 30
0.0
 11
68.22187521069716
 21
258.0020414536273
 31
0.0
  0
ARC
  5
1FF6
330
18
100
AcDbEntity
  8
実線（中）
100
AcDbCircle
 10
79.99999999999999
 20
212.5
 30
0.0
 40
13.0
100
AcDbArc
 50
76.76322535757238
 51
103.2367746424281
  0
ARC
  5
1FF7
330
18
100
AcDbEntity
  8
実線（中）
100
AcDbCircle
 10
79.99999999999999
 20
212.5
 30
0.0
 40
13.0
100
AcDbArc
 50
106.7632253575723
 51
112.6198649480404
  0
LINE
  5
1FF8
330
18
100
AcDbEntity
  8
実線（中）
100
AcDbLine
 10
77.15120410105678
 20
224.6773323573119
 30
0.0
 11
76.48939073374248
 21
224.5
 31
0.0
  0
ARC
  5
1FF9
330
18
100
AcDbEntity
  8
実線（中）
100
AcDbCircle
 10
79.99999999999999
 20
212.5
 30
0.0
 40
13.0
100
AcDbArc
 50
67.38013505195957
 51
73.2367746424277
  0
LINE
  5
1FFB
102
{ACAD_REACTORS
330
32E3
102
}
330
18
100
AcDbEntity
  8
実線（中）
100
AcDbLine
 10
46.9427579795289
 20
245.9107954110644
 30
0.0
 11
46.58920458893563
 21
245.5572420204711
 31
0.0
  0
LINE
  5
1FFC
330
18
100
AcDbEntity
  8
実線（中）
100
AcDbLine
 10
68.22187521069716
 20
258.0020414536273
 30
0.0
 11
67.44913454966589
 21
257.7949862175453
 31
0.0
  0
LINE
  5
1FFD
330
18
100
AcDbEntity
  8
実線（中）
100
AcDbLine
 10
91.77812478930283
 20
258.0020414536273
 30
0.0
 11
92.55086545033408
 21
257.7949862175453
 31
0.0
  0
LINE
  5
253B
330
18
100
AcDbEntity
  8
実線（中）
100
AcDbLine
 10
29.0
 20
274.0
 30
0.0
 11
131.0
 21
274.0
 31
0.0
  0
LINE
  5
253C
330
18
100
AcDbEntity
  8
実線（中）
100
AcDbLine
 10
29.0
 20
214.5
 30
0.0
 11
131.0
 21
214.5
 31
0.0
  0
LINE
  5
253D
330
18
100
AcDbEntity
  8
実線（中）
100
AcDbLine
 10
131.0
 20
274.0
 30
0.0
 11
131.0
 21
214.5
 31
0.0
  0
LINE
  5
253E
330
18
100
AcDbEntity
  8
実線（中）
100
AcDbLine
 10
29.0
 20
274.0
 30
0.0
 11
29.0
 21
214.5
 31
0.0
  0
LINE
  5
253F
330
18
100
AcDbEntity
  8
実線（中）
100
AcDbLine
 10
30.0
 20
273.0
 30
0.0
 11
130.0
 21
273.0
 31
0.0
  0
LINE
  5
2540
330
18
100
AcDbEntity
  8
実線（中）
100
AcDbLine
 10
36.5
 20
266.5
 30
0.0
 11
123.5
 21
266.5
 31
0.0
  0
LINE
  5
2541
330
18
100
AcDbEntity
  8
実線（中）
100
AcDbLine
 10
123.5
 20
266.5
 30
0.0
 11
123.5
 21
224.5
 31
0.0
  0
LINE
  5
2542
330
18
100
AcDbEntity
  8
実線（中）
100
AcDbLine
 10
131.0
 20
274.0
 30
0.0
 11
123.5
 21
266.5
 31
0.0
  0
LINE
  5
2543
330
18
100
AcDbEntity
  8
実線（中）
100
AcDbLine
 10
36.5
 20
266.5
 30
0.0
 11
36.5
 21
224.5
 31
0.0
  0
LINE
  5
2544
330
18
100
AcDbEntity
  8
実線（中）
100
AcDbLine
 10
36.5
 20
266.5
 30
0.0
 11
29.0
 21
274.0
 31
0.0
  0
LINE
  5
2545
330
18
100
AcDbEntity
  8
実線（中）
100
AcDbLine
 10
30.0
 20
215.5
 30
0.0
 11
130.0
 21
215.5
 31
0.0
  0
LINE
  5
2546
102
{ACAD_REACTORS
330
32E3
102
}
330
18
100
AcDbEntity
  8
実線（中）
100
AcDbLine
 10
36.5
 20
224.5
 30
0.0
 11
123.5
 21
224.5
 31
0.0
  0
LINE
  5
254A
330
18
100
AcDbEntity
  8
実線（中）
100
AcDbLine
 10
29.0
 20
214.5
 30
0.0
 11
30.0
 21
215.5
 31
0.0
  0
LINE
  5
254F
330
18
100
AcDbEntity
  8
実線（中）
100
AcDbLine
 10
60.5
 20
215.5
 30
0.0
 11
60.5
 21
219.5
 31
0.0
  0
LINE
  5
2550
330
18
100
AcDbEntity
  8
実線（中）
100
AcDbLine
 10
53.5
 20
215.5
 30
0.0
 11
53.5
 21
219.5
 31
0.0
  0
ARC
  5
2551
330
18
100
AcDbEntity
  8
実線（中）
100
AcDbCircle
 10
57.0
 20
219.5
 30
0.0
 40
3.5
100
AcDbArc
 50
0.0
 51
180.0
  0
CIRCLE
  5
2553
330
18
100
AcDbEntity
  8
実線（中）
100
AcDbCircle
 10
57.0
 20
219.5
 30
0.0
 40
2.049999999999999
  0
CIRCLE
  5
2554
330
18
100
AcDbEntity
  8
実線（中）
100
AcDbCircle
 10
103.0
 20
219.5
 30
0.0
 40
2.049999999999999
  0
LINE
  5
2555
330
18
100
AcDbEntity
  8
実線（中）
100
AcDbLine
 10
99.50000000000001
 20
215.5
 30
0.0
 11
99.50000000000001
 21
219.5
 31
0.0
  0
LINE
  5
2556
330
18
100
AcDbEntity
  8
実線（中）
100
AcDbLine
 10
106.5
 20
215.5
 30
0.0
 11
106.5
 21
219.5
 31
0.0
  0
ARC
  5
2557
330
18
100
AcDbEntity
  8
実線（中）
100
AcDbCircle
 10
103.0
 20
219.5
 30
0.0
 40
3.5
100
AcDbArc
 50
0.0
 51
180.0
  0
LINE
  5
2558
330
18
100
AcDbEntity
  8
実線（中）
100
AcDbLine
 10
55.8611359916633
 20
217.7954505667141
 30
0.0
 11
58.7045494332859
 21
220.6388640083367
 31
0.0
  0
LINE
  5
2559
330
18
100
AcDbEntity
  8
実線（中）
100
AcDbLine
 10
55.29545056671406
 20
218.3611359916634
 30
0.0
 11
58.13886400833664
 21
221.2045494332859
 31
0.0
  0
LINE
  5
255A
330
18
100
AcDbEntity
  8
実線（中）
100
AcDbLine
 10
101.295450566714
 20
218.3611359916634
 30
0.0
 11
104.1388640083366
 21
221.2045494332859
 31
0.0
  0
LINE
  5
255B
330
18
100
AcDbEntity
  8
実線（中）
100
AcDbLine
 10
101.8611359916633
 20
217.7954505667141
 30
0.0
 11
104.7045494332859
 21
220.6388640083367
 31
0.0
  0
DIMENSION
  5
2890
330
18
100
AcDbEntity
  8
寸法線
100
AcDbDimension
280
     0
  2
*D12
 10
9.999999999999998
 20
187.0
 30
0.0
 11
10.0
 21
200.75
 31
0.0
 70
   160
 71
     5
 42
-1.0
 73
     0
 74
     0
 75
     0
  3
標準
100
AcDbAlignedDimension
 13
29.0
 23
214.5
 33
0.0
 14
80.0
 24
187.0
 34
0.0
 50
90.0
100
AcDbRotatedDimension
  0
LINE
  5
28B3
330
18
100
AcDbEntity
  8
実線（中）
100
AcDbLine
 10
166.0
 20
273.0
 30
0.0
 11
166.0
 21
215.8333333333334
 31
0.0
  0
LINE
  5
28B6
330
18
100
AcDbEntity
  8
実線（中）
100
AcDbLine
 10
166.0
 20
273.0
 30
0.0
 11
170.0
 21
274.0
 31
0.0
  0
LINE
  5
28B9
330
18
100
AcDbEntity
  8
実線（中）
100
AcDbLine
 10
170.0
 20
214.5
 30
0.0
 11
166.0
 21
215.8333333333334
 31
0.0
  0
LINE
  5
28BA
330
18
100
AcDbEntity
  8
実線（中）
100
AcDbLine
 10
183.5
 20
187.0
 30
0.0
 11
186.0
 21
187.0
 31
0.0
  0
LINE
  5
28BB
330
18
100
AcDbEntity
  8
実線（中）
100
AcDbLine
 10
170.0
 20
271.0
 30
0.0
 11
186.0
 21
271.0
 31
0.0
  0
LINE
  5
28BC
330
18
100
AcDbEntity
  8
実線（中）
100
AcDbLine
 10
186.0
 20
271.0
 30
0.0
 11
186.0
 21
187.0
 31
0.0
  0
LINE
  5
28BD
330
18
100
AcDbEntity
  8
実線（中）
100
AcDbLine
 10
173.5
 20
216.5
 30
0.0
 11
173.5
 21
197.0
 31
0.0
  0
LINE
  5
28BE
330
18
100
AcDbEntity
  8
実線（中）
100
AcDbLine
 10
170.0
 20
216.5
 30
0.0
 11
186.0
 21
216.5
 31
0.0
  0
ARC
  5
28BF
330
18
100
AcDbEntity
  8
実線（中）
100
AcDbCircle
 10
183.5
 20
197.0
 30
0.0
 40
10.0
100
AcDbArc
 50
180.0
 51
270.0
  0
LINE
  5
28C0
330
18
100
AcDbEntity
  8
実線（中）
100
AcDbLine
 10
237.5
 20
242.6
 30
0.0
 11
237.5
 21
187.4
 31
0.0
  0
LINE
  5
28C1
330
18
100
AcDbEntity
  8
実線（中）
100
AcDbLine
 10
188.0
 20
269.0
 30
0.0
 11
188.0
 21
218.5
 31
0.0
  0
LINE
  5
28C2
330
18
100
AcDbEntity
  8
実線（中）
100
AcDbLine
 10
188.0
 20
269.0
 30
0.0
 11
186.0
 21
271.0
 31
0.0
  0
LINE
  5
28C3
330
18
100
AcDbEntity
  8
実線（中）
100
AcDbLine
 10
186.0
 20
187.0
 30
0.0
 11
237.5
 21
187.4
 31
0.0
  0
LINE
  5
28C4
330
18
100
AcDbEntity
  8
実線（中）
100
AcDbLine
 10
188.0
 20
243.0
 30
0.0
 11
237.5
 21
242.6
 31
0.0
  0
LINE
  5
28C6
330
18
100
AcDbEntity
  8
実線（中）
100
AcDbLine
 10
239.5
 20
242.6
 30
0.0
 11
237.5
 21
242.6
 31
0.0
  0
LINE
  5
28C7
330
18
100
AcDbEntity
  8
実線（中）
100
AcDbLine
 10
239.5
 20
187.4
 30
0.0
 11
237.5
 21
187.4
 31
0.0
  0
LINE
  5
2E23
330
18
100
AcDbEntity
  8
実線（中）
100
AcDbLine
 10
289.0
 20
274.0
 30
0.0
 11
289.0
 21
214.5
 31
0.0
  0
LINE
  5
2E24
330
18
100
AcDbEntity
  8
実線（中）
100
AcDbLine
 10
391.0
 20
274.0
 30
0.0
 11
391.0
 21
214.5
 31
0.0
  0
LINE
  5
2E61
330
18
100
AcDbEntity
  8
実線（中）
100
AcDbLine
 10
391.0
 20
274.0
 30
0.0
 11
289.0
 21
274.0
 31
0.0
  0
LINE
  5
2E67
330
18
100
AcDbEntity
  8
実線（中）
100
AcDbLine
 10
364.8193472919817
 20
243.0
 30
0.0
 11
315.1806527080183
 21
243.0
 31
0.0
  0
LINE
  5
2F51
330
18
100
AcDbEntity
  8
一点鎖線
100
AcDbLine
 10
305.0
 20
215.0
 30
0.0
 11
375.0
 21
215.0
 31
0.0
  0
LINE
  5
2F52
330
18
100
AcDbEntity
  8
一点鎖線
100
AcDbLine
 10
340.0
 20
180.0
 30
0.0
 11
340.0
 21
250.0
 31
0.0
  0
LINE
  5
2FD9
330
18
100
AcDbEntity
  8
実線（中）
100
AcDbLine
 10
389.0
 20
216.5
 30
0.0
 11
389.0
 21
271.0
 31
0.0
  0
LINE
  5
2FDA
330
18
100
AcDbEntity
  8
実線（中）
100
AcDbLine
 10
291.0000000000001
 20
216.5
 30
0.0
 11
291.0
 21
271.0
 31
0.0
  0
LINE
  5
2FDB
330
18
100
AcDbEntity
  8
実線（中）
100
AcDbLine
 10
291.0
 20
271.0
 30
0.0
 11
389.0
 21
271.0
 31
0.0
  0
LINE
  5
2FDD
330
18
100
AcDbEntity
  8
実線（中）
100
AcDbLine
 10
293.0000000000001
 20
218.5
 30
0.0
 11
293.0
 21
269.0
 31
0.0
  0
LINE
  5
2FDE
330
18
100
AcDbEntity
  8
実線（中）
100
AcDbLine
 10
387.0
 20
218.5
 30
0.0
 11
387.0
 21
269.0
 31
0.0
  0
LINE
  5
2FDF
330
18
100
AcDbEntity
  8
実線（中）
100
AcDbLine
 10
293.0
 20
269.0
 30
0.0
 11
387.0
 21
269.0
 31
0.0
  0
LINE
  5
2FE1
330
18
100
AcDbEntity
  8
実線（中）
100
AcDbLine
 10
391.0
 20
214.5
 30
0.0
 11
372.958306995354
 21
214.5
 31
0.0
  0
LINE
  5
2FE2
330
18
100
AcDbEntity
  8
実線（中）
100
AcDbLine
 10
289.0
 20
214.5
 30
0.0
 11
307.041693004646
 21
214.5
 31
0.0
  0
DIMENSION
  5
30B0
330
18
100
AcDbEntity
  8
寸法線
100
AcDbDimension
280
     0
  2
*D14
 10
389.0
 20
155.0
 30
0.0
 11
340.0
 21
155.0
 31
0.0
 12
-10.0
 22
0.0
 32
0.0
 70
   160
 71
     5
 42
-1.0
 73
     0
 74
     0
 75
     0
  3
標準
100
AcDbAlignedDimension
 13
291.0
 23
214.5
 33
0.0
 14
389.0
 24
214.2
 34
0.0
100
AcDbRotatedDimension
  0
DIMENSION
  5
30CA
330
18
100
AcDbEntity
  8
寸法線
100
AcDbDimension
280
     0
  2
*D15
 10
368.0
 20
175.0
 30
0.0
 11
340.0
 21
178.4517045454545
 31
0.0
 70
    32
  1
φ<>
 71
     5
 42
-1.0
 73
     0
 74
     0
 75
     0
  3
標準小
100
AcDbAlignedDimension
 13
312.0
 23
207.0
 33
0.0
 14
368.0
 24
207.0
 34
0.0
100
AcDbRotatedDimension
  0
LINE
  5
30E3
330
18
100
AcDbEntity
  8
一点鎖線
100
AcDbLine
 10
193.8
 20
243.75
 30
0.0
 11
183.8
 21
243.75
 31
0.0
  0
LINE
  5
30EA
330
18
100
AcDbEntity
  8
一点鎖線
100
AcDbLine
 10
285.5
 20
100.0
 30
0.0
 11
394.5
 21
100.0
 31
0.0
  0
LINE
  5
30EB
330
18
100
AcDbEntity
  8
実線（中）
100
AcDbLine
 10
389.5
 20
71.5
 30
0.0
 11
290.5
 21
71.5
 31
0.0
  0
LINE
  5
30EC
330
18
100
AcDbEntity
  8
実線（中）
100
AcDbLine
 10
290.5
 20
128.5
 30
0.0
 11
389.5
 21
128.5
 31
0.0
  0
LINE
  5
30ED
330
18
100
AcDbEntity
  8
実線（中）
100
AcDbLine
 10
290.5
 20
71.5
 30
0.0
 11
290.5
 21
128.5
 31
0.0
  0
LINE
  5
30EE
330
18
100
AcDbEntity
  8
一点鎖線
100
AcDbLine
 10
340.0
 20
133.5
 30
0.0
 11
340.0
 21
66.5
 31
0.0
  0
LINE
  5
30EF
330
18
100
AcDbEntity
  8
実線（中）
100
AcDbLine
 10
389.5
 20
128.5
 30
0.0
 11
389.5
 21
71.5
 31
0.0
  0
DIMENSION
  5
313F
330
18
100
AcDbEntity
  8
寸法線
100
AcDbDimension
280
     0
  2
*D16
 10
280.0
 20
215.0
 30
0.0
 11
277.0
 21
229.25
 31
0.0
 70
    32
 71
     5
 42
-1.0
 73
     0
 74
     0
 75
     0
  3
標準小
100
AcDbAlignedDimension
 13
295.0
 23
243.5
 33
0.0
 14
305.0
 24
215.0
 34
0.0
 50
90.0
100
AcDbRotatedDimension
  0
LEADER
  5
314B
330
18
100
AcDbEntity
  8
寸法線
100
AcDbLeader
  3
標準
 73
     0
 75
     1
 40
5.181818181818182
 41
23.06818181818182
 76
     3
 10
297.3921223522512
 20
244.7684534577083
 30
0.0
 10
284.5
 20
253.4710566964165
 30
0.0
 10
279.5
 20
253.4710566964165
 30
0.0
340
314C
213
-2.5
223
0.0
233
0.0
1001
ACAD
1000
DSTYLE
1002
{
1070
    47
1040
0.2
1070
    48
1040
0.7
1070
    40
1040
1.0
1002
}
  0
MTEXT
  5
314C
102
{ACAD_REACTORS
330
314B
102
}
330
18
100
AcDbEntity
  8
寸法線
100
AcDbMText
 10
280.0
 20
255.4710566964165
 30
0.0
 40
4.0
 41
0.0
 46
0.0
 71
     9
 72
     1
  1
2-M3ネジ
  7
寸法文字
 73
     1
 44
1.0
  0
DIMENSION
  5
3159
330
18
100
AcDbEntity
  8
寸法線
100
AcDbDimension
280
     0
  2
*D17
 10
380.0
 20
295.0
 30
0.0
 11
340.0
 21
295.0
 31
0.0
 70
   160
 71
     5
 42
-1.0
 73
     0
 74
     0
 75
     0
  3
標準小
100
AcDbAlignedDimension
 13
300.0
 23
248.5
 33
0.0
 14
380.0
 24
248.5
 34
0.0
100
AcDbRotatedDimension
  0
LEADER
  5
317B
330
18
100
AcDbEntity
  8
寸法線
100
AcDbLeader
  3
標準
 73
     0
 40
5.272727272727273
 41
39.68181818181818
 76
     2
 10
294.0
 20
260.5
 30
0.0
 10
261.5
 20
268.0
 30
0.0
340
317C
213
-2.5
223
0.0
233
0.0
1001
ACAD
1000
DSTYLE
1002
{
1070
    47
1040
0.2
1070
    48
1040
0.7
1070
    40
1040
1.0
1002
}
  0
MTEXT
  5
317C
102
{ACAD_REACTORS
330
317B
102
}
330
18
100
AcDbEntity
  8
寸法線
100
AcDbMText
 10
262.0
 20
270.0
 30
0.0
 40
4.0
 41
0.0
 46
0.0
 71
     9
 72
     1
  1
パネル取付金具
  7
寸法文字
 73
     1
 44
1.0
  0
LEADER
  5
317D
330
18
100
AcDbEntity
  8
寸法線
100
AcDbLeader
  3
標準
 76
     2
 10
188.8
 20
262.0
 30
0.0
 10
220.0116136245799
 20
268.0
 30
0.0
213
-2.5
223
0.0
233
0.0
1001
ACAD
1000
DSTYLE
1002
{
1070
    47
1040
0.2
1070
    48
1040
0.7
1070
    40
1040
1.0
1002
}
  0
MTEXT
  5
3189
330
18
100
AcDbEntity
  8
可変文字
100
AcDbMText
 10
290.0
 20
45.56937474762435
 30
0.0
 40
4.5
 41
0.0
 46
0.0
 71
     1
 72
     5
  1
※　パネル厚0.8～3mmまで使用可能
  7
MSPｺﾞｼｯｸ
 73
     1
 44
1.0
  0
DIMENSION
  5
31B0
330
18
100
AcDbEntity
  8
寸法線
100
AcDbDimension
280
     0
  2
*D18
 10
131.0
 20
285.0
 30
0.0
 11
80.0
 21
289.5
 31
0.0
 70
    32
 71
     5
 42
-1.0
 73
     0
 74
     0
 75
     0
  3
標準
100
AcDbAlignedDimension
 13
29.0
 23
274.0
 33
0.0
 14
131.0
 24
274.0
 34
0.0
100
AcDbRotatedDimension
  0
LINE
  5
3274
330
18
100
AcDbEntity
  8
実線（中）
100
AcDbLine
 10
30.0
 20
215.5
 30
0.0
 11
36.5
 21
224.5
 31
0.0
  0
LINE
  5
3275
330
18
100
AcDbEntity
  8
実線（中）
100
AcDbLine
 10
123.5
 20
224.5
 30
0.0
 11
130.0
 21
215.5
 31
0.0
  0
LINE
  5
3276
330
18
100
AcDbEntity
  8
実線（中）
100
AcDbLine
 10
130.0
 20
215.5
 30
0.0
 11
131.0
 21
214.5
 31
0.0
  0
HATCH
  5
32E3
330
18
100
AcDbEntity
  8
実線（中）
100
AcDbHatch
 10
0.0
 20
0.0
 30
0.0
210
0.0
220
0.0
230
1.0
  2
SOLID
 70
     1
 71
     1
 91
        1
 92
        7
 72
     0
 73
     1
 93
        4
 10
46.9427579795289
 20
245.9107954110644
 10
46.58920458893565
 20
245.5572420204712
 10
67.64644660940679
 20
224.5
 10
68.35355339059323
 20
224.5
 97
        4
330
1FFB
330
1FF3
330
2546
330
1FF2
 75
     0
 76
     1
 47
0.0870093402899273
 98
        1
 10
59.46619803651493
 20
233.1204561809869
450
        0
451
        0
460
0.0
461
0.0
452
        0
462
0.0
453
        0
470

  0
ARC
  5
3319
330
18
100
AcDbEntity
  8
実線（中）
100
AcDbCircle
 10
80.0
 20
220.5
 30
0.0
 40
33.5
100
AcDbArc
 50
190.3176025128722
 51
349.6823974871278
  0
LINE
  5
331B
330
18
100
AcDbEntity
  8
実線（中）
100
AcDbLine
 10
83.49999999999999
 20
215.5
 30
0.0
 11
83.49999999999999
 21
218.5
 31
0.0
  0
ARC
  5
331C
330
18
100
AcDbEntity
  8
実線（中）
100
AcDbCircle
 10
80.0
 20
218.5
 30
0.0
 40
3.5
100
AcDbArc
 50
0.0
 51
180.0
  0
LINE
  5
331D
330
18
100
AcDbEntity
  8
実線（中）
100
AcDbLine
 10
76.5
 20
215.5
 30
0.0
 11
76.5
 21
218.5
 31
0.0
  0
ARC
  5
3355
330
18
100
AcDbEntity
  8
実線（中）
100
AcDbCircle
 10
340.0
 20
220.5
 30
0.0
 40
33.5
100
AcDbArc
 50
137.8060941726092
 51
42.1939058273907
  0
LINE
  5
3357
330
18
100
AcDbEntity
  8
一点鎖線
100
AcDbLine
 10
305.0
 20
220.5
 30
0.0
 11
375.0
 21
220.5
 31
0.0
  0
LINE
  5
3359
330
18
100
AcDbEntity
  8
実線（中）
100
AcDbLine
 10
389.0
 20
216.5
 30
0.0
 11
373.2603367391252
 21
216.5
 31
0.0
  0
LINE
  5
335A
330
18
100
AcDbEntity
  8
実線（中）
100
AcDbLine
 10
291.0000000000001
 20
216.5
 30
0.0
 11
306.7396632608748
 21
216.5
 31
0.0
  0
LINE
  5
335B
330
18
100
AcDbEntity
  8
実線（中）
100
AcDbLine
 10
293.0000000000001
 20
218.5
 30
0.0
 11
306.5597547855881
 21
218.5
 31
0.0
  0
LINE
  5
335C
330
18
100
AcDbEntity
  8
実線（中）
100
AcDbLine
 10
387.0
 20
218.5
 30
0.0
 11
373.4402452144119
 21
218.5
 31
0.0
  0
DIMENSION
  5
3383
330
18
100
AcDbEntity
  8
寸法線
100
AcDbDimension
280
     0
  2
*D20
 10
410.0
 20
187.0
 30
0.0
 11
410.0
 21
215.0
 31
0.0
 12
-10.0
 22
0.0
 32
0.0
 70
   160
 71
     5
 42
-1.0
 73
     0
 74
     0
 75
     0
  3
標準
100
AcDbAlignedDimension
 13
391.0
 23
243.0
 33
0.0
 14
349.0
 24
187.0
 34
0.0
 50
90.0
100
AcDbRotatedDimension
  0
DIMENSION
  5
33B1
330
18
100
AcDbEntity
  8
寸法線
100
AcDbDimension
280
     0
  2
*D21
 10
373.5
 20
165.0
 30
0.0
 11
340.0
 21
168.4517045454545
 31
0.0
 70
    32
  1
φ<>
 71
     5
 42
-1.0
 73
     0
 74
     0
 75
     0
  3
標準小
100
AcDbAlignedDimension
 13
306.5
 23
213.5
 33
0.0
 14
373.5
 24
213.5
 34
0.0
100
AcDbRotatedDimension
  0
LINE
  5
33EE
330
18
100
AcDbEntity
  8
一点鎖線
100
AcDbLine
 10
305.0
 20
243.5
 30
0.0
 11
295.0
 21
243.5
 31
0.0
  0
LINE
  5
33EF
330
18
100
AcDbEntity
  8
一点鎖線
100
AcDbLine
 10
300.0
 20
238.5
 30
0.0
 11
300.0
 21
248.5
 31
0.0
  0
INSERT
  5
33F0
330
18
100
AcDbEntity
  8
実線（中）
100
AcDbBlockReference
  2
A$C3D3D0A8A
 10
297.1000003901103
 20
240.6000005247918
 30
0.0
  0
INSERT
  5
3438
330
18
100
AcDbEntity
  8
実線（中）
100
AcDbBlockReference
  2
A$C79953EA4
 10
293.9999998153616
 20
208.7499998027192
 30
0.0
  0
LINE
  5
3450
330
18
100
AcDbEntity
  8
一点鎖線
100
AcDbLine
 10
380.0
 20
238.5
 30
0.0
 11
380.0
 21
248.5
 31
0.0
  0
INSERT
  5
3451
330
18
100
AcDbEntity
  8
実線（中）
100
AcDbBlockReference
  2
A$C3D3D0A8A
 10
377.1000003901103
 20
240.6000005247918
 30
0.0
  0
INSERT
  5
3452
330
18
100
AcDbEntity
  8
実線（中）
100
AcDbBlockReference
  2
A$C79953EA4
 10
373.9999998153615
 20
208.7499998027192
 30
0.0
  0
LINE
  5
3453
330
18
100
AcDbEntity
  8
一点鎖線
100
AcDbLine
 10
385.0
 20
243.5
 30
0.0
 11
375.0
 21
243.5
 31
0.0
  0
DIMENSION
  5
3562
330
18
100
AcDbEntity
  8
寸法線
100
AcDbDimension
280
     0
  2
*D23
 10
386.0
 20
285.0
 30
0.0
 11
392.3409090909091
 21
285.0
 31
0.0
 70
   160
 71
     5
 42
-1.0
 73
     0
 74
     0
 75
     0
  3
標準小
100
AcDbAlignedDimension
 13
374.0
 23
278.5
 33
0.0
 14
386.0
 24
278.5
 34
0.0
100
AcDbRotatedDimension
  0
DIMENSION
  5
3587
330
18
100
AcDbEntity
  8
寸法線
100
AcDbDimension
280
     0
  2
*D24
 10
400.0
 20
208.5
 30
0.0
 11
400.0
 21
249.0
 31
0.0
 70
   160
 71
     5
 42
-1.0
 73
     0
 74
     0
 75
     0
  3
標準小
100
AcDbAlignedDimension
 13
386.0
 23
278.5
 33
0.0
 14
386.0
 24
208.5
 34
0.0
 50
90.0
100
AcDbRotatedDimension
  0
LINE
  5
35B4
330
18
100
AcDbEntity
  8
実線（中）
100
AcDbLine
 10
186.0
 20
216.5
 30
0.0
 11
188.0
 21
218.5
 31
0.0
  0
INSERT
  5
363D
330
18
100
AcDbEntity
  8
実線（中）
100
AcDbBlockReference
  2
A$C732F3514
 10
170.6000001934708
 20
208.750000083355
 30
0.0
  0
LINE
  5
364A
330
18
100
AcDbEntity
  8
実線（中）
100
AcDbLine
 10
239.5
 20
242.6
 30
0.0
 11
239.5
 21
187.4
 31
0.0
  0
MTEXT
  5
3A48
330
18
100
AcDbEntity
  8
実線（中）
100
AcDbMText
 10
342.5056035984182
 20
204.289166670721
 30
0.0
 40
3.5
 41
0.0
 46
0.0
 71
     5
 72
     5
  1
⑩
  7
寸法文字
 73
     1
 44
1.0
  0
ARC
  5
3A49
330
18
100
AcDbEntity
  8
実線（中）
100
AcDbCircle
 10
344.9023526409741
 20
194.5802316716488
 30
0.0
 40
4.099999999999999
100
AcDbArc
 50
13.50000000000003
 51
193.5
  0
CIRCLE
  5
3A4A
330
18
100
AcDbEntity
  8
実線（中）
100
AcDbCircle
 10
340.0
 20
215.0
 30
0.0
 40
15.0
  0
CIRCLE
  5
3A4B
330
18
100
AcDbEntity
  8
実線（中）
100
AcDbCircle
 10
340.0
 20
215.0
 30
0.0
 40
13.5
  0
LINE
  5
3A4C
330
18
100
AcDbEntity
  8
実線（中）
100
AcDbLine
 10
342.0305611714274
 20
188.979107983601
 30
0.0
 11
340.9156359673435
 21
193.6231056798396
 31
0.0
  0
ARC
  5
3A4D
330
18
100
AcDbEntity
  8
実線（中）
100
AcDbCircle
 10
340.0
 20
215.0
 30
0.0
 40
24.60000000000003
100
AcDbArc
 50
21.40090673570832
 51
158.5990932642917
  0
ARC
  5
3A4E
330
18
100
AcDbEntity
  8
実線（中）
100
AcDbCircle
 10
340.0000000000001
 20
215.0
 30
0.0
 40
26.09999999999996
100
AcDbArc
 50
22.52842695223776
 51
157.4715730477623
  0
CIRCLE
  5
3A4F
330
18
100
AcDbEntity
  8
実線（中）
100
AcDbCircle
 10
340.0
 20
215.0
 30
0.0
 40
28.0
  0
CIRCLE
  5
3A50
330
18
100
AcDbEntity
  8
実線（中）
100
AcDbCircle
 10
340.0
 20
215.0
 30
0.0
 40
27.2
  0
ARC
  5
3A51
330
18
100
AcDbEntity
  8
実線（中）
100
AcDbCircle
 10
340.0
 20
215.0
 30
0.0
 40
26.1
100
AcDbArc
 50
157.4715730477623
 51
22.52842695223762
  0
CIRCLE
  5
3A52
330
18
100
AcDbEntity
  8
実線（中）
100
AcDbCircle
 10
340.0
 20
215.0
 30
0.0
 40
26.65
  0
MTEXT
  5
3A64
102
{ACAD_REACTORS
330
3A65
102
}
330
18
100
AcDbEntity
  8
寸法線
100
AcDbMText
 10
283.0
 20
174.5
 30
0.0
 40
4.0
 41
0.0
 46
0.0
 71
     9
 72
     1
  1
6-M3ネジ
  7
寸法文字
 73
     1
 44
1.0
  0
LEADER
  5
3A65
330
18
100
AcDbEntity
  8
寸法線
100
AcDbLeader
  3
標準
 73
     0
 75
     1
 40
5.181818181818182
 41
23.04545454545455
 76
     3
 10
318.1367089942838
 20
204.6721929312631
 30
0.0
 10
287.5
 20
172.5
 30
0.0
 10
282.5
 20
172.5
 30
0.0
340
3A64
213
-2.5
223
0.0
233
0.0
1001
ACAD
1000
DSTYLE
1002
{
1070
    47
1040
0.2
1070
    48
1040
0.7
1070
    40
1040
1.0
1002
}
  0
ARC
  5
3A9B
330
18
100
AcDbEntity
  8
実線（中）
100
AcDbCircle
 10
335.097647359026
 20
194.5802316716488
 30
0.0
 40
4.099999999999999
100
AcDbArc
 50
346.5
 51
166.5
  0
LINE
  5
3A9C
330
18
100
AcDbEntity
  8
実線（中）
100
AcDbLine
 10
326.3624215720736
 20
197.3615976487243
 30
0.0
 11
326.487569144106
 21
196.5714469762481
 31
0.0
  0
LINE
  5
3A9D
330
18
100
AcDbEntity
  8
実線（中）
100
AcDbLine
 10
325.3747332314787
 20
197.2051631836841
 30
0.0
 11
325.4998808035108
 21
196.415012511208
 31
0.0
  0
CIRCLE
  5
3A9E
330
18
100
AcDbEntity
  8
実線（中）
100
AcDbCircle
 10
325.712142936736
 20
198.2710687567992
 30
0.0
 40
2.9
  0
ARC
  5
3A9F
330
18
100
AcDbEntity
  8
実線（中）
100
AcDbCircle
 10
326.3615909850662
 20
199.0314747223993
 30
0.0
 40
4.099999999999999
100
AcDbArc
 50
319.5
 51
139.5
  0
ARC
  5
3AA2
330
18
100
AcDbEntity
  8
実線（中）
100
AcDbCircle
 10
333.2316358296075
 20
192.7925533954371
 30
0.0
 40
0.2
100
AcDbArc
 50
126.0
 51
216.0000000000001
  0
CIRCLE
  5
3AA3
330
18
100
AcDbEntity
  8
実線（中）
100
AcDbCircle
 10
334.8642019951701
 20
193.6078617512511
 30
0.0
 40
2.9
  0
LINE
  5
3AA4
330
18
100
AcDbEntity
  8
実線（中）
100
AcDbLine
 10
329.9960054813117
 20
190.8933599672195
 30
0.0
 11
331.1109306853956
 21
195.537357663458
 31
0.0
  0
LINE
  5
3AA5
330
18
100
AcDbEntity
  8
実線（中）
100
AcDbLine
 10
326.377518978301
 20
192.7370709291556
 30
0.0
 11
329.4792554440264
 21
196.3687377242455
 31
0.0
  0
LINE
  5
3AA6
330
18
100
AcDbEntity
  8
実線（中）
100
AcDbLine
 10
325.7287053646379
 20
196.2487617360969
 30
0.0
 11
326.3213183689951
 21
196.3426224151211
 31
0.0
  0
ARC
  5
3AA7
330
18
100
AcDbEntity
  8
実線（中）
100
AcDbCircle
 10
325.69741847163
 20
196.446299404216
 30
0.0
 40
0.2
100
AcDbArc
 50
189.0
 51
279.0
  0
ARC
  5
3AA8
330
18
100
AcDbEntity
  8
実線（中）
100
AcDbCircle
 10
326.290031475987
 20
196.5401600832402
 30
0.0
 40
0.2
100
AcDbArc
 50
279.0
 51
8.999999999999992
  0
LINE
  5
3AA9
330
18
100
AcDbEntity
  8
実線（中）
100
AcDbLine
 10
337.9694388285727
 20
188.9791079836011
 30
0.0
 11
339.0843640326565
 21
193.6231056798396
 31
0.0
  0
LINE
  5
3AAA
330
18
100
AcDbEntity
  8
実線（中）
100
AcDbLine
 10
333.114078779149
 20
192.9543567943121
 30
0.0
 11
333.7612923746489
 21
193.424584996146
 31
0.0
  0
LINE
  5
3AAB
330
18
100
AcDbEntity
  8
実線（中）
100
AcDbLine
 10
335.3793263633988
 20
194.600155500731
 30
0.0
 11
336.0265399588987
 21
195.0703837025651
 31
0.0
  0
ARC
  5
3AAC
330
18
100
AcDbEntity
  8
実線（中）
100
AcDbCircle
 10
333.4673997485026
 20
193.8290934933336
 30
0.0
 40
0.5
100
AcDbArc
 50
306.0
 51
36.0
  0
ARC
  5
3AAD
330
18
100
AcDbEntity
  8
実線（中）
100
AcDbCircle
 10
335.0854337372527
 20
195.0046639979186
 30
0.0
 40
0.5
100
AcDbArc
 50
216.0000000000001
 51
306.0
  0
LINE
  5
3AAE
330
18
100
AcDbEntity
  8
実線（中）
100
AcDbLine
 10
333.4459263922726
 20
195.0495601643133
 30
0.0
 11
333.9313365888977
 21
195.4022313156889
 31
0.0
  0
ARC
  5
3AAF
330
18
100
AcDbEntity
  8
実線（中）
100
AcDbCircle
 10
333.5634834427312
 20
194.8877567654383
 30
0.0
 40
0.2
100
AcDbArc
 50
126.0
 51
216.0000000000001
  0
ARC
  5
3AB0
330
18
100
AcDbEntity
  8
実線（中）
100
AcDbCircle
 10
334.0488936393561
 20
195.2404279168138
 30
0.0
 40
0.2
100
AcDbArc
 50
36.0
 51
126.0
  0
LINE
  5
3AB1
330
18
100
AcDbEntity
  8
実線（中）
100
AcDbLine
 10
333.4016800438561
 20
194.7701997149798
 30
0.0
 11
333.8719082456901
 21
194.1229861194798
 31
0.0
  0
LINE
  5
3AB2
330
18
100
AcDbEntity
  8
実線（中）
100
AcDbLine
 10
334.2106970382311
 20
195.3579849672721
 30
0.0
 11
334.680925240065
 21
194.7107713717723
 31
0.0
  0
ARC
  5
3AB3
330
18
100
AcDbEntity
  8
実線（中）
100
AcDbCircle
 10
336.1440970093573
 20
194.9085803036901
 30
0.0
 40
0.2
100
AcDbArc
 50
36.0
 51
126.0
  0
LINE
  5
3AB4
330
18
100
AcDbEntity
  8
実線（中）
100
AcDbLine
 10
335.9671116156913
 20
193.7911385063561
 30
0.0
 11
336.6143252111912
 21
194.2613667081901
 31
0.0
  0
ARC
  5
3AB5
330
18
100
AcDbEntity
  8
実線（中）
100
AcDbCircle
 10
336.1649205476091
 20
192.3279667370641
 30
0.0
 40
0.2
100
AcDbArc
 50
306.0
 51
36.0
  0
ARC
  5
3AB6
330
18
100
AcDbEntity
  8
実線（中）
100
AcDbCircle
 10
335.6795103509842
 20
191.9752955856885
 30
0.0
 40
0.2
100
AcDbArc
 50
216.0000000000001
 51
306.0
  0
LINE
  5
3AB7
330
18
100
AcDbEntity
  8
実線（中）
100
AcDbLine
 10
335.7970674014425
 20
191.8134921868135
 30
0.0
 11
336.2824775980677
 21
192.166163338189
 31
0.0
  0
LINE
  5
3AB8
330
18
100
AcDbEntity
  8
実線（中）
100
AcDbLine
 10
335.0474787502751
 20
192.50495213073
 30
0.0
 11
335.517706952109
 21
191.85773853523
 31
0.0
  0
LINE
  5
3AB9
330
18
100
AcDbEntity
  8
実線（中）
100
AcDbLine
 10
335.8564957446499
 20
193.0927373830224
 30
0.0
 11
336.3267239464841
 21
192.4455237875224
 31
0.0
  0
LINE
  5
3ABA
330
18
100
AcDbEntity
  8
実線（中）
100
AcDbLine
 10
333.7018640314415
 20
192.1453397999372
 30
0.0
 11
334.3490776269413
 21
192.615568001771
 31
0.0
  0
LINE
  5
3ABB
330
18
100
AcDbEntity
  8
実線（中）
100
AcDbLine
 10
333.0698324307324
 20
192.6749963449786
 30
0.0
 11
333.4225035821079
 21
192.1895861483536
 31
0.0
  0
ARC
  5
3ABC
330
18
100
AcDbEntity
  8
実線（中）
100
AcDbCircle
 10
333.584306980983
 20
192.3071431988123
 30
0.0
 40
0.2
100
AcDbArc
 50
216.0000000000001
 51
306.0
  0
ARC
  5
3ABD
330
18
100
AcDbEntity
  8
実線（中）
100
AcDbCircle
 10
334.6429702530876
 20
192.2110595045836
 30
0.0
 40
0.5
100
AcDbArc
 50
36.0
 51
126.0
  0
ARC
  5
3ABE
330
18
100
AcDbEntity
  8
実線（中）
100
AcDbCircle
 10
336.2610042418376
 20
193.3866300091687
 30
0.0
 40
0.5
100
AcDbArc
 50
126.0
 51
216.0000000000001
  0
LINE
  5
3ABF
330
18
100
AcDbEntity
  8
実線（中）
100
AcDbLine
 10
336.3059004082322
 20
195.0261373541485
 30
0.0
 11
336.6585715596077
 21
194.5407271575235
 31
0.0
  0
ARC
  5
3AC0
330
18
100
AcDbEntity
  8
実線（中）
100
AcDbCircle
 10
336.4967681607327
 20
194.4231701070652
 30
0.0
 40
0.2
100
AcDbArc
 50
306.0
 51
36.0
  0
CIRCLE
  5
3AC2
330
18
100
AcDbEntity
  8
実線（中）
100
AcDbCircle
 10
320.0
 20
217.0
 30
0.0
 40
3.5
  0
ARC
  5
3AC3
330
18
100
AcDbEntity
  8
実線（中）
100
AcDbCircle
 10
320.0
 20
216.0
 30
0.0
 40
5.0
100
AcDbArc
 50
0.0
 51
90.0
  0
ARC
  5
3AC4
330
18
100
AcDbEntity
  8
実線（中）
100
AcDbCircle
 10
320.598529817263
 20
206.9636479203331
 30
0.0
 40
4.099999999999999
100
AcDbArc
 50
292.5
 51
112.5
  0
ARC
  5
3AC5
330
18
100
AcDbEntity
  8
実線（中）
100
AcDbCircle
 10
324.880889061181
 20
197.1269459511638
 30
0.0
 40
0.5
100
AcDbArc
 50
8.999999999999992
 51
99.00000000000002
  0
ARC
  5
3AC6
330
18
100
AcDbEntity
  8
実線（中）
100
AcDbCircle
 10
324.5680201311005
 20
199.1023226323543
 30
0.0
 40
0.5
100
AcDbArc
 50
279.0
 51
8.999999999999992
  0
CIRCLE
  5
3AC7
330
18
100
AcDbEntity
  8
実線（中）
100
AcDbCircle
 10
319.6746502847517
 20
206.580964487968
 30
0.0
 40
2.9
  0
LINE
  5
3AC8
330
18
100
AcDbEntity
  8
実線（中）
100
AcDbLine
 10
317.7551222394952
 20
201.3480619170684
 30
0.0
 11
322.1675318899599
 21
203.1757418370367
 31
0.0
  0
LINE
  5
3AC9
330
18
100
AcDbEntity
  8
実線（中）
100
AcDbLine
 10
320.1421900603807
 20
198.062544925463
 30
0.0
 11
323.243926526106
 21
201.6942117205531
 31
0.0
  0
ARC
  5
3ACA
330
18
100
AcDbEntity
  8
実線（中）
100
AcDbCircle
 10
323.9812342631769
 20
197.6931802175484
 30
0.0
 40
0.2
100
AcDbArc
 50
189.0
 51
279.0
  0
ARC
  5
3ACB
330
18
100
AcDbEntity
  8
実線（中）
100
AcDbCircle
 10
323.8873735841527
 20
198.2857932219054
 30
0.0
 40
0.2
100
AcDbArc
 50
99.00000000000002
 51
189.0
  0
LINE
  5
3ACC
330
18
100
AcDbEntity
  8
実線（中）
100
AcDbLine
 10
323.6898359160335
 20
198.2545063288974
 30
0.0
 11
323.7836965950577
 21
197.6618933245403
 31
0.0
  0
LINE
  5
3ACD
330
18
100
AcDbEntity
  8
実線（中）
100
AcDbLine
 10
324.0125211561849
 20
197.4956425494293
 30
0.0
 11
324.8026718286609
 21
197.6207901214614
 31
0.0
  0
LINE
  5
3ACE
330
18
100
AcDbEntity
  8
実線（中）
100
AcDbLine
 10
323.8560866911446
 20
198.4833308900244
 30
0.0
 11
324.6462373636207
 21
198.6084784620566
 31
0.0
  0
ARC
  5
3ACF
330
18
100
AcDbEntity
  8
実線（中）
100
AcDbCircle
 10
320.5161978295152
 20
208.2001611189869
 30
0.0
 40
0.2
100
AcDbArc
 50
342.0
 51
72.0
  0
LINE
  5
3AD0
330
18
100
AcDbEntity
  8
実線（中）
100
AcDbLine
 10
320.4711983038594
 20
205.7964192354455
 30
0.0
 11
321.2320435168956
 21
205.5492056399456
 31
0.0
  0
ARC
  5
3AD1
330
18
100
AcDbEntity
  8
実線（中）
100
AcDbCircle
 10
320.934723795422
 20
207.2230040098882
 30
0.0
 40
0.5
100
AcDbArc
 50
162.0000000000001
 51
252.0
  0
LINE
  5
3AD2
330
18
100
AcDbEntity
  8
実線（中）
100
AcDbLine
 10
320.7064091327741
 20
208.1383577201118
 30
0.0
 11
320.4591955372742
 21
207.3775125070757
 31
0.0
  0
ARC
  5
3AD3
330
18
100
AcDbEntity
  8
実線（中）
100
AcDbCircle
 10
319.9455639197382
 20
208.3855713156117
 30
0.0
 40
0.2
100
AcDbArc
 50
72.0
 51
162.0000000000001
  0
ARC
  5
3AD4
330
18
100
AcDbEntity
  8
実線（中）
100
AcDbCircle
 10
318.0554536537329
 20
207.4225120327314
 30
0.0
 40
0.2
100
AcDbArc
 50
72.0
 51
162.0000000000001
  0
LINE
  5
3AD5
330
18
100
AcDbEntity
  8
実線（中）
100
AcDbLine
 10
319.755352616479
 20
208.4473747144868
 30
0.0
 11
319.5081390209791
 21
207.6865295014506
 31
0.0
  0
LINE
  5
3AD6
330
18
100
AcDbEntity
  8
実線（中）
100
AcDbLine
 10
318.1172570526079
 20
207.6127233359904
 30
0.0
 11
318.8781022656439
 21
207.3655097404905
 31
0.0
  0
LINE
  5
3AD7
330
18
100
AcDbEntity
  8
実線（中）
100
AcDbLine
 10
319.8411615485242
 20
205.4753994744855
 30
0.0
 11
319.5939479530244
 21
204.7145542614491
 31
0.0
  0
LINE
  5
3AD8
330
18
100
AcDbEntity
  8
実線（中）
100
AcDbLine
 10
318.7712993411133
 20
204.7715565536902
 30
0.0
 11
319.3419332508905
 21
204.5861463570651
 31
0.0
  0
ARC
  5
3AD9
330
18
100
AcDbEntity
  8
実線（中）
100
AcDbCircle
 10
318.8331027399884
 20
204.9617678569492
 30
0.0
 40
0.2
100
AcDbArc
 50
162.0000000000001
 51
252.0
  0
ARC
  5
3ADA
330
18
100
AcDbEntity
  8
実線（中）
100
AcDbCircle
 10
319.4037366497655
 20
204.7763576603243
 30
0.0
 40
0.2
100
AcDbArc
 50
252.0
 51
342.0
  0
ARC
  5
3ADB
330
18
100
AcDbEntity
  8
実線（中）
100
AcDbCircle
 10
318.4145767740815
 20
205.9389249660478
 30
0.0
 40
0.5
100
AcDbArc
 50
342.0
 51
72.0
  0
ARC
  5
3ADC
330
18
100
AcDbEntity
  8
実線（中）
100
AcDbCircle
 10
317.870043457108
 20
206.8518781229544
 30
0.0
 40
0.2
100
AcDbArc
 50
162.0000000000001
 51
252.0
  0
LINE
  5
3ADD
330
18
100
AcDbEntity
  8
実線（中）
100
AcDbLine
 10
317.808240058233
 20
206.6616668196953
 30
0.0
 11
318.569085271269
 21
206.4144532241954
 31
0.0
  0
LINE
  5
3ADE
330
18
100
AcDbEntity
  8
実線（中）
100
AcDbLine
 10
318.8901050322292
 20
205.7844164688604
 30
0.0
 11
318.6428914367291
 21
205.0235712558243
 31
0.0
  0
LINE
  5
3ADF
330
18
100
AcDbEntity
  8
実線（中）
100
AcDbLine
 10
317.8652423504738
 20
207.4843154316064
 30
0.0
 11
317.6798321538488
 21
206.9136815218294
 31
0.0
  0
ARC
  5
3AE0
330
18
100
AcDbEntity
  8
実線（中）
100
AcDbCircle
 10
319.0326107628315
 20
207.8410379986382
 30
0.0
 40
0.5
100
AcDbArc
 50
252.0
 51
342.0
  0
ARC
  5
3AE1
330
18
100
AcDbEntity
  8
実線（中）
100
AcDbCircle
 10
320.316689806672
 20
205.3208909772979
 30
0.0
 40
0.5
100
AcDbArc
 50
72.0
 51
162.0000000000001
  0
LINE
  5
3AE2
330
18
100
AcDbEntity
  8
実線（中）
100
AcDbLine
 10
320.0073673186131
 20
208.5757826188709
 30
0.0
 11
320.5780012283903
 21
208.3903724222459
 31
0.0
  0
ARC
  5
3AE3
330
18
100
AcDbEntity
  8
実線（中）
100
AcDbCircle
 10
321.2938469157705
 20
205.7394169432046
 30
0.0
 40
0.2
100
AcDbArc
 50
252.0
 51
342.0
  0
LINE
  5
3AE4
330
18
100
AcDbEntity
  8
実線（中）
100
AcDbLine
 10
321.6694684156544
 20
206.2482474541067
 30
0.0
 11
321.4840582190295
 21
205.6776135443296
 31
0.0
  0
ARC
  5
3AE5
330
18
100
AcDbEntity
  8
実線（中）
100
AcDbCircle
 10
321.4792571123955
 20
206.3100508529817
 30
0.0
 40
0.2
100
AcDbArc
 50
342.0
 51
72.0
  0
LINE
  5
3AE6
330
18
100
AcDbEntity
  8
実線（中）
100
AcDbLine
 10
320.7802152982343
 20
206.7474757517406
 30
0.0
 11
321.5410605112705
 21
206.5002621562407
 31
0.0
  0
LINE
  5
3AE7
330
18
100
AcDbEntity
  8
実線（中）
100
AcDbLine
 10
314.6171180941014
 20
208.923874083661
 30
0.0
 11
319.0295277445661
 21
210.7515540036293
 31
0.0
  0
CIRCLE
  5
3AE8
330
18
100
AcDbEntity
  8
実線（中）
100
AcDbCircle
 10
320.0
 20
217.0
 30
0.0
 40
2.9
  0
ARC
  5
3AE9
330
18
100
AcDbEntity
  8
実線（中）
100
AcDbCircle
 10
321.0
 20
216.0
 30
0.0
 40
0.5
100
AcDbArc
 50
90.0
 51
180.0
  0
ARC
  5
3AEA
330
18
100
AcDbEntity
  8
実線（中）
100
AcDbCircle
 10
321.0
 20
218.0
 30
0.0
 40
0.5
100
AcDbArc
 50
180.0
 51
270.0
  0
ARC
  5
3AEB
330
18
100
AcDbEntity
  8
実線（中）
100
AcDbCircle
 10
320.3
 20
215.2
 30
0.0
 40
0.2
100
AcDbArc
 50
270.0
 51
0.0
  0
LINE
  5
3AEC
330
18
100
AcDbEntity
  8
実線（中）
100
AcDbLine
 10
320.5
 20
218.0
 30
0.0
 11
320.5
 21
218.8
 31
0.0
  0
LINE
  5
3AED
330
18
100
AcDbEntity
  8
実線（中）
100
AcDbLine
 10
320.5
 20
215.2
 30
0.0
 11
320.5
 21
216.0
 31
0.0
  0
ARC
  5
3AEE
330
18
100
AcDbEntity
  8
実線（中）
100
AcDbCircle
 10
320.3
 20
218.8
 30
0.0
 40
0.2
100
AcDbArc
 50
0.0
 51
90.0
  0
ARC
  5
3AEF
330
18
100
AcDbEntity
  8
実線（中）
100
AcDbCircle
 10
319.7
 20
215.2
 30
0.0
 40
0.2
100
AcDbArc
 50
180.0
 51
270.0
  0
ARC
  5
3AF0
330
18
100
AcDbEntity
  8
実線（中）
100
AcDbCircle
 10
318.2
 20
216.7
 30
0.0
 40
0.2
100
AcDbArc
 50
180.0
 51
270.0
  0
ARC
  5
3AF1
330
18
100
AcDbEntity
  8
実線（中）
100
AcDbCircle
 10
319.0
 20
216.0
 30
0.0
 40
0.5
100
AcDbArc
 50
0.0
 51
90.0
  0
LINE
  5
3AF2
330
18
100
AcDbEntity
  8
実線（中）
100
AcDbLine
 10
318.2
 20
216.5
 30
0.0
 11
319.0
 21
216.5
 31
0.0
  0
LINE
  5
3AF3
330
18
100
AcDbEntity
  8
実線（中）
100
AcDbLine
 10
319.5
 20
218.0
 30
0.0
 11
319.5
 21
218.8
 31
0.0
  0
ARC
  5
3AF4
330
18
100
AcDbEntity
  8
実線（中）
100
AcDbCircle
 10
319.0
 20
218.0
 30
0.0
 40
0.5
100
AcDbArc
 50
270.0
 51
0.0
  0
ARC
  5
3AF5
330
18
100
AcDbEntity
  8
実線（中）
100
AcDbCircle
 10
318.2
 20
217.3
 30
0.0
 40
0.2
100
AcDbArc
 50
90.0
 51
180.0
  0
LINE
  5
3AF6
330
18
100
AcDbEntity
  8
実線（中）
100
AcDbLine
 10
318.0
 20
216.7
 30
0.0
 11
318.0
 21
217.3
 31
0.0
  0
LINE
  5
3AF7
330
18
100
AcDbEntity
  8
実線（中）
100
AcDbLine
 10
318.2
 20
217.5
 30
0.0
 11
319.0
 21
217.5
 31
0.0
  0
LINE
  5
3AF8
330
18
100
AcDbEntity
  8
実線（中）
100
AcDbLine
 10
319.5
 20
215.2
 30
0.0
 11
319.5
 21
216.0
 31
0.0
  0
ARC
  5
3AF9
330
18
100
AcDbEntity
  8
実線（中）
100
AcDbCircle
 10
319.7
 20
218.8
 30
0.0
 40
0.2
100
AcDbArc
 50
90.0
 51
180.0
  0
LINE
  5
3AFA
330
18
100
AcDbEntity
  8
実線（中）
100
AcDbLine
 10
319.7
 20
215.0
 30
0.0
 11
320.3
 21
215.0
 31
0.0
  0
LINE
  5
3AFB
330
18
100
AcDbEntity
  8
実線（中）
100
AcDbLine
 10
319.7
 20
219.0
 30
0.0
 11
320.3
 21
219.0
 31
0.0
  0
ARC
  5
3AFC
330
18
100
AcDbEntity
  8
実線（中）
100
AcDbCircle
 10
321.8
 20
216.7
 30
0.0
 40
0.2
100
AcDbArc
 50
270.0
 51
0.0
  0
ARC
  5
3AFD
330
18
100
AcDbEntity
  8
実線（中）
100
AcDbCircle
 10
321.8
 20
217.3
 30
0.0
 40
0.2
100
AcDbArc
 50
0.0
 51
90.0
  0
LINE
  5
3AFE
330
18
100
AcDbEntity
  8
実線（中）
100
AcDbLine
 10
321.0
 20
216.5
 30
0.0
 11
321.8
 21
216.5
 31
0.0
  0
LINE
  5
3AFF
330
18
100
AcDbEntity
  8
実線（中）
100
AcDbLine
 10
321.0
 20
217.5
 30
0.0
 11
321.8
 21
217.5
 31
0.0
  0
LINE
  5
3B00
330
18
100
AcDbEntity
  8
実線（中）
100
AcDbLine
 10
322.0
 20
216.7
 30
0.0
 11
322.0
 21
217.3
 31
0.0
  0
MTEXT
  5
3B01
330
18
100
AcDbEntity
  8
実線（中）
100
AcDbMText
 10
332.8075106559369
 20
206.6772542369998
 30
0.0
 40
3.5
 41
0.0
 46
0.0
 71
     5
 72
     5
  1
M-
  7
寸法文字
 73
     1
 44
1.0
  0
MTEXT
  5
3B02
330
18
100
AcDbEntity
  8
実線（中）
100
AcDbMText
 10
329.8129975611348
 20
210.8497010576883
 30
0.0
 40
3.5
 41
0.0
 46
0.0
 71
     5
 72
     5
  1
M+
  7
寸法文字
 73
     1
 44
1.0
  0
ARC
  5
3B03
330
18
100
AcDbEntity
  8
実線（中）
100
AcDbCircle
 10
327.5369122893193
 20
198.2563442916933
 30
0.0
 40
0.2
100
AcDbArc
 50
279.0
 51
8.999999999999992
  0
LINE
  5
3B04
330
18
100
AcDbEntity
  8
実線（中）
100
AcDbLine
 10
327.640589278414
 20
198.8802441890583
 30
0.0
 11
327.7344499574382
 21
198.2876311847012
 31
0.0
  0
ARC
  5
3B05
330
18
100
AcDbEntity
  8
実線（中）
100
AcDbCircle
 10
326.8562657423714
 20
197.4398148812445
 30
0.0
 40
0.5
100
AcDbArc
 50
99.00000000000002
 51
189.0
  0
LINE
  5
3B06
330
18
100
AcDbEntity
  8
実線（中）
100
AcDbLine
 10
326.7780485098512
 20
197.933659051542
 30
0.0
 11
327.5681991823274
 21
198.0588066235742
 31
0.0
  0
ARC
  5
3B07
330
18
100
AcDbEntity
  8
実線（中）
100
AcDbCircle
 10
327.4430516102951
 20
198.8489572960503
 30
0.0
 40
0.2
100
AcDbArc
 50
8.999999999999992
 51
99.00000000000002
  0
ARC
  5
3B08
330
18
100
AcDbEntity
  8
実線（中）
100
AcDbCircle
 10
325.1342543974851
 20
200.0019774303585
 30
0.0
 40
0.2
100
AcDbArc
 50
99.00000000000002
 51
189.0
  0
LINE
  5
3B09
330
18
100
AcDbEntity
  8
実線（中）
100
AcDbLine
 10
325.102967504477
 20
200.1995150984776
 30
0.0
 11
325.6955805088342
 21
200.2933757775017
 31
0.0
  0
LINE
  5
3B0A
330
18
100
AcDbEntity
  8
実線（中）
100
AcDbLine
 10
325.924405069961
 20
200.1271250023906
 30
0.0
 11
326.0495526419933
 21
199.3369743299146
 31
0.0
  0
LINE
  5
3B0B
330
18
100
AcDbEntity
  8
実線（中）
100
AcDbLine
 10
324.936716729366
 20
199.9706905373505
 30
0.0
 11
325.0618643013981
 21
199.1805398648743
 31
0.0
  0
ARC
  5
3B0C
330
18
100
AcDbEntity
  8
実線（中）
100
AcDbCircle
 10
325.7268674018421
 20
200.0958381093826
 30
0.0
 40
0.2
100
AcDbArc
 50
8.999999999999992
 51
99.00000000000002
  0
ARC
  5
3B0D
330
18
100
AcDbEntity
  8
実線（中）
100
AcDbCircle
 10
326.543396812291
 20
199.4151915624347
 30
0.0
 40
0.5
100
AcDbArc
 50
189.0
 51
279.0
  0
LINE
  5
3B0E
330
18
100
AcDbEntity
  8
実線（中）
100
AcDbLine
 10
326.621614044811
 20
198.9213473921371
 30
0.0
 11
327.411764717287
 21
199.0464949641694
 31
0.0
  0
MTEXT
  5
3B0F
330
18
100
AcDbEntity
  8
実線（中）
100
AcDbMText
 10
337.3698925774341
 20
204.3190573943231
 30
0.0
 40
3.5
 41
0.0
 46
0.0
 71
     5
 72
     5
  1
⑨
  7
寸法文字
 73
     1
 44
1.0
  0
LINE
  5
3B10
330
18
100
AcDbEntity
  8
実線（中）
100
AcDbLine
 10
325.0
 20
215.0
 30
0.0
 11
325.0
 21
216.0
 31
0.0
  0
LINE
  5
3B11
330
18
100
AcDbEntity
  8
実線（中）
100
AcDbLine
 10
314.5990157671007
 20
221.0
 30
0.0
 11
320.0
 21
221.0
 31
0.0
  0
ARC
  5
3B12
330
18
100
AcDbEntity
  8
実線（中）
100
AcDbCircle
 10
340.0
 20
215.0
 30
0.0
 40
24.6
100
AcDbArc
 50
158.5990932642917
 51
165.8830194286969
  0
LINE
  5
3B1F
330
18
100
AcDbEntity
  8
実線（中）
100
AcDbLine
 10
354.7878570632641
 20
196.4710687567993
 30
0.0
 11
354.7878570632641
 21
197.2710687567992
 31
0.0
  0
LINE
  5
3B20
330
18
100
AcDbEntity
  8
実線（中）
100
AcDbLine
 10
353.7878570632641
 20
196.4710687567993
 30
0.0
 11
353.7878570632641
 21
197.2710687567992
 31
0.0
  0
CIRCLE
  5
3B21
330
18
100
AcDbEntity
  8
実線（中）
100
AcDbCircle
 10
354.2878570632641
 20
198.2710687567993
 30
0.0
 40
2.9
  0
ARC
  5
3B22
330
18
100
AcDbEntity
  8
実線（中）
100
AcDbCircle
 10
353.6384090149339
 20
199.0314747223994
 30
0.0
 40
4.099999999999999
100
AcDbArc
 50
40.50000000000002
 51
220.5
  0
DIMENSION
  5
3B24
330
18
100
AcDbEntity
  8
寸法線
100
AcDbDimension
280
     0
  2
*D26
 10
320.7917642559211
 20
186.196992436046
 30
0.0
 11
317.6740997969608
 21
188.8597294341998
 31
0.0
 70
   160
 71
     5
 42
-1.0
 73
     0
 74
     0
 75
     0
  3
標準小
100
AcDbAlignedDimension
 13
320.1421900603805
 23
198.0625449254632
 33
0.0
 14
326.377518978301
 24
192.7370709291556
 34
0.0
 50
319.5
100
AcDbRotatedDimension
1001
ACAD
1000
DSTYLE
1002
{
1070
    40
1040
1.0
1002
}
  0
LINE
  5
3B26
330
18
100
AcDbEntity
  8
実線（中）
100
AcDbLine
 10
350.0039945186884
 20
190.8933599672195
 30
0.0
 11
348.8890693146046
 21
195.537357663458
 31
0.0
  0
CIRCLE
  5
3B27
330
18
100
AcDbEntity
  8
実線（中）
100
AcDbCircle
 10
345.13579800483
 20
193.6078617512511
 30
0.0
 40
2.9
  0
ARC
  5
3B28
330
18
100
AcDbEntity
  8
実線（中）
100
AcDbCircle
 10
345.5728140292787
 20
192.2628647273231
 30
0.0
 40
0.5
100
AcDbArc
 50
63.0
 51
153.0
  0
LINE
  5
3B29
330
18
100
AcDbEntity
  8
実線（中）
100
AcDbLine
 10
345.1442852424753
 20
194.7258635253092
 30
0.0
 11
345.5074776422669
 21
195.43866874466
 31
0.0
  0
ARC
  5
3B2A
330
18
100
AcDbEntity
  8
実線（中）
100
AcDbCircle
 10
343.395789111369
 20
194.1577426935258
 30
0.0
 40
0.2
100
AcDbArc
 50
153.0
 51
243.0000000000001
  0
LINE
  5
3B2B
330
18
100
AcDbEntity
  8
実線（中）
100
AcDbLine
 10
343.2175878065312
 20
194.2485407934737
 30
0.0
 11
343.489982106375
 21
194.7831447079868
 31
0.0
  0
ARC
  5
3B2C
330
18
100
AcDbEntity
  8
実線（中）
100
AcDbCircle
 10
344.5859170625553
 20
191.8678528577903
 30
0.0
 40
0.2
100
AcDbArc
 50
243.0000000000001
 51
333.0
  0
ARC
  5
3B2D
330
18
100
AcDbEntity
  8
実線（中）
100
AcDbCircle
 10
344.0513131480423
 20
192.1402471576339
 30
0.0
 40
0.2
100
AcDbArc
 50
153.0
 51
243.0000000000001
  0
LINE
  5
3B2E
330
18
100
AcDbEntity
  8
実線（中）
100
AcDbLine
 10
343.9605150480943
 20
191.9620458527962
 30
0.0
 11
344.4951189626073
 21
191.6896515529524
 31
0.0
  0
LINE
  5
3B2F
330
18
100
AcDbEntity
  8
実線（中）
100
AcDbLine
 10
343.7589815111607
 20
194.8705479128763
 30
0.0
 11
344.4717867305113
 21
194.5073555130848
 31
0.0
  0
LINE
  5
3B30
330
18
100
AcDbEntity
  8
実線（中）
100
AcDbLine
 10
343.304991011421
 20
193.9795413886881
 30
0.0
 11
344.0177962307718
 21
193.6163489888965
 31
0.0
  0
ARC
  5
3B31
330
18
100
AcDbEntity
  8
実線（中）
100
AcDbCircle
 10
343.6681834112127
 20
194.6923466080388
 30
0.0
 40
0.2
100
AcDbArc
 50
63.0
 51
153.0
  0
ARC
  5
3B32
330
18
100
AcDbEntity
  8
実線（中）
100
AcDbCircle
 10
343.790800980902
 20
193.1708457268023
 30
0.0
 40
0.5
100
AcDbArc
 50
333.0
 51
63.0
  0
LINE
  5
3B33
330
18
100
AcDbEntity
  8
実線（中）
100
AcDbLine
 10
343.8731118432047
 20
192.2310452575818
 30
0.0
 11
344.2363042429962
 21
192.9438504769323
 31
0.0
  0
LINE
  5
3B34
330
18
100
AcDbEntity
  8
実線（中）
100
AcDbLine
 10
344.7641183673929
 20
191.7770547578423
 30
0.0
 11
345.1273107671846
 21
192.4898599771929
 31
0.0
  0
ARC
  5
3B35
330
18
100
AcDbEntity
  8
実線（中）
100
AcDbCircle
 10
344.6987819803812
 20
194.9528587751791
 30
0.0
 40
0.5
100
AcDbArc
 50
243.0000000000001
 51
333.0
  0
ARC
  5
3B36
330
18
100
AcDbEntity
  8
実線（中）
100
AcDbCircle
 10
346.2202828616177
 20
195.0754763448683
 30
0.0
 40
0.2
100
AcDbArc
 50
333.0
 51
63.0
  0
LINE
  5
3B37
330
18
100
AcDbEntity
  8
実線（中）
100
AcDbLine
 10
345.7764770470525
 20
195.5260719495496
 30
0.0
 11
346.3110809615655
 21
195.2536776497059
 31
0.0
  0
ARC
  5
3B38
330
18
100
AcDbEntity
  8
実線（中）
100
AcDbCircle
 10
346.4807950287579
 20
194.0448777757
 30
0.0
 40
0.5
100
AcDbArc
 50
153.0
 51
243.0000000000001
  0
LINE
  5
3B39
330
18
100
AcDbEntity
  8
実線（中）
100
AcDbLine
 10
346.253799778888
 20
193.5993745136057
 30
0.0
 11
346.9666049982389
 21
193.2361821138141
 31
0.0
  0
LINE
  5
3B3A
330
18
100
AcDbEntity
  8
実線（中）
100
AcDbLine
 10
346.7816139032848
 20
192.4325787945155
 30
0.0
 11
347.0540082031287
 21
192.9671827090286
 31
0.0
  0
ARC
  5
3B3B
330
18
100
AcDbEntity
  8
実線（中）
100
AcDbCircle
 10
346.6034125984472
 20
192.5233768944636
 30
0.0
 40
0.2
100
AcDbArc
 50
243.0000000000001
 51
333.0
  0
ARC
  5
3B3C
330
18
100
AcDbEntity
  8
実線（中）
100
AcDbCircle
 10
346.8758068982909
 20
193.0579808089765
 30
0.0
 40
0.2
100
AcDbArc
 50
333.0
 51
63.0
  0
LINE
  5
3B3D
330
18
100
AcDbEntity
  8
実線（中）
100
AcDbLine
 10
346.0352917666636
 20
194.2718730255697
 30
0.0
 11
346.3984841664552
 21
194.9846782449204
 31
0.0
  0
ARC
  5
3B3E
330
18
100
AcDbEntity
  8
実線（中）
100
AcDbCircle
 10
345.6856789471046
 20
195.3478706447121
 30
0.0
 40
0.2
100
AcDbArc
 50
63.0
 51
153.0
  0
LINE
  5
3B3F
330
18
100
AcDbEntity
  8
実線（中）
100
AcDbLine
 10
345.7998092791485
 20
192.7083679894173
 30
0.0
 11
346.5126144984992
 21
192.3451755896257
 31
0.0
  0
LINE
  5
3B40
330
18
100
AcDbEntity
  8
実線（中）
100
AcDbLine
 10
353.6224810216991
 20
192.7370709291556
 30
0.0
 11
350.5207445559737
 21
196.3687377242456
 31
0.0
  0
ARC
  5
3B41
330
18
100
AcDbEntity
  8
実線（中）
100
AcDbCircle
 10
354.587857063264
 20
196.4710687567994
 30
0.0
 40
0.2
100
AcDbArc
 50
270.0000000000001
 51
0.0
  0
ARC
  5
3B42
330
18
100
AcDbEntity
  8
実線（中）
100
AcDbCircle
 10
353.9878570632641
 20
196.4710687567992
 30
0.0
 40
0.2
100
AcDbArc
 50
180.0
 51
270.0000000000001
  0
LINE
  5
3B43
330
18
100
AcDbEntity
  8
実線（中）
100
AcDbLine
 10
353.987857063264
 20
196.2710687567992
 30
0.0
 11
354.587857063264
 21
196.2710687567992
 31
0.0
  0
CIRCLE
  5
3B45
330
18
100
AcDbEntity
  8
実線（中）
100
AcDbCircle
 10
360.0
 20
217.0
 30
0.0
 40
3.5
  0
ARC
  5
3B46
330
18
100
AcDbEntity
  8
実線（中）
100
AcDbCircle
 10
360.0
 20
216.0
 30
0.0
 40
5.0
100
AcDbArc
 50
90.0
 51
180.0
  0
CIRCLE
  5
3B47
330
18
100
AcDbEntity
  8
実線（中）
100
AcDbCircle
 10
360.0
 20
217.0
 30
0.0
 40
2.9
  0
LINE
  5
3B48
330
18
100
AcDbEntity
  8
実線（中）
100
AcDbLine
 10
359.8578099396194
 20
198.0625449254631
 30
0.0
 11
356.7560734738941
 21
201.6942117205531
 31
0.0
  0
CIRCLE
  5
3B49
330
18
100
AcDbEntity
  8
実線（中）
100
AcDbCircle
 10
360.3253497152484
 20
206.580964487968
 30
0.0
 40
2.9
  0
ARC
  5
3B4A
330
18
100
AcDbEntity
  8
実線（中）
100
AcDbCircle
 10
359.4014701827371
 20
206.9636479203331
 30
0.0
 40
4.099999999999999
100
AcDbArc
 50
67.5
 51
247.5
  0
MTEXT
  5
3B4B
330
18
100
AcDbEntity
  8
実線（中）
100
AcDbMText
 10
347.0951257290068
 20
206.5940978539132
 30
0.0
 40
3.5
 41
0.0
 46
0.0
 71
     5
 72
     5
  1
⑪
  7
寸法文字
 73
     1
 44
1.0
  0
MTEXT
  5
3B4C
330
18
100
AcDbEntity
  8
実線（中）
100
AcDbMText
 10
350.1380030305455
 20
210.7314060215744
 30
0.0
 40
3.5
 41
0.0
 46
0.0
 71
     5
 72
     5
  1
⑫
  7
寸法文字
 73
     1
 44
1.0
  0
ARC
  5
3B4D
330
18
100
AcDbEntity
  8
実線（中）
100
AcDbCircle
 10
353.2878570632641
 20
199.2710687567994
 30
0.0
 40
0.5
100
AcDbArc
 50
270.0000000000001
 51
0.0
  0
ARC
  5
3B4E
330
18
100
AcDbEntity
  8
実線（中）
100
AcDbCircle
 10
353.287857063264
 20
197.2710687567992
 30
0.0
 40
0.5
100
AcDbArc
 50
0.0
 51
90.0
  0
ARC
  5
3B4F
330
18
100
AcDbEntity
  8
実線（中）
100
AcDbCircle
 10
352.4878570632641
 20
197.9710687567993
 30
0.0
 40
0.2
100
AcDbArc
 50
180.0
 51
270.0000000000001
  0
LINE
  5
3B50
330
18
100
AcDbEntity
  8
実線（中）
100
AcDbLine
 10
352.2878570632639
 20
197.9710687567993
 30
0.0
 11
352.2878570632639
 21
198.5710687567993
 31
0.0
  0
ARC
  5
3B51
330
18
100
AcDbEntity
  8
実線（中）
100
AcDbCircle
 10
352.4878570632639
 20
198.5710687567992
 30
0.0
 40
0.2
100
AcDbArc
 50
90.0
 51
180.0
  0
LINE
  5
3B52
330
18
100
AcDbEntity
  8
実線（中）
100
AcDbLine
 10
352.4878570632641
 20
198.7710687567992
 30
0.0
 11
353.287857063264
 21
198.7710687567992
 31
0.0
  0
LINE
  5
3B53
330
18
100
AcDbEntity
  8
実線（中）
100
AcDbLine
 10
352.4878570632639
 20
197.7710687567992
 30
0.0
 11
353.287857063264
 21
197.7710687567993
 31
0.0
  0
ARC
  5
3B54
330
18
100
AcDbEntity
  8
実線（中）
100
AcDbCircle
 10
354.587857063264
 20
200.0710687567993
 30
0.0
 40
0.2
100
AcDbArc
 50
0.0
 51
90.0
  0
LINE
  5
3B55
330
18
100
AcDbEntity
  8
実線（中）
100
AcDbLine
 10
353.9878570632641
 20
200.2710687567992
 30
0.0
 11
354.587857063264
 21
200.2710687567992
 31
0.0
  0
ARC
  5
3B56
330
18
100
AcDbEntity
  8
実線（中）
100
AcDbCircle
 10
355.287857063264
 20
199.2710687567993
 30
0.0
 40
0.5
100
AcDbArc
 50
180.0
 51
270.0000000000001
  0
LINE
  5
3B57
330
18
100
AcDbEntity
  8
実線（中）
100
AcDbLine
 10
355.287857063264
 20
198.7710687567992
 30
0.0
 11
356.0878570632641
 21
198.7710687567993
 31
0.0
  0
LINE
  5
3B58
330
18
100
AcDbEntity
  8
実線（中）
100
AcDbLine
 10
356.287857063264
 20
197.9710687567993
 30
0.0
 11
356.2878570632641
 21
198.5710687567994
 31
0.0
  0
ARC
  5
3B59
330
18
100
AcDbEntity
  8
実線（中）
100
AcDbCircle
 10
356.087857063264
 20
197.9710687567994
 30
0.0
 40
0.2
100
AcDbArc
 50
270.0000000000001
 51
0.0
  0
ARC
  5
3B5A
330
18
100
AcDbEntity
  8
実線（中）
100
AcDbCircle
 10
356.087857063264
 20
198.5710687567993
 30
0.0
 40
0.2
100
AcDbArc
 50
0.0
 51
90.0
  0
LINE
  5
3B5B
330
18
100
AcDbEntity
  8
実線（中）
100
AcDbLine
 10
354.787857063264
 20
199.2710687567993
 30
0.0
 11
354.787857063264
 21
200.0710687567993
 31
0.0
  0
ARC
  5
3B5C
330
18
100
AcDbEntity
  8
実線（中）
100
AcDbCircle
 10
353.987857063264
 20
200.0710687567994
 30
0.0
 40
0.2
100
AcDbArc
 50
90.0
 51
180.0
  0
ARC
  5
3B5D
330
18
100
AcDbEntity
  8
実線（中）
100
AcDbCircle
 10
355.287857063264
 20
197.2710687567992
 30
0.0
 40
0.5
100
AcDbArc
 50
90.0
 51
180.0
  0
LINE
  5
3B5E
330
18
100
AcDbEntity
  8
実線（中）
100
AcDbLine
 10
355.2878570632639
 20
197.7710687567993
 30
0.0
 11
356.087857063264
 21
197.7710687567992
 31
0.0
  0
LINE
  5
3B5F
330
18
100
AcDbEntity
  8
実線（中）
100
AcDbLine
 10
353.787857063264
 20
199.2710687567992
 30
0.0
 11
353.7878570632639
 21
200.0710687567992
 31
0.0
  0
LINE
  5
3B60
330
18
100
AcDbEntity
  8
実線（中）
100
AcDbLine
 10
355.0
 20
215.0
 30
0.0
 11
355.0
 21
216.0
 31
0.0
  0
LINE
  5
3B61
330
18
100
AcDbEntity
  8
実線（中）
100
AcDbLine
 10
362.2448777605049
 20
201.3480619170684
 30
0.0
 11
357.8324681100402
 21
203.1757418370369
 31
0.0
  0
ARC
  5
3B62
330
18
100
AcDbEntity
  8
実線（中）
100
AcDbCircle
 10
361.7929643088654
 20
207.6654493447557
 30
0.0
 40
0.2
100
AcDbArc
 50
26.99999999999998
 51
117.0
  0
LINE
  5
3B63
330
18
100
AcDbEntity
  8
実線（中）
100
AcDbLine
 10
361.4433514893064
 20
206.5894517256134
 30
0.0
 11
362.1561567086571
 21
206.9526441254049
 31
0.0
  0
ARC
  5
3B64
330
18
100
AcDbEntity
  8
実線（中）
100
AcDbCircle
 10
361.409834572036
 20
205.1133498943508
 30
0.0
 40
0.2
100
AcDbArc
 50
297.0000000000001
 51
26.99999999999998
  0
ARC
  5
3B65
330
18
100
AcDbEntity
  8
実線（中）
100
AcDbCircle
 10
359.7754687729737
 20
208.3209733814289
 30
0.0
 40
0.2
100
AcDbArc
 50
26.99999999999998
 51
117.0
  0
LINE
  5
3B66
330
18
100
AcDbEntity
  8
実線（中）
100
AcDbLine
 10
359.1500667585127
 20
208.2267803864228
 30
0.0
 11
359.6846706730258
 21
208.4991746862665
 31
0.0
  0
ARC
  5
3B67
330
18
100
AcDbEntity
  8
実線（中）
100
AcDbCircle
 10
360.7623657396971
 20
207.9259615118959
 30
0.0
 40
0.5
100
AcDbArc
 50
207.0
 51
297.0000000000001
  0
LINE
  5
3B68
330
18
100
AcDbEntity
  8
実線（中）
100
AcDbLine
 10
360.3168624776029
 20
207.6989662620261
 30
0.0
 11
359.9536700778112
 21
208.4117714813768
 31
0.0
  0
ARC
  5
3B69
330
18
100
AcDbEntity
  8
実線（中）
100
AcDbCircle
 10
359.2408648584605
 20
208.0485790815852
 30
0.0
 40
0.2
100
AcDbArc
 50
117.0
 51
207.0
  0
ARC
  5
3B6A
330
18
100
AcDbEntity
  8
実線（中）
100
AcDbCircle
 10
358.8577351216311
 20
205.4964796311804
 30
0.0
 40
0.2
100
AcDbArc
 50
207.0
 51
297.0000000000001
  0
LINE
  5
3B6B
330
18
100
AcDbEntity
  8
実線（中）
100
AcDbLine
 10
358.6795338167934
 20
205.4056815312324
 30
0.0
 11
358.4071395169496
 21
205.9402854457455
 31
0.0
  0
ARC
  5
3B6C
330
18
100
AcDbEntity
  8
実線（中）
100
AcDbCircle
 10
360.8752306575231
 20
204.840955594507
 30
0.0
 40
0.2
100
AcDbArc
 50
207.0
 51
297.0000000000001
  0
LINE
  5
3B6D
330
18
100
AcDbEntity
  8
実線（中）
100
AcDbLine
 10
358.4945427218396
 20
206.2092848505309
 30
0.0
 11
359.2073479411902
 21
206.5724772503227
 31
0.0
  0
LINE
  5
3B6E
330
18
100
AcDbEntity
  8
実線（中）
100
AcDbLine
 10
358.9485332215789
 20
205.3182783263426
 30
0.0
 11
359.6613384409297
 21
205.6814707261342
 31
0.0
  0
ARC
  5
3B6F
330
18
100
AcDbEntity
  8
実線（中）
100
AcDbCircle
 10
358.5853408217873
 20
206.0310835456933
 30
0.0
 40
0.2
100
AcDbArc
 50
117.0
 51
207.0
  0
ARC
  5
3B70
330
18
100
AcDbEntity
  8
実線（中）
100
AcDbCircle
 10
358.9803526913204
 20
207.0179805124169
 30
0.0
 40
0.5
100
AcDbArc
 50
297.0000000000001
 51
26.99999999999998
  0
ARC
  5
3B71
330
18
100
AcDbEntity
  8
実線（中）
100
AcDbCircle
 10
359.8883336907995
 20
205.23596746404
 30
0.0
 40
0.5
100
AcDbArc
 50
26.99999999999998
 51
117.0
  0
LINE
  5
3B72
330
18
100
AcDbEntity
  8
実線（中）
100
AcDbLine
 10
360.6970293526854
 20
204.7501574945592
 30
0.0
 11
360.3338369528938
 21
205.4629627139098
 31
0.0
  0
LINE
  5
3B73
330
18
100
AcDbEntity
  8
実線（中）
100
AcDbLine
 10
359.4258559534146
 20
207.2449757622865
 30
0.0
 11
359.0626635536229
 21
207.9577809816372
 31
0.0
  0
LINE
  5
3B74
330
18
100
AcDbEntity
  8
実線（中）
100
AcDbLine
 10
360.9893609895669
 20
207.4804582498016
 30
0.0
 11
361.7021662089177
 21
207.8436506495935
 31
0.0
  0
ARC
  5
3B75
330
18
100
AcDbEntity
  8
実線（中）
100
AcDbCircle
 10
361.6703467391764
 20
206.1439484635191
 30
0.0
 40
0.5
100
AcDbArc
 50
117.0
 51
207.0
  0
LINE
  5
3B76
330
18
100
AcDbEntity
  8
実線（中）
100
AcDbLine
 10
360.9660287574709
 20
204.6627542896693
 30
0.0
 11
361.5006326719839
 21
204.9351485895131
 31
0.0
  0
LINE
  5
3B77
330
18
100
AcDbEntity
  8
実線（中）
100
AcDbLine
 10
361.5880358768736
 20
205.2041479942988
 30
0.0
 11
361.2248434770821
 21
205.9169532136493
 31
0.0
  0
ARC
  5
3B78
330
18
100
AcDbEntity
  8
実線（中）
100
AcDbCircle
 10
362.0653586087092
 20
207.1308454302427
 30
0.0
 40
0.2
100
AcDbArc
 50
297.0000000000001
 51
26.99999999999998
  0
LINE
  5
3B79
330
18
100
AcDbEntity
  8
実線（中）
100
AcDbLine
 10
362.2435599135469
 20
207.2216435301906
 30
0.0
 11
361.9711656137032
 21
207.7562474447038
 31
0.0
  0
LINE
  5
3B7A
330
18
100
AcDbEntity
  8
実線（中）
100
AcDbLine
 10
365.3828819058986
 20
208.923874083661
 30
0.0
 11
360.970472255434
 21
210.7515540036295
 31
0.0
  0
LINE
  5
3B7B
330
18
100
AcDbEntity
  8
実線（中）
100
AcDbLine
 10
361.0
 20
216.5
 30
0.0
 11
361.8
 21
216.5
 31
0.0
  0
LINE
  5
3B7C
330
18
100
AcDbEntity
  8
実線（中）
100
AcDbLine
 10
361.0
 20
217.5
 30
0.0
 11
361.8
 21
217.5
 31
0.0
  0
LINE
  5
3B7D
330
18
100
AcDbEntity
  8
実線（中）
100
AcDbLine
 10
359.7
 20
219.0
 30
0.0
 11
360.3
 21
219.0
 31
0.0
  0
ARC
  5
3B7E
330
18
100
AcDbEntity
  8
実線（中）
100
AcDbCircle
 10
358.2
 20
216.7
 30
0.0
 40
0.2
100
AcDbArc
 50
180.0
 51
270.0
  0
LINE
  5
3B7F
330
18
100
AcDbEntity
  8
実線（中）
100
AcDbLine
 10
359.5
 20
215.2
 30
0.0
 11
359.5
 21
216.0
 31
0.0
  0
LINE
  5
3B80
330
18
100
AcDbEntity
  8
実線（中）
100
AcDbLine
 10
360.5
 20
215.2
 30
0.0
 11
360.5
 21
216.0
 31
0.0
  0
LINE
  5
3B81
330
18
100
AcDbEntity
  8
実線（中）
100
AcDbLine
 10
359.7
 20
215.0
 30
0.0
 11
360.3
 21
215.0
 31
0.0
  0
ARC
  5
3B82
330
18
100
AcDbEntity
  8
実線（中）
100
AcDbCircle
 10
359.7
 20
215.2
 30
0.0
 40
0.2
100
AcDbArc
 50
180.0
 51
270.0
  0
ARC
  5
3B83
330
18
100
AcDbEntity
  8
実線（中）
100
AcDbCircle
 10
360.3
 20
215.2
 30
0.0
 40
0.2
100
AcDbArc
 50
270.0
 51
0.0
  0
ARC
  5
3B84
330
18
100
AcDbEntity
  8
実線（中）
100
AcDbCircle
 10
359.0
 20
216.0
 30
0.0
 40
0.5
100
AcDbArc
 50
0.0
 51
90.0
  0
ARC
  5
3B85
330
18
100
AcDbEntity
  8
実線（中）
100
AcDbCircle
 10
361.0
 20
216.0
 30
0.0
 40
0.5
100
AcDbArc
 50
90.0
 51
180.0
  0
LINE
  5
3B86
330
18
100
AcDbEntity
  8
実線（中）
100
AcDbLine
 10
358.2
 20
216.5
 30
0.0
 11
359.0
 21
216.5
 31
0.0
  0
LINE
  5
3B87
330
18
100
AcDbEntity
  8
実線（中）
100
AcDbLine
 10
359.5
 20
218.0
 30
0.0
 11
359.5
 21
218.8
 31
0.0
  0
ARC
  5
3B88
330
18
100
AcDbEntity
  8
実線（中）
100
AcDbCircle
 10
359.0
 20
218.0
 30
0.0
 40
0.5
100
AcDbArc
 50
270.0
 51
0.0
  0
LINE
  5
3B89
330
18
100
AcDbEntity
  8
実線（中）
100
AcDbLine
 10
360.5
 20
218.0
 30
0.0
 11
360.5
 21
218.8
 31
0.0
  0
ARC
  5
3B8A
330
18
100
AcDbEntity
  8
実線（中）
100
AcDbCircle
 10
361.0
 20
218.0
 30
0.0
 40
0.5
100
AcDbArc
 50
180.0
 51
270.0
  0
ARC
  5
3B8B
330
18
100
AcDbEntity
  8
実線（中）
100
AcDbCircle
 10
358.2
 20
217.3
 30
0.0
 40
0.2
100
AcDbArc
 50
90.0
 51
180.0
  0
LINE
  5
3B8C
330
18
100
AcDbEntity
  8
実線（中）
100
AcDbLine
 10
358.0
 20
216.7
 30
0.0
 11
358.0
 21
217.3
 31
0.0
  0
LINE
  5
3B8D
330
18
100
AcDbEntity
  8
実線（中）
100
AcDbLine
 10
358.2
 20
217.5
 30
0.0
 11
359.0
 21
217.5
 31
0.0
  0
ARC
  5
3B8E
330
18
100
AcDbEntity
  8
実線（中）
100
AcDbCircle
 10
359.7
 20
218.8
 30
0.0
 40
0.2
100
AcDbArc
 50
90.0
 51
180.0
  0
ARC
  5
3B8F
330
18
100
AcDbEntity
  8
実線（中）
100
AcDbCircle
 10
360.3
 20
218.8
 30
0.0
 40
0.2
100
AcDbArc
 50
0.0
 51
90.0
  0
ARC
  5
3B90
330
18
100
AcDbEntity
  8
実線（中）
100
AcDbCircle
 10
361.8
 20
216.7
 30
0.0
 40
0.2
100
AcDbArc
 50
270.0
 51
0.0
  0
ARC
  5
3B91
330
18
100
AcDbEntity
  8
実線（中）
100
AcDbCircle
 10
361.8
 20
217.3
 30
0.0
 40
0.2
100
AcDbArc
 50
0.0
 51
90.0
  0
LINE
  5
3B92
330
18
100
AcDbEntity
  8
実線（中）
100
AcDbLine
 10
362.0
 20
216.7
 30
0.0
 11
362.0
 21
217.3
 31
0.0
  0
LINE
  5
3B93
330
18
100
AcDbEntity
  8
実線（中）
100
AcDbLine
 10
360.0
 20
221.0
 30
0.0
 11
365.4009842328993
 21
221.0
 31
0.0
  0
ARC
  5
3B94
330
18
100
AcDbEntity
  8
実線（中）
100
AcDbCircle
 10
340.0
 20
215.0
 30
0.0
 40
24.6
100
AcDbArc
 50
14.1146322302583
 51
21.40090673570826
  0
LINE
  5
3DB7
330
18
100
AcDbEntity
  8
実線（中）
100
AcDbLine
 10
241.0000000000001
 20
208.7325323674781
 30
0.0
 11
241.0000000000001
 21
201.3480619170684
 31
0.0
  0
LINE
  5
3DB8
330
18
100
AcDbEntity
  8
実線（中）
100
AcDbLine
 10
244.0000000000001
 20
203.906285053487
 30
0.0
 11
244.0000000000001
 21
198.0625449254631
 31
0.0
  0
LINE
  5
3DB9
330
18
100
AcDbEntity
  8
実線（中）
100
AcDbLine
 10
241.0000000000001
 20
190.8933599672194
 30
0.0
 11
241.0000000000001
 21
188.9791079836011
 31
0.0
  0
LINE
  5
3DBA
330
18
100
AcDbEntity
  8
実線（中）
100
AcDbLine
 10
244.0000000000001
 20
195.5963893223182
 30
0.0
 11
244.0000000000001
 21
188.9
 31
0.0
  0
LINE
  5
3DBB
330
18
100
AcDbEntity
  8
実線（中）
100
AcDbLine
 10
244.0000000000001
 20
188.9
 30
0.0
 11
239.5
 21
188.9
 31
0.0
  0
LINE
  5
3DBC
330
18
100
AcDbEntity
  8
実線（中）
100
AcDbLine
 10
244.0000000000001
 20
188.9791079836011
 30
0.0
 11
241.0000000000001
 21
188.9791079836011
 31
0.0
  0
LINE
  5
3DBD
330
18
100
AcDbEntity
  8
実線（中）
100
AcDbLine
 10
244.0000000000001
 20
201.3480619170684
 30
0.0
 11
241.0000000000001
 21
201.3480619170684
 31
0.0
  0
LINE
  5
3DBE
330
18
100
AcDbEntity
  8
実線（中）
100
AcDbLine
 10
244.0000000000001
 20
198.0625449254631
 30
0.0
 11
241.0000000000001
 21
198.0625449254631
 31
0.0
  0
LINE
  5
3DBF
330
18
100
AcDbEntity
  8
実線（中）
100
AcDbLine
 10
241.0000000000001
 20
195.2730687567992
 30
0.0
 11
242.0430000000001
 21
195.2730687567992
 31
0.0
  0
LINE
  5
3DC0
330
18
100
AcDbEntity
  8
実線（中）
100
AcDbLine
 10
244.0000000000001
 20
192.7370709291556
 30
0.0
 11
241.0000000000001
 21
192.7370709291556
 31
0.0
  0
LINE
  5
3DC1
330
18
100
AcDbEntity
  8
実線（中）
100
AcDbLine
 10
241.0000000000001
 20
190.609861751251
 30
0.0
 11
242.043
 21
190.609861751251
 31
0.0
  0
LINE
  5
3DC2
330
18
100
AcDbEntity
  8
実線（中）
100
AcDbLine
 10
244.0000000000001
 20
190.8933599672195
 30
0.0
 11
241.0000000000001
 21
190.8933599672195
 31
0.0
  0
ARC
  5
3DC3
330
18
100
AcDbEntity
  8
実線（中）
100
AcDbCircle
 10
231.4600000000002
 20
198.2710687567992
 30
0.0
 40
10.0
100
AcDbArc
 50
342.554373288772
 51
358.8051598525435
  0
LINE
  5
3DC4
330
18
100
AcDbEntity
  8
実線（中）
100
AcDbLine
 10
241.0000000000001
 20
198.0625449254631
 30
0.0
 11
241.0000000000001
 21
192.7370709291556
 31
0.0
  0
ARC
  5
3DC5
330
18
100
AcDbEntity
  8
実線（中）
100
AcDbCircle
 10
231.4600000000001
 20
193.6078617512511
 30
0.0
 40
10.0
100
AcDbArc
 50
342.554373288772
 51
344.2494208510207
  0
ARC
  5
3DC6
330
18
100
AcDbEntity
  8
実線（中）
100
AcDbCircle
 10
243.3000000000002
 20
196.5710687567992
 30
0.0
 40
1.2
100
AcDbArc
 50
270.0
 51
0.0
  0
ARC
  5
3DC7
330
18
100
AcDbEntity
  8
実線（中）
100
AcDbCircle
 10
243.3000000000002
 20
195.3078617512511
 30
0.0
 40
1.199999999999903
100
AcDbArc
 50
359.9999999999959
 51
31.75824273487606
  0
ARC
  5
3DC8
330
18
100
AcDbEntity
  8
実線（中）
100
AcDbCircle
 10
231.4600000000002
 20
198.2710687567992
 30
0.0
 40
11.0
100
AcDbArc
 50
344.178383797065
 51
358.9137953499268
  0
LINE
  5
3DC9
330
18
100
AcDbEntity
  8
実線（中）
100
AcDbLine
 10
242.5000000000001
 20
195.3710687567992
 30
0.0
 11
242.5000000000001
 21
198.062544925463
 31
0.0
  0
LINE
  5
3DCA
330
18
100
AcDbEntity
  8
実線（中）
100
AcDbLine
 10
242.5000000000001
 20
195.3710687567992
 30
0.0
 11
243.3000000000002
 21
195.3710687567992
 31
0.0
  0
LINE
  5
3DCB
330
18
100
AcDbEntity
  8
実線（中）
100
AcDbLine
 10
244.5000000000001
 20
191.9078617512511
 30
0.0
 11
244.5000000000001
 21
195.3078617512511
 31
0.0
  0
ARC
  5
3DCC
330
18
100
AcDbEntity
  8
実線（中）
100
AcDbCircle
 10
231.4600000000001
 20
193.6078617512511
 30
0.0
 40
11.0
100
AcDbArc
 50
344.178383797065
 51
345.7133697763179
  0
LINE
  5
3DCD
330
18
100
AcDbEntity
  8
実線（中）
100
AcDbLine
 10
242.5000000000001
 20
190.707861751251
 30
0.0
 11
242.5000000000001
 21
190.8933599672195
 31
0.0
  0
LINE
  5
3DCE
330
18
100
AcDbEntity
  8
実線（中）
100
AcDbLine
 10
242.5000000000001
 20
190.707861751251
 30
0.0
 11
243.3000000000001
 21
190.707861751251
 31
0.0
  0
ARC
  5
3DCF
330
18
100
AcDbEntity
  8
実線（中）
100
AcDbCircle
 10
243.3000000000001
 20
191.9078617512511
 30
0.0
 40
1.2
100
AcDbArc
 50
270.0
 51
302.2832347372061
  0
ARC
  5
3DD0
330
18
100
AcDbEntity
  8
実線（中）
100
AcDbCircle
 10
243.3000000000001
 20
191.9078617512511
 30
0.0
 40
1.2
100
AcDbArc
 50
305.6853347126491
 51
0.0
  0
ARC
  5
3DD1
330
18
100
AcDbEntity
  8
実線（中）
100
AcDbCircle
 10
243.3000000000002
 20
199.9710687567992
 30
0.0
 40
1.199999999999988
100
AcDbArc
 50
0.000000000001357
 51
54.31466528735171
  0
LINE
  5
3DD2
330
18
100
AcDbEntity
  8
実線（中）
100
AcDbLine
 10
244.5000000000001
 20
196.5710687567992
 30
0.0
 11
244.5000000000001
 21
199.9710687567992
 31
0.0
  0
LINE
  5
3DD3
330
18
100
AcDbEntity
  8
実線（中）
100
AcDbLine
 10
241.0
 20
241.1
 30
0.0
 11
241.0000000000001
 21
225.0
 31
0.0
  0
LINE
  5
3DD4
330
18
100
AcDbEntity
  8
実線（中）
100
AcDbLine
 10
243.0000000000001
 20
217.0
 30
0.0
 11
243.0000000000001
 21
213.0
 31
0.0
  0
LINE
  5
3DD5
330
18
100
AcDbEntity
  8
実線（中）
100
AcDbLine
 10
241.0000000000001
 20
217.0
 30
0.0
 11
241.0000000000001
 21
213.0
 31
0.0
  0
LINE
  5
3DD6
330
18
100
AcDbEntity
  8
実線（中）
100
AcDbLine
 10
241.5
 20
217.0
 30
0.0
 11
241.5
 21
213.0
 31
0.0
  0
LINE
  5
3DD7
330
18
100
AcDbEntity
  8
実線（中）
100
AcDbLine
 10
244.0000000000001
 20
221.0
 30
0.0
 11
244.0000000000001
 21
208.7325323674781
 31
0.0
  0
LINE
  5
3DD8
330
18
100
AcDbEntity
  8
実線（中）
100
AcDbLine
 10
241.0000000000001
 20
213.0
 30
0.0
 11
243.0000000000001
 21
213.0
 31
0.0
  0
ARC
  5
3DD9
330
18
100
AcDbEntity
  8
実線（中）
100
AcDbCircle
 10
231.4600000000002
 20
206.580964487968
 30
0.0
 40
10.0
100
AcDbArc
 50
342.554373288772
 51
12.42472586874011
  0
LINE
  5
3DDA
330
18
100
AcDbEntity
  8
実線（中）
100
AcDbLine
 10
241.0000000000001
 20
203.5829644879679
 30
0.0
 11
242.0430000000001
 21
203.5829644879679
 31
0.0
  0
LINE
  5
3DDB
330
18
100
AcDbEntity
  8
実線（中）
100
AcDbLine
 10
244.0000000000001
 20
208.7325323674781
 30
0.0
 11
241.0000000000001
 21
208.7325323674781
 31
0.0
  0
LINE
  5
3DDC
330
18
100
AcDbEntity
  8
実線（中）
100
AcDbLine
 10
242.5000000000001
 20
203.6809644879679
 30
0.0
 11
242.5000000000001
 21
208.7325323674781
 31
0.0
  0
ARC
  5
3DDD
330
18
100
AcDbEntity
  8
実線（中）
100
AcDbCircle
 10
231.4600000000002
 20
206.580964487968
 30
0.0
 40
11.0
100
AcDbArc
 50
344.178383797065
 51
11.27960544497262
  0
LINE
  5
3DDE
330
18
100
AcDbEntity
  8
実線（中）
100
AcDbLine
 10
244.5000000000001
 20
204.8809644879679
 30
0.0
 11
244.5000000000001
 21
208.280964487968
 31
0.0
  0
ARC
  5
3DDF
330
18
100
AcDbEntity
  8
実線（中）
100
AcDbCircle
 10
243.3000000000002
 20
204.8809644879679
 30
0.0
 40
1.2
100
AcDbArc
 50
270.0
 51
0.0
  0
LINE
  5
3DE0
330
18
100
AcDbEntity
  8
実線（中）
100
AcDbLine
 10
242.5000000000001
 20
203.6809644879679
 30
0.0
 11
243.3000000000002
 21
203.6809644879679
 31
0.0
  0
ARC
  5
3DE1
330
18
100
AcDbEntity
  8
実線（中）
100
AcDbCircle
 10
243.3000000000002
 20
208.280964487968
 30
0.0
 40
1.199999999999988
100
AcDbArc
 50
0.000000000001357
 51
54.31466528735171
  0
LINE
  5
3DE2
330
18
100
AcDbEntity
  8
実線（中）
100
AcDbLine
 10
244.0000000000001
 20
221.0
 30
0.0
 11
241.0
 21
221.0
 31
0.0
  0
LINE
  5
3DE3
330
18
100
AcDbEntity
  8
実線（中）
100
AcDbLine
 10
241.0000000000001
 20
217.0
 30
0.0
 11
243.0000000000001
 21
217.0
 31
0.0
  0
LINE
  5
3DE4
330
18
100
AcDbEntity
  8
実線（中）
100
AcDbLine
 10
241.0000000000001
 20
225.0
 30
0.0
 11
241.0
 21
221.0
 31
0.0
  0
LINE
  5
3DE5
330
18
100
AcDbEntity
  8
実線（中）
100
AcDbLine
 10
241.0
 20
241.1
 30
0.0
 11
239.5
 21
241.1
 31
0.0
  0
DIMENSION
  5
3DE6
330
18
100
AcDbEntity
  8
寸法線
100
AcDbDimension
280
     0
  2
*D27
 10
258.00000000008
 20
187.0001601066622
 30
0.0
 11
258.0000000000801
 21
215.0000400266656
 31
0.0
 12
-10.69922041006794
 22
-276.8333790742256
 32
0.0
 70
   160
 71
     5
 42
-1.0
 73
     0
 74
     0
 75
     0
  3
標準
100
AcDbAlignedDimension
 13
244.0
 23
243.0
 33
0.0
 14
244.0
 24
187.0001601066622
 34
0.0
 50
90.0
100
AcDbRotatedDimension
  0
MTEXT
  5
3F1E
330
18
100
AcDbEntity
  8
可変文字
100
AcDbMText
 10
210.0
 20
147.0
 30
0.0
 40
5.0
 41
0.0
 46
0.0
 71
     2
 72
     5
  1
端　子　配　列
  7
MSPｺﾞｼｯｸ
 73
     1
 44
1.0
  0
LINE
  5
3F1F
330
18
100
AcDbEntity
  8
実線（細）
100
AcDbLine
 10
189.0
 20
140.0
 30
0.0
 11
231.0
 21
140.0
 31
0.0
  0
LINE
  5
3F20
330
18
100
AcDbEntity
  8
実線（細）
100
AcDbLine
 10
189.0
 20
139.0
 30
0.0
 11
231.0
 21
139.0
 31
0.0
  0
MTEXT
  5
3F21
330
18
100
AcDbEntity
  8
可変文字
100
AcDbMText
 10
182.0
 20
75.0
 30
0.0
 40
5.0
 41
0.0
 46
0.0
 71
     4
 72
     5
  1
⑨～⑫はリレーボックス\Pの端子に接続
  7
MSPｺﾞｼｯｸ
 73
     1
 44
1.0
  0
MTEXT
  5
3F22
330
18
100
AcDbEntity
  8
可変文字
100
AcDbMText
 10
190.0
 20
115.0
 30
0.0
 40
5.0
 41
0.0
 46
0.0
 71
     4
 72
     5
  1
入力－
  7
MSPｺﾞｼｯｸ
 73
     1
 44
1.0
  0
MTEXT
  5
3F23
330
18
100
AcDbEntity
  8
可変文字
100
AcDbMText
 10
190.0
 20
125.0
 30
0.0
 40
5.0
 41
0.0
 46
0.0
 71
     4
 72
     5
  1
入力＋
  7
MSPｺﾞｼｯｸ
 73
     1
 44
1.0
  0
CIRCLE
  5
3F24
330
18
100
AcDbEntity
  8
可変文字
100
AcDbCircle
 10
185.0
 20
115.0
 30
0.0
 40
4.0
  0
MTEXT
  5
3F25
330
18
100
AcDbEntity
  8
可変文字
100
AcDbMText
 10
185.0
 20
115.0
 30
0.0
 40
4.0
 41
0.0
 46
0.0
 71
     5
 72
     5
  1
M-
  7
MSPｺﾞｼｯｸ
 73
     1
 44
1.0
  0
CIRCLE
  5
3F26
330
18
100
AcDbEntity
  8
可変文字
100
AcDbCircle
 10
185.0
 20
125.0
 30
0.0
 40
4.0
  0
MTEXT
  5
3F27
330
18
100
AcDbEntity
  8
可変文字
100
AcDbMText
 10
185.0
 20
125.0
 30
0.0
 40
4.0
 41
0.0
 46
0.0
 71
     5
 72
     5
  1
M+
  7
MSPｺﾞｼｯｸ
 73
     1
 44
1.0
  0
MTEXT
  5
3F28
330
18
100
AcDbEntity
  8
可変文字
100
AcDbMText
 10
224.5999999999999
 20
105.0
 30
0.0
 40
5.0
 41
0.0
 46
0.0
 71
     5
 72
     5
  1
11
  7
MSPｺﾞｼｯｸ
 73
     1
 44
1.0
  0
CIRCLE
  5
3F29
330
18
100
AcDbEntity
  8
可変文字
100
AcDbCircle
 10
225.0
 20
105.0
 30
0.0
 40
4.0
  0
MTEXT
  5
3F2A
330
18
100
AcDbEntity
  8
可変文字
100
AcDbMText
 10
232.0
 20
105.0
 30
0.0
 40
5.0
 41
0.0
 46
0.0
 71
     4
 72
     5
  1
Ｇ
  7
MSPｺﾞｼｯｸ
 73
     1
 44
1.0
  0
MTEXT
  5
3F2B
330
18
100
AcDbEntity
  8
可変文字
100
AcDbMText
 10
225.0
 20
95.0
 30
0.0
 40
5.0
 41
0.0
 46
0.0
 71
     5
 72
     5
  1
12
  7
MSPｺﾞｼｯｸ
 73
     1
 44
1.0
  0
CIRCLE
  5
3F2C
330
18
100
AcDbEntity
  8
可変文字
100
AcDbCircle
 10
225.0
 20
95.0
 30
0.0
 40
4.0
  0
MTEXT
  5
3F2D
330
18
100
AcDbEntity
  8
可変文字
100
AcDbMText
 10
232.0
 20
95.0
 30
0.0
 40
5.0
 41
0.0
 46
0.0
 71
     4
 72
     5
  1
Ｌ
  7
MSPｺﾞｼｯｸ
 73
     1
 44
1.0
  0
MTEXT
  5
3F2E
330
18
100
AcDbEntity
  8
可変文字
100
AcDbMText
 10
225.0
 20
115.0
 30
0.0
 40
5.0
 41
0.0
 46
0.0
 71
     5
 72
     5
  1
10
  7
MSPｺﾞｼｯｸ
 73
     1
 44
1.0
  0
CIRCLE
  5
3F2F
330
18
100
AcDbEntity
  8
可変文字
100
AcDbCircle
 10
225.0
 20
115.0
 30
0.0
 40
4.0
  0
CIRCLE
  5
3F30
330
18
100
AcDbEntity
  8
可変文字
100
AcDbCircle
 10
225.0
 20
125.0
 30
0.0
 40
4.0
  0
MTEXT
  5
3F31
330
18
100
AcDbEntity
  8
可変文字
100
AcDbMText
 10
225.0
 20
125.0
 30
0.0
 40
5.0
 41
0.0
 46
0.0
 71
     5
 72
     5
  1
9
  7
MSPｺﾞｼｯｸ
 73
     1
 44
1.0
  0
MTEXT
  5
3F32
330
18
100
AcDbEntity
  8
可変文字
100
AcDbMText
 10
232.0
 20
115.0
 30
0.0
 40
5.0
 41
0.0
 46
0.0
 71
     4
 72
     5
  1
Ｈ
  7
MSPｺﾞｼｯｸ
 73
     1
 44
1.0
  0
MTEXT
  5
3F33
330
18
100
AcDbEntity
  8
可変文字
100
AcDbMText
 10
232.0
 20
125.0
 30
0.0
 40
5.0
 41
0.0
 46
0.0
 71
     4
 72
     5
  1
Ｖ
  7
MSPｺﾞｼｯｸ
 73
     1
 44
1.0
  0
DIMENSION
  5
3FC7
330
18
100
AcDbEntity
  8
寸法線
100
AcDbDimension
280
     0
  2
*D28
 10
180.0
 20
216.5
 30
0.0
 11
180.0
 21
243.75
 31
0.0
 70
   160
 71
     5
 42
-1.0
 73
     0
 74
     0
 75
     0
  3
標準小
100
AcDbAlignedDimension
 13
180.0
 23
271.0
 33
0.0
 14
180.0
 24
216.5
 34
0.0
 50
90.0
100
AcDbRotatedDimension
  0
VIEWPORT
  5
2E
330
15
100
AcDbEntity
 67
     1
  8
0
100
AcDbViewport
 10
362.8482679696555
 20
148.0014960522548
 30
0.0
 40
704.8510242685404
 41
281.0633326410187
 68
     1
 69
     1
 12
362.8482679696555
 22
148.0014960522548
 13
0.0
 23
0.0
 14
1.0
 24
1.0
 15
5.0
 25
5.0
 16
0.0
 26
0.0
 36
1.0
 17
0.0
 27
0.0
 37
0.0
 42
50.0
 43
0.0
 44
0.0
 45
281.0633326410187
 50
0.0
 51
0.0
 72
   100
 90
    33056
  1

281
     0
 71
     1
 74
     0
110
0.0
120
0.0
130
0.0
111
1.0
121
0.0
131
0.0
112
0.0
122
1.0
132
0.0
 79
     0
146
0.0
170
     0
 61
     5
348
4023
292
     1
282
     1
141
0.0
142
0.0
 63
   250
421
  3355443
  0
LINE
  5
DA
330
15
100
AcDbEntity
 67
     1
  8
枠線
 62
   140
100
AcDbLine
 10
234.5012664770786
 20
18.50047945247244
 30
0.0
 11
24.0012664770786
 21
18.50047945247244
 31
0.0
  0
LINE
  5
DB
330
15
100
AcDbEntity
 67
     1
  8
枠線
100
AcDbLine
 10
29.0012664770786
 20
13.50047945247244
 30
0.0
 11
304.5
 21
13.50047945247244
 31
0.0
  0
LINE
  5
DC
330
15
100
AcDbEntity
 67
     1
  8
枠線
 62
   140
100
AcDbLine
 10
413.5012664770786
 20
287.5004794524724
 30
0.0
 11
24.0
 21
287.5004794524724
 31
0.0
  0
LINE
  5
DD
330
15
100
AcDbEntity
 67
     1
  8
枠線
 62
   140
100
AcDbLine
 10
24.0012664770786
 20
8.50047945247244
 30
0.0
 11
413.5012664770786
 21
8.50047945247244
 31
0.0
  0
LINE
  5
DE
330
15
100
AcDbEntity
 67
     1
  8
枠線
 62
   140
100
AcDbLine
 10
24.0012664770786
 20
8.50047945247244
 30
0.0
 11
24.0012664770786
 21
287.5004794524724
 31
0.0
  0
LINE
  5
E7
330
15
100
AcDbEntity
 67
     1
  8
枠線
100
AcDbLine
 10
131.7512664770786
 20
8.50047945247244
 30
0.0
 11
134.2512664770786
 21
13.50047945247244
 31
0.0
  0
LINE
  5
E8
330
15
100
AcDbEntity
 67
     1
  8
枠線
100
AcDbLine
 10
134.2512664770786
 20
13.50047945247244
 30
0.0
 11
136.7512664770786
 21
8.50047945247244
 31
0.0
  0
LINE
  5
E9
330
15
100
AcDbEntity
 67
     1
  8
枠線
100
AcDbLine
 10
136.7512664770786
 20
18.50047945247244
 30
0.0
 11
136.7512664770786
 21
8.50047945247244
 31
0.0
  0
LINE
  5
EA
330
15
100
AcDbEntity
 67
     1
  8
枠線
100
AcDbLine
 10
131.7512664770786
 20
18.50047945247244
 30
0.0
 11
131.7512664770786
 21
8.50047945247244
 31
0.0
  0
LINE
  5
EB
330
15
100
AcDbEntity
 67
     1
  8
枠線
100
AcDbLine
 10
134.2512664770786
 20
18.50047945247244
 30
0.0
 11
136.7512664770786
 21
13.50047945247244
 31
0.0
  0
LINE
  5
EC
330
15
100
AcDbEntity
 67
     1
  8
枠線
100
AcDbLine
 10
131.7512664770786
 20
13.50047945247244
 30
0.0
 11
134.2512664770786
 21
18.50047945247244
 31
0.0
  0
LINE
  5
10D
330
15
100
AcDbEntity
 67
     1
  8
枠線
 62
   140
100
AcDbLine
 10
413.5012664770786
 20
8.50047945247244
 30
0.0
 11
413.5012664770786
 21
287.5004794524724
 31
0.0
  0
LINE
  5
115
330
15
100
AcDbEntity
 67
     1
  8
枠線
100
AcDbLine
 10
304.5012664770786
 20
38.50047945247244
 30
0.0
 11
413.5012664770786
 21
38.50047945247244
 31
0.0
  0
LINE
  5
117
330
15
100
AcDbEntity
 67
     1
  8
枠線
100
AcDbLine
 10
304.5
 20
18.50047945247244
 30
0.0
 11
413.5012664770786
 21
18.50047945247244
 31
0.0
  0
LINE
  5
119
330
15
100
AcDbEntity
 67
     1
  8
枠線
 62
   140
100
AcDbLine
 10
304.5012664770786
 20
43.5
 30
0.0
 11
413.5012664770786
 21
43.5
 31
0.0
  0
LINE
  5
11D
330
15
100
AcDbEntity
 67
     1
  8
枠線
100
AcDbLine
 10
234.5012664770786
 20
23.50047945247244
 30
0.0
 11
304.5
 21
23.50047945247244
 31
0.0
  0
LINE
  5
125
330
15
100
AcDbEntity
 67
     1
  8
枠線
 62
   140
100
AcDbLine
 10
234.5012664770786
 20
33.5
 30
0.0
 11
234.5012664770786
 21
8.50047945247244
 31
0.0
  0
LINE
  5
137
330
15
100
AcDbEntity
 67
     1
  8
枠線
 62
   140
100
AcDbLine
 10
304.5012664770786
 20
8.50047945247244
 30
0.0
 11
304.5012664770786
 21
43.5
 31
0.0
  0
LINE
  5
15F
330
15
100
AcDbEntity
 67
     1
  8
枠線
 62
   140
100
AcDbLine
 10
364.5012664770786
 20
43.5
 30
0.0
 11
364.5012664770786
 21
8.50047945247244
 31
0.0
  0
LINE
  5
408
330
15
100
AcDbEntity
 67
     1
  8
枠線
100
AcDbLine
 10
249.5012664770786
 20
33.5
 30
0.0
 11
249.5012664770786
 21
8.50047945247244
 31
0.0
  0
LINE
  5
41F
330
15
100
AcDbEntity
 67
     1
  8
枠線
100
AcDbLine
 10
284.5012664770786
 20
13.5
 30
0.0
 11
284.5012664770786
 21
8.50047945247244
 31
0.0
  0
MTEXT
  5
420
330
15
100
AcDbEntity
 67
     1
  8
文字（固定）
100
AcDbMText
 10
354.5012664770786
 20
41.00047945247244
 30
0.0
 40
2.5
 41
0.0
 46
0.0
 71
     5
 72
     5
  1
製  図
  7
MS明朝
 73
     1
 44
1.0
  0
MTEXT
  5
422
330
15
100
AcDbEntity
 67
     1
  8
文字（可変）
100
AcDbMText
 10
354.5012664770786
 20
31.50047945247244
 30
0.0
 40
2.5
 41
0.0
 46
0.0
 71
     5
 72
     5
  1
髙 松
  7
MSｺﾞｼｯｸ
 73
     1
 44
1.0
  0
MTEXT
  5
423
330
15
100
AcDbEntity
 67
     1
  8
文字（可変）
100
AcDbMText
 10
354.5012664770786
 20
25.50047945247244
 30
0.0
 40
2.5
 41
0.0
 46
0.0
 71
     5
 72
     5
  1
05.12.21
  7
MSｺﾞｼｯｸ
 73
     1
 44
1.0
  0
MTEXT
  5
424
330
15
100
AcDbEntity
 67
     1
  8
文字（固定）
  6
ByBlock
100
AcDbMText
 10
334.5012664770786
 20
13.50047945247244
 30
0.0
 40
4.0
 41
0.0
 46
0.0
 71
     5
 72
     5
  1

  7
MS明朝
 73
     1
 44
1.0
  0
LINE
  5
426
330
15
100
AcDbEntity
 67
     1
  8
枠線
100
AcDbLine
 10
344.5012664770786
 20
43.5
 30
0.0
 11
344.5012664770786
 21
18.50047945247244
 31
0.0
  0
MTEXT
  5
428
330
15
100
AcDbEntity
 67
     1
  8
文字（固定）
100
AcDbMText
 10
314.5012664770786
 20
41.00047945247244
 30
0.0
 40
2.5
 41
0.0
 46
0.0
 71
     5
 72
     5
  1
検  印
  7
MS明朝
 73
     1
 44
1.0
  0
LINE
  5
42A
330
15
100
AcDbEntity
 67
     1
  8
枠線
100
AcDbLine
 10
324.5012664770786
 20
18.50047945247244
 30
0.0
 11
324.5012664770786
 21
43.50047945247244
 31
0.0
  0
CIRCLE
  5
42B
330
15
100
AcDbEntity
 67
     1
  8
枠線
100
AcDbCircle
 10
334.5012664770786
 20
28.50047945247244
 30
0.0
 40
9.199999999999999
  0
MTEXT
  5
42C
330
15
100
AcDbEntity
 67
     1
  8
文字（可変）
100
AcDbMText
 10
334.5012664770786
 20
23.50047945247244
 30
0.0
 40
2.5
 41
0.0
 46
0.0
 71
     5
 72
     5
  1
髙 松
  7
MSｺﾞｼｯｸ
 73
     1
 44
1.0
  0
MTEXT
  5
42D
330
15
100
AcDbEntity
 67
     1
  8
文字（固定）
100
AcDbMText
 10
334.5012664770786
 20
41.00047945247244
 30
0.0
 40
2.5
 41
0.0
 46
0.0
 71
     5
 72
     5
  1
設  計
  7
MS明朝
 73
     1
 44
1.0
  0
MTEXT
  5
42E
330
15
100
AcDbEntity
 67
     1
  8
文字（可変）
100
AcDbMText
 10
334.5012664770786
 20
33.50047945247244
 30
0.0
 40
2.5
 41
0.0
 46
0.0
 71
     5
 72
     5
  1
設 計
  7
MSｺﾞｼｯｸ
 73
     1
 44
1.0
  0
MTEXT
  5
42F
330
15
100
AcDbEntity
 67
     1
  8
文字（可変）
100
AcDbMText
 10
334.5012664770786
 20
28.50047945247244
 30
0.0
 40
2.5
 41
0.0
 46
0.0
 71
     5
 72
     5
  1
05.12.21
  7
MSｺﾞｼｯｸ
 73
     1
 44
1.0
  0
LINE
  5
430
330
15
100
AcDbEntity
 67
     1
  8
枠線
100
AcDbLine
 10
343.5012664770786
 20
30.50047945247244
 30
0.0
 11
325.5012664770786
 21
30.50047945247244
 31
0.0
  0
LINE
  5
431
330
15
100
AcDbEntity
 67
     1
  8
枠線
100
AcDbLine
 10
325.5012664770786
 20
26.50047945247244
 30
0.0
 11
343.5012664770786
 21
26.50047945247244
 31
0.0
  0
LINE
  5
439
330
15
100
AcDbEntity
 67
     1
  8
枠線
100
AcDbLine
 10
374.5012664770786
 20
28.50047945247244
 30
0.0
 11
408.5012664770785
 21
28.50047945247244
 31
0.0
  0
LINE
  5
43A
330
15
100
AcDbEntity
 67
     1
  8
枠線
100
AcDbLine
 10
371.0012664770786
 20
10.50047945247244
 30
0.0
 11
411.0012664770786
 21
10.50047945247244
 31
0.0
  0
LINE
  5
43B
330
15
100
AcDbEntity
 67
     1
  8
枠線
100
AcDbLine
 10
411.0012664770786
 20
16.50047945247244
 30
0.0
 11
371.0012664770786
 21
16.50047945247244
 31
0.0
  0
MTEXT
  5
43C
330
15
100
AcDbEntity
 67
     1
  8
文字（可変）
100
AcDbMText
 10
371.0012664770786
 20
13.50047945247244
 30
0.0
 40
3.87
 41
0.0
 46
0.0
 71
     4
 72
     5
  1
ＰＳ３０６７３－
  7
MSｺﾞｼｯｸ
 73
     1
 44
1.0
  0
MTEXT
  5
43D
330
15
100
AcDbEntity
 67
     1
  8
文字（可変）
100
AcDbMText
 10
374.5012664770786
 20
33.50047945247244
 30
0.0
 40
3.5
 41
0.0
 46
0.0
 71
     4
 72
     5
  1
ＷＳＥ－１０２ＦＳ
  7
MSPｺﾞｼｯｸ
 73
     1
 44
1.0
  0
MTEXT
  5
43E
330
15
100
AcDbEntity
 67
     1
  8
文字（可変）
100
AcDbMText
 10
374.5012664770786
 20
23.50047945247244
 30
0.0
 40
4.0
 41
0.0
 46
0.0
 71
     4
 72
     5
  1
製品外形図
  7
MSPｺﾞｼｯｸ
 73
     1
 44
1.0
  0
MTEXT
  5
43F
330
15
100
AcDbEntity
 67
     1
  8
文字（固定）
100
AcDbMText
 10
365.2012664770786
 20
27.50047945247244
 30
0.0
 40
2.5
 41
0.0
 46
0.0
 71
     1
 72
     5
  1
品\P名
  7
MS明朝
 73
     1
 44
1.0
  0
LINE
  5
440
330
15
100
AcDbEntity
 67
     1
  8
枠線
100
AcDbLine
 10
369.5012664770786
 20
38.50047945247244
 30
0.0
 11
369.5012664770786
 21
8.50047945247244
 31
0.0
  0
MTEXT
  5
441
330
15
100
AcDbEntity
 67
     1
  8
文字（固定）
100
AcDbMText
 10
365.2012664770786
 20
17.50047945247244
 30
0.0
 40
2.5
 41
0.0
 46
0.0
 71
     1
 72
     5
  1
図\P番
  7
MS明朝
 73
     1
 44
1.0
  0
LINE
  5
442
330
15
100
AcDbEntity
 67
     1
  8
枠線
100
AcDbLine
 10
381.0012664770786
 20
16.50047945247244
 30
0.0
 11
381.0012664770786
 21
10.50047945247244
 31
0.0
  0
LINE
  5
443
330
15
100
AcDbEntity
 67
     1
  8
枠線
100
AcDbLine
 10
376.0012664770786
 20
16.50047945247244
 30
0.0
 11
376.0012664770786
 21
10.50047945247244
 31
0.0
  0
LINE
  5
444
330
15
100
AcDbEntity
 67
     1
  8
枠線
100
AcDbLine
 10
371.0012664770786
 20
16.50047945247244
 30
0.0
 11
371.0012664770786
 21
10.50047945247244
 31
0.0
  0
LINE
  5
445
330
15
100
AcDbEntity
 67
     1
  8
枠線
100
AcDbLine
 10
371.0012664770786
 20
10.50047945247244
 30
0.0
 11
371.0012664770786
 21
10.50047945247244
 31
0.0
  0
MTEXT
  5
447
330
15
100
AcDbEntity
 67
     1
  8
文字（固定）
100
AcDbMText
 10
372.0012664770786
 20
41.00047945247244
 30
0.0
 40
2.0
 41
0.0
 46
0.0
 71
     5
 72
     5
  1
部品コード
  7
MS明朝
 73
     1
 44
1.0
  0
MTEXT
  5
448
330
15
100
AcDbEntity
 67
     1
  8
文字（固定）
100
AcDbMText
 10
365.2012664770786
 20
37.50047945247244
 30
0.0
 40
2.5
 41
0.0
 46
0.0
 71
     1
 72
     5
  1
形\P名
  7
MS明朝
 73
     1
 44
1.0
  0
LINE
  5
449
330
15
100
AcDbEntity
 67
     1
  8
枠線
100
AcDbLine
 10
379.5012664770786
 20
38.50047945247244
 30
0.0
 11
379.5012664770786
 21
43.50047945247244
 31
0.0
  0
LINE
  5
44A
330
15
100
AcDbEntity
 67
     1
  8
枠線
100
AcDbLine
 10
396.0012664770786
 20
16.50047945247244
 30
0.0
 11
396.0012664770786
 21
10.50047945247244
 31
0.0
  0
LINE
  5
44B
330
15
100
AcDbEntity
 67
     1
  8
枠線
100
AcDbLine
 10
391.0012664770786
 20
16.50047945247244
 30
0.0
 11
391.0012664770786
 21
10.50047945247244
 31
0.0
  0
LINE
  5
44C
330
15
100
AcDbEntity
 67
     1
  8
枠線
100
AcDbLine
 10
386.0012664770786
 20
16.50047945247244
 30
0.0
 11
386.0012664770786
 21
10.50047945247244
 31
0.0
  0
LINE
  5
44D
330
15
100
AcDbEntity
 67
     1
  8
枠線
100
AcDbLine
 10
411.0012664770786
 20
10.50047945247244
 30
0.0
 11
411.0012664770786
 21
16.50047945247244
 31
0.0
  0
LINE
  5
44E
330
15
100
AcDbEntity
 67
     1
  8
枠線
100
AcDbLine
 10
406.0012664770786
 20
16.50047945247244
 30
0.0
 11
406.0012664770786
 21
10.50047945247244
 31
0.0
  0
LINE
  5
44F
330
15
100
AcDbEntity
 67
     1
  8
枠線
100
AcDbLine
 10
401.0012664770786
 20
16.50047945247244
 30
0.0
 11
401.0012664770786
 21
10.50047945247244
 31
0.0
  0
LINE
  5
452
330
15
100
AcDbEntity
 67
     1
  8
枠線
100
AcDbLine
 10
31.50126647707862
 20
18.50047945247243
 30
0.0
 11
34.00126647707862
 21
13.50047945247243
 31
0.0
  0
LINE
  5
453
330
15
100
AcDbEntity
 67
     1
  8
枠線
100
AcDbLine
 10
34.00126647707862
 20
18.50047945247243
 30
0.0
 11
34.00126647707862
 21
8.500479452472433
 31
0.0
  0
MTEXT
  5
454
330
15
100
AcDbEntity
 67
     1
  8
文字（固定）
  6
ByBlock
100
AcDbMText
 10
24.70126647707861
 20
17.50047945247243
 30
0.0
 40
2.5
 41
0.0
 46
0.0
 71
     1
 72
     5
  1
改\P訂
  7
MS明朝
 73
     1
 44
1.0
  0
LINE
  5
455
330
15
100
AcDbEntity
 67
     1
  8
枠線
100
AcDbLine
 10
29.00126647707862
 20
18.50047945247243
 30
0.0
 11
29.00126647707862
 21
8.500479452472433
 31
0.0
  0
LINE
  5
456
330
15
100
AcDbEntity
 67
     1
  8
枠線
100
AcDbLine
 10
29.00126647707862
 20
13.50047945247243
 30
0.0
 11
31.50126647707862
 21
18.50047945247243
 31
0.0
  0
LINE
  5
457
330
15
100
AcDbEntity
 67
     1
  8
枠線
100
AcDbLine
 10
31.50126647707862
 20
13.50047945247243
 30
0.0
 11
34.00126647707862
 21
8.500479452472433
 31
0.0
  0
LINE
  5
458
330
15
100
AcDbEntity
 67
     1
  8
枠線
100
AcDbLine
 10
29.00126647707862
 20
8.500479452472433
 30
0.0
 11
31.50126647707862
 21
13.50047945247243
 31
0.0
  0
LINE
  5
459
330
15
100
AcDbEntity
 67
     1
  8
枠線
  6
ByBlock
100
AcDbLine
 10
31.50126647707862
 20
18.50047945247243
 30
0.0
 11
31.50126647707862
 21
18.50047945247243
 31
0.0
  0
MTEXT
  5
45A
330
15
100
AcDbEntity
 67
     1
  8
0
100
AcDbMText
 10
30.75126647707862
 20
16.00047945247243
 30
0.0
 40
2.5
 41
0.0
 46
0.0
 71
     4
 72
     5
  1
2  98.03.03 ｶﾞﾗｽｴﾎﾟ ｷｼ t=1.6mm
  7
MSｺﾞｼｯｸ
 73
     1
 44
1.0
  0
MTEXT
  5
45B
330
15
100
AcDbEntity
 67
     1
  8
0
100
AcDbMText
 10
31.00126647707862
 20
11.00047945247243
 30
0.0
 40
2.5
 41
0.0
 46
0.0
 71
     4
 72
     5
  1
1  98.03.03 ｶﾞﾗｽｴﾎﾟ ｷｼ t=1.6mm
  7
MSｺﾞｼｯｸ
 73
     1
 44
1.0
  0
LINE
  5
4E0
330
15
100
AcDbEntity
 67
     1
  8
枠線
 62
   140
100
AcDbLine
 10
234.5000001432493
 20
33.5
 30
0.0
 11
304.5000001432493
 21
33.5
 31
0.0
  0
MTEXT
  5
4E1
330
15
100
AcDbEntity
 67
     1
  8
文字（固定）
100
AcDbMText
 10
277.0
 20
11.0
 30
0.0
 40
2.5
 41
0.0
 46
0.0
 71
     5
 72
     5
  1
単  位
  7
MS明朝
 73
     1
 44
1.0
  0
MTEXT
  5
4E2
330
15
100
AcDbEntity
 67
     1
  8
文字（可変）
100
AcDbMText
 10
259.5
 20
11.0
 30
0.0
 40
2.5
 41
0.0
 46
0.0
 71
     5
 72
     5
  1
４／５
  7
MSｺﾞｼｯｸ
 73
     1
 44
1.0
  0
MTEXT
  5
4E3
330
15
100
AcDbEntity
 67
     1
  8
文字（固定）
100
AcDbMText
 10
236.5000001432493
 20
23.99789318546872
 30
0.0
 40
2.5
 41
0.0
 46
0.0
 71
     7
 72
     5
  1
関  係\P図  番
  7
MS明朝
 73
     1
 44
1.0
  0
MTEXT
  5
4E4
330
15
100
AcDbEntity
 67
     1
  8
文字（固定）
100
AcDbMText
 10
236.5000001432493
 20
13.99789318546872
 30
0.0
 40
2.5
 41
0.0
 46
0.0
 71
     7
 72
     5
  1
規  格\P仕  様
  7
MS明朝
 73
     1
 44
1.0
  0
MTEXT
  5
4E5
330
15
100
AcDbEntity
 67
     1
  8
文字（固定）
100
AcDbMText
 10
242.0
 20
11.0
 30
0.0
 40
2.5
 41
0.0
 46
0.0
 71
     5
 72
     5
  1
尺  度
  7
MS明朝
 73
     1
 44
1.0
  0
MTEXT
  5
4E6
330
15
100
AcDbEntity
 67
     1
  8
文字（固定）
100
AcDbMText
 10
294.5
 20
11.0
 30
0.0
 40
2.5
 41
0.0
 46
0.0
 71
     5
 72
     5
  1
ｍｍ
  7
MS明朝
 73
     1
 44
1.0
  0
LINE
  5
505
330
15
100
AcDbEntity
 67
     1
  8
枠線
100
AcDbLine
 10
269.5012664770786
 20
13.5
 30
0.0
 11
269.5012664770786
 21
8.50047945247244
 31
0.0
  0
VIEWPORT
  5
1205
330
15
100
AcDbEntity
 67
     1
  8
0
100
AcDbViewport
 10
218.7512664770786
 20
160.5004794524724
 30
0.0
 40
389.5
 41
254.0
 68
     2
 69
     2
 12
206.5553293430193
 22
169.8012450869791
 13
0.0
 23
0.0
 14
1.0
 24
1.0
 15
5.0
 25
5.0
 16
0.0
 26
0.0
 36
1.0
 17
0.0
 27
0.0
 37
0.0
 42
50.0
 43
0.0
 44
0.0
 45
317.5
 50
0.0
 51
0.0
 72
   100
 90
    33568
  1

281
     0
 71
     1
 74
     0
110
0.0
120
0.0
130
0.0
111
1.0
121
0.0
131
0.0
112
0.0
122
1.0
132
0.0
 79
     0
146
0.0
170
     0
 61
     5
348
4023
292
     1
282
     1
141
0.0
142
0.0
 63
   250
421
  3355443
  0
LINE
  5
3FFB
330
15
100
AcDbEntity
 67
     1
  8
枠線
100
AcDbLine
 10
305.5012664770786
 20
26.50047945247244
 30
0.0
 11
323.5012664770786
 21
26.50047945247244
 31
0.0
  0
LINE
  5
3FFC
330
15
100
AcDbEntity
 67
     1
  8
枠線
100
AcDbLine
 10
323.5012664770786
 20
30.50047945247244
 30
0.0
 11
305.5012664770786
 21
30.50047945247244
 31
0.0
  0
MTEXT
  5
3FFD
330
15
100
AcDbEntity
 67
     1
  8
文字（可変）
100
AcDbMText
 10
314.5012664770786
 20
28.50047945247244
 30
0.0
 40
2.5
 41
0.0
 46
0.0
 71
     5
 72
     5
  1
05.12.21
  7
MSｺﾞｼｯｸ
 73
     1
 44
1.0
  0
CIRCLE
  5
3FFE
330
15
100
AcDbEntity
 67
     1
  8
枠線
100
AcDbCircle
 10
314.5012664770786
 20
28.50047945247244
 30
0.0
 40
9.199999999999999
  0
MTEXT
  5
3FFF
330
15
100
AcDbEntity
 67
     1
  8
文字（可変）
100
AcDbMText
 10
314.5012664770786
 20
33.50047945247244
 30
0.0
 40
2.5
 41
0.0
 46
0.0
 71
     5
 72
     5
  1
設 計
  7
MSｺﾞｼｯｸ
 73
     1
 44
1.0
  0
MTEXT
  5
4000
330
15
100
AcDbEntity
 67
     1
  8
文字（可変）
100
AcDbMText
 10
314.5012664770786
 20
23.50047945247244
 30
0.0
 40
2.5
 41
0.0
 46
0.0
 71
     5
 72
     5
  1
髙 松
  7
MSｺﾞｼｯｸ
 73
     1
 44
1.0
  0
ENDSEC
  0
SECTION
  2
OBJECTS
  0
DICTIONARY
  5
C
330
0
100
AcDbDictionary
281
     1
  3
ACAD_COLOR
350
4036
  3
ACAD_GROUP
350
D
  3
ACAD_LAYOUT
350
404D
  3
ACAD_MATERIAL
350
4004
  3
ACAD_MLEADERSTYLE
350
404B
  3
ACAD_MLINESTYLE
350
1B
  3
ACAD_PLOTSETTINGS
350
404E
  3
ACAD_PLOTSTYLENAME
350
4002
  3
ACAD_SCALELIST
350
4039
  3
ACAD_TABLESTYLE
350
4037
  3
ACAD_VISUALSTYLE
350
401D
  3
ACDB_RECOMPOSE_DATA
350
4066
  3
ACDBVARIABLEDICTIONARY
350
1A82
  3
CONTENTDICTIONARY
350
23
  0
DICTIONARY
  5
4036
102
{ACAD_REACTORS
330
C
102
}
330
C
100
AcDbDictionary
281
     1
  0
DICTIONARY
  5
D
102
{ACAD_REACTORS
330
C
102
}
330
C
100
AcDbDictionary
281
     1
  0
DICTIONARY
  5
404D
102
{ACAD_REACTORS
330
C
102
}
330
C
100
AcDbDictionary
281
     1
  3
Model
350
404F
  3
レイアウト1
350
4050
  0
DICTIONARY
  5
4004
102
{ACAD_REACTORS
330
C
102
}
330
C
100
AcDbDictionary
281
     1
  3
ByBlock
350
400D
  3
ByLayer
350
4005
  3
Global
350
4015
  0
DICTIONARY
  5
404B
102
{ACAD_REACTORS
330
C
102
}
330
C
100
AcDbDictionary
281
     1
  3
Standard
350
404C
  0
DICTIONARY
  5
1B
102
{ACAD_REACTORS
330
C
102
}
330
C
100
AcDbDictionary
281
     1
  3
STANDARD
350
1C
  0
DICTIONARY
  5
404E
102
{ACAD_REACTORS
330
C
102
}
330
C
100
AcDbDictionary
281
     1
  0
ACDBDICTIONARYWDFLT
  5
4002
102
{ACAD_REACTORS
330
C
102
}
330
C
100
AcDbDictionary
281
     1
  3
Normal
350
4003
100
AcDbDictionaryWithDefault
340
4003
  0
DICTIONARY
  5
4039
102
{ACAD_REACTORS
330
C
102
}
330
C
100
AcDbDictionary
281
     1
  3
A0
350
403A
  3
A1
350
403B
  3
A2
350
403C
  3
A3
350
403D
  3
A4
350
403E
  3
A5
350
403F
  3
A6
350
4040
  3
A7
350
4041
  3
A8
350
4042
  3
A9
350
4043
  3
B0
350
4044
  3
B1
350
4045
  3
B2
350
4046
  3
B3
350
4047
  3
B4
350
4048
  3
B5
350
4049
  3
B6
350
404A
  0
DICTIONARY
  5
4037
102
{ACAD_REACTORS
330
C
102
}
330
C
100
AcDbDictionary
281
     1
  3
Standard
350
4038
  0
DICTIONARY
  5
401D
102
{ACAD_REACTORS
330
C
102
}
330
C
100
AcDbDictionary
281
     1
  3
2dWireframe
350
4023
  3
Basic
350
4022
  3
Brighten
350
4029
  3
ColorChange
350
402D
  3
Conceptual
350
4026
  3
Dim
350
4028
  3
EdgeColorOff
350
4035
  3
Facepattern
350
402C
  3
Flat
350
401E
  3
FlatWithEdges
350
401F
  3
Gouraud
350
4020
  3
GouraudWithEdges
350
4021
  3
Hidden
350
4025
  3
JitterOff
350
4033
  3
Linepattern
350
402B
  3
OverhangOff
350
4034
  3
Realistic
350
4027
  3
Shaded
350
4032
  3
Shaded with edges
350
4031
  3
Shades of Gray
350
402E
  3
Sketchy
350
402F
  3
Thicken
350
402A
  3
Wireframe
350
4024
  3
X-Ray
350
4030
  0
XRECORD
  5
4066
102
{ACAD_REACTORS
330
C
102
}
330
C
100
AcDbXrecord
280
     1
 90
        1
330
4038
  0
DICTIONARY
  5
1A82
102
{ACAD_REACTORS
330
C
102
}
330
C
100
AcDbDictionary
281
     1
  3
CANNOSCALE
350
4060
  3
CMLEADERSTYLE
350
405E
  3
CTABLESTYLE
350
405D
  3
LAYEREVAL
350
4062
  3
LAYERNOTIFY
350
4063
  3
LIGHTINGUNITS
350
4061
  3
MSLTSCALE
350
405F
  3
SORTENTS
350
1A83
  0
DICTIONARY
  5
23
102
{ACAD_REACTORS
330
C
102
}
330
C
100
AcDbDictionary
281
     1
  0
LAYOUT
  5
404F
102
{ACAD_REACTORS
330
404D
102
}
330
404D
100
AcDbPlotSettings
  1

  2
DWG To PDF.pc3
  4

  6

 40
0.0
 41
0.0
 42
0.0
 43
0.0
 44
0.0
 45
0.0
 46
0.0
 47
0.0
 48
0.0
 49
0.0
140
0.0
141
0.0
142
1.0
143
1.0
 70
  1712
 72
     0
 73
     0
 74
     0
  7

 75
     0
147
1.0
 76
     0
 77
     2
 78
   300
148
0.0
149
0.0
100
AcDbLayout
  1
Model
 70
     1
 71
     0
 10
0.0
 20
0.0
 11
12.0
 21
9.0
 12
0.0
 22
0.0
 32
0.0
 14
0.0
 24
0.0
 34
0.0
 15
0.0
 25
0.0
 35
0.0
146
0.0
 13
0.0
 23
0.0
 33
0.0
 16
1.0
 26
0.0
 36
0.0
 17
0.0
 27
1.0
 37
0.0
 76
     0
330
18
  0
LAYOUT
  5
4050
102
{ACAD_REACTORS
330
404D
102
}
330
404D
100
AcDbPlotSettings
  1

  2
DWG To PDF.pc3
  4
ISO_full_bleed_A3_(420.00_x_297.00_MM)
  6

 40
0.7937499880790711
 41
0.7937499880790711
 42
0.79376220703125
 43
0.79376220703125
 44
420.0
 45
297.0
 46
0.0
 47
0.0
 48
0.0
 49
0.0
140
0.0
141
0.0
142
1.0
143
23.99112087309699
 70
   688
 72
     0
 73
     0
 74
     1
  7

 75
     0
147
0.0416820875226957
 76
     0
 77
     2
 78
   300
148
-609.2884166609612
149
-215.599648552574
100
AcDbLayout
  1
レイアウト1
 70
     1
 71
     1
 10
23.23801042338334
 20
7.738452623840542
 11
419.9415839155382
 21
288.2645510218643
 12
0.0
 22
0.0
 32
0.0
 14
23.98773293940792
 24
8.48817513986512
 34
-0.0015258207003583
 15
413.5079965757998
 25
287.5148169646445
 35
0.0000000349246037
146
0.0
 13
0.0
 23
0.0
 33
0.0
 16
1.0
 26
0.0
 36
0.0
 17
0.0
 27
1.0
 37
0.0
 76
     0
330
15
331
2E
1001
ACAD_PSEXT
1000
DWG To PDF.pc3
1000
DWG To PDF
1000
ファイル
1000

1070
     0
  0
MATERIAL
  5
400D
102
{ACAD_XDICTIONARY
360
400E
102
}
102
{ACAD_REACTORS
330
4004
102
}
330
4004
100
AcDbMaterial
  1
ByBlock
 72
     0
 43
0.0208333333333333
 43
0.0
 43
0.0
 43
0.0
 43
0.0
 43
0.0208333333333333
 43
0.0
 43
0.0
 43
0.0
 43
0.0
 43
1.0
 43
0.0
 43
0.0
 43
0.0
 43
0.0
 43
1.0
 77
     0
 47
0.0208333333333333
 47
0.0
 47
0.0
 47
0.0
 47
0.0
 47
0.0208333333333333
 47
0.0
 47
0.0
 47
0.0
 47
0.0
 47
1.0
 47
0.0
 47
0.0
 47
0.0
 47
0.0
 47
1.0
171
     0
 49
0.0208333333333333
 49
0.0
 49
0.0
 49
0.0
 49
0.0
 49
0.0208333333333333
 49
0.0
 49
0.0
 49
0.0
 49
0.0
 49
1.0
 49
0.0
 49
0.0
 49
0.0
 49
0.0
 49
1.0
175
     0
142
0.0208333333333333
142
0.0
142
0.0
142
0.0
142
0.0
142
0.0208333333333333
142
0.0
142
0.0
142
0.0
142
0.0
142
1.0
142
0.0
142
0.0
142
0.0
142
0.0
142
1.0
179
     0
144
0.0208333333333333
144
0.0
144
0.0
144
0.0
144
0.0
144
0.0208333333333333
144
0.0
144
0.0
144
0.0
144
0.0
144
1.0
144
0.0
144
0.0
144
0.0
144
0.0
144
1.0
147
0.0208333333333333
147
0.0
147
0.0
147
0.0
147
0.0
147
0.0208333333333333
147
0.0
147
0.0
147
0.0
147
0.0
147
1.0
147
0.0
147
0.0
147
0.0
147
0.0
147
1.0
  0
MATERIAL
  5
4005
102
{ACAD_XDICTIONARY
360
4006
102
}
102
{ACAD_REACTORS
330
4004
102
}
330
4004
100
AcDbMaterial
  1
ByLayer
 72
     0
 43
0.0208333333333333
 43
0.0
 43
0.0
 43
0.0
 43
0.0
 43
0.0208333333333333
 43
0.0
 43
0.0
 43
0.0
 43
0.0
 43
1.0
 43
0.0
 43
0.0
 43
0.0
 43
0.0
 43
1.0
 77
     0
 47
0.0208333333333333
 47
0.0
 47
0.0
 47
0.0
 47
0.0
 47
0.0208333333333333
 47
0.0
 47
0.0
 47
0.0
 47
0.0
 47
1.0
 47
0.0
 47
0.0
 47
0.0
 47
0.0
 47
1.0
171
     0
 49
0.0208333333333333
 49
0.0
 49
0.0
 49
0.0
 49
0.0
 49
0.0208333333333333
 49
0.0
 49
0.0
 49
0.0
 49
0.0
 49
1.0
 49
0.0
 49
0.0
 49
0.0
 49
0.0
 49
1.0
175
     0
142
0.0208333333333333
142
0.0
142
0.0
142
0.0
142
0.0
142
0.0208333333333333
142
0.0
142
0.0
142
0.0
142
0.0
142
1.0
142
0.0
142
0.0
142
0.0
142
0.0
142
1.0
179
     0
144
0.0208333333333333
144
0.0
144
0.0
144
0.0
144
0.0
144
0.0208333333333333
144
0.0
144
0.0
144
0.0
144
0.0
144
1.0
144
0.0
144
0.0
144
0.0
144
0.0
144
1.0
147
0.0208333333333333
147
0.0
147
0.0
147
0.0
147
0.0
147
0.0208333333333333
147
0.0
147
0.0
147
0.0
147
0.0
147
1.0
147
0.0
147
0.0
147
0.0
147
0.0
147
1.0
  0
MATERIAL
  5
4015
102
{ACAD_XDICTIONARY
360
4016
102
}
102
{ACAD_REACTORS
330
4004
102
}
330
4004
100
AcDbMaterial
  1
Global
 72
     0
 43
0.0208333333333333
 43
0.0
 43
0.0
 43
0.0
 43
0.0
 43
0.0208333333333333
 43
0.0
 43
0.0
 43
0.0
 43
0.0
 43
1.0
 43
0.0
 43
0.0
 43
0.0
 43
0.0
 43
1.0
 77
     0
 47
0.0208333333333333
 47
0.0
 47
0.0
 47
0.0
 47
0.0
 47
0.0208333333333333
 47
0.0
 47
0.0
 47
0.0
 47
0.0
 47
1.0
 47
0.0
 47
0.0
 47
0.0
 47
0.0
 47
1.0
171
     0
 49
0.0208333333333333
 49
0.0
 49
0.0
 49
0.0
 49
0.0
 49
0.0208333333333333
 49
0.0
 49
0.0
 49
0.0
 49
0.0
 49
1.0
 49
0.0
 49
0.0
 49
0.0
 49
0.0
 49
1.0
175
     0
142
0.0208333333333333
142
0.0
142
0.0
142
0.0
142
0.0
142
0.0208333333333333
142
0.0
142
0.0
142
0.0
142
0.0
142
1.0
142
0.0
142
0.0
142
0.0
142
0.0
142
1.0
179
     0
144
0.0208333333333333
144
0.0
144
0.0
144
0.0
144
0.0
144
0.0208333333333333
144
0.0
144
0.0
144
0.0
144
0.0
144
1.0
144
0.0
144
0.0
144
0.0
144
0.0
144
1.0
147
0.0208333333333333
147
0.0
147
0.0
147
0.0
147
0.0
147
0.0208333333333333
147
0.0
147
0.0
147
0.0
147
0.0
147
1.0
147
0.0
147
0.0
147
0.0
147
0.0
147
1.0
  0
MLEADERSTYLE
  5
404C
102
{ACAD_REACTORS
330
404B
102
}
330
404B
100
AcDbMLeaderStyle
179
     2
170
     2
171
     1
172
     0
 90
        2
 40
0.0
 41
0.0
173
     1
 91
-1056964608
340
12
 92
       -2
290
     1
 42
0.09
291
     1
 43
0.36
  3
Standard
 44
0.18
300

342
F
174
     1
178
     6
175
     1
176
     0
 93
-1056964608
 45
0.18
292
     0
297
     0
 46
0.18
 94
-1056964608
 47
1.0
 49
1.0
140
1.0
293
     1
141
0.0
294
     1
177
     0
142
1.0
295
     1
296
     0
143
0.125
271
     0
272
     9
273
     9
  0
MLINESTYLE
  5
1C
102
{ACAD_REACTORS
330
1B
102
}
330
1B
100
AcDbMlineStyle
  2
STANDARD
 70
     0
  3

 62
   256
 51
90.0
 52
90.0
 71
     2
 49
0.5
 62
   256
  6
BYLAYER
 49
-0.5
 62
   256
  6
BYLAYER
  0
ACDBPLACEHOLDER
  5
4003
102
{ACAD_REACTORS
330
4002
102
}
330
4002
  0
SCALE
  5
403A
102
{ACAD_REACTORS
330
4039
102
}
330
4039
100
AcDbScale
 70
     0
300
1:1
140
1.0
141
1.0
290
     1
  0
SCALE
  5
403B
102
{ACAD_REACTORS
330
4039
102
}
330
4039
100
AcDbScale
 70
     0
300
1/128" = 1'-0"
140
0.0078125
141
12.0
290
     0
  0
SCALE
  5
403C
102
{ACAD_REACTORS
330
4039
102
}
330
4039
100
AcDbScale
 70
     0
300
1/64" = 1'-0"
140
0.015625
141
12.0
290
     0
  0
SCALE
  5
403D
102
{ACAD_REACTORS
330
4039
102
}
330
4039
100
AcDbScale
 70
     0
300
1/32" = 1'-0"
140
0.03125
141
12.0
290
     0
  0
SCALE
  5
403E
102
{ACAD_REACTORS
330
4039
102
}
330
4039
100
AcDbScale
 70
     0
300
1/16" = 1'-0"
140
0.0625
141
12.0
290
     0
  0
SCALE
  5
403F
102
{ACAD_REACTORS
330
4039
102
}
330
4039
100
AcDbScale
 70
     0
300
3/32" = 1'-0"
140
0.09375
141
12.0
290
     0
  0
SCALE
  5
4040
102
{ACAD_REACTORS
330
4039
102
}
330
4039
100
AcDbScale
 70
     0
300
1/8" = 1'-0"
140
0.125
141
12.0
290
     0
  0
SCALE
  5
4041
102
{ACAD_REACTORS
330
4039
102
}
330
4039
100
AcDbScale
 70
     0
300
3/16" = 1'-0"
140
0.1875
141
12.0
290
     0
  0
SCALE
  5
4042
102
{ACAD_REACTORS
330
4039
102
}
330
4039
100
AcDbScale
 70
     0
300
1/4" = 1'-0"
140
0.25
141
12.0
290
     0
  0
SCALE
  5
4043
102
{ACAD_REACTORS
330
4039
102
}
330
4039
100
AcDbScale
 70
     0
300
3/8" = 1'-0"
140
0.375
141
12.0
290
     0
  0
SCALE
  5
4044
102
{ACAD_REACTORS
330
4039
102
}
330
4039
100
AcDbScale
 70
     0
300
1/2" = 1'-0"
140
0.5
141
12.0
290
     0
  0
SCALE
  5
4045
102
{ACAD_REACTORS
330
4039
102
}
330
4039
100
AcDbScale
 70
     0
300
3/4" = 1'-0"
140
0.75
141
12.0
290
     0
  0
SCALE
  5
4046
102
{ACAD_REACTORS
330
4039
102
}
330
4039
100
AcDbScale
 70
     0
300
1" = 1'-0"
140
1.0
141
12.0
290
     0
  0
SCALE
  5
4047
102
{ACAD_REACTORS
330
4039
102
}
330
4039
100
AcDbScale
 70
     0
300
1-1/2" = 1'-0"
140
1.5
141
12.0
290
     0
  0
SCALE
  5
4048
102
{ACAD_REACTORS
330
4039
102
}
330
4039
100
AcDbScale
 70
     0
300
3" = 1'-0"
140
3.0
141
12.0
290
     0
  0
SCALE
  5
4049
102
{ACAD_REACTORS
330
4039
102
}
330
4039
100
AcDbScale
 70
     0
300
6" = 1'-0"
140
6.0
141
12.0
290
     0
  0
SCALE
  5
404A
102
{ACAD_REACTORS
330
4039
102
}
330
4039
100
AcDbScale
 70
     0
300
1'-0" = 1'-0"
140
12.0
141
12.0
290
     0
  0
TABLESTYLE
  5
4038
102
{ACAD_XDICTIONARY
360
4064
102
}
102
{ACAD_REACTORS
330
4037
102
}
330
4037
100
AcDbTableStyle
280
     0
  3
Standard
 70
     0
 71
     0
 40
0.06
 41
0.06
280
     0
281
     0
  7
STANDARD
140
0.18
170
     2
 62
     0
 63
     7
283
     0
 90
      512
 91
        0
  1

274
    -2
284
     1
 64
     0
275
    -2
285
     1
 65
     0
276
    -2
286
     1
 66
     0
277
    -2
287
     1
 67
     0
278
    -2
288
     1
 68
     0
279
    -2
289
     1
 69
     0
  7
STANDARD
140
0.25
170
     5
 62
     0
 63
     7
283
     0
 90
      512
 91
        0
  1

274
    -2
284
     1
 64
     0
275
    -2
285
     1
 65
     0
276
    -2
286
     1
 66
     0
277
    -2
287
     1
 67
     0
278
    -2
288
     1
 68
     0
279
    -2
289
     1
 69
     0
  7
STANDARD
140
0.18
170
     5
 62
     0
 63
     7
283
     0
 90
      512
 91
        0
  1

274
    -2
284
     1
 64
     0
275
    -2
285
     1
 65
     0
276
    -2
286
     1
 66
     0
277
    -2
287
     1
 67
     0
278
    -2
288
     1
 68
     0
279
    -2
289
     1
 69
     0
  0
VISUALSTYLE
  5
4023
102
{ACAD_REACTORS
330
401D
102
}
330
401D
100
AcDbVisualStyle
  2
2dWireframe
 70
     4
177
     2
291
     0
 71
     0
176
     1
 72
     2
176
     1
 73
     0
176
     1
 90
        0
176
     1
 40
0.6
176
     1
 41
30.0
176
     1
 63
     7
421
 16777215
176
     1
 74
     1
176
     1
 91
        4
176
     1
 64
     7
176
     1
 65
   257
176
     1
 75
     1
176
     1
175
     1
176
     1
 42
1.0
176
     1
 92
        0
176
     1
 66
   257
176
     1
 43
1.0
176
     1
 76
     1
176
     1
 77
     6
176
     1
 78
     2
176
     1
 67
     7
176
     1
 79
     5
176
     1
170
     0
176
     1
171
     0
176
     1
290
     0
176
     1
 93
        1
176
     1
 44
0.0
176
     1
173
     0
176
     1
  0
VISUALSTYLE
  5
4022
102
{ACAD_REACTORS
330
401D
102
}
330
401D
100
AcDbVisualStyle
  2
Basic
 70
     7
177
     2
291
     1
 71
     1
176
     1
 72
     0
176
     1
 73
     1
176
     1
 90
        0
176
     1
 40
0.6
176
     1
 41
30.0
176
     1
 63
     7
421
 16777215
176
     1
 74
     0
176
     1
 91
        4
176
     1
 64
     7
176
     1
 65
   257
176
     1
 75
     1
176
     1
175
     1
176
     1
 42
1.0
176
     1
 92
        8
176
     1
 66
     7
176
     1
 43
1.0
176
     1
 76
     1
176
     1
 77
     6
176
     1
 78
     2
176
     1
 67
     7
176
     1
 79
     5
176
     1
170
     0
176
     1
171
     0
176
     1
290
     0
176
     1
 93
        1
176
     1
 44
0.0
176
     1
173
     0
176
     1
  0
VISUALSTYLE
  5
4029
102
{ACAD_REACTORS
330
401D
102
}
330
401D
100
AcDbVisualStyle
  2
Brighten
 70
    12
177
     2
291
     1
 71
     2
176
     1
 72
     2
176
     1
 73
     0
176
     1
 90
        0
176
     1
 40
0.6
176
     1
 41
30.0
176
     1
 63
     7
421
 16777215
176
     1
 74
     1
176
     1
 91
        4
176
     1
 64
     7
176
     1
 65
   257
176
     1
 75
     1
176
     1
175
     1
176
     1
 42
1.0
176
     1
 92
        8
176
     1
 66
     7
176
     1
 43
1.0
176
     1
 76
     1
176
     1
 77
     6
176
     1
 78
     2
176
     1
 67
     7
176
     1
 79
     5
176
     1
170
     0
176
     1
171
     0
176
     1
290
     0
176
     1
 93
        1
176
     1
 44
50.0
176
     1
173
     0
176
     1
  0
VISUALSTYLE
  5
402D
102
{ACAD_REACTORS
330
401D
102
}
330
401D
100
AcDbVisualStyle
  2
ColorChange
 70
    16
177
     2
291
     1
 71
     2
176
     1
 72
     2
176
     1
 73
     3
176
     1
 90
        0
176
     1
 40
0.6
176
     1
 41
30.0
176
     1
 63
     8
421
  8421504
176
     1
 74
     1
176
     1
 91
        4
176
     1
 64
     7
176
     1
 65
   257
176
     1
 75
     1
176
     1
175
     1
176
     1
 42
1.0
176
     1
 92
        8
176
     1
 66
     8
424
  8421504
176
     1
 43
1.0
176
     1
 76
     1
176
     1
 77
     6
176
     1
 78
     2
176
     1
 67
     7
176
     1
 79
     5
176
     1
170
     0
176
     1
171
     0
176
     1
290
     0
176
     1
 93
        1
176
     1
 44
0.0
176
     1
173
     0
176
     1
  0
VISUALSTYLE
  5
4026
102
{ACAD_REACTORS
330
401D
102
}
330
401D
100
AcDbVisualStyle
  2
Conceptual
 70
     9
177
     2
291
     0
 71
     3
176
     1
 72
     2
176
     1
 73
     0
176
     1
 90
        0
176
     1
 40
0.6
176
     1
 41
30.0
176
     1
 63
     7
421
 16777215
176
     1
 74
     2
176
     1
 91
        2
176
     1
 64
     7
176
     1
 65
   257
176
     1
 75
     1
176
     1
175
     1
176
     1
 42
179.0
176
     1
 92
        8
176
     1
 66
     7
176
     1
 43
1.0
176
     1
 76
     1
176
     1
 77
     6
176
     1
 78
     2
176
     1
 67
     7
176
     1
 79
     3
176
     1
170
     0
176
     1
171
     0
176
     1
290
     0
176
     1
 93
        1
176
     1
 44
0.0
176
     1
173
     0
176
     1
  0
VISUALSTYLE
  5
4028
102
{ACAD_REACTORS
330
401D
102
}
330
401D
100
AcDbVisualStyle
  2
Dim
 70
    11
177
     2
291
     1
 71
     2
176
     1
 72
     2
176
     1
 73
     0
176
     1
 90
        0
176
     1
 40
0.6
176
     1
 41
30.0
176
     1
 63
     7
421
 16777215
176
     1
 74
     1
176
     1
 91
        4
176
     1
 64
     7
176
     1
 65
   257
176
     1
 75
     1
176
     1
175
     1
176
     1
 42
1.0
176
     1
 92
        8
176
     1
 66
     7
176
     1
 43
1.0
176
     1
 76
     1
176
     1
 77
     6
176
     1
 78
     2
176
     1
 67
     7
176
     1
 79
     5
176
     1
170
     0
176
     1
171
     0
176
     1
290
     0
176
     1
 93
        1
176
     1
 44
-50.0
176
     1
173
     0
176
     1
  0
VISUALSTYLE
  5
4035
102
{ACAD_REACTORS
330
401D
102
}
330
401D
100
AcDbVisualStyle
  2
EdgeColorOff
 70
    22
177
     2
291
     1
 71
     2
176
     0
 72
     2
176
     0
 73
     0
176
     0
 90
        0
176
     0
 40
0.6
176
     0
 41
30.0
176
     0
 63
     7
421
 16777215
176
     0
 74
     1
176
     0
 91
        4
176
     0
 64
     7
176
     0
 65
   257
176
     0
 75
     1
176
     0
175
     1
176
     0
 42
1.0
176
     0
 92
        8
176
     2
 66
     7
176
     0
 43
1.0
176
     0
 76
     1
176
     0
 77
     6
176
     0
 78
     2
176
     0
 67
     7
176
     0
 79
     5
176
     0
170
     0
176
     0
171
     0
176
     0
290
     0
176
     0
 93
        1
176
     0
 44
0.0
176
     0
173
     0
176
     0
  0
VISUALSTYLE
  5
402C
102
{ACAD_REACTORS
330
401D
102
}
330
401D
100
AcDbVisualStyle
  2
Facepattern
 70
    15
177
     2
291
     1
 71
     2
176
     1
 72
     2
176
     1
 73
     0
176
     1
 90
        0
176
     1
 40
0.6
176
     1
 41
30.0
176
     1
 63
     7
421
 16777215
176
     1
 74
     1
176
     1
 91
        4
176
     1
 64
     7
176
     1
 65
   257
176
     1
 75
     1
176
     1
175
     1
176
     1
 42
1.0
176
     1
 92
        8
176
     1
 66
     7
176
     1
 43
1.0
176
     1
 76
     1
176
     1
 77
     6
176
     1
 78
     2
176
     1
 67
     7
176
     1
 79
     5
176
     1
170
     0
176
     1
171
     0
176
     1
290
     0
176
     1
 93
        1
176
     1
 44
0.0
176
     1
173
     0
176
     1
  0
VISUALSTYLE
  5
401E
102
{ACAD_REACTORS
330
401D
102
}
330
401D
100
AcDbVisualStyle
  2
Flat
 70
     0
177
     2
291
     1
 71
     2
176
     1
 72
     1
176
     1
 73
     1
176
     1
 90
        2
176
     1
 40
0.6
176
     1
 41
30.0
176
     1
 63
     7
421
 16777215
176
     1
 74
     0
176
     1
 91
        0
176
     1
 64
     7
176
     1
 65
   257
176
     1
 75
     1
176
     1
175
     1
176
     1
 42
1.0
176
     1
 92
        8
176
     1
 66
     7
176
     1
 43
1.0
176
     1
 76
     1
176
     1
 77
     6
176
     1
 78
     2
176
     1
 67
     7
176
     1
 79
     5
176
     1
170
     0
176
     1
171
     0
176
     1
290
     0
176
     1
 93
       13
176
     1
 44
0.0
176
     1
173
     0
176
     1
  0
VISUALSTYLE
  5
401F
102
{ACAD_REACTORS
330
401D
102
}
330
401D
100
AcDbVisualStyle
  2
FlatWithEdges
 70
     1
177
     2
291
     1
 71
     2
176
     1
 72
     1
176
     1
 73
     1
176
     1
 90
        2
176
     1
 40
0.6
176
     1
 41
30.0
176
     1
 63
     7
421
 16777215
176
     1
 74
     1
176
     1
 91
        0
176
     1
 64
     7
176
     1
 65
   257
176
     1
 75
     1
176
     1
175
     1
176
     1
 42
1.0
176
     1
 92
        0
176
     1
 66
   257
176
     1
 43
1.0
176
     1
 76
     1
176
     1
 77
     6
176
     1
 78
     2
176
     1
 67
     7
176
     1
 79
     5
176
     1
170
     0
176
     1
171
     0
176
     1
290
     0
176
     1
 93
       13
176
     1
 44
0.0
176
     1
173
     0
176
     1
  0
VISUALSTYLE
  5
4020
102
{ACAD_REACTORS
330
401D
102
}
330
401D
100
AcDbVisualStyle
  2
Gouraud
 70
     2
177
     2
291
     1
 71
     2
176
     1
 72
     2
176
     1
 73
     1
176
     1
 90
        2
176
     1
 40
0.6
176
     1
 41
30.0
176
     1
 63
     7
421
 16777215
176
     1
 74
     0
176
     1
 91
        0
176
     1
 64
     7
176
     1
 65
   257
176
     1
 75
     1
176
     1
175
     1
176
     1
 42
1.0
176
     1
 92
        0
176
     1
 66
     7
176
     1
 43
1.0
176
     1
 76
     1
176
     1
 77
     6
176
     1
 78
     2
176
     1
 67
     7
176
     1
 79
     5
176
     1
170
     0
176
     1
171
     0
176
     1
290
     0
176
     1
 93
       13
176
     1
 44
0.0
176
     1
173
     0
176
     1
  0
VISUALSTYLE
  5
4021
102
{ACAD_REACTORS
330
401D
102
}
330
401D
100
AcDbVisualStyle
  2
GouraudWithEdges
 70
     3
177
     2
291
     1
 71
     2
176
     1
 72
     2
176
     1
 73
     1
176
     1
 90
        2
176
     1
 40
0.6
176
     1
 41
30.0
176
     1
 63
     7
421
 16777215
176
     1
 74
     1
176
     1
 91
        0
176
     1
 64
     7
176
     1
 65
   257
176
     1
 75
     1
176
     1
175
     1
176
     1
 42
1.0
176
     1
 92
        0
176
     1
 66
   257
176
     1
 43
1.0
176
     1
 76
     1
176
     1
 77
     6
176
     1
 78
     2
176
     1
 67
     7
176
     1
 79
     5
176
     1
170
     0
176
     1
171
     0
176
     1
290
     0
176
     1
 93
       13
176
     1
 44
0.0
176
     1
173
     0
176
     1
  0
VISUALSTYLE
  5
4025
102
{ACAD_REACTORS
330
401D
102
}
330
401D
100
AcDbVisualStyle
  2
Hidden
 70
     6
177
     2
291
     0
 71
     1
176
     1
 72
     2
176
     1
 73
     2
176
     1
 90
        0
176
     1
 40
0.6
176
     1
 41
30.0
176
     1
 63
     7
421
 16777215
176
     1
 74
     2
176
     1
 91
        2
176
     1
 64
     7
176
     1
 65
   257
176
     1
 75
     2
176
     1
175
     1
176
     1
 42
40.0
176
     1
 92
        0
176
     1
 66
   257
176
     1
 43
1.0
176
     1
 76
     1
176
     1
 77
     6
176
     1
 78
     2
176
     1
 67
     7
176
     1
 79
     3
176
     1
170
     0
176
     1
171
     0
176
     1
290
     0
176
     1
 93
        1
176
     1
 44
0.0
176
     1
173
     0
176
     1
  0
VISUALSTYLE
  5
4033
102
{ACAD_REACTORS
330
401D
102
}
330
401D
100
AcDbVisualStyle
  2
JitterOff
 70
    20
177
     2
291
     1
 71
     2
176
     0
 72
     2
176
     0
 73
     0
176
     0
 90
        0
176
     0
 40
0.6
176
     0
 41
30.0
176
     0
 63
     7
421
 16777215
176
     0
 74
     1
176
     0
 91
        4
176
     0
 64
     7
176
     0
 65
   257
176
     0
 75
     1
176
     0
175
     1
176
     0
 42
1.0
176
     0
 92
       10
176
     2
 66
     7
176
     0
 43
1.0
176
     0
 76
     1
176
     0
 77
     6
176
     0
 78
     2
176
     0
 67
     7
176
     0
 79
     5
176
     0
170
     0
176
     0
171
     0
176
     0
290
     0
176
     0
 93
        1
176
     0
 44
0.0
176
     0
173
     0
176
     0
  0
VISUALSTYLE
  5
402B
102
{ACAD_REACTORS
330
401D
102
}
330
401D
100
AcDbVisualStyle
  2
Linepattern
 70
    14
177
     2
291
     1
 71
     2
176
     1
 72
     2
176
     1
 73
     0
176
     1
 90
        0
176
     1
 40
0.6
176
     1
 41
30.0
176
     1
 63
     7
421
 16777215
176
     1
 74
     1
176
     1
 91
        4
176
     1
 64
     7
176
     1
 65
   257
176
     1
 75
     7
176
     1
175
     7
176
     1
 42
1.0
176
     1
 92
        8
176
     1
 66
     7
176
     1
 43
1.0
176
     1
 76
     1
176
     1
 77
     6
176
     1
 78
     2
176
     1
 67
     7
176
     1
 79
     5
176
     1
170
     0
176
     1
171
     0
176
     1
290
     0
176
     1
 93
        1
176
     1
 44
0.0
176
     1
173
     0
176
     1
  0
VISUALSTYLE
  5
4034
102
{ACAD_REACTORS
330
401D
102
}
330
401D
100
AcDbVisualStyle
  2
OverhangOff
 70
    21
177
     2
291
     1
 71
     2
176
     0
 72
     2
176
     0
 73
     0
176
     0
 90
        0
176
     0
 40
0.6
176
     0
 41
30.0
176
     0
 63
     7
421
 16777215
176
     0
 74
     1
176
     0
 91
        4
176
     0
 64
     7
176
     0
 65
   257
176
     0
 75
     1
176
     0
175
     1
176
     0
 42
1.0
176
     0
 92
        9
176
     2
 66
     7
176
     0
 43
1.0
176
     0
 76
     1
176
     0
 77
     6
176
     0
 78
     2
176
     0
 67
     7
176
     0
 79
     5
176
     0
170
     0
176
     0
171
     0
176
     0
290
     0
176
     0
 93
        1
176
     0
 44
0.0
176
     0
173
     0
176
     0
  0
VISUALSTYLE
  5
4027
102
{ACAD_REACTORS
330
401D
102
}
330
401D
100
AcDbVisualStyle
  2
Realistic
 70
     8
177
     2
291
     0
 71
     2
176
     1
 72
     3
176
     1
 73
     0
176
     1
 90
        2
176
     1
 40
0.6
176
     1
 41
30.0
176
     1
 63
     7
421
 16777215
176
     1
 74
     0
176
     1
 91
        0
176
     1
 64
     7
176
     1
 65
   257
176
     1
 75
     1
176
     1
175
     1
176
     1
 42
1.0
176
     1
 92
        8
176
     1
 66
   257
176
     1
 43
1.0
176
     1
 76
     1
176
     1
 77
     6
176
     1
 78
     2
176
     1
 67
     7
176
     1
 79
     3
176
     1
170
     0
176
     1
171
     0
176
     1
290
     0
176
     1
 93
       13
176
     1
 44
0.0
176
     1
173
     0
176
     1
  0
VISUALSTYLE
  5
4032
102
{ACAD_REACTORS
330
401D
102
}
330
401D
100
AcDbVisualStyle
  2
Shaded
 70
    27
177
     2
291
     0
 71
     2
176
     1
 72
     2
176
     1
 73
     1
176
     1
 90
        2
176
     1
 40
0.6
176
     1
 41
30.0
176
     1
 63
     7
421
 16777215
176
     1
 74
     0
176
     1
 91
        4
176
     1
 64
     7
176
     1
 65
   257
176
     1
 75
     1
176
     1
175
     1
176
     1
 42
1.0
176
     1
 92
        8
176
     1
 66
   257
176
     1
 43
1.0
176
     1
 76
     1
176
     1
 77
     6
176
     1
 78
     2
176
     1
 67
     8
425
  7895160
176
     1
 79
     3
176
     1
170
     0
176
     1
171
     0
176
     1
290
     0
176
     1
 93
        5
176
     1
 44
0.0
176
     1
173
     0
176
     1
  0
VISUALSTYLE
  5
4031
102
{ACAD_REACTORS
330
401D
102
}
330
401D
100
AcDbVisualStyle
  2
Shaded with edges
 70
    26
177
     2
291
     0
 71
     2
176
     1
 72
     2
176
     1
 73
     1
176
     1
 90
        2
176
     1
 40
0.6
176
     1
 41
30.0
176
     1
 63
     7
421
 16777215
176
     1
 74
     1
176
     1
 91
       10
176
     1
 64
     7
176
     1
 65
   257
176
     1
 75
     2
176
     1
175
     1
176
     1
 42
1.0
176
     1
 92
        8
176
     1
 66
   257
176
     1
 43
1.0
176
     1
 76
     1
176
     1
 77
     6
176
     1
 78
     2
176
     1
 67
     7
176
     1
 79
     3
176
     1
170
     0
176
     1
171
     0
176
     1
290
     0
176
     1
 93
        5
176
     1
 44
0.0
176
     1
173
     0
176
     1
  0
VISUALSTYLE
  5
402E
102
{ACAD_REACTORS
330
401D
102
}
330
401D
100
AcDbVisualStyle
  2
Shades of Gray
 70
    23
177
     2
291
     0
 71
     2
176
     1
 72
     2
176
     1
 73
     3
176
     1
 90
        0
176
     1
 40
0.6
176
     1
 41
30.0
176
     1
 63
     7
421
 16777215
176
     1
 74
     2
176
     1
 91
        2
176
     1
 64
     7
176
     1
 65
     7
176
     1
 75
     1
176
     1
175
     1
176
     1
 42
40.0
176
     1
 92
        8
176
     1
 66
     7
176
     1
 43
1.0
176
     1
 76
     1
176
     1
 77
     6
176
     1
 78
     2
176
     1
 67
     7
176
     1
 79
     3
176
     1
170
     0
176
     1
171
     0
176
     1
290
     0
176
     1
 93
        1
176
     1
 44
0.0
176
     1
173
     0
176
     1
  0
VISUALSTYLE
  5
402F
102
{ACAD_REACTORS
330
401D
102
}
330
401D
100
AcDbVisualStyle
  2
Sketchy
 70
    24
177
     2
291
     0
 71
     1
176
     1
 72
     2
176
     1
 73
     2
176
     1
 90
        0
176
     1
 40
0.6
176
     1
 41
30.0
176
     1
 63
     7
421
 16777215
176
     1
 74
     2
176
     1
 91
        2
176
     1
 64
     7
176
     1
 65
     7
176
     1
 75
     1
176
     1
175
     1
176
     1
 42
40.0
176
     1
 92
       11
176
     1
 66
     7
176
     1
 43
1.0
176
     1
 76
     1
176
     1
 77
     6
176
     1
 78
     2
176
     1
 67
     7
176
     1
 79
     6
176
     1
170
     0
176
     1
171
     0
176
     1
290
     0
176
     1
 93
        1
176
     1
 44
0.0
176
     1
173
     0
176
     1
  0
VISUALSTYLE
  5
402A
102
{ACAD_REACTORS
330
401D
102
}
330
401D
100
AcDbVisualStyle
  2
Thicken
 70
    13
177
     2
291
     1
 71
     2
176
     1
 72
     2
176
     1
 73
     0
176
     1
 90
        0
176
     1
 40
0.6
176
     1
 41
30.0
176
     1
 63
     7
421
 16777215
176
     1
 74
     1
176
     1
 91
        4
176
     1
 64
     7
176
     1
 65
   257
176
     1
 75
     1
176
     1
175
     1
176
     1
 42
1.0
176
     1
 92
       12
176
     1
 66
     7
176
     1
 43
1.0
176
     1
 76
     1
176
     1
 77
     6
176
     1
 78
     2
176
     1
 67
     7
176
     1
 79
     5
176
     1
170
     0
176
     1
171
     0
176
     1
290
     0
176
     1
 93
        1
176
     1
 44
0.0
176
     1
173
     0
176
     1
  0
VISUALSTYLE
  5
4024
102
{ACAD_REACTORS
330
401D
102
}
330
401D
100
AcDbVisualStyle
  2
Wireframe
 70
     5
177
     2
291
     0
 71
     0
176
     1
 72
     2
176
     1
 73
     0
176
     1
 90
        0
176
     1
 40
0.6
176
     1
 41
30.0
176
     1
 63
     7
421
 16777215
176
     1
 74
     1
176
     1
 91
        4
176
     1
 64
     7
176
     1
 65
   257
176
     1
 75
     1
176
     1
175
     1
176
     1
 42
1.0
176
     1
 92
        0
176
     1
 66
   257
176
     1
 43
1.0
176
     1
 76
     1
176
     1
 77
     6
176
     1
 78
     2
176
     1
 67
     7
176
     1
 79
     3
176
     1
170
     0
176
     1
171
     0
176
     1
290
     0
176
     1
 93
        1
176
     1
 44
0.0
176
     1
173
     0
176
     1
  0
VISUALSTYLE
  5
4030
102
{ACAD_REACTORS
330
401D
102
}
330
401D
100
AcDbVisualStyle
  2
X-Ray
 70
    25
177
     2
291
     0
 71
     2
176
     1
 72
     2
176
     1
 73
     1
176
     1
 90
        1
176
     1
 40
0.5
176
     1
 41
30.0
176
     1
 63
     7
421
 16777215
176
     1
 74
     1
176
     1
 91
        0
176
     1
 64
     7
176
     1
 65
   257
176
     1
 75
     1
176
     1
175
     1
176
     1
 42
1.0
176
     1
 92
        8
176
     1
 66
     7
176
     1
 43
1.0
176
     1
 76
     1
176
     1
 77
     6
176
     1
 78
     2
176
     1
 67
     7
176
     1
 79
     3
176
     1
170
     0
176
     1
171
     0
176
     1
290
     0
176
     1
 93
       13
176
     1
 44
0.0
176
     1
173
     0
176
     1
  0
DICTIONARYVAR
  5
4060
102
{ACAD_REACTORS
330
1A82
102
}
330
1A82
100
DictionaryVariables
280
     0
  1
1:1
  0
DICTIONARYVAR
  5
405E
102
{ACAD_REACTORS
330
1A82
102
}
330
1A82
100
DictionaryVariables
280
     0
  1
STANDARD
  0
DICTIONARYVAR
  5
405D
102
{ACAD_REACTORS
330
1A82
102
}
330
1A82
100
DictionaryVariables
280
     0
  1
STANDARD
  0
DICTIONARYVAR
  5
4062
102
{ACAD_REACTORS
330
1A82
102
}
330
1A82
100
DictionaryVariables
280
     0
  1
1
  0
DICTIONARYVAR
  5
4063
102
{ACAD_REACTORS
330
1A82
102
}
330
1A82
100
DictionaryVariables
280
     0
  1
15
  0
DICTIONARYVAR
  5
4061
102
{ACAD_REACTORS
330
1A82
102
}
330
1A82
100
DictionaryVariables
280
     0
  1
0
  0
DICTIONARYVAR
  5
405F
102
{ACAD_REACTORS
330
1A82
102
}
330
1A82
100
DictionaryVariables
280
     0
  1
0
  0
DICTIONARYVAR
  5
1A83
102
{ACAD_REACTORS
330
1A82
102
}
330
1A82
100
DictionaryVariables
280
     0
  1
96
  0
DICTIONARY
  5
400E
330
400D
100
AcDbDictionary
280
     1
281
     1
  3
BUMPTILE
360
4010
  3
DIFFUSETILE
360
400F
  3
OPACITYTILE
360
4013
  3
REFLECTIONTILE
360
4012
  3
REFRACTIONTILE
360
4014
  3
SPECULARTILE
360
4011
  0
DICTIONARY
  5
4006
330
4005
100
AcDbDictionary
280
     1
281
     1
  3
BUMPTILE
360
4008
  3
DIFFUSETILE
360
4007
  3
OPACITYTILE
360
400B
  3
REFLECTIONTILE
360
400A
  3
REFRACTIONTILE
360
400C
  3
SPECULARTILE
360
4009
  0
DICTIONARY
  5
4016
330
4015
100
AcDbDictionary
280
     1
281
     1
  3
BUMPTILE
360
4018
  3
DIFFUSETILE
360
4017
  3
OPACITYTILE
360
401B
  3
REFLECTIONTILE
360
401A
  3
REFRACTIONTILE
360
401C
  3
SPECULARTILE
360
4019
  0
DICTIONARY
  5
4064
330
4038
100
AcDbDictionary
280
     1
281
     1
  3
ACAD_ROUNDTRIP_2008_TABLESTYLE_CELLSTYLEMAP
360
4065
  0
XRECORD
  5
4010
102
{ACAD_REACTORS
330
400E
102
}
330
400E
100
AcDbXrecord
280
     1
270
     1
271
     1
  0
XRECORD
  5
400F
102
{ACAD_REACTORS
330
400E
102
}
330
400E
100
AcDbXrecord
280
     1
270
     1
271
     1
  0
XRECORD
  5
4013
102
{ACAD_REACTORS
330
400E
102
}
330
400E
100
AcDbXrecord
280
     1
270
     1
271
     1
  0
XRECORD
  5
4012
102
{ACAD_REACTORS
330
400E
102
}
330
400E
100
AcDbXrecord
280
     1
270
     1
271
     1
  0
XRECORD
  5
4014
102
{ACAD_REACTORS
330
400E
102
}
330
400E
100
AcDbXrecord
280
     1
270
     1
271
     1
  0
XRECORD
  5
4011
102
{ACAD_REACTORS
330
400E
102
}
330
400E
100
AcDbXrecord
280
     1
270
     1
271
     1
  0
XRECORD
  5
4008
102
{ACAD_REACTORS
330
4006
102
}
330
4006
100
AcDbXrecord
280
     1
270
     1
271
     1
  0
XRECORD
  5
4007
102
{ACAD_REACTORS
330
4006
102
}
330
4006
100
AcDbXrecord
280
     1
270
     1
271
     1
  0
XRECORD
  5
400B
102
{ACAD_REACTORS
330
4006
102
}
330
4006
100
AcDbXrecord
280
     1
270
     1
271
     1
  0
XRECORD
  5
400A
102
{ACAD_REACTORS
330
4006
102
}
330
4006
100
AcDbXrecord
280
     1
270
     1
271
     1
  0
XRECORD
  5
400C
102
{ACAD_REACTORS
330
4006
102
}
330
4006
100
AcDbXrecord
280
     1
270
     1
271
     1
  0
XRECORD
  5
4009
102
{ACAD_REACTORS
330
4006
102
}
330
4006
100
AcDbXrecord
280
     1
270
     1
271
     1
  0
XRECORD
  5
4018
102
{ACAD_REACTORS
330
4016
102
}
330
4016
100
AcDbXrecord
280
     1
270
     1
271
     1
  0
XRECORD
  5
4017
102
{ACAD_REACTORS
330
4016
102
}
330
4016
100
AcDbXrecord
280
     1
270
     1
271
     1
  0
XRECORD
  5
401B
102
{ACAD_REACTORS
330
4016
102
}
330
4016
100
AcDbXrecord
280
     1
270
     1
271
     1
  0
XRECORD
  5
401A
102
{ACAD_REACTORS
330
4016
102
}
330
4016
100
AcDbXrecord
280
     1
270
     1
271
     1
  0
XRECORD
  5
401C
102
{ACAD_REACTORS
330
4016
102
}
330
4016
100
AcDbXrecord
280
     1
270
     1
271
     1
  0
XRECORD
  5
4019
102
{ACAD_REACTORS
330
4016
102
}
330
4016
100
AcDbXrecord
280
     1
270
     1
271
     1
  0
CELLSTYLEMAP
  5
4065
102
{ACAD_REACTORS
330
4064
102
}
330
4064
100
AcDbCellStyleMap
 90
        3
300
CELLSTYLE
  1
TABLEFORMAT_BEGIN
 90
        5
170
     1
 91
        0
 92
    32768
 62
   257
 93
        1
300
CONTENTFORMAT
  1
CONTENTFORMAT_BEGIN
 90
        0
 91
        0
 92
      512
 93
        0
300

 40
0.0
140
1.0
 94
        5
 62
     0
340
F
144
0.25
309
CONTENTFORMAT_END
171
     0
 94
        0
309
TABLEFORMAT_END
  1
CELLSTYLE_BEGIN
 90
        1
 91
        1
300
_TITLE
309
CELLSTYLE_END
300
CELLSTYLE
  1
TABLEFORMAT_BEGIN
 90
        5
170
     1
 91
        0
 92
        0
 62
   257
 93
        1
300
CONTENTFORMAT
  1
CONTENTFORMAT_BEGIN
 90
        0
 91
        0
 92
      512
 93
        0
300

 40
0.0
140
1.0
 94
        5
 62
     0
340
F
144
0.18
309
CONTENTFORMAT_END
171
     0
 94
        0
309
TABLEFORMAT_END
  1
CELLSTYLE_BEGIN
 90
        2
 91
        1
300
_HEADER
309
CELLSTYLE_END
300
CELLSTYLE
  1
TABLEFORMAT_BEGIN
 90
        5
170
     1
 91
        0
 92
        0
 62
   257
 93
        1
300
CONTENTFORMAT
  1
CONTENTFORMAT_BEGIN
 90
        0
 91
        0
 92
      512
 93
        0
300

 40
0.0
140
1.0
 94
        2
 62
     0
340
F
144
0.18
309
CONTENTFORMAT_END
171
     0
 94
        0
309
TABLEFORMAT_END
  1
CELLSTYLE_BEGIN
 90
        3
 91
        2
300
_DATA
309
CELLSTYLE_END
  0
ENDSEC
  0
EOF
