  0
SECTION
  2
HEADER
  9
$ACADVER
  1
AC1024
  9
$ACADMAINTVER
 70
    38
  9
$DWGCODEPAGE
  3
ANSI_932
  9
$LASTSAVEDBY
  1
hkaihatsu
  9
$INSBASE
 10
0.0
 20
0.0
 30
0.0
  9
$EXTMIN
 10
1.749999999999999
 20
44.35630656580616
 30
0.0
  9
$EXTMAX
 10
416.33974595
 20
295.25
 30
0.0
  9
$LIMMIN
 10
0.0
 20
0.0
  9
$LIMMAX
 10
420.0
 20
297.0
  9
$ORTHOMODE
 70
     1
  9
$REGENMODE
 70
     1
  9
$FILLMODE
 70
     1
  9
$QTEXTMODE
 70
     0
  9
$MIRRTEXT
 70
     1
  9
$LTSCALE
 40
1.0
  9
$ATTMODE
 70
     1
  9
$TEXTSIZE
 40
2.5
  9
$TRACEWID
 40
0.05
  9
$TEXTSTYLE
  7
寸法文字
  9
$CLAYER
  8
寸法線
  9
$CELTYPE
  6
BYLAYER
  9
$CECOLOR
 62
   256
  9
$CELTSCALE
 40
1.0
  9
$DISPSILH
 70
     0
  9
$DIMSCALE
 40
1.0
  9
$DIMASZ
 40
3.0
  9
$DIMEXO
 40
0.7
  9
$DIMDLI
 40
3.75
  9
$DIMRND
 40
0.0
  9
$DIMDLE
 40
0.0
  9
$DIMEXE
 40
1.0
  9
$DIMTP
 40
0.0
  9
$DIMTM
 40
0.1
  9
$DIMTXT
 40
3.0
  9
$DIMCEN
 40
2.5
  9
$DIMTSZ
 40
0.0
  9
$DIMTOL
 70
     0
  9
$DIMLIM
 70
     0
  9
$DIMTIH
 70
     0
  9
$DIMTOH
 70
     0
  9
$DIMSE1
 70
     0
  9
$DIMSE2
 70
     0
  9
$DIMTAD
 70
     1
  9
$DIMZIN
 70
     8
  9
$DIMBLK
  1

  9
$DIMASO
 70
     1
  9
$DIMSHO
 70
     1
  9
$DIMPOST
  1

  9
$DIMAPOST
  1

  9
$DIMALT
 70
     0
  9
$DIMALTD
 70
     4
  9
$DIMALTF
 40
0.0394
  9
$DIMLFAC
 40
1.0
  9
$DIMTOFL
 70
     1
  9
$DIMTVP
 40
0.0
  9
$DIMTIX
 70
     0
  9
$DIMSOXD
 70
     0
  9
$DIMSAH
 70
     1
  9
$DIMBLK1
  1
OPEN30
  9
$DIMBLK2
  1
OPEN30
  9
$DIMSTYLE
  2
標準小
  9
$DIMCLRD
 70
     0
  9
$DIMCLRE
 70
     0
  9
$DIMCLRT
 70
     0
  9
$DIMTFAC
 40
0.5
  9
$DIMGAP
 40
1.5
  9
$DIMJUST
 70
     0
  9
$DIMSD1
 70
     0
  9
$DIMSD2
 70
     0
  9
$DIMTOLJ
 70
     1
  9
$DIMTZIN
 70
     8
  9
$DIMALTZ
 70
     0
  9
$DIMALTTZ
 70
     0
  9
$DIMUPT
 70
     1
  9
$DIMDEC
 70
     2
  9
$DIMTDEC
 70
     2
  9
$DIMALTU
 70
     8
  9
$DIMALTTD
 70
     4
  9
$DIMTXSTY
  7
寸法文字
  9
$DIMAUNIT
 70
     0
  9
$DIMADEC
 70
     0
  9
$DIMALTRND
 40
0.0
  9
$DIMAZIN
 70
     0
  9
$DIMDSEP
 70
    46
  9
$DIMATFIT
 70
     3
  9
$DIMFRAC
 70
     0
  9
$DIMLDRBLK
  1

  9
$DIMLUNIT
 70
     2
  9
$DIMLWD
 70
    -2
  9
$DIMLWE
 70
    -2
  9
$DIMTMOVE
 70
     0
  9
$DIMFXL
 40
1.0
  9
$DIMFXLON
 70
     0
  9
$DIMJOGANG
 40
0.7853981633974483
  9
$DIMTFILL
 70
     0
  9
$DIMTFILLCLR
 70
     0
  9
$DIMARCSYM
 70
     0
  9
$DIMLTYPE
  6

  9
$DIMLTEX1
  6

  9
$DIMLTEX2
  6

  9
$DIMTXTDIRECTION
 70
     0
  9
$LUNITS
 70
     2
  9
$LUPREC
 70
     2
  9
$SKETCHINC
 40
0.1
  9
$FILLETRAD
 40
10.0
  9
$AUNITS
 70
     0
  9
$AUPREC
 70
     0
  9
$MENU
  1
acad
  9
$ELEVATION
 40
0.0
  9
$PELEVATION
 40
0.0
  9
$THICKNESS
 40
0.0
  9
$LIMCHECK
 70
     0
  9
$CHAMFERA
 40
0.5
  9
$CHAMFERB
 40
0.5
  9
$CHAMFERC
 40
1.0
  9
$CHAMFERD
 40
0.0
  9
$SKPOLY
 70
     0
  9
$TDCREATE
 40
2451201.386584491
  9
$TDUCREATE
 40
2451201.011584491
  9
$TDUPDATE
 40
2458669.362680995
  9
$TDUUPDATE
 40
2458668.987680995
  9
$TDINDWG
 40
0.9153276157
  9
$TDUSRTIMER
 40
0.9153276157
  9
$USRTIMER
 70
     1
  9
$ANGBASE
 50
0.0
  9
$ANGDIR
 70
     0
  9
$PDMODE
 70
     0
  9
$PDSIZE
 40
0.0
  9
$PLINEWID
 40
0.0
  9
$SPLFRAME
 70
     0
  9
$SPLINETYPE
 70
     6
  9
$SPLINESEGS
 70
     8
  9
$HANDSEED
  5
34E7
  9
$SURFTAB1
 70
     6
  9
$SURFTAB2
 70
     6
  9
$SURFTYPE
 70
     6
  9
$SURFU
 70
     6
  9
$SURFV
 70
     6
  9
$UCSBASE
  2

  9
$UCSNAME
  2

  9
$UCSORG
 10
0.0
 20
0.0
 30
0.0
  9
$UCSXDIR
 10
1.0
 20
0.0
 30
0.0
  9
$UCSYDIR
 10
0.0
 20
1.0
 30
0.0
  9
$UCSORTHOREF
  2

  9
$UCSORTHOVIEW
 70
     0
  9
$UCSORGTOP
 10
0.0
 20
0.0
 30
0.0
  9
$UCSORGBOTTOM
 10
0.0
 20
0.0
 30
0.0
  9
$UCSORGLEFT
 10
0.0
 20
0.0
 30
0.0
  9
$UCSORGRIGHT
 10
0.0
 20
0.0
 30
0.0
  9
$UCSORGFRONT
 10
0.0
 20
0.0
 30
0.0
  9
$UCSORGBACK
 10
0.0
 20
0.0
 30
0.0
  9
$PUCSBASE
  2

  9
$PUCSNAME
  2

  9
$PUCSORG
 10
0.0
 20
0.0
 30
0.0
  9
$PUCSXDIR
 10
1.0
 20
0.0
 30
0.0
  9
$PUCSYDIR
 10
0.0
 20
1.0
 30
0.0
  9
$PUCSORTHOREF
  2

  9
$PUCSORTHOVIEW
 70
     0
  9
$PUCSORGTOP
 10
0.0
 20
0.0
 30
0.0
  9
$PUCSORGBOTTOM
 10
0.0
 20
0.0
 30
0.0
  9
$PUCSORGLEFT
 10
0.0
 20
0.0
 30
0.0
  9
$PUCSORGRIGHT
 10
0.0
 20
0.0
 30
0.0
  9
$PUCSORGFRONT
 10
0.0
 20
0.0
 30
0.0
  9
$PUCSORGBACK
 10
0.0
 20
0.0
 30
0.0
  9
$USERI1
 70
     0
  9
$USERI2
 70
     0
  9
$USERI3
 70
     0
  9
$USERI4
 70
     0
  9
$USERI5
 70
     0
  9
$USERR1
 40
0.0
  9
$USERR2
 40
0.0
  9
$USERR3
 40
0.0
  9
$USERR4
 40
0.0
  9
$USERR5
 40
0.0
  9
$WORLDVIEW
 70
     1
  9
$SHADEDGE
 70
     3
  9
$SHADEDIF
 70
    70
  9
$TILEMODE
 70
     0
  9
$MAXACTVP
 70
    48
  9
$PINSBASE
 10
0.0
 20
0.0
 30
0.0
  9
$PLIMCHECK
 70
     0
  9
$PEXTMIN
 10
23.98773293940792
 20
8.48817513986512
 30
-0.0000000000112498
  9
$PEXTMAX
 10
413.5079965757998
 20
287.5148169646445
 30
0.0000000000002956
  9
$PLIMMIN
 10
23.23801042338334
 20
7.738452623840542
  9
$PLIMMAX
 10
419.9415839155382
 20
288.2645510218643
  9
$UNITMODE
 70
     0
  9
$VISRETAIN
 70
     1
  9
$PLINEGEN
 70
     0
  9
$PSLTSCALE
 70
     1
  9
$TREEDEPTH
 70
  3020
  9
$CMLSTYLE
  2
STANDARD
  9
$CMLJUST
 70
     0
  9
$CMLSCALE
 40
1.0
  9
$PROXYGRAPHICS
 70
     1
  9
$MEASUREMENT
 70
     0
  9
$CELWEIGHT
370
    -1
  9
$ENDCAPS
280
     0
  9
$JOINSTYLE
280
     0
  9
$LWDISPLAY
290
     0
  9
$INSUNITS
 70
     0
  9
$HYPERLINKBASE
  1

  9
$STYLESHEET
  1

  9
$XEDIT
290
     1
  9
$CEPSNTYPE
380
     0
  9
$PSTYLEMODE
290
     1
  9
$FINGERPRINTGUID
  2
{7BA90492-9085-4123-885F-A7AE5963E296}
  9
$VERSIONGUID
  2
{EA1B55AB-F044-40F1-87E3-B1D4566A3B7F}
  9
$EXTNAMES
290
     1
  9
$PSVPSCALE
 40
0.0
  9
$OLESTARTUP
290
     0
  9
$SORTENTS
280
    96
  9
$INDEXCTL
280
     0
  9
$HIDETEXT
280
     0
  9
$XCLIPFRAME
280
     2
  9
$HALOGAP
280
     0
  9
$OBSCOLOR
 70
   257
  9
$OBSLTYPE
280
     0
  9
$INTERSECTIONDISPLAY
280
     0
  9
$INTERSECTIONCOLOR
 70
   257
  9
$DIMASSOC
280
     1
  9
$PROJECTNAME
  1

  9
$CAMERADISPLAY
290
     0
  9
$LENSLENGTH
 40
50.0
  9
$CAMERAHEIGHT
 40
0.0
  9
$STEPSPERSEC
 40
2.0
  9
$STEPSIZE
 40
6.0
  9
$3DDWFPREC
 40
2.0
  9
$PSOLWIDTH
 40
0.25
  9
$PSOLHEIGHT
 40
4.0
  9
$LOFTANG1
 40
1.570796326794896
  9
$LOFTANG2
 40
1.570796326794896
  9
$LOFTMAG1
 40
0.0
  9
$LOFTMAG2
 40
0.0
  9
$LOFTPARAM
 70
     7
  9
$LOFTNORMALS
280
     1
  9
$LATITUDE
 40
37.795
  9
$LONGITUDE
 40
-122.394
  9
$NORTHDIRECTION
 40
0.0
  9
$TIMEZONE
 70
 -8000
  9
$LIGHTGLYPHDISPLAY
280
     1
  9
$TILEMODELIGHTSYNCH
280
     1
  9
$CMATERIAL
347
3485
  9
$SOLIDHIST
280
     1
  9
$SHOWHIST
280
     1
  9
$DWFFRAME
280
     2
  9
$DGNFRAME
280
     0
  9
$REALWORLDSCALE
290
     1
  9
$INTERFERECOLOR
 62
     1
  9
$INTERFEREOBJVS
345
34A7
  9
$INTERFEREVPVS
346
34A4
  9
$CSHADOW
280
     0
  9
$SHADOWPLANELOCATION
 40
0.0
  0
ENDSEC
  0
SECTION
  2
CLASSES
  0
CLASS
  1
DICTIONARYVAR
  2
AcDbDictionaryVar
  3
ObjectDBX Classes
 90
        0
 91
        8
280
     0
281
     0
  0
CLASS
  1
ACDBDICTIONARYWDFLT
  2
AcDbDictionaryWithDefault
  3
ObjectDBX Classes
 90
        0
 91
        1
280
     0
281
     0
  0
CLASS
  1
MATERIAL
  2
AcDbMaterial
  3
ObjectDBX Classes
 90
     1153
 91
        3
280
     0
281
     0
  0
CLASS
  1
VISUALSTYLE
  2
AcDbVisualStyle
  3
ObjectDBX Classes
 90
     4095
 91
       24
280
     0
281
     0
  0
CLASS
  1
TABLESTYLE
  2
AcDbTableStyle
  3
ObjectDBX Classes
 90
     4095
 91
        1
280
     0
281
     0
  0
CLASS
  1
SCALE
  2
AcDbScale
  3
ObjectDBX Classes
 90
     1153
 91
       17
280
     0
281
     0
  0
CLASS
  1
MLEADERSTYLE
  2
AcDbMLeaderStyle
  3
ACDB_MLEADERSTYLE_CLASS
 90
     4095
 91
        1
280
     0
281
     0
  0
CLASS
  1
CELLSTYLEMAP
  2
AcDbCellStyleMap
  3
ObjectDBX Classes
 90
     1152
 91
        1
280
     0
281
     0
  0
ENDSEC
  0
SECTION
  2
TABLES
  0
TABLE
  2
VPORT
  5
8
330
0
100
AcDbSymbolTable
 70
     1
  0
VPORT
  5
331B
330
8
100
AcDbSymbolTableRecord
100
AcDbViewportTableRecord
  2
*ACTIVE
 70
     0
 10
0.0
 20
0.0
 11
1.0
 21
1.0
 12
209.0547189943665
 22
167.3054435291333
 13
0.0
 23
0.0
 14
1.0
 24
1.0
 15
5.0
 25
5.0
 16
0.0
 26
0.0
 36
1.0
 17
0.0
 27
0.0
 37
0.0
 40
289.6886548700713
 41
1.438489646772229
 42
50.0
 43
0.0
 44
0.0
 50
0.0
 51
0.0
 71
     0
 72
   100
 73
     1
 74
     1
 75
     0
 76
     1
 77
     0
 78
     0
281
     0
 65
     1
110
0.0
120
0.0
130
0.0
111
1.0
121
0.0
131
0.0
112
0.0
122
1.0
132
0.0
 79
     0
146
0.0
348
34A3
 60
     3
 61
     5
292
     1
282
     1
141
0.0
142
0.0
 63
   250
421
  3355443
  0
ENDTAB
  0
TABLE
  2
LTYPE
  5
5
330
0
100
AcDbSymbolTable
 70
     6
  0
LTYPE
  5
12
330
5
100
AcDbSymbolTableRecord
100
AcDbLinetypeTableRecord
  2
BYBLOCK
 70
     0
  3

 72
    65
 73
     0
 40
0.0
  0
LTYPE
  5
13
330
5
100
AcDbSymbolTableRecord
100
AcDbLinetypeTableRecord
  2
BYLAYER
 70
     0
  3

 72
    65
 73
     0
 40
0.0
  0
LTYPE
  5
14
330
5
100
AcDbSymbolTableRecord
100
AcDbLinetypeTableRecord
  2
CONTINUOUS
 70
     0
  3
Solid line
 72
    65
 73
     0
 40
0.0
  0
LTYPE
  5
36
330
5
100
AcDbSymbolTableRecord
100
AcDbLinetypeTableRecord
  2
WACOM_LSTYLE_M1
 70
     0
  3
実線     [---------]
 72
    65
 73
     2
 40
24.0
 49
12.0
 74
     0
 49
12.0
 74
     0
  0
LTYPE
  5
1EC
330
5
100
AcDbSymbolTableRecord
100
AcDbLinetypeTableRecord
  2
WACOM_LSTYLE_M3
 70
     0
  3
点線     [- - - - -]
 72
    65
 73
     2
 40
2.0
 49
1.0
 74
     0
 49
-1.0
 74
     0
  0
LTYPE
  5
1ED
330
5
100
AcDbSymbolTableRecord
100
AcDbLinetypeTableRecord
  2
WACOM_LSTYLE_M4
 70
     0
  3
一点鎖線 [--- - ---]
 72
    65
 73
     4
 40
10.0
 49
7.0
 74
     0
 49
-1.0
 74
     0
 49
1.0
 74
     0
 49
-1.0
 74
     0
  0
LTYPE
  5
1EE
330
5
100
AcDbSymbolTableRecord
100
AcDbLinetypeTableRecord
  2
WACOM_LSTYLE_M5
 70
     0
  3
二点鎖線 [-- - - --]
 72
    65
 73
     6
 40
10.0
 49
5.0
 74
     0
 49
-1.0
 74
     0
 49
1.0
 74
     0
 49
-1.0
 74
     0
 49
1.0
 74
     0
 49
-1.0
 74
     0
  0
LTYPE
  5
1EF
330
5
100
AcDbSymbolTableRecord
100
AcDbLinetypeTableRecord
  2
WACOM_LSTYLE_M2
 70
     0
  3
破線     [-- -- -- ]
 72
    65
 73
     2
 40
4.0
 49
3.0
 74
     0
 49
-1.0
 74
     0
  0
ENDTAB
  0
TABLE
  2
LAYER
  5
2
330
0
100
AcDbSymbolTable
 70
    15
  0
LAYER
  5
E
330
2
100
AcDbSymbolTableRecord
100
AcDbLayerTableRecord
  2
0
 70
     0
 62
    -7
  6
CONTINUOUS
370
    -3
390
3483
347
3495
  0
LAYER
  5
37
330
2
100
AcDbSymbolTableRecord
100
AcDbLayerTableRecord
  2
文字（可変）
 70
     0
 62
     1
  6
WACOM_LSTYLE_M1
370
    -3
390
3483
347
3495
  0
LAYER
  5
38
330
2
100
AcDbSymbolTableRecord
100
AcDbLayerTableRecord
  2
文字（固定）
 70
     0
 62
     3
  6
WACOM_LSTYLE_M1
370
    -3
390
3483
347
3495
  0
LAYER
  5
39
330
2
100
AcDbSymbolTableRecord
100
AcDbLayerTableRecord
  2
枠線
 70
     0
 62
     4
  6
WACOM_LSTYLE_M1
370
    -3
390
3483
347
3495
  0
LAYER
  5
3A
330
2
100
AcDbSymbolTableRecord
100
AcDbLayerTableRecord
  2
実線（中）
 70
     0
 62
     7
  6
WACOM_LSTYLE_M1
370
    -3
390
3483
347
3495
  0
LAYER
  5
1F0
330
2
100
AcDbSymbolTableRecord
100
AcDbLayerTableRecord
  2
寸法線
 70
     0
 62
     2
  6
WACOM_LSTYLE_M1
370
    -3
390
3483
347
3495
  0
LAYER
  5
1F1
330
2
100
AcDbSymbolTableRecord
100
AcDbLayerTableRecord
  2
一点鎖線
 70
     0
 62
     3
  6
WACOM_LSTYLE_M4
370
    -3
390
3483
347
3495
  0
LAYER
  5
1F2
330
2
100
AcDbSymbolTableRecord
100
AcDbLayerTableRecord
  2
実線（太）
 70
     0
 62
    30
  6
WACOM_LSTYLE_M1
370
    -3
390
3483
347
3495
  0
LAYER
  5
1F3
330
2
100
AcDbSymbolTableRecord
100
AcDbLayerTableRecord
  2
点線
 70
     0
 62
     4
  6
WACOM_LSTYLE_M3
370
    -3
390
3483
347
3495
  0
LAYER
  5
1F4
330
2
100
AcDbSymbolTableRecord
100
AcDbLayerTableRecord
  2
実線（細）
 70
     0
 62
     4
  6
WACOM_LSTYLE_M1
370
    -3
390
3483
347
3495
  0
LAYER
  5
1F5
330
2
100
AcDbSymbolTableRecord
100
AcDbLayerTableRecord
  2
補助線
 70
     0
 62
     5
  6
WACOM_LSTYLE_M3
370
    -3
390
3483
347
3495
  0
LAYER
  5
1F6
330
2
100
AcDbSymbolTableRecord
100
AcDbLayerTableRecord
  2
DEFPOINTS
 70
     0
 62
     7
  6
WACOM_LSTYLE_M1
290
     0
370
    -3
390
3483
347
3495
  0
LAYER
  5
1F7
330
2
100
AcDbSymbolTableRecord
100
AcDbLayerTableRecord
  2
二点鎖線
 70
     0
 62
     3
  6
WACOM_LSTYLE_M5
370
    -3
390
3483
347
3495
  0
LAYER
  5
1F8
330
2
100
AcDbSymbolTableRecord
100
AcDbLayerTableRecord
  2
破線
 70
     0
 62
     4
  6
WACOM_LSTYLE_M2
370
    -3
390
3483
347
3495
  0
LAYER
  5
5DE
330
2
100
AcDbSymbolTableRecord
100
AcDbLayerTableRecord
  2
可変文字
 70
     0
 62
     1
  6
WACOM_LSTYLE_M1
370
    -3
390
3483
347
3495
  0
ENDTAB
  0
TABLE
  2
STYLE
  5
3
330
0
100
AcDbSymbolTable
 70
     5
  0
STYLE
  5
F
330
3
100
AcDbSymbolTableRecord
100
AcDbTextStyleTableRecord
  2
STANDARD
 70
     0
 40
0.0
 41
1.0
 50
0.0
 71
     0
 42
0.2
  3
txt
  4

  0
STYLE
  5
3D
330
3
100
AcDbSymbolTableRecord
100
AcDbTextStyleTableRecord
  2
寸法文字
 70
     0
 40
0.0
 41
1.0
 50
0.0
 71
     0
 42
2.5
  3
MS PGothic.ttf
  4

1001
ACAD
1000
MS PGothic
1071
    32818
  0
STYLE
  5
1F9
330
3
100
AcDbSymbolTableRecord
100
AcDbTextStyleTableRecord
  2
MSｺﾞｼｯｸ
 70
     0
 40
0.0
 41
1.0
 50
0.0
 71
     0
 42
2.5
  3
MS Gothic.ttf
  4

1001
ACAD
1000
MS Gothic
1071
    32817
  0
STYLE
  5
1FA
330
3
100
AcDbSymbolTableRecord
100
AcDbTextStyleTableRecord
  2
MS明朝
 70
     0
 40
0.0
 41
1.0
 50
0.0
 71
     0
 42
2.5
  3
MS Mincho.ttf
  4

1001
ACAD
1000
MS Mincho
1071
    32785
  0
STYLE
  5
19D8
330
3
100
AcDbSymbolTableRecord
100
AcDbTextStyleTableRecord
  2
MSPｺﾞｼｯｸ
 70
     0
 40
0.0
 41
1.0
 50
0.0
 71
     0
 42
2.5
  3
MS PGothic.ttf
  4

1001
ACAD
1000
MS PGothic
1071
    32818
  0
ENDTAB
  0
TABLE
  2
VIEW
  5
6
330
0
100
AcDbSymbolTable
 70
     0
  0
ENDTAB
  0
TABLE
  2
UCS
  5
7
330
0
100
AcDbSymbolTable
 70
     0
  0
ENDTAB
  0
TABLE
  2
APPID
  5
9
330
0
100
AcDbSymbolTable
 70
     4
  0
APPID
  5
10
330
9
100
AcDbSymbolTableRecord
100
AcDbRegAppTableRecord
  2
ACAD
 70
     0
  0
APPID
  5
24
330
9
100
AcDbSymbolTableRecord
100
AcDbRegAppTableRecord
  2
CONTENTTABDATA
 70
     0
  0
APPID
  5
25
330
9
100
AcDbSymbolTableRecord
100
AcDbRegAppTableRecord
  2
CONTENTCURRENTTAB
 70
     0
  0
APPID
  5
34DC
330
9
100
AcDbSymbolTableRecord
100
AcDbRegAppTableRecord
  2
ACAD_PSEXT
 70
     0
  0
ENDTAB
  0
TABLE
  2
DIMSTYLE
  5
A
330
0
100
AcDbSymbolTable
 70
     5
100
AcDbDimStyleTable
 71
     0
  0
DIMSTYLE
105
1D
330
A
100
AcDbSymbolTableRecord
100
AcDbDimStyleTableRecord
  2
STANDARD
 70
     0
340
F
  0
DIMSTYLE
105
1FC
102
{ACAD_REACTORS
330
C3F
330
D61
330
1363
330
1DD0
330
1DD1
330
1ECE
330
2D18
330
30B0
330
30BD
330
30CA
330
2890
330
31B0
102
}
330
A
100
AcDbSymbolTableRecord
100
AcDbDimStyleTableRecord
  2
標準
 70
     0
 41
5.0
 42
1.0
 43
3.75
 44
1.0
 73
     0
 74
     0
 77
     1
 78
     8
140
5.0
141
2.5
143
0.0394
147
2.0
171
     4
172
     1
173
     1
271
     2
272
     2
273
     8
274
     4
284
     8
340
3D
341
1283
343
1283
344
1283
  0
DIMSTYLE
105
1364
102
{ACAD_REACTORS
330
137C
330
1389
330
1DD3
330
1DD4
330
1DD2
330
2890
330
2F84
330
33B9
330
1363
330
1E95
330
30CA
330
313F
330
3159
330
3198
102
}
330
A
100
AcDbSymbolTableRecord
100
AcDbDimStyleTableRecord
  2
標準小
 70
     0
 41
3.0
 42
0.7
 43
3.75
 44
1.0
 48
0.1
 73
     0
 74
     0
 77
     1
 78
     8
140
3.0
141
2.5
143
0.0394
146
0.5
147
1.5
171
     4
172
     1
173
     1
271
     2
272
     2
273
     8
274
     4
284
     8
288
     1
340
3D
341
1283
343
1283
344
1283
  0
DIMSTYLE
105
311C
102
{ACAD_REACTORS
330
313F
330
3159
330
3198
330
31B0
330
1ECE
102
}
330
A
100
AcDbSymbolTableRecord
100
AcDbDimStyleTableRecord
  2
許容差
 70
     0
 41
5.0
 42
1.0
 43
3.75
 44
1.0
 47
0.5
 71
     1
 73
     0
 74
     0
 77
     1
 78
     8
140
4.0
141
2.5
143
0.0394
146
0.6
147
1.5
171
     4
172
     1
173
     1
271
     2
272
     2
273
     8
274
     4
284
     8
340
3D
341
1283
343
1283
344
1283
  0
DIMSTYLE
105
3223
102
{ACAD_REACTORS
330
1DD3
330
1DD4
102
}
330
A
100
AcDbSymbolTableRecord
100
AcDbDimStyleTableRecord
  2
標準小丸
 70
     0
 41
3.0
 42
0.7
 43
3.75
 44
1.0
 48
0.1
 73
     0
 74
     0
 77
     1
 78
     8
140
3.0
141
2.5
143
0.0394
146
0.5
147
1.5
171
     4
172
     1
173
     1
271
     2
272
     2
273
     8
274
     4
284
     8
288
     1
340
3D
341
321C
343
321C
344
321C
  0
ENDTAB
  0
TABLE
  2
BLOCK_RECORD
  5
1
330
0
100
AcDbSymbolTable
 70
    28
  0
BLOCK_RECORD
  5
18
330
1
100
AcDbSymbolTableRecord
100
AcDbBlockTableRecord
  2
*MODEL_SPACE
340
34CF
 70
     0
280
     1
281
     0
  0
BLOCK_RECORD
  5
15
330
1
100
AcDbSymbolTableRecord
100
AcDbBlockTableRecord
  2
*PAPER_SPACE
340
34D0
 70
     0
280
     1
281
     0
  0
BLOCK_RECORD
  5
10B5
330
1
100
AcDbSymbolTableRecord
100
AcDbBlockTableRecord
  2
*D0
340
0
 70
     0
280
     1
281
     0
  0
BLOCK_RECORD
  5
10FD
330
1
100
AcDbSymbolTableRecord
100
AcDbBlockTableRecord
  2
*D1
340
0
 70
     0
280
     1
281
     0
  0
BLOCK_RECORD
  5
1283
330
1
100
AcDbSymbolTableRecord
100
AcDbBlockTableRecord
  2
_OPEN30
340
0
102
{BLKREFS
331
2593
331
2594
331
3182
331
3183
331
3326
331
3327
331
3333
331
3334
331
333E
331
333F
331
330A
331
330B
331
2DBE
331
2DBF
331
334B
331
334C
331
339A
331
339B
331
312C
331
312D
331
28AC
331
28AD
331
31C0
331
31C1
331
3363
331
3364
331
3421
331
3422
331
342C
331
342D
331
336E
331
336F
331
3379
331
337A
331
3442
331
3443
331
346E
331
346F
331
31B5
331
31B6
331
3400
331
3401
102
}
 70
     0
280
     1
281
     0
  0
BLOCK_RECORD
  5
1355
330
1
100
AcDbSymbolTableRecord
100
AcDbBlockTableRecord
  2
*D3
340
0
 70
     0
280
     1
281
     0
  0
BLOCK_RECORD
  5
1370
330
1
100
AcDbSymbolTableRecord
100
AcDbBlockTableRecord
  2
*D4
340
0
 70
     0
280
     1
281
     0
  0
BLOCK_RECORD
  5
137D
330
1
100
AcDbSymbolTableRecord
100
AcDbBlockTableRecord
  2
*D5
340
0
 70
     0
280
     1
281
     0
  0
BLOCK_RECORD
  5
1DD6
330
1
100
AcDbSymbolTableRecord
100
AcDbBlockTableRecord
  2
*D6
340
0
 70
     0
280
     1
281
     0
  0
BLOCK_RECORD
  5
1DE2
330
1
100
AcDbSymbolTableRecord
100
AcDbBlockTableRecord
  2
*D7
340
0
 70
     0
280
     1
281
     0
  0
BLOCK_RECORD
  5
1DEE
330
1
100
AcDbSymbolTableRecord
100
AcDbBlockTableRecord
  2
*D8
340
0
 70
     0
280
     1
281
     0
  0
BLOCK_RECORD
  5
1DFA
330
1
100
AcDbSymbolTableRecord
100
AcDbBlockTableRecord
  2
*D9
340
0
 70
     0
280
     1
281
     0
  0
BLOCK_RECORD
  5
1E12
330
1
100
AcDbSymbolTableRecord
100
AcDbBlockTableRecord
  2
*D10
340
0
 70
     0
280
     1
281
     0
  0
BLOCK_RECORD
  5
1E89
330
1
100
AcDbSymbolTableRecord
100
AcDbBlockTableRecord
  2
*D11
340
0
 70
     0
280
     1
281
     0
  0
BLOCK_RECORD
  5
1EC2
330
1
100
AcDbSymbolTableRecord
100
AcDbBlockTableRecord
  2
*D12
340
0
 70
     0
280
     1
281
     0
  0
BLOCK_RECORD
  5
2883
330
1
100
AcDbSymbolTableRecord
100
AcDbBlockTableRecord
  2
*D13
340
0
 70
     0
280
     1
281
     0
  0
BLOCK_RECORD
  5
2D5B
330
1
100
AcDbSymbolTableRecord
100
AcDbBlockTableRecord
  2
*D14
340
0
 70
     0
280
     1
281
     0
  0
BLOCK_RECORD
  5
2FC9
330
1
100
AcDbSymbolTableRecord
100
AcDbBlockTableRecord
  2
*D15
340
0
 70
     0
280
     1
281
     0
  0
BLOCK_RECORD
  5
300A
330
1
100
AcDbSymbolTableRecord
100
AcDbBlockTableRecord
  2
A$C301F4858
340
0
102
{BLKREFS
331
3023
102
}
 70
     0
280
     1
281
     0
  0
BLOCK_RECORD
  5
304C
330
1
100
AcDbSymbolTableRecord
100
AcDbBlockTableRecord
  2
A$C3D3D0A8A
340
0
102
{BLKREFS
331
3069
331
306A
102
}
 70
     0
280
     1
281
     0
  0
BLOCK_RECORD
  5
308D
330
1
100
AcDbSymbolTableRecord
100
AcDbBlockTableRecord
  2
A$C30A01E98
340
0
102
{BLKREFS
331
30A1
102
}
 70
     0
280
     1
281
     0
  0
BLOCK_RECORD
  5
30A4
330
1
100
AcDbSymbolTableRecord
100
AcDbBlockTableRecord
  2
*D19
340
0
 70
     0
280
     1
281
     0
  0
BLOCK_RECORD
  5
30B1
330
1
100
AcDbSymbolTableRecord
100
AcDbBlockTableRecord
  2
*D20
340
0
 70
     0
280
     1
281
     0
  0
BLOCK_RECORD
  5
30BE
330
1
100
AcDbSymbolTableRecord
100
AcDbBlockTableRecord
  2
*D21
340
0
 70
     0
280
     1
281
     0
  0
BLOCK_RECORD
  5
3133
330
1
100
AcDbSymbolTableRecord
100
AcDbBlockTableRecord
  2
*D22
340
0
 70
     0
280
     1
281
     0
  0
BLOCK_RECORD
  5
314D
330
1
100
AcDbSymbolTableRecord
100
AcDbBlockTableRecord
  2
*D23
340
0
 70
     0
280
     1
281
     0
  0
BLOCK_RECORD
  5
318C
330
1
100
AcDbSymbolTableRecord
100
AcDbBlockTableRecord
  2
*D24
340
0
 70
     0
280
     1
281
     0
  0
BLOCK_RECORD
  5
31A4
330
1
100
AcDbSymbolTableRecord
100
AcDbBlockTableRecord
  2
*D25
340
0
 70
     0
280
     1
281
     0
  0
BLOCK_RECORD
  5
321C
330
1
100
AcDbSymbolTableRecord
100
AcDbBlockTableRecord
  2
_DOTSMALL
340
0
102
{BLKREFS
331
32F4
331
32F5
331
32E9
331
32EA
102
}
 70
     0
280
     1
281
     0
  0
BLOCK_RECORD
  5
33AD
330
1
100
AcDbSymbolTableRecord
100
AcDbBlockTableRecord
  2
*D27
340
0
 70
     0
280
     1
281
     0
  0
ENDTAB
  0
ENDSEC
  0
SECTION
  2
BLOCKS
  0
BLOCK
  5
19
330
18
100
AcDbEntity
  8
0
100
AcDbBlockBegin
  2
*MODEL_SPACE
 70
     0
 10
0.0
 20
0.0
 30
0.0
  3
*MODEL_SPACE
  1

  0
ENDBLK
  5
1A
330
18
100
AcDbEntity
  8
0
100
AcDbBlockEnd
  0
BLOCK
  5
16
330
15
100
AcDbEntity
 67
     1
  8
0
100
AcDbBlockBegin
  2
*PAPER_SPACE
 70
     0
 10
0.0
 20
0.0
 30
0.0
  3
*PAPER_SPACE
  1

  0
ENDBLK
  5
17
330
15
100
AcDbEntity
 67
     1
  8
0
100
AcDbBlockEnd
  0
BLOCK
  5
258F
330
10B5
100
AcDbEntity
  8
0
100
AcDbBlockBegin
  2
*D0
 70
     1
 10
0.0
 20
0.0
 30
0.0
  3
*D0
  1

  0
LINE
  5
2590
330
10B5
100
AcDbEntity
  8
0
  6
ByBlock
 62
     0
440
 16777216
100
AcDbLine
 10
28.0
 20
270.5
 30
0.0
 11
9.000000000000001
 21
270.5
 31
0.0
  0
LINE
  5
2591
330
10B5
100
AcDbEntity
  8
0
  6
ByBlock
 62
     0
440
 16777216
100
AcDbLine
 10
28.0
 20
211.0
 30
0.0
 11
8.999999999999998
 21
211.0
 31
0.0
  0
LINE
  5
2592
330
10B5
100
AcDbEntity
  8
0
  6
ByBlock
 62
     0
440
 16777216
100
AcDbLine
 10
10.0
 20
265.5
 30
0.0
 11
9.999999999999998
 21
216.0
 31
0.0
  0
INSERT
  5
2593
330
10B5
100
AcDbEntity
  8
0
  6
ByBlock
 62
     0
440
 16777216
100
AcDbBlockReference
  2
_OPEN30
 10
10.0
 20
270.5
 30
0.0
 41
5.0
 42
5.0
 43
5.0
 50
90.0
  0
INSERT
  5
2594
330
10B5
100
AcDbEntity
  8
0
  6
ByBlock
 62
     0
440
 16777216
100
AcDbBlockReference
  2
_OPEN30
 10
9.999999999999998
 20
211.0
 30
0.0
 41
5.0
 42
5.0
 43
5.0
 50
270.0
  0
MTEXT
  5
2595
330
10B5
100
AcDbEntity
  8
0
  6
ByBlock
 62
     0
440
 16777216
100
AcDbMText
 10
5.5
 20
240.75
 30
0.0
 40
5.0
 41
0.0
 46
0.0
 71
     5
 72
     1
  1
\A1;59.5
  7
寸法文字
 11
0.0000000000000001
 21
1.0
 31
0.0
 73
     1
 44
1.0
  0
POINT
  5
2596
330
10B5
100
AcDbEntity
  8
DEFPOINTS
  6
ByBlock
 62
     0
440
 16777216
100
AcDbPoint
 10
29.0
 20
270.5
 30
0.0
  0
POINT
  5
2597
330
10B5
100
AcDbEntity
  8
DEFPOINTS
  6
ByBlock
 62
     0
440
 16777216
100
AcDbPoint
 10
29.0
 20
211.0
 30
0.0
  0
POINT
  5
2598
330
10B5
100
AcDbEntity
  8
DEFPOINTS
  6
ByBlock
 62
     0
440
 16777216
100
AcDbPoint
 10
9.999999999999998
 20
211.0
 30
0.0
  0
ENDBLK
  5
2599
330
10B5
100
AcDbEntity
  8
0
100
AcDbBlockEnd
  0
BLOCK
  5
317E
330
10FD
100
AcDbEntity
  8
0
100
AcDbBlockBegin
  2
*D1
 70
     1
 10
0.0
 20
0.0
 30
0.0
  3
*D1
  1

  0
LINE
  5
317F
330
10FD
100
AcDbEntity
  8
0
  6
ByBlock
 62
     0
440
 16777216
100
AcDbLine
 10
399.5
 20
65.5
 30
0.0
 11
399.5
 21
49.0
 31
0.0
  0
LINE
  5
3180
330
10FD
100
AcDbEntity
  8
0
  6
ByBlock
 62
     0
440
 16777216
100
AcDbLine
 10
300.5
 20
65.5
 30
0.0
 11
300.5
 21
49.0
 31
0.0
  0
LINE
  5
3181
330
10FD
100
AcDbEntity
  8
0
  6
ByBlock
 62
     0
440
 16777216
100
AcDbLine
 10
394.5
 20
50.0
 30
0.0
 11
305.5
 21
50.0
 31
0.0
  0
INSERT
  5
3182
330
10FD
100
AcDbEntity
  8
0
  6
ByBlock
 62
     0
440
 16777216
100
AcDbBlockReference
  2
_OPEN30
 10
399.5
 20
50.0
 30
0.0
 41
5.0
 42
5.0
 43
5.0
  0
INSERT
  5
3183
330
10FD
100
AcDbEntity
  8
0
  6
ByBlock
 62
     0
440
 16777216
100
AcDbBlockReference
  2
_OPEN30
 10
300.5
 20
50.0
 30
0.0
 41
5.0
 42
5.0
 43
5.0
 50
180.0
  0
MTEXT
  5
3184
330
10FD
100
AcDbEntity
  8
0
  6
ByBlock
 62
     0
440
 16777216
100
AcDbMText
 10
349.9985000000001
 20
54.5
 30
0.0
 40
5.0
 41
0.0
 46
0.0
 71
     5
 72
     1
  1
\A1;99
  7
寸法文字
 73
     1
 44
1.0
  0
POINT
  5
3185
330
10FD
100
AcDbEntity
  8
DEFPOINTS
  6
ByBlock
 62
     0
440
 16777216
100
AcDbPoint
 10
399.5
 20
66.5
 30
0.0
  0
POINT
  5
3186
330
10FD
100
AcDbEntity
  8
DEFPOINTS
  6
ByBlock
 62
     0
440
 16777216
100
AcDbPoint
 10
300.5
 20
66.5
 30
0.0
  0
POINT
  5
3187
330
10FD
100
AcDbEntity
  8
DEFPOINTS
  6
ByBlock
 62
     0
440
 16777216
100
AcDbPoint
 10
300.5
 20
50.0
 30
0.0
  0
ENDBLK
  5
3188
330
10FD
100
AcDbEntity
  8
0
100
AcDbBlockEnd
  0
BLOCK
  5
1284
330
1283
100
AcDbEntity
  8
0
100
AcDbBlockBegin
  2
_OPEN30
 70
     0
 10
0.0
 20
0.0
 30
0.0
  3
_OPEN30
  1

  0
LINE
  5
1285
330
1283
100
AcDbEntity
  8
0
  6
ByBlock
 62
     0
100
AcDbLine
 10
-1.0
 20
0.26794919
 30
0.0
 11
0.0
 21
0.0
 31
0.0
  0
LINE
  5
1286
330
1283
100
AcDbEntity
  8
0
  6
ByBlock
 62
     0
100
AcDbLine
 10
0.0
 20
0.0
 30
0.0
 11
-1.0
 21
-0.26794919
 31
0.0
  0
LINE
  5
1287
330
1283
100
AcDbEntity
  8
0
  6
ByBlock
 62
     0
100
AcDbLine
 10
0.0
 20
0.0
 30
0.0
 11
-1.0
 21
0.0
 31
0.0
  0
ENDBLK
  5
1288
330
1283
100
AcDbEntity
  8
0
100
AcDbBlockEnd
  0
BLOCK
  5
3322
330
1355
100
AcDbEntity
  8
0
100
AcDbBlockBegin
  2
*D3
 70
     1
 10
0.0
 20
0.0
 30
0.0
  3
*D3
  1

  0
LINE
  5
3323
330
1355
100
AcDbEntity
  8
0
  6
ByBlock
 62
     0
440
 16777216
100
AcDbLine
 10
24.3
 20
244.25
 30
0.0
 11
19.0
 21
244.25
 31
0.0
  0
LINE
  5
3324
330
1355
100
AcDbEntity
  8
0
  6
ByBlock
 62
     0
440
 16777216
100
AcDbLine
 10
28.3
 20
219.5
 30
0.0
 11
19.0
 21
219.5
 31
0.0
  0
LINE
  5
3325
330
1355
100
AcDbEntity
  8
0
  6
ByBlock
 62
     0
440
 16777216
100
AcDbLine
 10
20.0
 20
241.25
 30
0.0
 11
20.0
 21
222.5
 31
0.0
  0
INSERT
  5
3326
330
1355
100
AcDbEntity
  8
0
  6
ByBlock
 62
     0
440
 16777216
100
AcDbBlockReference
  2
_OPEN30
 10
20.0
 20
244.25
 30
0.0
 41
3.0
 42
3.0
 43
3.0
 50
90.0
  0
INSERT
  5
3327
330
1355
100
AcDbEntity
  8
0
  6
ByBlock
 62
     0
440
 16777216
100
AcDbBlockReference
  2
_OPEN30
 10
20.0
 20
219.5
 30
0.0
 41
3.0
 42
3.0
 43
3.0
 50
270.0
  0
MTEXT
  5
3328
330
1355
100
AcDbEntity
  8
0
  6
ByBlock
 62
     0
440
 16777216
100
AcDbMText
 10
17.0
 20
231.875
 30
0.0
 40
3.0
 41
0.0
 46
0.0
 71
     5
 72
     1
  1
\A1;24.75
  7
寸法文字
 11
0.0000000000000001
 21
1.0
 31
0.0
 73
     1
 44
1.0
  0
POINT
  5
3329
330
1355
100
AcDbEntity
  8
DEFPOINTS
  6
ByBlock
 62
     0
440
 16777216
100
AcDbPoint
 10
25.0
 20
244.25
 30
0.0
  0
POINT
  5
332A
330
1355
100
AcDbEntity
  8
DEFPOINTS
  6
ByBlock
 62
     0
440
 16777216
100
AcDbPoint
 10
29.0
 20
219.5
 30
0.0
  0
POINT
  5
332B
330
1355
100
AcDbEntity
  8
DEFPOINTS
  6
ByBlock
 62
     0
440
 16777216
100
AcDbPoint
 10
20.0
 20
219.5
 30
0.0
  0
ENDBLK
  5
332C
330
1355
100
AcDbEntity
  8
0
100
AcDbBlockEnd
  0
BLOCK
  5
332D
330
1370
100
AcDbEntity
  8
0
100
AcDbBlockBegin
  2
*D4
 70
     1
 10
0.0
 20
0.0
 30
0.0
  3
*D4
  1

  0
LINE
  5
332E
330
1370
100
AcDbEntity
  8
0
  6
ByBlock
 62
     0
440
 16777216
100
AcDbLine
 10
29.3
 20
219.5
 30
0.0
 11
19.0
 21
219.5
 31
0.0
  0
LINE
  5
332F
330
1370
100
AcDbEntity
  8
0
  6
ByBlock
 62
     0
440
 16777216
100
AcDbLine
 10
28.3
 20
218.5
 30
0.0
 11
19.0
 21
218.5
 31
0.0
  0
LINE
  5
3330
330
1370
100
AcDbEntity
  8
0
  6
ByBlock
 62
     0
440
 16777216
100
AcDbLine
 10
20.0
 20
222.5
 30
0.0
 11
20.0
 21
225.5
 31
0.0
  0
LINE
  5
3331
330
1370
100
AcDbEntity
  8
0
  6
ByBlock
 62
     0
440
 16777216
100
AcDbLine
 10
20.0
 20
215.5
 30
0.0
 11
20.0
 21
208.5965909090909
 31
0.0
  0
LINE
  5
3332
330
1370
100
AcDbEntity
  8
0
  6
ByBlock
 62
     0
440
 16777216
100
AcDbLine
 10
20.0
 20
219.5
 30
0.0
 11
20.0
 21
218.5
 31
0.0
  0
INSERT
  5
3333
330
1370
100
AcDbEntity
  8
0
  6
ByBlock
 62
     0
440
 16777216
100
AcDbBlockReference
  2
_OPEN30
 10
20.0
 20
219.5
 30
0.0
 41
3.0
 42
3.0
 43
3.0
 50
270.0
  0
INSERT
  5
3334
330
1370
100
AcDbEntity
  8
0
  6
ByBlock
 62
     0
440
 16777216
100
AcDbBlockReference
  2
_OPEN30
 10
20.0
 20
218.5
 30
0.0
 41
3.0
 42
3.0
 43
3.0
 50
90.0
  0
MTEXT
  5
3335
330
1370
100
AcDbEntity
  8
0
  6
ByBlock
 62
     0
440
 16777216
100
AcDbMText
 10
17.0
 20
210.5482954545454
 30
0.0
 40
3.0
 41
0.0
 46
0.0
 71
     5
 72
     1
  1
\A1;1
  7
寸法文字
 11
0.0000000000000001
 21
1.0
 31
0.0
 73
     1
 44
1.0
  0
POINT
  5
3336
330
1370
100
AcDbEntity
  8
DEFPOINTS
  6
ByBlock
 62
     0
440
 16777216
100
AcDbPoint
 10
30.0
 20
219.5
 30
0.0
  0
POINT
  5
3337
330
1370
100
AcDbEntity
  8
DEFPOINTS
  6
ByBlock
 62
     0
440
 16777216
100
AcDbPoint
 10
29.0
 20
218.5
 30
0.0
  0
POINT
  5
3338
330
1370
100
AcDbEntity
  8
DEFPOINTS
  6
ByBlock
 62
     0
440
 16777216
100
AcDbPoint
 10
20.0
 20
218.5
 30
0.0
  0
ENDBLK
  5
3339
330
1370
100
AcDbEntity
  8
0
100
AcDbBlockEnd
  0
BLOCK
  5
333A
330
137D
100
AcDbEntity
  8
0
100
AcDbBlockBegin
  2
*D5
 70
     1
 10
0.0
 20
0.0
 30
0.0
  3
*D5
  1

  0
LINE
  5
333B
330
137D
100
AcDbEntity
  8
0
  6
ByBlock
 62
     0
440
 16777216
100
AcDbLine
 10
57.0
 20
186.3
 30
0.0
 11
57.0
 21
174.0
 31
0.0
  0
LINE
  5
333C
330
137D
100
AcDbEntity
  8
0
  6
ByBlock
 62
     0
440
 16777216
100
AcDbLine
 10
103.0
 20
186.3
 30
0.0
 11
103.0
 21
174.0
 31
0.0
  0
LINE
  5
333D
330
137D
100
AcDbEntity
  8
0
  6
ByBlock
 62
     0
440
 16777216
100
AcDbLine
 10
60.0
 20
175.0
 30
0.0
 11
100.0
 21
175.0
 31
0.0
  0
INSERT
  5
333E
330
137D
100
AcDbEntity
  8
0
  6
ByBlock
 62
     0
440
 16777216
100
AcDbBlockReference
  2
_OPEN30
 10
57.0
 20
175.0
 30
0.0
 41
3.0
 42
3.0
 43
3.0
 50
180.0
  0
INSERT
  5
333F
330
137D
100
AcDbEntity
  8
0
  6
ByBlock
 62
     0
440
 16777216
100
AcDbBlockReference
  2
_OPEN30
 10
103.0
 20
175.0
 30
0.0
 41
3.0
 42
3.0
 43
3.0
  0
MTEXT
  5
3340
330
137D
100
AcDbEntity
  8
0
  6
ByBlock
 62
     0
440
 16777216
100
AcDbMText
 10
80.0
 20
178.0
 30
0.0
 40
3.0
 41
0.0
 46
0.0
 71
     5
 72
     1
  1
\A1;46
  7
寸法文字
 73
     1
 44
1.0
  0
POINT
  5
3341
330
137D
100
AcDbEntity
  8
DEFPOINTS
  6
ByBlock
 62
     0
440
 16777216
100
AcDbPoint
 10
57.0
 20
187.0
 30
0.0
  0
POINT
  5
3342
330
137D
100
AcDbEntity
  8
DEFPOINTS
  6
ByBlock
 62
     0
440
 16777216
100
AcDbPoint
 10
103.0
 20
187.0
 30
0.0
  0
POINT
  5
3343
330
137D
100
AcDbEntity
  8
DEFPOINTS
  6
ByBlock
 62
     0
440
 16777216
100
AcDbPoint
 10
103.0
 20
175.0
 30
0.0
  0
ENDBLK
  5
3344
330
137D
100
AcDbEntity
  8
0
100
AcDbBlockEnd
  0
BLOCK
  5
3306
330
1DD6
100
AcDbEntity
  8
0
100
AcDbBlockBegin
  2
*D6
 70
     1
 10
0.0
 20
0.0
 30
0.0
  3
*D6
  1

  0
LINE
  5
3307
330
1DD6
100
AcDbEntity
  8
0
  6
ByBlock
 62
     0
440
 16777216
100
AcDbLine
 10
155.0
 20
213.5
 30
0.0
 11
155.0
 21
164.0
 31
0.0
  0
LINE
  5
3308
330
1DD6
100
AcDbEntity
  8
0
  6
ByBlock
 62
     0
440
 16777216
100
AcDbLine
 10
262.0
 20
189.1
 30
0.0
 11
262.0
 21
164.0
 31
0.0
  0
LINE
  5
3309
330
1DD6
100
AcDbEntity
  8
0
  6
ByBlock
 62
     0
440
 16777216
100
AcDbLine
 10
160.0
 20
165.0
 30
0.0
 11
257.0000000000001
 21
165.0
 31
0.0
  0
INSERT
  5
330A
330
1DD6
100
AcDbEntity
  8
0
  6
ByBlock
 62
     0
440
 16777216
100
AcDbBlockReference
  2
_OPEN30
 10
155.0
 20
165.0
 30
0.0
 41
5.0
 42
5.0
 43
5.0
 50
180.0
  0
INSERT
  5
330B
330
1DD6
100
AcDbEntity
  8
0
  6
ByBlock
 62
     0
440
 16777216
100
AcDbBlockReference
  2
_OPEN30
 10
262.0
 20
165.0
 30
0.0
 41
5.0
 42
5.0
 43
5.0
  0
MTEXT
  5
330C
330
1DD6
100
AcDbEntity
  8
0
  6
ByBlock
 62
     0
440
 16777216
100
AcDbMText
 10
208.5
 20
169.5
 30
0.0
 40
5.0
 41
0.0
 46
0.0
 71
     5
 72
     1
  1
\A1;107
  7
寸法文字
 73
     1
 44
1.0
  0
POINT
  5
330D
330
1DD6
100
AcDbEntity
  8
DEFPOINTS
  6
ByBlock
 62
     0
440
 16777216
100
AcDbPoint
 10
155.0
 20
214.5
 30
0.0
  0
POINT
  5
330E
330
1DD6
100
AcDbEntity
  8
DEFPOINTS
  6
ByBlock
 62
     0
440
 16777216
100
AcDbPoint
 10
262.0
 20
190.1
 30
0.0
  0
POINT
  5
330F
330
1DD6
100
AcDbEntity
  8
DEFPOINTS
  6
ByBlock
 62
     0
440
 16777216
100
AcDbPoint
 10
262.0
 20
165.0
 30
0.0
  0
ENDBLK
  5
3310
330
1DD6
100
AcDbEntity
  8
0
100
AcDbBlockEnd
  0
BLOCK
  5
2DBA
330
1DE2
100
AcDbEntity
  8
0
100
AcDbBlockBegin
  2
*D7
 70
     1
 10
0.0
 20
0.0
 30
0.0
  3
*D7
  1

  0
LINE
  5
2DBB
330
1DE2
100
AcDbEntity
  8
0
  6
ByBlock
 62
     0
440
 16777216
100
AcDbLine
 10
31.0
 20
186.5
 30
0.0
 11
31.0
 21
159.0
 31
0.0
  0
LINE
  5
2DBC
330
1DE2
100
AcDbEntity
  8
0
  6
ByBlock
 62
     0
440
 16777216
100
AcDbLine
 10
129.0
 20
186.0
 30
0.0
 11
129.0
 21
159.0
 31
0.0
  0
LINE
  5
2DBD
330
1DE2
100
AcDbEntity
  8
0
  6
ByBlock
 62
     0
440
 16777216
100
AcDbLine
 10
36.0
 20
160.0
 30
0.0
 11
124.0
 21
160.0
 31
0.0
  0
INSERT
  5
2DBE
330
1DE2
100
AcDbEntity
  8
0
  6
ByBlock
 62
     0
440
 16777216
100
AcDbBlockReference
  2
_OPEN30
 10
31.0
 20
160.0
 30
0.0
 41
5.0
 42
5.0
 43
5.0
 50
180.0
  0
INSERT
  5
2DBF
330
1DE2
100
AcDbEntity
  8
0
  6
ByBlock
 62
     0
440
 16777216
100
AcDbBlockReference
  2
_OPEN30
 10
129.0
 20
160.0
 30
0.0
 41
5.0
 42
5.0
 43
5.0
  0
MTEXT
  5
2DC0
330
1DE2
100
AcDbEntity
  8
0
  6
ByBlock
 62
     0
440
 16777216
100
AcDbMText
 10
80.0
 20
164.5
 30
0.0
 40
5.0
 41
0.0
 46
0.0
 71
     5
 72
     1
  1
\A1;98
  7
寸法文字
 73
     1
 44
1.0
  0
POINT
  5
2DC1
330
1DE2
100
AcDbEntity
  8
DEFPOINTS
  6
ByBlock
 62
     0
440
 16777216
100
AcDbPoint
 10
31.0
 20
187.5
 30
0.0
  0
POINT
  5
2DC2
330
1DE2
100
AcDbEntity
  8
DEFPOINTS
  6
ByBlock
 62
     0
440
 16777216
100
AcDbPoint
 10
129.0
 20
187.0
 30
0.0
  0
POINT
  5
2DC3
330
1DE2
100
AcDbEntity
  8
DEFPOINTS
  6
ByBlock
 62
     0
440
 16777216
100
AcDbPoint
 10
129.0
 20
160.0
 30
0.0
  0
ENDBLK
  5
2DC4
330
1DE2
100
AcDbEntity
  8
0
100
AcDbBlockEnd
  0
BLOCK
  5
32F0
330
1DEE
100
AcDbEntity
  8
0
100
AcDbBlockBegin
  2
*D8
 70
     1
 10
0.0
 20
0.0
 30
0.0
  3
*D8
  1

  0
LINE
  5
32F1
330
1DEE
100
AcDbEntity
  8
0
  6
ByBlock
 62
     0
440
 16777216
100
AcDbLine
 10
155.0
 20
213.8
 30
0.0
 11
155.0
 21
174.0
 31
0.0
  0
LINE
  5
32F2
330
1DEE
100
AcDbEntity
  8
0
  6
ByBlock
 62
     0
440
 16777216
100
AcDbLine
 10
151.0
 20
215.1333333333333
 30
0.0
 11
151.0
 21
174.0
 31
0.0
  0
LINE
  5
32F3
330
1DEE
100
AcDbEntity
  8
0
  6
ByBlock
 62
     0
440
 16777216
100
AcDbLine
 10
155.0
 20
175.0
 30
0.0
 11
151.0
 21
175.0
 31
0.0
  0
INSERT
  5
32F4
330
1DEE
100
AcDbEntity
  8
0
  6
ByBlock
 62
     0
440
 16777216
100
AcDbBlockReference
  2
_DOTSMALL
 10
155.0
 20
175.0
 30
0.0
 41
3.0
 42
3.0
 43
3.0
  0
INSERT
  5
32F5
330
1DEE
100
AcDbEntity
  8
0
  6
ByBlock
 62
     0
440
 16777216
100
AcDbBlockReference
  2
_DOTSMALL
 10
151.0
 20
175.0
 30
0.0
 41
3.0
 42
3.0
 43
3.0
 50
180.0
  0
MTEXT
  5
32F6
330
1DEE
100
AcDbEntity
  8
0
  6
ByBlock
 62
     0
440
 16777216
100
AcDbMText
 10
153.0
 20
178.0
 30
0.0
 40
3.0
 41
0.0
 46
0.0
 71
     5
 72
     1
  1
\A1;4
  7
寸法文字
 73
     1
 44
1.0
  0
POINT
  5
32F7
330
1DEE
100
AcDbEntity
  8
DEFPOINTS
  6
ByBlock
 62
     0
440
 16777216
100
AcDbPoint
 10
155.0
 20
214.5
 30
0.0
  0
POINT
  5
32F8
330
1DEE
100
AcDbEntity
  8
DEFPOINTS
  6
ByBlock
 62
     0
440
 16777216
100
AcDbPoint
 10
151.0
 20
215.8333333333334
 30
0.0
  0
POINT
  5
32F9
330
1DEE
100
AcDbEntity
  8
DEFPOINTS
  6
ByBlock
 62
     0
440
 16777216
100
AcDbPoint
 10
151.0
 20
175.0
 30
0.0
  0
ENDBLK
  5
32FA
330
1DEE
100
AcDbEntity
  8
0
100
AcDbBlockEnd
  0
BLOCK
  5
32E4
330
1DFA
100
AcDbEntity
  8
0
100
AcDbBlockBegin
  2
*D9
 70
     1
 10
0.0
 20
0.0
 30
0.0
  3
*D9
  1

  0
LINE
  5
32E5
330
1DFA
100
AcDbEntity
  8
0
  6
ByBlock
 62
     0
440
 16777216
100
AcDbLine
 10
155.0
 20
213.8
 30
0.0
 11
155.0
 21
174.0
 31
0.0
  0
LINE
  5
32E6
330
1DFA
100
AcDbEntity
  8
0
  6
ByBlock
 62
     0
440
 16777216
100
AcDbLine
 10
158.5
 20
196.3
 30
0.0
 11
158.5
 21
174.0
 31
0.0
  0
LINE
  5
32E7
330
1DFA
100
AcDbEntity
  8
0
  6
ByBlock
 62
     0
440
 16777216
100
AcDbLine
 10
155.0
 20
175.0
 30
0.0
 11
158.5
 21
175.0
 31
0.0
  0
LINE
  5
32E8
330
1DFA
100
AcDbEntity
  8
0
  6
ByBlock
 62
     0
440
 16777216
100
AcDbLine
 10
158.5
 20
175.0
 30
0.0
 11
172.3068181818182
 21
175.0
 31
0.0
  0
INSERT
  5
32E9
330
1DFA
100
AcDbEntity
  8
0
  6
ByBlock
 62
     0
440
 16777216
100
AcDbBlockReference
  2
_DOTSMALL
 10
155.0
 20
175.0
 30
0.0
 41
3.0
 42
3.0
 43
3.0
 50
180.0
  0
INSERT
  5
32EA
330
1DFA
100
AcDbEntity
  8
0
  6
ByBlock
 62
     0
440
 16777216
100
AcDbBlockReference
  2
_DOTSMALL
 10
158.5
 20
175.0
 30
0.0
 41
3.0
 42
3.0
 43
3.0
  0
MTEXT
  5
32EB
330
1DFA
100
AcDbEntity
  8
0
  6
ByBlock
 62
     0
440
 16777216
100
AcDbMText
 10
168.4034090909091
 20
178.0
 30
0.0
 40
3.0
 41
0.0
 46
0.0
 71
     5
 72
     1
  1
\A1;3.5
  7
寸法文字
 73
     1
 44
1.0
  0
POINT
  5
32EC
330
1DFA
100
AcDbEntity
  8
DEFPOINTS
  6
ByBlock
 62
     0
440
 16777216
100
AcDbPoint
 10
155.0
 20
214.5
 30
0.0
  0
POINT
  5
32ED
330
1DFA
100
AcDbEntity
  8
DEFPOINTS
  6
ByBlock
 62
     0
440
 16777216
100
AcDbPoint
 10
158.5
 20
197.0
 30
0.0
  0
POINT
  5
32EE
330
1DFA
100
AcDbEntity
  8
DEFPOINTS
  6
ByBlock
 62
     0
440
 16777216
100
AcDbPoint
 10
158.5
 20
175.0
 30
0.0
  0
ENDBLK
  5
32EF
330
1DFA
100
AcDbEntity
  8
0
100
AcDbBlockEnd
  0
BLOCK
  5
3345
330
1E12
100
AcDbEntity
  8
0
100
AcDbBlockBegin
  2
*D10
 70
     1
 10
0.0
 20
0.0
 30
0.0
  3
*D10
  1

  0
LINE
  5
3346
330
1E12
100
AcDbEntity
  8
0
  6
ByBlock
 62
     0
440
 16777216
100
AcDbLine
 10
151.0
 20
215.1333333333334
 30
0.0
 11
151.0
 21
184.0
 31
0.0
  0
LINE
  5
3347
330
1E12
100
AcDbEntity
  8
0
  6
ByBlock
 62
     0
440
 16777216
100
AcDbLine
 10
143.0
 20
214.6584123500822
 30
0.0
 11
143.0
 21
184.0
 31
0.0
  0
LINE
  5
3348
330
1E12
100
AcDbEntity
  8
0
  6
ByBlock
 62
     0
440
 16777216
100
AcDbLine
 10
154.0
 20
185.0
 30
0.0
 11
157.0
 21
185.0
 31
0.0
  0
LINE
  5
3349
330
1E12
100
AcDbEntity
  8
0
  6
ByBlock
 62
     0
440
 16777216
100
AcDbLine
 10
140.0
 20
185.0
 30
0.0
 11
137.0
 21
185.0
 31
0.0
  0
LINE
  5
334A
330
1E12
100
AcDbEntity
  8
0
  6
ByBlock
 62
     0
440
 16777216
100
AcDbLine
 10
151.0
 20
185.0
 30
0.0
 11
143.0
 21
185.0
 31
0.0
  0
INSERT
  5
334B
330
1E12
100
AcDbEntity
  8
0
  6
ByBlock
 62
     0
440
 16777216
100
AcDbBlockReference
  2
_OPEN30
 10
151.0
 20
185.0
 30
0.0
 41
3.0
 42
3.0
 43
3.0
 50
180.0
  0
INSERT
  5
334C
330
1E12
100
AcDbEntity
  8
0
  6
ByBlock
 62
     0
440
 16777216
100
AcDbBlockReference
  2
_OPEN30
 10
143.0
 20
185.0
 30
0.0
 41
3.0
 42
3.0
 43
3.0
  0
MTEXT
  5
334D
330
1E12
100
AcDbEntity
  8
0
  6
ByBlock
 62
     0
440
 16777216
100
AcDbMText
 10
147.0
 20
188.3579545454545
 30
0.0
 40
3.0
 41
0.0
 46
0.0
 71
     5
 72
     1
  1
\A1;(8)
  7
寸法文字
 73
     1
 44
1.0
  0
POINT
  5
334E
330
1E12
100
AcDbEntity
  8
DEFPOINTS
  6
ByBlock
 62
     0
440
 16777216
100
AcDbPoint
 10
151.0
 20
215.8333333333334
 30
0.0
  0
POINT
  5
334F
330
1E12
100
AcDbEntity
  8
DEFPOINTS
  6
ByBlock
 62
     0
440
 16777216
100
AcDbPoint
 10
143.0
 20
215.3584123500822
 30
0.0
  0
POINT
  5
3350
330
1E12
100
AcDbEntity
  8
DEFPOINTS
  6
ByBlock
 62
     0
440
 16777216
100
AcDbPoint
 10
143.0
 20
185.0
 30
0.0
  0
ENDBLK
  5
3351
330
1E12
100
AcDbEntity
  8
0
100
AcDbBlockEnd
  0
BLOCK
  5
3396
330
1E89
100
AcDbEntity
  8
0
100
AcDbBlockBegin
  2
*D11
 70
     1
 10
0.0
 20
0.0
 30
0.0
  3
*D11
  1

  0
LINE
  5
3397
330
1E89
100
AcDbEntity
  8
0
  6
ByBlock
 62
     0
440
 16777216
100
AcDbLine
 10
143.0
 20
214.6584123500822
 30
0.0
 11
143.0
 21
164.0
 31
0.0
  0
LINE
  5
3398
330
1E89
100
AcDbEntity
  8
0
  6
ByBlock
 62
     0
440
 16777216
100
AcDbLine
 10
155.0
 20
213.8
 30
0.0
 11
155.0
 21
164.0
 31
0.0
  0
LINE
  5
3399
330
1E89
100
AcDbEntity
  8
0
  6
ByBlock
 62
     0
440
 16777216
100
AcDbLine
 10
146.0
 20
165.0
 30
0.0
 11
152.0
 21
165.0
 31
0.0
  0
INSERT
  5
339A
330
1E89
100
AcDbEntity
  8
0
  6
ByBlock
 62
     0
440
 16777216
100
AcDbBlockReference
  2
_OPEN30
 10
143.0
 20
165.0
 30
0.0
 41
3.0
 42
3.0
 43
3.0
 50
180.0
  0
INSERT
  5
339B
330
1E89
100
AcDbEntity
  8
0
  6
ByBlock
 62
     0
440
 16777216
100
AcDbBlockReference
  2
_OPEN30
 10
155.0
 20
165.0
 30
0.0
 41
3.0
 42
3.0
 43
3.0
  0
MTEXT
  5
339C
330
1E89
100
AcDbEntity
  8
0
  6
ByBlock
 62
     0
440
 16777216
100
AcDbMText
 10
149.0
 20
168.3579545454545
 30
0.0
 40
3.0
 41
0.0
 46
0.0
 71
     5
 72
     1
  1
\A1;(12)
  7
寸法文字
 73
     1
 44
1.0
  0
POINT
  5
339D
330
1E89
100
AcDbEntity
  8
DEFPOINTS
  6
ByBlock
 62
     0
440
 16777216
100
AcDbPoint
 10
143.0
 20
215.3584123500822
 30
0.0
  0
POINT
  5
339E
330
1E89
100
AcDbEntity
  8
DEFPOINTS
  6
ByBlock
 62
     0
440
 16777216
100
AcDbPoint
 10
155.0
 20
214.5
 30
0.0
  0
POINT
  5
339F
330
1E89
100
AcDbEntity
  8
DEFPOINTS
  6
ByBlock
 62
     0
440
 16777216
100
AcDbPoint
 10
155.0
 20
165.0
 30
0.0
  0
ENDBLK
  5
33A0
330
1E89
100
AcDbEntity
  8
0
100
AcDbBlockEnd
  0
BLOCK
  5
3128
330
1EC2
100
AcDbEntity
  8
0
100
AcDbBlockBegin
  2
*D12
 70
     1
 10
0.0
 20
0.0
 30
0.0
  3
*D12
  1

  0
LINE
  5
3129
330
1EC2
100
AcDbEntity
  8
0
  6
ByBlock
 62
     0
440
 16777216
100
AcDbLine
 10
390.5
 20
113.5
 30
0.0
 11
406.0
 21
113.5
 31
0.0
  0
LINE
  5
312A
330
1EC2
100
AcDbEntity
  8
0
  6
ByBlock
 62
     0
440
 16777216
100
AcDbLine
 10
390.5
 20
56.5
 30
0.0
 11
406.0
 21
56.5
 31
0.0
  0
LINE
  5
312B
330
1EC2
100
AcDbEntity
  8
0
  6
ByBlock
 62
     0
440
 16777216
100
AcDbLine
 10
405.0
 20
108.5
 30
0.0
 11
405.0
 21
61.5
 31
0.0
  0
INSERT
  5
312C
330
1EC2
100
AcDbEntity
  8
0
  6
ByBlock
 62
     0
440
 16777216
100
AcDbBlockReference
  2
_OPEN30
 10
405.0
 20
113.5
 30
0.0
 41
5.0
 42
5.0
 43
5.0
 50
90.0
  0
INSERT
  5
312D
330
1EC2
100
AcDbEntity
  8
0
  6
ByBlock
 62
     0
440
 16777216
100
AcDbBlockReference
  2
_OPEN30
 10
405.0
 20
56.5
 30
0.0
 41
5.0
 42
5.0
 43
5.0
 50
270.0
  0
MTEXT
  5
312E
330
1EC2
100
AcDbEntity
  8
0
  6
ByBlock
 62
     0
440
 16777216
100
AcDbMText
 10
400.7136363636363
 20
85.0
 30
0.0
 40
4.0
 41
0.0
 46
0.0
 71
     5
 72
     1
  1
\A1;57{\H2.400000;\S+0.5^ -0;}
  7
寸法文字
 11
0.0000000000000001
 21
1.0
 31
0.0
 73
     1
 44
1.0
  0
POINT
  5
312F
330
1EC2
100
AcDbEntity
  8
DEFPOINTS
  6
ByBlock
 62
     0
440
 16777216
100
AcDbPoint
 10
389.5
 20
113.5
 30
0.0
  0
POINT
  5
3130
330
1EC2
100
AcDbEntity
  8
DEFPOINTS
  6
ByBlock
 62
     0
440
 16777216
100
AcDbPoint
 10
389.5
 20
56.5
 30
0.0
  0
POINT
  5
3131
330
1EC2
100
AcDbEntity
  8
DEFPOINTS
  6
ByBlock
 62
     0
440
 16777216
100
AcDbPoint
 10
405.0
 20
56.5
 30
0.0
  0
ENDBLK
  5
3132
330
1EC2
100
AcDbEntity
  8
0
100
AcDbBlockEnd
  0
BLOCK
  5
28A8
330
2883
100
AcDbEntity
  8
0
100
AcDbBlockBegin
  2
*D13
 70
     1
 10
0.0
 20
0.0
 30
0.0
  3
*D13
  1

  0
LINE
  5
28A9
330
2883
100
AcDbEntity
  8
0
  6
ByBlock
 62
     0
440
 16777216
100
AcDbLine
 10
28.0
 20
211.0
 30
0.0
 11
8.999999999999998
 21
211.0
 31
0.0
  0
LINE
  5
28AA
330
2883
100
AcDbEntity
  8
0
  6
ByBlock
 62
     0
440
 16777216
100
AcDbLine
 10
36.0
 20
183.5
 30
0.0
 11
8.999999999999996
 21
183.5
 31
0.0
  0
LINE
  5
28AB
330
2883
100
AcDbEntity
  8
0
  6
ByBlock
 62
     0
440
 16777216
100
AcDbLine
 10
10.0
 20
206.0
 30
0.0
 11
9.999999999999998
 21
188.5
 31
0.0
  0
INSERT
  5
28AC
330
2883
100
AcDbEntity
  8
0
  6
ByBlock
 62
     0
440
 16777216
100
AcDbBlockReference
  2
_OPEN30
 10
10.0
 20
211.0
 30
0.0
 41
5.0
 42
5.0
 43
5.0
 50
90.0
  0
INSERT
  5
28AD
330
2883
100
AcDbEntity
  8
0
  6
ByBlock
 62
     0
440
 16777216
100
AcDbBlockReference
  2
_OPEN30
 10
9.999999999999998
 20
183.5
 30
0.0
 41
5.0
 42
5.0
 43
5.0
 50
270.0
  0
MTEXT
  5
28AE
330
2883
100
AcDbEntity
  8
0
  6
ByBlock
 62
     0
440
 16777216
100
AcDbMText
 10
5.5
 20
197.25
 30
0.0
 40
5.0
 41
0.0
 46
0.0
 71
     5
 72
     1
  1
\A1;27.5
  7
寸法文字
 11
0.0000000000000001
 21
1.0
 31
0.0
 73
     1
 44
1.0
  0
POINT
  5
28AF
330
2883
100
AcDbEntity
  8
DEFPOINTS
  6
ByBlock
 62
     0
440
 16777216
100
AcDbPoint
 10
29.0
 20
211.0
 30
0.0
  0
POINT
  5
28B0
330
2883
100
AcDbEntity
  8
DEFPOINTS
  6
ByBlock
 62
     0
440
 16777216
100
AcDbPoint
 10
37.0
 20
183.5
 30
0.0
  0
POINT
  5
28B1
330
2883
100
AcDbEntity
  8
DEFPOINTS
  6
ByBlock
 62
     0
440
 16777216
100
AcDbPoint
 10
9.999999999999998
 20
183.5
 30
0.0
  0
ENDBLK
  5
28B2
330
2883
100
AcDbEntity
  8
0
100
AcDbBlockEnd
  0
BLOCK
  5
31BC
330
2D5B
100
AcDbEntity
  8
0
100
AcDbBlockBegin
  2
*D14
 70
     1
 10
0.0
 20
0.0
 30
0.0
  3
*D14
  1

  0
LINE
  5
31BD
330
2D5B
100
AcDbEntity
  8
0
  6
ByBlock
 62
     0
440
 16777216
100
AcDbLine
 10
263.0
 20
243.0
 30
0.0
 11
278.5000000000801
 21
243.0
 31
0.0
  0
LINE
  5
31BE
330
2D5B
100
AcDbEntity
  8
0
  6
ByBlock
 62
     0
440
 16777216
100
AcDbLine
 10
263.0
 20
187.0001601066622
 30
0.0
 11
278.5000000000801
 21
187.0001601066622
 31
0.0
  0
LINE
  5
31BF
330
2D5B
100
AcDbEntity
  8
0
  6
ByBlock
 62
     0
440
 16777216
100
AcDbLine
 10
277.5000000000801
 20
238.0
 30
0.0
 11
277.5000000000801
 21
192.0001601066622
 31
0.0
  0
INSERT
  5
31C0
330
2D5B
100
AcDbEntity
  8
0
  6
ByBlock
 62
     0
440
 16777216
100
AcDbBlockReference
  2
_OPEN30
 10
277.5000000000801
 20
243.0
 30
0.0
 41
5.0
 42
5.0
 43
5.0
 50
90.0
  0
INSERT
  5
31C1
330
2D5B
100
AcDbEntity
  8
0
  6
ByBlock
 62
     0
440
 16777216
100
AcDbBlockReference
  2
_OPEN30
 10
277.5000000000801
 20
187.0001601066622
 30
0.0
 41
5.0
 42
5.0
 43
5.0
 50
270.0
  0
MTEXT
  5
31C2
330
2D5B
100
AcDbEntity
  8
0
  6
ByBlock
 62
     0
440
 16777216
100
AcDbMText
 10
273.0000000000801
 20
215.0000400266656
 30
0.0
 40
5.0
 41
0.0
 46
0.0
 71
     5
 72
     1
  1
\A1;56
  7
寸法文字
 11
0.0000000000000001
 21
1.0
 31
0.0
 73
     1
 44
1.0
  0
POINT
  5
31C3
330
2D5B
100
AcDbEntity
  8
DEFPOINTS
  6
ByBlock
 62
     0
440
 16777216
100
AcDbPoint
 10
262.0
 20
243.0
 30
0.0
  0
POINT
  5
31C4
330
2D5B
100
AcDbEntity
  8
DEFPOINTS
  6
ByBlock
 62
     0
440
 16777216
100
AcDbPoint
 10
262.0
 20
187.0001601066622
 30
0.0
  0
POINT
  5
31C5
330
2D5B
100
AcDbEntity
  8
DEFPOINTS
  6
ByBlock
 62
     0
440
 16777216
100
AcDbPoint
 10
277.5000000000801
 20
187.0001601066622
 30
0.0
  0
ENDBLK
  5
31C6
330
2D5B
100
AcDbEntity
  8
0
100
AcDbBlockEnd
  0
BLOCK
  5
335D
330
2FC9
100
AcDbEntity
  8
0
100
AcDbBlockBegin
  2
*D15
 70
     1
 10
0.0
 20
0.0
 30
0.0
  3
*D15
  1

  0
LINE
  5
335E
330
2FC9
100
AcDbEntity
  8
0
  6
ByBlock
 62
     0
440
 16777216
100
AcDbLine
 10
371.7683152934023
 20
201.5454605542601
 30
0.0
 11
381.1148346965952
 21
197.6740054564743
 31
0.0
  0
LINE
  5
335F
330
2FC9
100
AcDbEntity
  8
0
  6
ByBlock
 62
     0
440
 16777216
100
AcDbLine
 10
374.9063194387961
 20
209.1212727208528
 30
0.0
 11
384.2528388419891
 21
205.249817623067
 31
0.0
  0
LINE
  5
3360
330
2FC9
100
AcDbEntity
  8
0
  6
ByBlock
 62
     0
440
 16777216
100
AcDbLine
 10
379.0429048669886
 20
195.2850502913055
 30
0.0
 11
377.8948545698934
 21
192.5134116937717
 31
0.0
  0
LINE
  5
3361
330
2FC9
100
AcDbEntity
  8
0
  6
ByBlock
 62
     0
440
 16777216
100
AcDbLine
 10
384.477009606573
 20
208.404139652966
 30
0.0
 11
385.6250599036683
 21
211.1757782504998
 31
0.0
  0
LINE
  5
3362
330
2FC9
100
AcDbEntity
  8
0
  6
ByBlock
 62
     0
440
 16777216
100
AcDbLine
 10
380.1909551640839
 20
198.0566888888394
 30
0.0
 11
383.3289593094777
 21
205.6325010554321
 31
0.0
  0
INSERT
  5
3363
330
2FC9
100
AcDbEntity
  8
0
  6
ByBlock
 62
     0
440
 16777216
100
AcDbBlockReference
  2
_OPEN30
 10
380.1909551640839
 20
198.0566888888394
 30
0.0
 41
3.0
 42
3.0
 43
3.0
 50
67.5
  0
INSERT
  5
3364
330
2FC9
100
AcDbEntity
  8
0
  6
ByBlock
 62
     0
440
 16777216
100
AcDbBlockReference
  2
_OPEN30
 10
383.3289593094777
 20
205.6325010554321
 30
0.0
 41
3.0
 42
3.0
 43
3.0
 50
247.5
  0
MTEXT
  5
3365
330
2FC9
100
AcDbEntity
  8
0
  6
ByBlock
 62
     0
440
 16777216
100
AcDbMText
 10
378.988318639247
 20
202.992645269231
 30
0.0
 40
3.0
 41
0.0
 46
0.0
 71
     5
 72
     1
  1
\A1;8.2
  7
寸法文字
 11
0.3826834323650905
 21
0.9238795325112864
 31
0.0
 73
     1
 44
1.0
  0
POINT
  5
3366
330
2FC9
100
AcDbEntity
  8
DEFPOINTS
  6
ByBlock
 62
     0
440
 16777216
100
AcDbPoint
 10
371.1215996206444
 20
201.8133389569157
 30
0.0
  0
POINT
  5
3367
330
2FC9
100
AcDbEntity
  8
DEFPOINTS
  6
ByBlock
 62
     0
440
 16777216
100
AcDbPoint
 10
374.2596037660382
 20
209.3891511235084
 30
0.0
  0
POINT
  5
3368
330
2FC9
100
AcDbEntity
  8
DEFPOINTS
  6
ByBlock
 62
     0
440
 16777216
100
AcDbPoint
 10
383.3289593094777
 20
205.6325010554321
 30
0.0
  0
ENDBLK
  5
3369
330
2FC9
100
AcDbEntity
  8
0
100
AcDbBlockEnd
  0
BLOCK
  5
3021
330
300A
100
AcDbEntity
  8
0
100
AcDbBlockBegin
  2
A$C301F4858
 70
     0
 10
0.0
 20
0.0
 30
0.0
  3
A$C301F4858
  1

  0
LINE
  5
300B
330
300A
100
AcDbEntity
  8
二点鎖線
100
AcDbLine
 10
99.49999982977443
 20
-0.0000000147548462
 30
0.0
 11
9.499999829774424
 21
-0.0000000147548462
 31
0.0
  0
LINE
  5
300C
330
300A
100
AcDbEntity
  8
二点鎖線
100
AcDbLine
 10
9.499999829774424
 20
15.99999998524515
 30
0.0
 11
99.49999982977443
 21
15.99999998524515
 31
0.0
  0
LINE
  5
300D
330
300A
100
AcDbEntity
  8
二点鎖線
100
AcDbLine
 10
5.399999829774401
 20
8.99999998524521
 30
0.0
 11
5.399999829774401
 21
15.99999998524521
 31
0.0
  0
LINE
  5
300E
330
300A
100
AcDbEntity
  8
二点鎖線
100
AcDbLine
 10
-0.0000001702256327
 20
8.99999998524521
 30
0.0
 11
-0.0000001702256327
 21
15.99999998524521
 31
0.0
  0
LINE
  5
300F
330
300A
100
AcDbEntity
  8
二点鎖線
100
AcDbLine
 10
4.59999982977439
 20
8.99999998524521
 30
0.0
 11
4.59999982977439
 21
15.99999998524521
 31
0.0
  0
LINE
  5
3010
330
300A
100
AcDbEntity
  8
二点鎖線
100
AcDbLine
 10
9.499999829774424
 20
-0.0000000147548462
 30
0.0
 11
9.499999829774424
 21
15.99999998524515
 31
0.0
  0
LINE
  5
3011
330
300A
100
AcDbEntity
  8
二点鎖線
100
AcDbLine
 10
9.499999829774367
 20
8.99999998524521
 30
0.0
 11
-0.0000001702256327
 21
8.99999998524521
 31
0.0
  0
ARC
  5
3012
330
300A
100
AcDbEntity
  8
二点鎖線
100
AcDbCircle
 10
14.24999982977442
 20
7.999999985245153
 30
0.0
 40
1.75
100
AcDbArc
 50
90.0
 51
270.0
  0
ARC
  5
3013
330
300A
100
AcDbEntity
  8
二点鎖線
100
AcDbCircle
 10
16.74999982977442
 20
7.999999985245153
 30
0.0
 40
1.75
100
AcDbArc
 50
270.0
 51
90.0
  0
LINE
  5
3014
330
300A
100
AcDbEntity
  8
二点鎖線
100
AcDbLine
 10
14.24999982977442
 20
9.749999985245153
 30
0.0
 11
16.74999982977442
 21
9.749999985245153
 31
0.0
  0
LINE
  5
3015
330
300A
100
AcDbEntity
  8
二点鎖線
100
AcDbLine
 10
14.24999982977442
 20
6.249999985245153
 30
0.0
 11
16.74999982977442
 21
6.249999985245153
 31
0.0
  0
LINE
  5
3016
330
300A
100
AcDbEntity
  8
二点鎖線
100
AcDbLine
 10
9.499999829774367
 20
15.99999998524521
 30
0.0
 11
-0.0000001702256327
 21
15.99999998524521
 31
0.0
  0
LINE
  5
3017
330
300A
100
AcDbEntity
  8
二点鎖線
100
AcDbLine
 10
99.49999982977443
 20
15.99999998524515
 30
0.0
 11
99.49999982977443
 21
-0.0000000147548462
 31
0.0
  0
LINE
  5
3018
330
300A
100
AcDbEntity
  8
二点鎖線
100
AcDbLine
 10
99.49999982977443
 20
-0.0000000147548462
 30
0.0
 11
108.9999998297744
 21
-0.0000000147548462
 31
0.0
  0
LINE
  5
3019
330
300A
100
AcDbEntity
  8
二点鎖線
100
AcDbLine
 10
99.49999982977443
 20
6.999999985245153
 30
0.0
 11
108.9999998297744
 21
6.999999985245153
 31
0.0
  0
ARC
  5
301A
330
300A
100
AcDbEntity
  8
二点鎖線
100
AcDbCircle
 10
94.74999982977442
 20
7.999999985245153
 30
0.0
 40
1.75
100
AcDbArc
 50
270.0
 51
90.0
  0
ARC
  5
301B
330
300A
100
AcDbEntity
  8
二点鎖線
100
AcDbCircle
 10
92.24999982977442
 20
7.999999985245153
 30
0.0
 40
1.75
100
AcDbArc
 50
90.0
 51
270.0
  0
LINE
  5
301C
330
300A
100
AcDbEntity
  8
二点鎖線
100
AcDbLine
 10
92.24999982977442
 20
6.249999985245153
 30
0.0
 11
94.74999982977442
 21
6.249999985245153
 31
0.0
  0
LINE
  5
301D
330
300A
100
AcDbEntity
  8
二点鎖線
100
AcDbLine
 10
92.24999982977442
 20
9.749999985245153
 30
0.0
 11
94.74999982977442
 21
9.749999985245153
 31
0.0
  0
LINE
  5
301E
330
300A
100
AcDbEntity
  8
二点鎖線
100
AcDbLine
 10
103.5999998297744
 20
6.999999985245153
 30
0.0
 11
103.5999998297744
 21
-0.0000000147548462
 31
0.0
  0
LINE
  5
301F
330
300A
100
AcDbEntity
  8
二点鎖線
100
AcDbLine
 10
108.9999998297744
 20
6.999999985245153
 30
0.0
 11
108.9999998297744
 21
-0.0000000147548462
 31
0.0
  0
LINE
  5
3020
330
300A
100
AcDbEntity
  8
二点鎖線
100
AcDbLine
 10
104.3999998297744
 20
6.999999985245153
 30
0.0
 11
104.3999998297744
 21
-0.0000000147548462
 31
0.0
  0
ENDBLK
  5
3022
330
300A
100
AcDbEntity
  8
0
100
AcDbBlockEnd
  0
BLOCK
  5
3066
330
304C
100
AcDbEntity
  8
0
100
AcDbBlockBegin
  2
A$C3D3D0A8A
 70
     0
 10
0.0
 20
0.0
 30
0.0
  3
A$C3D3D0A8A
  1

  0
LINE
  5
304D
330
304C
100
AcDbEntity
  8
二点鎖線
100
AcDbLine
 10
1.784778361195947
 20
2.82074314131762
 30
0.0
 11
1.045674735186821
 21
3.126889887209699
 31
0.0
  0
LINE
  5
304E
330
304C
100
AcDbEntity
  8
二点鎖線
100
AcDbLine
 10
2.16746179356096
 20
3.744622673828985
 30
0.0
 11
1.428358167551891
 21
4.050769419721007
 31
0.0
  0
CIRCLE
  5
304F
330
304C
100
AcDbEntity
  8
二点鎖線
100
AcDbCircle
 10
2.899999609889732
 20
2.899999475208232
 30
0.0
 40
2.9
  0
LINE
  5
3050
330
304C
100
AcDbEntity
  8
二点鎖線
100
AcDbLine
 10
0.937435515157631
 20
3.388202480184986
 30
0.0
 11
1.167045574576718
 21
3.942530199691873
 31
0.0
  0
ARC
  5
3051
330
304C
100
AcDbEntity
  8
二点鎖線
100
AcDbCircle
 10
1.122211421659869
 20
3.311665793711995
 30
0.0
 40
0.2
100
AcDbArc
 50
157.5
 51
247.5
  0
ARC
  5
3052
330
304C
100
AcDbEntity
  8
二点鎖線
100
AcDbCircle
 10
1.3518214810789
 20
3.865993513218768
 30
0.0
 40
0.2
100
AcDbArc
 50
67.5
 51
157.5
  0
LINE
  5
3053
330
304C
100
AcDbEntity
  8
二点鎖線
100
AcDbLine
 10
4.75432448459253
 20
2.673109063206766
 30
0.0
 11
4.015220858583631
 21
2.979255809098845
 31
0.0
  0
ARC
  5
3054
330
304C
100
AcDbEntity
  8
二点鎖線
100
AcDbCircle
 10
3.865993647900268
 20
4.448177604019008
 30
0.0
 40
0.2
100
AcDbArc
 50
337.5
 51
67.5
  0
ARC
  5
3055
330
304C
100
AcDbEntity
  8
二点鎖線
100
AcDbCircle
 10
4.677787798119538
 20
2.488333156704413
 30
0.0
 40
0.2
100
AcDbArc
 50
337.5
 51
67.5
  0
ARC
  5
3056
330
304C
100
AcDbEntity
  8
二点鎖線
100
AcDbCircle
 10
4.448177738700508
 20
1.934005437197697
 30
0.0
 40
0.2
100
AcDbArc
 50
247.5
 51
337.5
  0
LINE
  5
3057
330
304C
100
AcDbEntity
  8
二点鎖線
100
AcDbLine
 10
4.632953645202746
 20
1.857468750724649
 30
0.0
 11
4.862563704621948
 21
2.411796470231479
 31
0.0
  0
LINE
  5
3058
330
304C
100
AcDbEntity
  8
二点鎖線
100
AcDbLine
 10
1.749229665377015
 20
1.428358032870505
 30
0.0
 11
2.05537641126898
 21
2.167461658879517
 31
0.0
  0
LINE
  5
3059
330
304C
100
AcDbEntity
  8
二点鎖線
100
AcDbLine
 10
2.673109197888265
 20
1.045674600505321
 30
0.0
 11
2.979255943780287
 21
1.78477822651439
 31
0.0
  0
ARC
  5
305A
330
304C
100
AcDbEntity
  8
二点鎖線
100
AcDbCircle
 10
1.934005571879197
 20
1.3518213463974
 30
0.0
 40
0.2
100
AcDbArc
 50
157.5
 51
247.5
  0
ARC
  5
305B
330
304C
100
AcDbEntity
  8
二点鎖線
100
AcDbCircle
 10
2.488333291385913
 20
1.122211286978426
 30
0.0
 40
0.2
100
AcDbArc
 50
247.5
 51
337.5
  0
LINE
  5
305C
330
304C
100
AcDbEntity
  8
二点鎖線
100
AcDbLine
 10
2.411796604912922
 20
0.9374353804761312
 30
0.0
 11
1.857468885406092
 21
1.167045439895161
 31
0.0
  0
ARC
  5
305D
330
304C
100
AcDbEntity
  8
二点鎖線
100
AcDbCircle
 10
1.593436645013355
 20
2.358803375061995
 30
0.0
 40
0.5
100
AcDbArc
 50
337.5
 51
67.5
  0
ARC
  5
305E
330
304C
100
AcDbEntity
  8
二点鎖線
100
AcDbCircle
 10
3.441195710035913
 20
1.593436510331798
 30
0.0
 40
0.5
100
AcDbArc
 50
67.5
 51
157.5
  0
ARC
  5
305F
330
304C
100
AcDbEntity
  8
二点鎖線
100
AcDbCircle
 10
2.358803509743495
 20
4.206562440084553
 30
0.0
 40
0.5
100
AcDbArc
 50
247.5
 51
337.5
  0
LINE
  5
3060
330
304C
100
AcDbEntity
  8
二点鎖線
100
AcDbLine
 10
2.820743275999234
 20
4.015220723901961
 30
0.0
 11
3.126890021891313
 21
4.754324349911144
 31
0.0
  0
ARC
  5
3061
330
304C
100
AcDbEntity
  8
二点鎖線
100
AcDbCircle
 10
3.311665928393381
 20
4.677787663438039
 30
0.0
 40
0.2
100
AcDbArc
 50
67.5
 51
157.5
  0
LINE
  5
3062
330
304C
100
AcDbEntity
  8
二点鎖線
100
AcDbLine
 10
4.371641052227516
 20
1.749229530695515
 30
0.0
 11
3.632537426218561
 21
2.05537627658748
 31
0.0
  0
ARC
  5
3063
330
304C
100
AcDbEntity
  8
二点鎖線
100
AcDbCircle
 10
4.206562574766167
 20
3.441195575354413
 30
0.0
 40
0.5
100
AcDbArc
 50
157.5
 51
247.5
  0
LINE
  5
3064
330
304C
100
AcDbEntity
  8
二点鎖線
100
AcDbLine
 10
3.744622808510484
 20
3.632537291536948
 30
0.0
 11
4.050769554402563
 21
4.371640917545903
 31
0.0
  0
LINE
  5
3065
330
304C
100
AcDbEntity
  8
二点鎖線
100
AcDbLine
 10
3.942530334373259
 20
4.632953510521247
 30
0.0
 11
3.388202614866429
 21
4.862563569940448
 31
0.0
  0
ENDBLK
  5
3067
330
304C
100
AcDbEntity
  8
0
100
AcDbBlockEnd
  0
BLOCK
  5
309F
330
308D
100
AcDbEntity
  8
0
100
AcDbBlockBegin
  2
A$C30A01E98
 70
     0
 10
0.0
 20
0.0
 30
0.0
  3
A$C30A01E98
  1

  0
LINE
  5
308E
330
308D
100
AcDbEntity
  8
二点鎖線
100
AcDbLine
 10
18.80000049535266
 20
16.00000028356629
 30
0.0
 11
18.80000049535266
 21
0.0000002835662372
 31
0.0
  0
LINE
  5
308F
330
308D
100
AcDbEntity
  8
二点鎖線
100
AcDbLine
 10
4.000000495352651
 20
16.00000028356629
 30
0.0
 11
4.000000495352651
 21
9.000000283566294
 31
0.0
  0
LINE
  5
3090
330
308D
100
AcDbEntity
  8
二点鎖線
100
AcDbLine
 10
0.0000004953526513
 20
16.00000028356629
 30
0.0
 11
0.0000004953526513
 21
9.000000283566294
 31
0.0
  0
LINE
  5
3091
330
308D
100
AcDbEntity
  8
二点鎖線
100
AcDbLine
 10
18.00000049535265
 20
9.000000283566294
 30
0.0
 11
0.0000004953526513
 21
9.000000283566294
 31
0.0
  0
LINE
  5
3092
330
308D
100
AcDbEntity
  8
二点鎖線
100
AcDbLine
 10
18.80000049535263
 20
5.002000283566218
 30
0.0
 11
19.84300049535264
 21
5.002000283566218
 31
0.0
  0
LINE
  5
3093
330
308D
100
AcDbEntity
  8
二点鎖線
100
AcDbLine
 10
18.80000049535263
 20
10.99800028356631
 30
0.0
 11
19.84300049535264
 21
10.99800028356631
 31
0.0
  0
LINE
  5
3094
330
308D
100
AcDbEntity
  8
二点鎖線
100
AcDbLine
 10
18.00000049535265
 20
9.000000283566294
 30
0.0
 11
18.00000049535265
 21
0.0000002835662372
 31
0.0
  0
LINE
  5
3095
330
308D
100
AcDbEntity
  8
二点鎖線
100
AcDbLine
 10
18.80000049535266
 20
0.0000002835662372
 30
0.0
 11
18.00000049535265
 21
0.0000002835662372
 31
0.0
  0
ARC
  5
3096
330
308D
100
AcDbEntity
  8
二点鎖線
100
AcDbCircle
 10
9.2602042444081
 20
7.999967262226135
 30
0.0
 40
9.999795723242643
100
AcDbArc
 50
342.5542037948432
 51
17.44615720368354
  0
LINE
  5
3097
330
308D
100
AcDbEntity
  8
二点鎖線
100
AcDbLine
 10
20.30000049535264
 20
5.100000283566288
 30
0.0
 11
21.1000004953527
 21
5.100000283566288
 31
0.0
  0
ARC
  5
3098
330
308D
100
AcDbEntity
  8
二点鎖線
100
AcDbCircle
 10
21.1000004953527
 20
6.30000028356622
 30
0.0
 40
1.2
100
AcDbArc
 50
270.0
 51
0.0
  0
LINE
  5
3099
330
308D
100
AcDbEntity
  8
二点鎖線
100
AcDbLine
 10
22.30000049535263
 20
6.30000028356622
 30
0.0
 11
22.30000049535263
 21
9.700000283566311
 31
0.0
  0
LINE
  5
309A
330
308D
100
AcDbEntity
  8
二点鎖線
100
AcDbLine
 10
20.30000049535264
 20
5.100000283566288
 30
0.0
 11
20.30000049535264
 21
10.90000028356624
 31
0.0
  0
ARC
  5
309B
330
308D
100
AcDbEntity
  8
二点鎖線
100
AcDbCircle
 10
9.266877270006318
 20
7.998991181339562
 30
0.0
 40
10.99310866283732
100
AcDbArc
 50
344.1736719989361
 51
15.83143380558731
  0
LINE
  5
309C
330
308D
100
AcDbEntity
  8
二点鎖線
100
AcDbLine
 10
20.30000049535264
 20
10.90000028356624
 30
0.0
 11
21.1000004953527
 21
10.90000028356624
 31
0.0
  0
ARC
  5
309D
330
308D
100
AcDbEntity
  8
二点鎖線
100
AcDbCircle
 10
21.1000004953527
 20
9.700000283566311
 30
0.0
 40
1.2
100
AcDbArc
 50
0.0
 51
90.00000000000003
  0
LINE
  5
309E
330
308D
100
AcDbEntity
  8
二点鎖線
100
AcDbLine
 10
18.80000049535266
 20
16.00000028356629
 30
0.0
 11
0.0000004953526513
 21
16.00000028356629
 31
0.0
  0
ENDBLK
  5
30A0
330
308D
100
AcDbEntity
  8
0
100
AcDbBlockEnd
  0
BLOCK
  5
341D
330
30A4
100
AcDbEntity
  8
0
100
AcDbBlockBegin
  2
*D19
 70
     1
 10
0.0
 20
0.0
 30
0.0
  3
*D19
  1

  0
LINE
  5
341E
330
30A4
100
AcDbEntity
  8
0
  6
ByBlock
 62
     0
440
 16777216
100
AcDbLine
 10
301.0
 20
191.0
 30
0.0
 11
301.0
 21
164.0
 31
0.0
  0
LINE
  5
341F
330
30A4
100
AcDbEntity
  8
0
  6
ByBlock
 62
     0
440
 16777216
100
AcDbLine
 10
399.0
 20
191.0
 30
0.0
 11
399.0
 21
164.0
 31
0.0
  0
LINE
  5
3420
330
30A4
100
AcDbEntity
  8
0
  6
ByBlock
 62
     0
440
 16777216
100
AcDbLine
 10
306.0
 20
165.0
 30
0.0
 11
394.0
 21
165.0
 31
0.0
  0
INSERT
  5
3421
330
30A4
100
AcDbEntity
  8
0
  6
ByBlock
 62
     0
440
 16777216
100
AcDbBlockReference
  2
_OPEN30
 10
301.0
 20
165.0
 30
0.0
 41
5.0
 42
5.0
 43
5.0
 50
180.0
  0
INSERT
  5
3422
330
30A4
100
AcDbEntity
  8
0
  6
ByBlock
 62
     0
440
 16777216
100
AcDbBlockReference
  2
_OPEN30
 10
399.0
 20
165.0
 30
0.0
 41
5.0
 42
5.0
 43
5.0
  0
MTEXT
  5
3423
330
30A4
100
AcDbEntity
  8
0
  6
ByBlock
 62
     0
440
 16777216
100
AcDbMText
 10
350.0
 20
169.5
 30
0.0
 40
5.0
 41
0.0
 46
0.0
 71
     5
 72
     1
  1
\A1;98
  7
寸法文字
 73
     1
 44
1.0
  0
POINT
  5
3424
330
30A4
100
AcDbEntity
  8
DEFPOINTS
  6
ByBlock
 62
     0
440
 16777216
100
AcDbPoint
 10
301.0
 20
192.0
 30
0.0
  0
POINT
  5
3425
330
30A4
100
AcDbEntity
  8
DEFPOINTS
  6
ByBlock
 62
     0
440
 16777216
100
AcDbPoint
 10
399.0
 20
192.0
 30
0.0
  0
POINT
  5
3426
330
30A4
100
AcDbEntity
  8
DEFPOINTS
  6
ByBlock
 62
     0
440
 16777216
100
AcDbPoint
 10
399.0
 20
165.0
 30
0.0
  0
ENDBLK
  5
3427
330
30A4
100
AcDbEntity
  8
0
100
AcDbBlockEnd
  0
BLOCK
  5
3428
330
30B1
100
AcDbEntity
  8
0
100
AcDbBlockBegin
  2
*D20
 70
     1
 10
0.0
 20
0.0
 30
0.0
  3
*D20
  1

  0
LINE
  5
3429
330
30B1
100
AcDbEntity
  8
0
  6
ByBlock
 62
     0
440
 16777216
100
AcDbLine
 10
395.0
 20
243.0
 30
0.0
 11
416.0
 21
243.0
 31
0.0
  0
LINE
  5
342A
330
30B1
100
AcDbEntity
  8
0
  6
ByBlock
 62
     0
440
 16777216
100
AcDbLine
 10
395.0
 20
187.0
 30
0.0
 11
416.0
 21
187.0
 31
0.0
  0
LINE
  5
342B
330
30B1
100
AcDbEntity
  8
0
  6
ByBlock
 62
     0
440
 16777216
100
AcDbLine
 10
415.0
 20
238.0
 30
0.0
 11
415.0
 21
192.0
 31
0.0
  0
INSERT
  5
342C
330
30B1
100
AcDbEntity
  8
0
  6
ByBlock
 62
     0
440
 16777216
100
AcDbBlockReference
  2
_OPEN30
 10
415.0
 20
243.0
 30
0.0
 41
5.0
 42
5.0
 43
5.0
 50
90.0
  0
INSERT
  5
342D
330
30B1
100
AcDbEntity
  8
0
  6
ByBlock
 62
     0
440
 16777216
100
AcDbBlockReference
  2
_OPEN30
 10
415.0
 20
187.0
 30
0.0
 41
5.0
 42
5.0
 43
5.0
 50
270.0
  0
MTEXT
  5
342E
330
30B1
100
AcDbEntity
  8
0
  6
ByBlock
 62
     0
440
 16777216
100
AcDbMText
 10
410.5
 20
215.0
 30
0.0
 40
5.0
 41
0.0
 46
0.0
 71
     5
 72
     1
  1
\A1;56
  7
寸法文字
 11
0.0000000000000001
 21
1.0
 31
0.0
 73
     1
 44
1.0
  0
POINT
  5
342F
330
30B1
100
AcDbEntity
  8
DEFPOINTS
  6
ByBlock
 62
     0
440
 16777216
100
AcDbPoint
 10
394.0
 20
243.0
 30
0.0
  0
POINT
  5
3430
330
30B1
100
AcDbEntity
  8
DEFPOINTS
  6
ByBlock
 62
     0
440
 16777216
100
AcDbPoint
 10
394.0
 20
187.0
 30
0.0
  0
POINT
  5
3431
330
30B1
100
AcDbEntity
  8
DEFPOINTS
  6
ByBlock
 62
     0
440
 16777216
100
AcDbPoint
 10
415.0
 20
187.0
 30
0.0
  0
ENDBLK
  5
3432
330
30B1
100
AcDbEntity
  8
0
100
AcDbBlockEnd
  0
BLOCK
  5
336A
330
30BE
100
AcDbEntity
  8
0
100
AcDbBlockBegin
  2
*D21
 70
     1
 10
0.0
 20
0.0
 30
0.0
  3
*D21
  1

  0
LINE
  5
336B
330
30BE
100
AcDbEntity
  8
0
  6
ByBlock
 62
     0
440
 16777216
100
AcDbLine
 10
322.0
 20
186.3
 30
0.0
 11
322.0
 21
174.0
 31
0.0
  0
LINE
  5
336C
330
30BE
100
AcDbEntity
  8
0
  6
ByBlock
 62
     0
440
 16777216
100
AcDbLine
 10
378.0
 20
186.3
 30
0.0
 11
378.0
 21
174.0
 31
0.0
  0
LINE
  5
336D
330
30BE
100
AcDbEntity
  8
0
  6
ByBlock
 62
     0
440
 16777216
100
AcDbLine
 10
325.0
 20
175.0
 30
0.0
 11
375.0
 21
175.0
 31
0.0
  0
INSERT
  5
336E
330
30BE
100
AcDbEntity
  8
0
  6
ByBlock
 62
     0
440
 16777216
100
AcDbBlockReference
  2
_OPEN30
 10
322.0
 20
175.0
 30
0.0
 41
3.0
 42
3.0
 43
3.0
 50
180.0
  0
INSERT
  5
336F
330
30BE
100
AcDbEntity
  8
0
  6
ByBlock
 62
     0
440
 16777216
100
AcDbBlockReference
  2
_OPEN30
 10
378.0
 20
175.0
 30
0.0
 41
3.0
 42
3.0
 43
3.0
  0
MTEXT
  5
3370
330
30BE
100
AcDbEntity
  8
0
  6
ByBlock
 62
     0
440
 16777216
100
AcDbMText
 10
350.0
 20
178.4517045454545
 30
0.0
 40
3.0
 41
0.0
 46
0.0
 71
     5
 72
     1
  1
\A1;φ56
  7
寸法文字
 73
     1
 44
1.0
  0
POINT
  5
3371
330
30BE
100
AcDbEntity
  8
DEFPOINTS
  6
ByBlock
 62
     0
440
 16777216
100
AcDbPoint
 10
322.0
 20
187.0
 30
0.0
  0
POINT
  5
3372
330
30BE
100
AcDbEntity
  8
DEFPOINTS
  6
ByBlock
 62
     0
440
 16777216
100
AcDbPoint
 10
378.0
 20
187.0
 30
0.0
  0
POINT
  5
3373
330
30BE
100
AcDbEntity
  8
DEFPOINTS
  6
ByBlock
 62
     0
440
 16777216
100
AcDbPoint
 10
378.0
 20
175.0
 30
0.0
  0
ENDBLK
  5
3374
330
30BE
100
AcDbEntity
  8
0
100
AcDbBlockEnd
  0
BLOCK
  5
3375
330
3133
100
AcDbEntity
  8
0
100
AcDbBlockBegin
  2
*D22
 70
     1
 10
0.0
 20
0.0
 30
0.0
  3
*D22
  1

  0
LINE
  5
3376
330
3133
100
AcDbEntity
  8
0
  6
ByBlock
 62
     0
440
 16777216
100
AcDbLine
 10
305.3
 20
256.0
 30
0.0
 11
289.0
 21
256.0
 31
0.0
  0
LINE
  5
3377
330
3133
100
AcDbEntity
  8
0
  6
ByBlock
 62
     0
440
 16777216
100
AcDbLine
 10
314.3
 20
215.0
 30
0.0
 11
289.0
 21
215.0
 31
0.0
  0
LINE
  5
3378
330
3133
100
AcDbEntity
  8
0
  6
ByBlock
 62
     0
440
 16777216
100
AcDbLine
 10
290.0
 20
253.0
 30
0.0
 11
290.0
 21
218.0
 31
0.0
  0
INSERT
  5
3379
330
3133
100
AcDbEntity
  8
0
  6
ByBlock
 62
     0
440
 16777216
100
AcDbBlockReference
  2
_OPEN30
 10
290.0
 20
256.0
 30
0.0
 41
3.0
 42
3.0
 43
3.0
 50
90.0
  0
INSERT
  5
337A
330
3133
100
AcDbEntity
  8
0
  6
ByBlock
 62
     0
440
 16777216
100
AcDbBlockReference
  2
_OPEN30
 10
290.0
 20
215.0
 30
0.0
 41
3.0
 42
3.0
 43
3.0
 50
270.0
  0
MTEXT
  5
337B
330
3133
100
AcDbEntity
  8
0
  6
ByBlock
 62
     0
440
 16777216
100
AcDbMText
 10
287.0
 20
235.5
 30
0.0
 40
3.0
 41
0.0
 46
0.0
 71
     5
 72
     1
  1
\A1;41
  7
寸法文字
 11
0.0000000000000001
 21
1.0
 31
0.0
 73
     1
 44
1.0
  0
POINT
  5
337C
330
3133
100
AcDbEntity
  8
DEFPOINTS
  6
ByBlock
 62
     0
440
 16777216
100
AcDbPoint
 10
306.0
 20
256.0
 30
0.0
  0
POINT
  5
337D
330
3133
100
AcDbEntity
  8
DEFPOINTS
  6
ByBlock
 62
     0
440
 16777216
100
AcDbPoint
 10
315.0
 20
215.0
 30
0.0
  0
POINT
  5
337E
330
3133
100
AcDbEntity
  8
DEFPOINTS
  6
ByBlock
 62
     0
440
 16777216
100
AcDbPoint
 10
290.0
 20
215.0
 30
0.0
  0
ENDBLK
  5
337F
330
3133
100
AcDbEntity
  8
0
100
AcDbBlockEnd
  0
BLOCK
  5
343E
330
314D
100
AcDbEntity
  8
0
100
AcDbBlockBegin
  2
*D23
 70
     1
 10
0.0
 20
0.0
 30
0.0
  3
*D23
  1

  0
LINE
  5
343F
330
314D
100
AcDbEntity
  8
0
  6
ByBlock
 62
     0
440
 16777216
100
AcDbLine
 10
311.0
 20
261.7
 30
0.0
 11
311.0
 21
281.0
 31
0.0
  0
LINE
  5
3440
330
314D
100
AcDbEntity
  8
0
  6
ByBlock
 62
     0
440
 16777216
100
AcDbLine
 10
389.0
 20
261.7
 30
0.0
 11
389.0
 21
281.0
 31
0.0
  0
LINE
  5
3441
330
314D
100
AcDbEntity
  8
0
  6
ByBlock
 62
     0
440
 16777216
100
AcDbLine
 10
314.0
 20
280.0
 30
0.0
 11
386.0
 21
280.0
 31
0.0
  0
INSERT
  5
3442
330
314D
100
AcDbEntity
  8
0
  6
ByBlock
 62
     0
440
 16777216
100
AcDbBlockReference
  2
_OPEN30
 10
311.0
 20
280.0
 30
0.0
 41
3.0
 42
3.0
 43
3.0
 50
180.0
  0
INSERT
  5
3443
330
314D
100
AcDbEntity
  8
0
  6
ByBlock
 62
     0
440
 16777216
100
AcDbBlockReference
  2
_OPEN30
 10
389.0
 20
280.0
 30
0.0
 41
3.0
 42
3.0
 43
3.0
  0
MTEXT
  5
3444
330
314D
100
AcDbEntity
  8
0
  6
ByBlock
 62
     0
440
 16777216
100
AcDbMText
 10
350.0
 20
283.0
 30
0.0
 40
3.0
 41
0.0
 46
0.0
 71
     5
 72
     1
  1
\A1;78
  7
寸法文字
 73
     1
 44
1.0
  0
POINT
  5
3445
330
314D
100
AcDbEntity
  8
DEFPOINTS
  6
ByBlock
 62
     0
440
 16777216
100
AcDbPoint
 10
311.0
 20
261.0
 30
0.0
  0
POINT
  5
3446
330
314D
100
AcDbEntity
  8
DEFPOINTS
  6
ByBlock
 62
     0
440
 16777216
100
AcDbPoint
 10
389.0
 20
261.0
 30
0.0
  0
POINT
  5
3447
330
314D
100
AcDbEntity
  8
DEFPOINTS
  6
ByBlock
 62
     0
440
 16777216
100
AcDbPoint
 10
389.0
 20
280.0
 30
0.0
  0
ENDBLK
  5
3448
330
314D
100
AcDbEntity
  8
0
100
AcDbBlockEnd
  0
BLOCK
  5
346A
330
318C
100
AcDbEntity
  8
0
100
AcDbBlockBegin
  2
*D24
 70
     1
 10
0.0
 20
0.0
 30
0.0
  3
*D24
  1

  0
LINE
  5
346B
330
318C
100
AcDbEntity
  8
0
  6
ByBlock
 62
     0
440
 16777216
100
AcDbLine
 10
295.5
 20
264.7000000000001
 30
0.0
 11
295.5
 21
291.0
 31
0.0
  0
LINE
  5
346C
330
318C
100
AcDbEntity
  8
0
  6
ByBlock
 62
     0
440
 16777216
100
AcDbLine
 10
404.4999999999999
 20
255.7
 30
0.0
 11
404.4999999999999
 21
291.0
 31
0.0
  0
LINE
  5
346D
330
318C
100
AcDbEntity
  8
0
  6
ByBlock
 62
     0
440
 16777216
100
AcDbLine
 10
298.4999999999999
 20
290.0
 30
0.0
 11
401.4999999999999
 21
290.0
 31
0.0
  0
INSERT
  5
346E
330
318C
100
AcDbEntity
  8
0
  6
ByBlock
 62
     0
440
 16777216
100
AcDbBlockReference
  2
_OPEN30
 10
295.5
 20
290.0
 30
0.0
 41
3.0
 42
3.0
 43
3.0
 50
180.0
  0
INSERT
  5
346F
330
318C
100
AcDbEntity
  8
0
  6
ByBlock
 62
     0
440
 16777216
100
AcDbBlockReference
  2
_OPEN30
 10
404.4999999999999
 20
290.0
 30
0.0
 41
3.0
 42
3.0
 43
3.0
  0
MTEXT
  5
3470
330
318C
100
AcDbEntity
  8
0
  6
ByBlock
 62
     0
440
 16777216
100
AcDbMText
 10
350.0
 20
293.0
 30
0.0
 40
3.0
 41
0.0
 46
0.0
 71
     5
 72
     1
  1
\A1;109
  7
寸法文字
 73
     1
 44
1.0
  0
POINT
  5
3471
330
318C
100
AcDbEntity
  8
DEFPOINTS
  6
ByBlock
 62
     0
440
 16777216
100
AcDbPoint
 10
295.5
 20
264.0000000000001
 30
0.0
  0
POINT
  5
3472
330
318C
100
AcDbEntity
  8
DEFPOINTS
  6
ByBlock
 62
     0
440
 16777216
100
AcDbPoint
 10
404.4999999999999
 20
255.0
 30
0.0
  0
POINT
  5
3473
330
318C
100
AcDbEntity
  8
DEFPOINTS
  6
ByBlock
 62
     0
440
 16777216
100
AcDbPoint
 10
404.4999999999999
 20
290.0
 30
0.0
  0
ENDBLK
  5
3474
330
318C
100
AcDbEntity
  8
0
100
AcDbBlockEnd
  0
BLOCK
  5
31B1
330
31A4
100
AcDbEntity
  8
0
100
AcDbBlockBegin
  2
*D25
 70
     1
 10
0.0
 20
0.0
 30
0.0
  3
*D25
  1

  0
LINE
  5
31B2
330
31A4
100
AcDbEntity
  8
0
  6
ByBlock
 62
     0
440
 16777216
100
AcDbLine
 10
29.0
 20
275.0
 30
0.0
 11
29.0
 21
286.0
 31
0.0
  0
LINE
  5
31B3
330
31A4
100
AcDbEntity
  8
0
  6
ByBlock
 62
     0
440
 16777216
100
AcDbLine
 10
131.0
 20
275.0
 30
0.0
 11
131.0
 21
286.0
 31
0.0
  0
LINE
  5
31B4
330
31A4
100
AcDbEntity
  8
0
  6
ByBlock
 62
     0
440
 16777216
100
AcDbLine
 10
34.0
 20
285.0
 30
0.0
 11
126.0
 21
285.0
 31
0.0
  0
INSERT
  5
31B5
330
31A4
100
AcDbEntity
  8
0
  6
ByBlock
 62
     0
440
 16777216
100
AcDbBlockReference
  2
_OPEN30
 10
29.0
 20
285.0
 30
0.0
 41
5.0
 42
5.0
 43
5.0
 50
180.0
  0
INSERT
  5
31B6
330
31A4
100
AcDbEntity
  8
0
  6
ByBlock
 62
     0
440
 16777216
100
AcDbBlockReference
  2
_OPEN30
 10
131.0
 20
285.0
 30
0.0
 41
5.0
 42
5.0
 43
5.0
  0
MTEXT
  5
31B7
330
31A4
100
AcDbEntity
  8
0
  6
ByBlock
 62
     0
440
 16777216
100
AcDbMText
 10
80.0
 20
289.5
 30
0.0
 40
5.0
 41
0.0
 46
0.0
 71
     5
 72
     1
  1
\A1;102
  7
寸法文字
 73
     1
 44
1.0
  0
POINT
  5
31B8
330
31A4
100
AcDbEntity
  8
DEFPOINTS
  6
ByBlock
 62
     0
440
 16777216
100
AcDbPoint
 10
29.0
 20
274.0
 30
0.0
  0
POINT
  5
31B9
330
31A4
100
AcDbEntity
  8
DEFPOINTS
  6
ByBlock
 62
     0
440
 16777216
100
AcDbPoint
 10
131.0
 20
274.0
 30
0.0
  0
POINT
  5
31BA
330
31A4
100
AcDbEntity
  8
DEFPOINTS
  6
ByBlock
 62
     0
440
 16777216
100
AcDbPoint
 10
131.0
 20
285.0
 30
0.0
  0
ENDBLK
  5
31BB
330
31A4
100
AcDbEntity
  8
0
100
AcDbBlockEnd
  0
BLOCK
  5
321D
330
321C
100
AcDbEntity
  8
0
100
AcDbBlockBegin
  2
_DOTSMALL
 70
     0
 10
0.0
 20
0.0
 30
0.0
  3
_DOTSMALL
  1

  0
LWPOLYLINE
  5
321E
330
321C
100
AcDbEntity
  8
0
  6
ByBlock
 62
     0
100
AcDbPolyline
 90
        2
 70
     1
 43
0.5
 10
-0.0625
 20
0.0
 42
1.0
 10
0.0625
 20
0.0
 42
1.0
  0
ENDBLK
  5
3222
330
321C
100
AcDbEntity
  8
0
100
AcDbBlockEnd
  0
BLOCK
  5
33FC
330
33AD
100
AcDbEntity
  8
0
100
AcDbBlockBegin
  2
*D27
 70
     1
 10
0.0
 20
0.0
 30
0.0
  3
*D27
  1

  0
LINE
  5
33FD
330
33AD
100
AcDbEntity
  8
0
  6
ByBlock
 62
     0
440
 16777216
100
AcDbLine
 10
164.3
 20
271.0
 30
0.0
 11
164.0
 21
271.0
 31
0.0
  0
LINE
  5
33FE
330
33AD
100
AcDbEntity
  8
0
  6
ByBlock
 62
     0
440
 16777216
100
AcDbLine
 10
160.2
 20
216.5
 30
0.0
 11
165.9999999999999
 21
216.5
 31
0.0
  0
LINE
  5
33FF
330
33AD
100
AcDbEntity
  8
0
  6
ByBlock
 62
     0
440
 16777216
100
AcDbLine
 10
165.0
 20
268.0
 30
0.0
 11
164.9999999999999
 21
219.5
 31
0.0
  0
INSERT
  5
3400
330
33AD
100
AcDbEntity
  8
0
  6
ByBlock
 62
     0
440
 16777216
100
AcDbBlockReference
  2
_OPEN30
 10
165.0
 20
271.0
 30
0.0
 41
3.0
 42
3.0
 43
3.0
 50
90.0
  0
INSERT
  5
3401
330
33AD
100
AcDbEntity
  8
0
  6
ByBlock
 62
     0
440
 16777216
100
AcDbBlockReference
  2
_OPEN30
 10
164.9999999999999
 20
216.5
 30
0.0
 41
3.0
 42
3.0
 43
3.0
 50
270.0
  0
MTEXT
  5
3402
330
33AD
100
AcDbEntity
  8
0
  6
ByBlock
 62
     0
440
 16777216
100
AcDbMText
 10
162.0
 20
243.75
 30
0.0
 40
3.0
 41
0.0
 46
0.0
 71
     5
 72
     1
  1
\A1;54.5
  7
寸法文字
 11
0.0000000000000001
 21
1.0
 31
0.0
 73
     1
 44
1.0
  0
POINT
  5
3403
330
33AD
100
AcDbEntity
  8
DEFPOINTS
  6
ByBlock
 62
     0
440
 16777216
100
AcDbPoint
 10
165.0
 20
271.0
 30
0.0
  0
POINT
  5
3404
330
33AD
100
AcDbEntity
  8
DEFPOINTS
  6
ByBlock
 62
     0
440
 16777216
100
AcDbPoint
 10
159.5
 20
216.5
 30
0.0
  0
POINT
  5
3405
330
33AD
100
AcDbEntity
  8
DEFPOINTS
  6
ByBlock
 62
     0
440
 16777216
100
AcDbPoint
 10
164.9999999999999
 20
216.5
 30
0.0
  0
ENDBLK
  5
3406
330
33AD
100
AcDbEntity
  8
0
100
AcDbBlockEnd
  0
ENDSEC
  0
SECTION
  2
ENTITIES
  0
LINE
  5
B58
330
18
100
AcDbEntity
  8
一点鎖線
100
AcDbLine
 10
193.5
 20
215.0
 30
0.0
 11
267.0
 21
215.0
 31
0.0
  0
LINE
  5
C3D
330
18
100
AcDbEntity
  8
一点鎖線
100
AcDbLine
 10
80.0
 20
269.0
 30
0.0
 11
80.0
 21
279.0
 31
0.0
  0
DIMENSION
  5
C3F
330
18
100
AcDbEntity
  8
寸法線
100
AcDbDimension
280
     0
  2
*D0
 10
10.0
 20
214.5
 30
0.0
 11
10.0
 21
244.25
 31
0.0
 12
0.0
 22
3.5
 32
0.0
 70
   160
 71
     5
 42
-1.0
 73
     0
 74
     0
 75
     0
  3
標準
100
AcDbAlignedDimension
 13
29.0
 23
274.0
 33
0.0
 14
29.0
 24
214.5
 34
0.0
 50
90.0
100
AcDbRotatedDimension
  0
LINE
  5
C42
330
18
100
AcDbEntity
  8
実線（中）
100
AcDbLine
 10
30.0
 20
215.5
 30
0.0
 11
30.0
 21
273.0
 31
0.0
  0
LINE
  5
C5D
330
18
100
AcDbEntity
  8
一点鎖線
100
AcDbLine
 10
80.0
 20
212.5
 30
0.0
 11
80.0
 21
224.5
 31
0.0
  0
LINE
  5
C7B
330
18
100
AcDbEntity
  8
一点鎖線
100
AcDbLine
 10
25.0
 20
244.25
 30
0.0
 11
35.0
 21
244.25
 31
0.0
  0
LINE
  5
CB8
330
18
100
AcDbEntity
  8
実線（中）
100
AcDbLine
 10
130.0
 20
215.5
 30
0.0
 11
130.0
 21
273.0
 31
0.0
  0
LINE
  5
CE7
330
18
100
AcDbEntity
  8
一点鎖線
100
AcDbLine
 10
125.0
 20
244.25
 30
0.0
 11
135.0
 21
244.25
 31
0.0
  0
DIMENSION
  5
D61
330
18
100
AcDbEntity
  8
寸法線
100
AcDbDimension
280
     0
  2
*D1
 10
300.5
 20
60.0
 30
0.0
 11
349.9985000000001
 21
60.0
 31
0.0
 12
0.0
 22
10.0
 32
0.0
 70
   160
 71
     5
 42
-1.0
 73
     0
 74
     0
 75
     0
  3
標準
100
AcDbAlignedDimension
 13
399.5
 23
76.5
 33
0.0
 14
300.5
 24
76.5
 34
0.0
100
AcDbRotatedDimension
  0
LINE
  5
D92
330
18
100
AcDbEntity
  8
実線（細）
100
AcDbLine
 10
325.0
 20
144.0
 30
0.0
 11
375.0
 21
144.0
 31
0.0
  0
LINE
  5
D93
330
18
100
AcDbEntity
  8
実線（細）
100
AcDbLine
 10
325.0
 20
145.0
 30
0.0
 11
375.0
 21
145.0
 31
0.0
  0
MTEXT
  5
D94
330
18
100
AcDbEntity
  8
可変文字
100
AcDbMText
 10
325.0
 20
152.0
 30
0.0
 40
5.0
 41
0.0
 46
0.0
 71
     1
 72
     5
  1
パネルカット寸法
  7
MSPｺﾞｼｯｸ
 73
     1
 44
1.0
  0
LINE
  5
125C
330
18
100
AcDbEntity
  8
一点鎖線
100
AcDbLine
 10
74.0
 20
218.5
 30
0.0
 11
86.0
 21
218.5
 31
0.0
  0
LINE
  5
125D
330
18
100
AcDbEntity
  8
一点鎖線
100
AcDbLine
 10
103.0
 20
211.5
 30
0.0
 11
103.0
 21
227.5
 31
0.0
  0
CIRCLE
  5
125F
330
18
100
AcDbEntity
  8
実線（中）
100
AcDbCircle
 10
80.0
 20
218.5
 30
0.0
 40
2.049999999999999
  0
LINE
  5
1264
330
18
100
AcDbEntity
  8
実線（中）
100
AcDbLine
 10
78.8611359916633
 20
216.7954505667141
 30
0.0
 11
81.70454943328591
 21
219.6388640083366
 31
0.0
  0
LINE
  5
1265
330
18
100
AcDbEntity
  8
実線（中）
100
AcDbLine
 10
78.29545056671406
 20
217.3611359916634
 30
0.0
 11
81.13886400833663
 21
220.204549433286
 31
0.0
  0
CIRCLE
  5
1266
330
18
100
AcDbEntity
  8
点線
100
AcDbCircle
 10
103.0
 20
219.5
 30
0.0
 40
5.0
  0
CIRCLE
  5
1267
330
18
100
AcDbEntity
  8
点線
100
AcDbCircle
 10
103.0
 20
219.5
 30
0.0
 40
3.5
  0
LINE
  5
1268
330
18
100
AcDbEntity
  8
一点鎖線
100
AcDbLine
 10
95.0
 20
219.5
 30
0.0
 11
111.0
 21
219.5
 31
0.0
  0
ARC
  5
1269
330
18
100
AcDbEntity
  8
点線
100
AcDbCircle
 10
103.0
 20
224.5
 30
0.0
 40
0.75
100
AcDbArc
 50
184.3012223046708
 51
355.6987776953292
  0
ARC
  5
126B
330
18
100
AcDbEntity
  8
点線
100
AcDbCircle
 10
100.0610737385376
 20
223.5450849718747
 30
0.0
 40
0.75
100
AcDbArc
 50
220.3012223046708
 51
31.69877769532917
  0
ARC
  5
126C
330
18
100
AcDbEntity
  8
点線
100
AcDbCircle
 10
98.24471741852427
 20
221.0450849718747
 30
0.0
 40
0.75
100
AcDbArc
 50
256.3012223046708
 51
67.6987776953292
  0
ARC
  5
126D
330
18
100
AcDbEntity
  8
点線
100
AcDbCircle
 10
98.2447174185242
 20
217.9549150281253
 30
0.0
 40
0.75
100
AcDbArc
 50
292.3012223046708
 51
103.6987776953292
  0
ARC
  5
126E
330
18
100
AcDbEntity
  8
点線
100
AcDbCircle
 10
100.0610737385376
 20
215.4549150281253
 30
0.0
 40
0.75
100
AcDbArc
 50
328.3012223046708
 51
139.6987776953292
  0
ARC
  5
126F
330
18
100
AcDbEntity
  8
点線
100
AcDbCircle
 10
103.0
 20
214.5
 30
0.0
 40
0.75
100
AcDbArc
 50
4.30122230467079
 51
175.6987776953292
  0
ARC
  5
1270
330
18
100
AcDbEntity
  8
点線
100
AcDbCircle
 10
105.9389262614623
 20
215.4549150281253
 30
0.0
 40
0.75
100
AcDbArc
 50
40.30122230467081
 51
211.6987776953292
  0
ARC
  5
1271
330
18
100
AcDbEntity
  8
点線
100
AcDbCircle
 10
107.7552825814757
 20
217.9549150281253
 30
0.0
 40
0.75
100
AcDbArc
 50
76.30122230467081
 51
247.6987776953292
  0
ARC
  5
1272
330
18
100
AcDbEntity
  8
点線
100
AcDbCircle
 10
107.7552825814757
 20
221.0450849718748
 30
0.0
 40
0.75
100
AcDbArc
 50
112.3012223046708
 51
283.6987776953291
  0
ARC
  5
1273
330
18
100
AcDbEntity
  8
点線
100
AcDbCircle
 10
105.9389262614623
 20
223.5450849718747
 30
0.0
 40
0.75
100
AcDbArc
 50
148.3012223046708
 51
319.6987776953292
  0
LINE
  5
1274
330
18
100
AcDbEntity
  8
一点鎖線
100
AcDbLine
 10
49.0
 20
219.5
 30
0.0
 11
65.0
 21
219.5
 31
0.0
  0
LINE
  5
1275
330
18
100
AcDbEntity
  8
一点鎖線
100
AcDbLine
 10
57.0
 20
211.5
 30
0.0
 11
57.0
 21
227.5
 31
0.0
  0
DIMENSION
  5
1363
330
18
100
AcDbEntity
  8
寸法線
100
AcDbDimension
280
     0
  2
*D3
 10
20.0
 20
219.5
 30
0.0
 11
17.0
 21
231.875
 31
0.0
 70
    32
 71
     5
 42
-1.0
 73
     0
 74
     0
 75
     0
  3
標準小
100
AcDbAlignedDimension
 13
25.0
 23
244.25
 33
0.0
 14
29.0
 24
219.5
 34
0.0
 50
90.0
100
AcDbRotatedDimension
  0
DIMENSION
  5
137C
330
18
100
AcDbEntity
  8
寸法線
100
AcDbDimension
280
     0
  2
*D4
 10
20.0
 20
218.5
 30
0.0
 11
17.0
 21
210.5482954545454
 31
0.0
 70
    32
 71
     5
 42
-1.0
 73
     0
 74
     0
 75
     0
  3
標準小
100
AcDbAlignedDimension
 13
30.0
 23
219.5
 33
0.0
 14
29.0
 24
218.5
 34
0.0
 50
90.0
100
AcDbRotatedDimension
  0
DIMENSION
  5
1389
330
18
100
AcDbEntity
  8
寸法線
100
AcDbDimension
280
     0
  2
*D5
 10
103.0
 20
175.0
 30
0.0
 11
80.0
 21
175.0
 31
0.0
 70
   160
 71
     5
 42
-1.0
 73
     0
 74
     0
 75
     0
  3
標準小
100
AcDbAlignedDimension
 13
57.0
 23
187.0
 33
0.0
 14
103.0
 24
187.0
 34
0.0
100
AcDbRotatedDimension
  0
LINE
  5
138A
330
18
100
AcDbEntity
  8
実線（中）
100
AcDbLine
 10
155.0
 20
274.0
 30
0.0
 11
155.0
 21
214.5
 31
0.0
  0
LINE
  5
138B
330
18
100
AcDbEntity
  8
点線
100
AcDbLine
 10
143.0
 20
215.3584123500822
 30
0.0
 11
142.9999999999999
 21
223.6978376499177
 31
0.0
  0
LINE
  5
1390
330
18
100
AcDbEntity
  8
点線
100
AcDbLine
 10
151.0
 20
220.3164193426484
 30
0.0
 11
151.0
 21
220.3164193426484
 31
0.0
  0
LINE
  5
1391
330
18
100
AcDbEntity
  8
点線
100
AcDbLine
 10
151.0
 20
220.3164193426484
 30
0.0
 11
151.0
 21
220.3164193426484
 31
0.0
  0
LINE
  5
1399
330
18
100
AcDbEntity
  8
点線
100
AcDbLine
 10
143.4798990756585
 20
224.1974334393722
 30
0.0
 11
150.7999999999999
 21
224.491953125
 31
0.0
  0
LINE
  5
139A
330
18
100
AcDbEntity
  8
点線
100
AcDbLine
 10
143.0621001980433
 20
223.9391750971704
 30
0.0
 11
149.7
 21
223.9391750971704
 31
0.0
  0
LINE
  5
139B
330
18
100
AcDbEntity
  8
点線
100
AcDbLine
 10
143.0
 20
223.0599804347118
 30
0.0
 11
149.7
 21
223.0599804347118
 31
0.0
  0
LINE
  5
139C
330
18
100
AcDbEntity
  8
点線
100
AcDbLine
 10
143.0
 20
221.7389861892339
 30
0.0
 11
149.5
 21
221.7389861892339
 31
0.0
  0
LINE
  5
139D
330
18
100
AcDbEntity
  8
点線
100
AcDbLine
 10
143.0
 20
220.3164193426484
 30
0.0
 11
149.5
 21
220.3164193426483
 31
0.0
  0
LINE
  5
139E
330
18
100
AcDbEntity
  8
点線
100
AcDbLine
 10
143.0
 20
218.6835806573516
 30
0.0
 11
149.5
 21
218.6835806573516
 31
0.0
  0
LINE
  5
139F
330
18
100
AcDbEntity
  8
点線
100
AcDbLine
 10
143.0
 20
217.2610138107661
 30
0.0
 11
149.5
 21
217.2610138107661
 31
0.0
  0
LINE
  5
13A0
330
18
100
AcDbEntity
  8
点線
100
AcDbLine
 10
143.0
 20
215.9400195652881
 30
0.0
 11
149.7
 21
215.9400195652881
 31
0.0
  0
LINE
  5
13A1
330
18
100
AcDbEntity
  8
点線
100
AcDbLine
 10
143.0982019023967
 20
215.0608249028294
 30
0.0
 11
149.7
 21
215.0608249028294
 31
0.0
  0
LINE
  5
13A2
330
18
100
AcDbEntity
  8
点線
100
AcDbLine
 10
143.4798990756586
 20
214.8588165606277
 30
0.0
 11
150.8
 21
214.564296875
 31
0.0
  0
LINE
  5
13A6
330
18
100
AcDbEntity
  8
点線
100
AcDbLine
 10
150.0
 20
215.3608249028295
 30
0.0
 11
150.0
 21
215.6400195652881
 31
0.0
  0
LINE
  5
13A7
330
18
100
AcDbEntity
  8
点線
100
AcDbLine
 10
150.0
 20
217.761013810766
 30
0.0
 11
150.0
 21
218.1835806573516
 31
0.0
  0
LINE
  5
13A8
330
18
100
AcDbEntity
  8
点線
100
AcDbLine
 10
150.0
 20
220.8164193426483
 30
0.0
 11
150.0
 21
221.238986189234
 31
0.0
  0
LINE
  5
13A9
330
18
100
AcDbEntity
  8
点線
100
AcDbLine
 10
150.0
 20
223.3599804347119
 30
0.0
 11
150.0
 21
223.6391750971704
 31
0.0
  0
ARC
  5
13AE
330
18
100
AcDbEntity
  8
点線
100
AcDbCircle
 10
149.5
 20
220.8164193426483
 30
0.0
 40
0.5
100
AcDbArc
 50
270.0
 51
0.0
  0
ARC
  5
13B2
330
18
100
AcDbEntity
  8
点線
100
AcDbCircle
 10
149.5
 20
218.1835806573516
 30
0.0
 40
0.5
100
AcDbArc
 50
0.0
 51
90.0
  0
ARC
  5
13B3
330
18
100
AcDbEntity
  8
点線
100
AcDbCircle
 10
149.5
 20
217.761013810766
 30
0.0
 40
0.5
100
AcDbArc
 50
270.0
 51
0.0
  0
ARC
  5
13B4
330
18
100
AcDbEntity
  8
点線
100
AcDbCircle
 10
149.5
 20
221.238986189234
 30
0.0
 40
0.5
100
AcDbArc
 50
0.0
 51
90.0
  0
ARC
  5
13B7
330
18
100
AcDbEntity
  8
点線
100
AcDbCircle
 10
149.7
 20
215.3608249028295
 30
0.0
 40
0.3
100
AcDbArc
 50
270.0
 51
0.0
  0
ARC
  5
13B8
330
18
100
AcDbEntity
  8
点線
100
AcDbCircle
 10
149.7
 20
223.6391750971704
 30
0.0
 40
0.3
100
AcDbArc
 50
0.0
 51
90.0
  0
ARC
  5
13B9
330
18
100
AcDbEntity
  8
点線
100
AcDbCircle
 10
149.7
 20
215.6400195652881
 30
0.0
 40
0.3
100
AcDbArc
 50
0.0
 51
90.0
  0
ARC
  5
13BA
330
18
100
AcDbEntity
  8
点線
100
AcDbCircle
 10
149.7
 20
223.3599804347119
 30
0.0
 40
0.3
100
AcDbArc
 50
270.0
 51
0.0
  0
ARC
  5
13BB
330
18
100
AcDbEntity
  8
点線
100
AcDbCircle
 10
143.4999999999999
 20
223.6978376499177
 30
0.0
 40
0.5
100
AcDbArc
 50
92.3040171636315
 51
180.0000000000009
  0
ARC
  5
13BC
330
18
100
AcDbEntity
  8
点線
100
AcDbCircle
 10
143.5
 20
215.3584123500822
 30
0.0
 40
0.5
100
AcDbArc
 50
180.0000000000009
 51
267.6959828363687
  0
LINE
  5
13BD
330
18
100
AcDbEntity
  8
点線
100
AcDbLine
 10
150.8
 20
214.564296875
 30
0.0
 11
150.7999999999999
 21
224.491953125
 31
0.0
  0
LINE
  5
1D8F
330
18
100
AcDbEntity
  8
実線（細）
100
AcDbLine
 10
189.0
 20
145.0
 30
0.0
 11
231.0
 21
145.0
 31
0.0
  0
LINE
  5
1D90
330
18
100
AcDbEntity
  8
実線（細）
100
AcDbLine
 10
189.0
 20
144.0
 30
0.0
 11
231.0
 21
144.0
 31
0.0
  0
MTEXT
  5
1D91
330
18
100
AcDbEntity
  8
可変文字
100
AcDbMText
 10
210.0
 20
152.0
 30
0.0
 40
5.0
 41
0.0
 46
0.0
 71
     2
 72
     5
  1
端　子　配　列
  7
MSPｺﾞｼｯｸ
 73
     1
 44
1.0
  0
CIRCLE
  5
1D92
330
18
100
AcDbEntity
  8
可変文字
100
AcDbCircle
 10
175.0
 20
120.0
 30
0.0
 40
4.0
  0
MTEXT
  5
1D93
330
18
100
AcDbEntity
  8
可変文字
100
AcDbMText
 10
180.0
 20
120.0
 30
0.0
 40
5.0
 41
0.0
 46
0.0
 71
     4
 72
     5
  1
入力－
  7
MSPｺﾞｼｯｸ
 73
     1
 44
1.0
  0
CIRCLE
  5
1D94
330
18
100
AcDbEntity
  8
可変文字
100
AcDbCircle
 10
175.0
 20
110.0
 30
0.0
 40
4.0
  0
CIRCLE
  5
1D95
330
18
100
AcDbEntity
  8
可変文字
100
AcDbCircle
 10
175.0
 20
100.0
 30
0.0
 40
4.0
  0
MTEXT
  5
1D96
330
18
100
AcDbEntity
  8
可変文字
100
AcDbMText
 10
175.0
 20
100.0
 30
0.0
 40
5.0
 41
0.0
 46
0.0
 71
     5
 72
     5
  1
2
  7
MSPｺﾞｼｯｸ
 73
     1
 44
1.0
  0
MTEXT
  5
1D97
330
18
100
AcDbEntity
  8
可変文字
100
AcDbMText
 10
175.0
 20
110.0
 30
0.0
 40
5.0
 41
0.0
 46
0.0
 71
     5
 72
     5
  1
1
  7
MSｺﾞｼｯｸ
 73
     1
 44
1.0
  0
MTEXT
  5
1D98
330
18
100
AcDbEntity
  8
可変文字
100
AcDbMText
 10
180.0
 20
100.0
 30
0.0
 40
5.0
 41
0.0
 46
0.0
 71
     4
 72
     5
  1
電源V(-)
  7
MSPｺﾞｼｯｸ
 73
     1
 44
1.0
  0
MTEXT
  5
1D99
330
18
100
AcDbEntity
  8
可変文字
100
AcDbMText
 10
180.0
 20
110.0
 30
0.0
 40
5.0
 41
0.0
 46
0.0
 71
     4
 72
     5
  1
電源U(+)
  7
MSPｺﾞｼｯｸ
 73
     1
 44
1.0
  0
MTEXT
  5
1D9A
330
18
100
AcDbEntity
  8
可変文字
100
AcDbMText
 10
175.0
 20
120.0
 30
0.0
 40
4.0
 41
0.0
 46
0.0
 71
     5
 72
     5
  1
M-
  7
MSPｺﾞｼｯｸ
 73
     1
 44
1.0
  0
CIRCLE
  5
1D9B
330
18
100
AcDbEntity
  8
可変文字
100
AcDbCircle
 10
175.0
 20
130.0
 30
0.0
 40
4.0
  0
MTEXT
  5
1D9C
330
18
100
AcDbEntity
  8
可変文字
100
AcDbMText
 10
175.0
 20
130.0
 30
0.0
 40
4.0
 41
0.0
 46
0.0
 71
     5
 72
     5
  1
M+
  7
MSPｺﾞｼｯｸ
 73
     1
 44
1.0
  0
MTEXT
  5
1D9D
330
18
100
AcDbEntity
  8
可変文字
100
AcDbMText
 10
180.0
 20
130.0
 30
0.0
 40
5.0
 41
0.0
 46
0.0
 71
     4
 72
     5
  1
入力＋
  7
MSPｺﾞｼｯｸ
 73
     1
 44
1.0
  0
MTEXT
  5
1D9E
330
18
100
AcDbEntity
  8
可変文字
100
AcDbMText
 10
215.0
 20
120.0
 30
0.0
 40
5.0
 41
0.0
 46
0.0
 71
     5
 72
     5
  1
4
  7
MSPｺﾞｼｯｸ
 73
     1
 44
1.0
  0
MTEXT
  5
1D9F
330
18
100
AcDbEntity
  8
可変文字
100
AcDbMText
 10
232.5
 20
120.0
 30
0.0
 40
5.0
 41
0.0
 46
0.0
 71
     4
 72
     5
  1
Ｈ出力
  7
MSPｺﾞｼｯｸ
 73
     1
 44
1.0
  0
LINE
  5
1DA0
330
18
100
AcDbEntity
  8
実線（中）
100
AcDbLine
 10
230.0
 20
118.5
 30
0.0
 11
228.0
 21
116.0
 31
0.0
  0
LINE
  5
1DA1
330
18
100
AcDbEntity
  8
実線（中）
100
AcDbLine
 10
232.0
 20
116.0
 30
0.0
 11
230.0
 21
118.5
 31
0.0
  0
CIRCLE
  5
1DA2
330
18
100
AcDbEntity
  8
可変文字
100
AcDbCircle
 10
215.0
 20
120.0
 30
0.0
 40
4.0
  0
MTEXT
  5
1DA3
330
18
100
AcDbEntity
  8
可変文字
100
AcDbMText
 10
232.5
 20
89.50000000000001
 30
0.0
 40
5.0
 41
0.0
 46
0.0
 71
     4
 72
     5
  1
Ｌ出力
  7
MSPｺﾞｼｯｸ
 73
     1
 44
1.0
  0
HATCH
  5
1DA4
330
18
100
AcDbEntity
  8
実線（中）
100
AcDbHatch
 10
0.0
 20
0.0
 30
0.0
210
0.0
220
0.0
230
1.0
  2
SOLID
 70
     1
 71
     1
 91
        2
 92
        7
 72
     1
 73
     1
 93
        2
 10
224.0
 20
90.0
 42
1.0
 10
226.0
 20
90.0
 42
1.0
 97
        1
330
1DAE
 92
        7
 72
     0
 73
     1
 93
        3
 10
230.0
 20
92.50000000000001
 10
232.0
 20
95.0
 10
228.0
 20
95.0
 97
        3
330
1DBA
330
1DA6
330
1DA7
 75
     0
 76
     1
 47
0.0376403788826324
 98
        2
 10
225.154986272079
 20
90.0547306014629
 10
229.5981983548001
 20
93.81876903714976
450
        0
451
        0
460
0.0
461
0.0
452
        0
462
0.0
453
        0
470

  0
CIRCLE
  5
1DA5
330
18
100
AcDbEntity
  8
可変文字
100
AcDbCircle
 10
215.0
 20
90.0
 30
0.0
 40
4.0
  0
LINE
  5
1DA6
102
{ACAD_REACTORS
330
1DA4
102
}
330
18
100
AcDbEntity
  8
実線（中）
100
AcDbLine
 10
230.0
 20
92.5
 30
0.0
 11
228.0
 21
95.0
 31
0.0
  0
LINE
  5
1DA7
102
{ACAD_REACTORS
330
1DA4
102
}
330
18
100
AcDbEntity
  8
実線（中）
100
AcDbLine
 10
232.0
 20
95.0
 30
0.0
 11
230.0
 21
92.5
 31
0.0
  0
LINE
  5
1DA8
330
18
100
AcDbEntity
  8
実線（中）
100
AcDbLine
 10
225.8944271909999
 20
90.44721359549994
 30
0.0
 11
231.0
 21
93.0
 31
0.0
  0
LINE
  5
1DA9
330
18
100
AcDbEntity
  8
実線（中）
100
AcDbLine
 10
230.0
 20
80.0
 30
0.0
 11
220.0
 21
80.0
 31
0.0
  0
MTEXT
  5
1DAA
330
18
100
AcDbEntity
  8
可変文字
100
AcDbMText
 10
215.0
 20
80.0
 30
0.0
 40
5.0
 41
0.0
 46
0.0
 71
     5
 72
     5
  1
8
  7
MSPｺﾞｼｯｸ
 73
     1
 44
1.0
  0
CIRCLE
  5
1DAB
330
18
100
AcDbEntity
  8
可変文字
100
AcDbCircle
 10
215.0
 20
80.0
 30
0.0
 40
4.0
  0
MTEXT
  5
1DAC
330
18
100
AcDbEntity
  8
可変文字
100
AcDbMText
 10
215.0
 20
90.0
 30
0.0
 40
5.0
 41
0.0
 46
0.0
 71
     5
 72
     5
  1
7
  7
MSPｺﾞｼｯｸ
 73
     1
 44
1.0
  0
LINE
  5
1DAD
330
18
100
AcDbEntity
  8
実線（中）
100
AcDbLine
 10
220.0
 20
90.0
 30
0.0
 11
224.0
 21
90.0
 31
0.0
  0
CIRCLE
  5
1DAE
102
{ACAD_REACTORS
330
1DA4
102
}
330
18
100
AcDbEntity
  8
実線（中）
100
AcDbCircle
 10
225.0
 20
90.0
 30
0.0
 40
1.0
  0
LINE
  5
1DAF
330
18
100
AcDbEntity
  8
実線（中）
100
AcDbLine
 10
230.0
 20
86.0
 30
0.0
 11
230.0
 21
80.0
 31
0.0
  0
LINE
  5
1DB0
330
18
100
AcDbEntity
  8
実線（中）
100
AcDbLine
 10
232.0
 20
86.0
 30
0.0
 11
230.0
 21
88.49999999999999
 31
0.0
  0
LINE
  5
1DB1
330
18
100
AcDbEntity
  8
実線（中）
100
AcDbLine
 10
230.0
 20
88.49999999999999
 30
0.0
 11
228.0
 21
86.0
 31
0.0
  0
LINE
  5
1DB2
330
18
100
AcDbEntity
  8
実線（中）
100
AcDbLine
 10
228.0
 20
86.0
 30
0.0
 11
232.0
 21
86.0
 31
0.0
  0
LINE
  5
1DB3
330
18
100
AcDbEntity
  8
実線（中）
100
AcDbLine
 10
230.0
 20
110.0
 30
0.0
 11
220.0
 21
110.0
 31
0.0
  0
LINE
  5
1DB4
330
18
100
AcDbEntity
  8
実線（中）
100
AcDbLine
 10
220.0
 20
100.0000000460564
 30
0.0
 11
230.0
 21
100.0000000460564
 31
0.0
  0
CIRCLE
  5
1DB5
330
18
100
AcDbEntity
  8
可変文字
100
AcDbCircle
 10
215.0
 20
100.0
 30
0.0
 40
4.0
  0
MTEXT
  5
1DB6
330
18
100
AcDbEntity
  8
可変文字
100
AcDbMText
 10
215.0
 20
100.0
 30
0.0
 40
5.0
 41
0.0
 46
0.0
 71
     5
 72
     5
  1
6
  7
MSPｺﾞｼｯｸ
 73
     1
 44
1.0
  0
CIRCLE
  5
1DB7
330
18
100
AcDbEntity
  8
可変文字
100
AcDbCircle
 10
215.0
 20
110.0
 30
0.0
 40
4.0
  0
MTEXT
  5
1DB8
330
18
100
AcDbEntity
  8
可変文字
100
AcDbMText
 10
214.6
 20
110.0
 30
0.0
 40
5.0
 41
0.0
 46
0.0
 71
     5
 72
     5
  1
5
  7
MSPｺﾞｼｯｸ
 73
     1
 44
1.0
  0
LINE
  5
1DB9
330
18
100
AcDbEntity
  8
実線（中）
100
AcDbLine
 10
230.0
 20
100.0000000460564
 30
0.0
 11
230.0
 21
95.0
 31
0.0
  0
LINE
  5
1DBA
102
{ACAD_REACTORS
330
1DA4
102
}
330
18
100
AcDbEntity
  8
実線（中）
100
AcDbLine
 10
228.0
 20
95.0
 30
0.0
 11
232.0
 21
95.0
 31
0.0
  0
LINE
  5
1DBB
330
18
100
AcDbEntity
  8
実線（中）
100
AcDbLine
 10
230.0
 20
116.0
 30
0.0
 11
230.0
 21
110.0
 31
0.0
  0
LINE
  5
1DBC
330
18
100
AcDbEntity
  8
実線（中）
100
AcDbLine
 10
228.0
 20
116.0
 30
0.0
 11
232.0
 21
116.0
 31
0.0
  0
HATCH
  5
1DBD
330
18
100
AcDbEntity
  8
実線（中）
100
AcDbHatch
 10
0.0
 20
0.0
 30
0.0
210
0.0
220
0.0
230
1.0
  2
SOLID
 70
     1
 71
     1
 91
        2
 92
        7
 72
     1
 73
     1
 93
        2
 10
224.0
 20
120.0
 42
1.0
 10
226.0
 20
120.0
 42
1.0
 97
        1
330
1DC3
 92
        7
 72
     0
 73
     1
 93
        3
 10
230.0
 20
122.5
 10
232.0
 20
125.0
 10
228.0
 20
125.0
 97
        3
330
1DC7
330
1DC6
330
1DC5
 75
     0
 76
     1
 47
0.0376403788826324
 98
        2
 10
225.154986272079
 20
120.0547306014629
 10
229.5981983548001
 20
123.8187690371497
450
        0
451
        0
460
0.0
461
0.0
452
        0
462
0.0
453
        0
470

  0
LINE
  5
1DBE
330
18
100
AcDbEntity
  8
実線（中）
100
AcDbLine
 10
220.0
 20
130.0000000460564
 30
0.0
 11
230.0
 21
130.0000000460564
 31
0.0
  0
LINE
  5
1DBF
330
18
100
AcDbEntity
  8
実線（中）
100
AcDbLine
 10
225.8944271909999
 20
120.4472135954999
 30
0.0
 11
231.0
 21
123.0
 31
0.0
  0
MTEXT
  5
1DC0
330
18
100
AcDbEntity
  8
可変文字
100
AcDbMText
 10
215.0
 20
130.0
 30
0.0
 40
5.0
 41
0.0
 46
0.0
 71
     5
 72
     5
  1
3
  7
MSPｺﾞｼｯｸ
 73
     1
 44
1.0
  0
CIRCLE
  5
1DC1
330
18
100
AcDbEntity
  8
可変文字
100
AcDbCircle
 10
215.0
 20
130.0
 30
0.0
 40
4.0
  0
LINE
  5
1DC2
330
18
100
AcDbEntity
  8
実線（中）
100
AcDbLine
 10
220.0
 20
120.0
 30
0.0
 11
224.0
 21
120.0
 31
0.0
  0
CIRCLE
  5
1DC3
102
{ACAD_REACTORS
330
1DBD
102
}
330
18
100
AcDbEntity
  8
実線（中）
100
AcDbCircle
 10
225.0
 20
120.0
 30
0.0
 40
1.0
  0
LINE
  5
1DC4
330
18
100
AcDbEntity
  8
実線（中）
100
AcDbLine
 10
230.0
 20
130.0000000460564
 30
0.0
 11
230.0
 21
125.0
 31
0.0
  0
LINE
  5
1DC5
102
{ACAD_REACTORS
330
1DBD
102
}
330
18
100
AcDbEntity
  8
実線（中）
100
AcDbLine
 10
232.0
 20
125.0
 30
0.0
 11
230.0
 21
122.5
 31
0.0
  0
LINE
  5
1DC6
102
{ACAD_REACTORS
330
1DBD
102
}
330
18
100
AcDbEntity
  8
実線（中）
100
AcDbLine
 10
230.0
 20
122.5
 30
0.0
 11
228.0
 21
125.0
 31
0.0
  0
LINE
  5
1DC7
102
{ACAD_REACTORS
330
1DBD
102
}
330
18
100
AcDbEntity
  8
実線（中）
100
AcDbLine
 10
228.0
 20
125.0
 30
0.0
 11
232.0
 21
125.0
 31
0.0
  0
DIMENSION
  5
1DD0
330
18
100
AcDbEntity
  8
寸法線
100
AcDbDimension
280
     0
  2
*D6
 10
262.0
 20
165.0
 30
0.0
 11
208.5
 21
165.0
 31
0.0
 70
   160
 71
     5
 42
-1.0
 73
     0
 74
     0
 75
     0
  3
標準
100
AcDbAlignedDimension
 13
155.0
 23
214.5
 33
0.0
 14
262.0
 24
190.1
 34
0.0
 50
180.0
100
AcDbRotatedDimension
  0
DIMENSION
  5
1DD1
330
18
100
AcDbEntity
  8
寸法線
100
AcDbDimension
280
     0
  2
*D7
 10
129.0
 20
165.0
 30
0.0
 11
80.0
 21
165.0
 31
0.0
 12
0.0
 22
5.0
 32
0.0
 70
   160
 71
     5
 42
-1.0
 73
     0
 74
     0
 75
     0
  3
標準
100
AcDbAlignedDimension
 13
31.0
 23
192.5
 33
0.0
 14
129.0
 24
192.0
 34
0.0
 50
180.0
100
AcDbRotatedDimension
  0
DIMENSION
  5
1DD2
330
18
100
AcDbEntity
  8
寸法線
100
AcDbDimension
280
     0
  2
*D10
 10
143.0
 20
185.0
 30
0.0
 11
147.0
 21
188.3579545454545
 31
0.0
 70
    32
  1
(<>)
 71
     5
 42
-1.0
 73
     0
 74
     0
 75
     0
  3
標準小
100
AcDbAlignedDimension
 13
151.0
 23
215.8333333333334
 33
0.0
 14
143.0
 24
215.3584123500822
 34
0.0
 50
180.0
100
AcDbRotatedDimension
1001
ACAD
1000
DSTYLE
1002
{
1070
    40
1040
1.0
1002
}
  0
DIMENSION
  5
1DD3
330
18
100
AcDbEntity
  8
寸法線
100
AcDbDimension
280
     0
  2
*D8
 10
151.0
 20
175.0
 30
0.0
 11
153.0
 21
175.0
 31
0.0
 70
   160
 71
     5
 42
-1.0
 73
     0
 74
     0
 75
     0
  3
標準小丸
100
AcDbAlignedDimension
 13
155.0
 23
214.5
 33
0.0
 14
151.0
 24
215.8333333333334
 34
0.0
 50
180.0
100
AcDbRotatedDimension
  0
DIMENSION
  5
1DD4
330
18
100
AcDbEntity
  8
寸法線
100
AcDbDimension
280
     0
  2
*D9
 10
158.5
 20
175.0
 30
0.0
 11
168.4034090909091
 21
175.0
 31
0.0
 70
   160
 71
     5
 42
-1.0
 73
     0
 74
     0
 75
     0
  3
標準小丸
100
AcDbAlignedDimension
 13
155.0
 23
214.5
 33
0.0
 14
158.5
 24
197.0
 34
0.0
 50
180.0
100
AcDbRotatedDimension
1001
ACAD
1000
DSTYLE
1002
{
1070
    47
1040
0.2
1070
    48
1040
0.7
1002
}
  0
DIMENSION
  5
1E95
330
18
100
AcDbEntity
  8
寸法線
100
AcDbDimension
280
     0
  2
*D11
 10
155.0
 20
165.0
 30
0.0
 11
149.0
 21
165.0
 31
0.0
 70
   160
  1
(<>)
 71
     5
 42
-1.0
 73
     0
 74
     0
 75
     0
  3
標準小
100
AcDbAlignedDimension
 13
143.0
 23
215.3584123500822
 33
0.0
 14
155.0
 24
214.5
 34
0.0
100
AcDbRotatedDimension
1001
ACAD
1000
DSTYLE
1002
{
1070
    40
1040
1.0
1002
}
  0
DIMENSION
  5
1ECE
330
18
100
AcDbEntity
  8
寸法線
100
AcDbDimension
280
     0
  2
*D12
 10
415.0
 20
76.5
 30
0.0
 11
410.7136363636363
 21
105.0
 31
0.0
 12
10.0
 22
20.0
 32
0.0
 70
    32
 71
     5
 42
-1.0
 73
     0
 74
     0
 75
     0
  3
許容差
100
AcDbAlignedDimension
 13
399.5
 23
133.5
 33
0.0
 14
399.5
 24
76.5
 34
0.0
 50
90.0
100
AcDbRotatedDimension
  0
LINE
  5
1FEF
330
18
100
AcDbEntity
  8
実線（中）
100
AcDbLine
 10
82.80127983700941
 20
224.5
 30
0.0
 11
91.77812478930283
 21
258.0020414536273
 31
0.0
  0
LINE
  5
1FF0
330
18
100
AcDbEntity
  8
実線（中）
100
AcDbLine
 10
83.62950078133749
 20
224.5
 30
0.0
 11
92.55086545033408
 21
257.7949862175453
 31
0.0
  0
LINE
  5
1FF2
102
{ACAD_REACTORS
330
32E3
102
}
330
18
100
AcDbEntity
  8
実線（中）
100
AcDbLine
 10
68.35355339059326
 20
224.5
 30
0.0
 11
46.9427579795289
 21
245.9107954110644
 31
0.0
  0
LINE
  5
1FF3
102
{ACAD_REACTORS
330
32E3
102
}
330
18
100
AcDbEntity
  8
実線（中）
100
AcDbLine
 10
67.64644660940676
 20
224.5
 30
0.0
 11
46.58920458893563
 21
245.5572420204711
 31
0.0
  0
LINE
  5
1FF4
330
18
100
AcDbEntity
  8
実線（中）
100
AcDbLine
 10
76.37049921866247
 20
224.5
 30
0.0
 11
67.44913454966589
 21
257.7949862175453
 31
0.0
  0
LINE
  5
1FF5
330
18
100
AcDbEntity
  8
実線（中）
100
AcDbLine
 10
77.15120410105678
 20
224.6773323573119
 30
0.0
 11
68.22187521069716
 21
258.0020414536273
 31
0.0
  0
ARC
  5
1FF6
330
18
100
AcDbEntity
  8
実線（中）
100
AcDbCircle
 10
79.99999999999999
 20
212.5
 30
0.0
 40
13.0
100
AcDbArc
 50
76.76322535757238
 51
103.2367746424281
  0
ARC
  5
1FF7
330
18
100
AcDbEntity
  8
実線（中）
100
AcDbCircle
 10
79.99999999999999
 20
212.5
 30
0.0
 40
13.0
100
AcDbArc
 50
106.7632253575723
 51
112.6198649480404
  0
LINE
  5
1FF8
330
18
100
AcDbEntity
  8
実線（中）
100
AcDbLine
 10
77.15120410105678
 20
224.6773323573119
 30
0.0
 11
76.48939073374248
 21
224.5
 31
0.0
  0
ARC
  5
1FF9
330
18
100
AcDbEntity
  8
実線（中）
100
AcDbCircle
 10
79.99999999999999
 20
212.5
 30
0.0
 40
13.0
100
AcDbArc
 50
67.38013505195957
 51
73.2367746424277
  0
LINE
  5
1FFB
102
{ACAD_REACTORS
330
32E3
102
}
330
18
100
AcDbEntity
  8
実線（中）
100
AcDbLine
 10
46.9427579795289
 20
245.9107954110644
 30
0.0
 11
46.58920458893563
 21
245.5572420204711
 31
0.0
  0
LINE
  5
1FFC
330
18
100
AcDbEntity
  8
実線（中）
100
AcDbLine
 10
68.22187521069716
 20
258.0020414536273
 30
0.0
 11
67.44913454966589
 21
257.7949862175453
 31
0.0
  0
LINE
  5
1FFD
330
18
100
AcDbEntity
  8
実線（中）
100
AcDbLine
 10
91.77812478930283
 20
258.0020414536273
 30
0.0
 11
92.55086545033408
 21
257.7949862175453
 31
0.0
  0
LINE
  5
253B
330
18
100
AcDbEntity
  8
実線（中）
100
AcDbLine
 10
29.0
 20
274.0
 30
0.0
 11
131.0
 21
274.0
 31
0.0
  0
LINE
  5
253C
330
18
100
AcDbEntity
  8
実線（中）
100
AcDbLine
 10
29.0
 20
214.5
 30
0.0
 11
131.0
 21
214.5
 31
0.0
  0
LINE
  5
253D
330
18
100
AcDbEntity
  8
実線（中）
100
AcDbLine
 10
131.0
 20
274.0
 30
0.0
 11
131.0
 21
214.5
 31
0.0
  0
LINE
  5
253E
330
18
100
AcDbEntity
  8
実線（中）
100
AcDbLine
 10
29.0
 20
274.0
 30
0.0
 11
29.0
 21
214.5
 31
0.0
  0
LINE
  5
253F
330
18
100
AcDbEntity
  8
実線（中）
100
AcDbLine
 10
30.0
 20
273.0
 30
0.0
 11
130.0
 21
273.0
 31
0.0
  0
LINE
  5
2540
330
18
100
AcDbEntity
  8
実線（中）
100
AcDbLine
 10
36.5
 20
266.5
 30
0.0
 11
123.5
 21
266.5
 31
0.0
  0
LINE
  5
2541
330
18
100
AcDbEntity
  8
実線（中）
100
AcDbLine
 10
123.5
 20
266.5
 30
0.0
 11
123.5
 21
224.5
 31
0.0
  0
LINE
  5
2542
330
18
100
AcDbEntity
  8
実線（中）
100
AcDbLine
 10
131.0
 20
274.0
 30
0.0
 11
123.5
 21
266.5
 31
0.0
  0
LINE
  5
2543
330
18
100
AcDbEntity
  8
実線（中）
100
AcDbLine
 10
36.5
 20
266.5
 30
0.0
 11
36.5
 21
224.5
 31
0.0
  0
LINE
  5
2544
330
18
100
AcDbEntity
  8
実線（中）
100
AcDbLine
 10
36.5
 20
266.5
 30
0.0
 11
29.0
 21
274.0
 31
0.0
  0
LINE
  5
2545
330
18
100
AcDbEntity
  8
実線（中）
100
AcDbLine
 10
30.0
 20
215.5
 30
0.0
 11
130.0
 21
215.5
 31
0.0
  0
LINE
  5
2546
102
{ACAD_REACTORS
330
32E3
102
}
330
18
100
AcDbEntity
  8
実線（中）
100
AcDbLine
 10
36.5
 20
224.5
 30
0.0
 11
123.5
 21
224.5
 31
0.0
  0
LINE
  5
2547
330
18
100
AcDbEntity
  8
実線（中）
100
AcDbLine
 10
129.0
 20
193.0
 30
0.0
 11
129.0
 21
214.5
 31
0.0
  0
LINE
  5
254A
330
18
100
AcDbEntity
  8
実線（中）
100
AcDbLine
 10
29.0
 20
214.5
 30
0.0
 11
30.0
 21
215.5
 31
0.0
  0
LINE
  5
254B
330
18
100
AcDbEntity
  8
実線（中）
100
AcDbLine
 10
31.0
 20
193.0
 30
0.0
 11
31.0
 21
214.5
 31
0.0
  0
LINE
  5
254C
330
18
100
AcDbEntity
  8
実線（中）
100
AcDbLine
 10
37.0
 20
187.0
 30
0.0
 11
123.0
 21
187.0
 31
0.0
  0
ARC
  5
254D
330
18
100
AcDbEntity
  8
実線（中）
100
AcDbCircle
 10
123.0
 20
193.0
 30
0.0
 40
6.0
100
AcDbArc
 50
270.0
 51
0.0
  0
ARC
  5
254E
330
18
100
AcDbEntity
  8
実線（中）
100
AcDbCircle
 10
37.0
 20
193.0
 30
0.0
 40
6.0
100
AcDbArc
 50
180.0
 51
270.0
  0
LINE
  5
254F
330
18
100
AcDbEntity
  8
実線（中）
100
AcDbLine
 10
60.5
 20
215.5
 30
0.0
 11
60.5
 21
219.5
 31
0.0
  0
LINE
  5
2550
330
18
100
AcDbEntity
  8
実線（中）
100
AcDbLine
 10
53.5
 20
215.5
 30
0.0
 11
53.5
 21
219.5
 31
0.0
  0
ARC
  5
2551
330
18
100
AcDbEntity
  8
実線（中）
100
AcDbCircle
 10
57.0
 20
219.5
 30
0.0
 40
3.5
100
AcDbArc
 50
0.0
 51
180.0
  0
CIRCLE
  5
2553
330
18
100
AcDbEntity
  8
実線（中）
100
AcDbCircle
 10
57.0
 20
219.5
 30
0.0
 40
2.049999999999999
  0
CIRCLE
  5
2554
330
18
100
AcDbEntity
  8
実線（中）
100
AcDbCircle
 10
103.0
 20
219.5
 30
0.0
 40
2.049999999999999
  0
LINE
  5
2555
330
18
100
AcDbEntity
  8
実線（中）
100
AcDbLine
 10
99.50000000000001
 20
215.5
 30
0.0
 11
99.50000000000001
 21
219.5
 31
0.0
  0
LINE
  5
2556
330
18
100
AcDbEntity
  8
実線（中）
100
AcDbLine
 10
106.5
 20
215.5
 30
0.0
 11
106.5
 21
219.5
 31
0.0
  0
ARC
  5
2557
330
18
100
AcDbEntity
  8
実線（中）
100
AcDbCircle
 10
103.0
 20
219.5
 30
0.0
 40
3.5
100
AcDbArc
 50
0.0
 51
180.0
  0
LINE
  5
2558
330
18
100
AcDbEntity
  8
実線（中）
100
AcDbLine
 10
55.8611359916633
 20
217.7954505667141
 30
0.0
 11
58.7045494332859
 21
220.6388640083367
 31
0.0
  0
LINE
  5
2559
330
18
100
AcDbEntity
  8
実線（中）
100
AcDbLine
 10
55.29545056671406
 20
218.3611359916634
 30
0.0
 11
58.13886400833664
 21
221.2045494332859
 31
0.0
  0
LINE
  5
255A
330
18
100
AcDbEntity
  8
実線（中）
100
AcDbLine
 10
101.295450566714
 20
218.3611359916634
 30
0.0
 11
104.1388640083366
 21
221.2045494332859
 31
0.0
  0
LINE
  5
255B
330
18
100
AcDbEntity
  8
実線（中）
100
AcDbLine
 10
101.8611359916633
 20
217.7954505667141
 30
0.0
 11
104.7045494332859
 21
220.6388640083367
 31
0.0
  0
DIMENSION
  5
2890
330
18
100
AcDbEntity
  8
寸法線
100
AcDbDimension
280
     0
  2
*D13
 10
10.0
 20
187.0
 30
0.0
 11
10.0
 21
200.75
 31
0.0
 12
0.0
 22
3.5
 32
0.0
 70
   160
 71
     5
 42
-1.0
 73
     0
 74
     0
 75
     0
  3
標準
100
AcDbAlignedDimension
 13
29.0
 23
214.5
 33
0.0
 14
37.0
 24
187.0
 34
0.0
 50
90.0
100
AcDbRotatedDimension
  0
LINE
  5
28B3
330
18
100
AcDbEntity
  8
実線（中）
100
AcDbLine
 10
151.0
 20
273.0
 30
0.0
 11
151.0
 21
215.8333333333334
 31
0.0
  0
LINE
  5
28B6
330
18
100
AcDbEntity
  8
実線（中）
100
AcDbLine
 10
151.0
 20
273.0
 30
0.0
 11
155.0
 21
274.0
 31
0.0
  0
LINE
  5
28B9
330
18
100
AcDbEntity
  8
実線（中）
100
AcDbLine
 10
155.0
 20
214.5
 30
0.0
 11
151.0
 21
215.8333333333334
 31
0.0
  0
LINE
  5
28BA
330
18
100
AcDbEntity
  8
実線（中）
100
AcDbLine
 10
168.5
 20
187.0
 30
0.0
 11
171.0
 21
187.0
 31
0.0
  0
LINE
  5
28BB
330
18
100
AcDbEntity
  8
実線（中）
100
AcDbLine
 10
155.0
 20
271.0
 30
0.0
 11
171.0
 21
271.0
 31
0.0
  0
LINE
  5
28BC
330
18
100
AcDbEntity
  8
実線（中）
100
AcDbLine
 10
171.0
 20
271.0
 30
0.0
 11
171.0
 21
187.0
 31
0.0
  0
LINE
  5
28BD
330
18
100
AcDbEntity
  8
実線（中）
100
AcDbLine
 10
158.5
 20
216.5
 30
0.0
 11
158.5
 21
197.0
 31
0.0
  0
LINE
  5
28BE
330
18
100
AcDbEntity
  8
実線（中）
100
AcDbLine
 10
155.0
 20
216.5
 30
0.0
 11
158.5
 21
216.5
 31
0.0
  0
ARC
  5
28BF
330
18
100
AcDbEntity
  8
実線（中）
100
AcDbCircle
 10
168.5
 20
197.0
 30
0.0
 40
10.0
100
AcDbArc
 50
180.0
 51
270.0
  0
LINE
  5
28C0
330
18
100
AcDbEntity
  8
実線（中）
100
AcDbLine
 10
213.5
 20
242.6
 30
0.0
 11
213.5
 21
187.4
 31
0.0
  0
LINE
  5
28C1
330
18
100
AcDbEntity
  8
実線（中）
100
AcDbLine
 10
173.0
 20
269.0
 30
0.0
 11
173.0
 21
243.0
 31
0.0
  0
LINE
  5
28C2
330
18
100
AcDbEntity
  8
実線（中）
100
AcDbLine
 10
173.0
 20
269.0
 30
0.0
 11
171.0
 21
271.0
 31
0.0
  0
LINE
  5
28C3
330
18
100
AcDbEntity
  8
実線（中）
100
AcDbLine
 10
171.0
 20
187.0
 30
0.0
 11
213.5
 21
187.4
 31
0.0
  0
LINE
  5
28C4
330
18
100
AcDbEntity
  8
実線（中）
100
AcDbLine
 10
173.0
 20
243.0
 30
0.0
 11
213.5
 21
242.6
 31
0.0
  0
LINE
  5
28C5
330
18
100
AcDbEntity
  8
実線（中）
100
AcDbLine
 10
216.5
 20
242.6
 30
0.0
 11
216.5
 21
187.4
 31
0.0
  0
LINE
  5
28C6
330
18
100
AcDbEntity
  8
実線（中）
100
AcDbLine
 10
216.5
 20
242.6
 30
0.0
 11
213.5
 21
242.6
 31
0.0
  0
LINE
  5
28C7
330
18
100
AcDbEntity
  8
実線（中）
100
AcDbLine
 10
216.5
 20
187.4
 30
0.0
 11
213.5
 21
187.4
 31
0.0
  0
DIMENSION
  5
2D18
330
18
100
AcDbEntity
  8
寸法線
100
AcDbDimension
280
     0
  2
*D14
 10
277.5000000000801
 20
187.0001601066622
 30
0.0
 11
277.5000000000801
 21
215.0000400266656
 31
0.0
 70
   160
 71
     5
 42
-1.0
 73
     0
 74
     0
 75
     0
  3
標準
100
AcDbAlignedDimension
 13
262.0
 23
243.0
 33
0.0
 14
262.0
 24
187.0001601066622
 34
0.0
 50
90.0
100
AcDbRotatedDimension
  0
LINE
  5
2D19
330
18
100
AcDbEntity
  8
実線（中）
100
AcDbLine
 10
258.5
 20
241.0156113989685
 30
0.0
 11
258.5
 21
188.9843886010315
 31
0.0
  0
ARC
  5
2D1A
330
18
100
AcDbEntity
  8
実線（中）
100
AcDbCircle
 10
261.3000000000001
 20
237.60595328855
 30
0.0
 40
1.2
100
AcDbArc
 50
0.0
 51
90.00000000000003
  0
ARC
  5
2D1B
330
18
100
AcDbEntity
  8
実線（中）
100
AcDbCircle
 10
261.3000000000001
 20
233.0487282604007
 30
0.0
 40
1.2
100
AcDbArc
 50
0.0
 51
90.00000000000003
  0
ARC
  5
2D1C
330
18
100
AcDbEntity
  8
実線（中）
100
AcDbCircle
 10
261.3000000000001
 20
229.6487282604007
 30
0.0
 40
1.199999999999988
100
AcDbArc
 50
305.6853347126483
 51
359.9999999999986
  0
ARC
  5
2D1D
330
18
100
AcDbEntity
  8
実線（中）
100
AcDbCircle
 10
261.3000000000001
 20
208.4723062041507
 30
0.0
 40
1.199999999999988
100
AcDbArc
 50
0.000000000001357
 51
54.31466528735171
  0
ARC
  5
2D1E
330
18
100
AcDbEntity
  8
実線（中）
100
AcDbCircle
 10
261.3000000000001
 20
205.0723062041507
 30
0.0
 40
1.2
100
AcDbArc
 50
270.0
 51
0.0
  0
ARC
  5
2D1F
330
18
100
AcDbEntity
  8
実線（中）
100
AcDbCircle
 10
261.3000000000001
 20
200.3512717395993
 30
0.0
 40
1.199999999999988
100
AcDbArc
 50
0.000000000001357
 51
54.31466528735171
  0
ARC
  5
2D20
330
18
100
AcDbEntity
  8
実線（中）
100
AcDbCircle
 10
261.3000000000001
 20
192.3940467114499
 30
0.0
 40
1.2
100
AcDbArc
 50
270.0
 51
0.0
  0
ARC
  5
2D21
330
18
100
AcDbEntity
  8
実線（中）
100
AcDbCircle
 10
261.3000000000001
 20
196.9512717395993
 30
0.0
 40
1.2
100
AcDbArc
 50
270.0
 51
0.0
  0
LINE
  5
2D22
330
18
100
AcDbEntity
  8
実線（中）
100
AcDbLine
 10
262.0
 20
204.0976267696697
 30
0.0
 11
262.0
 21
198.987067407584
 31
0.0
  0
LINE
  5
2D23
330
18
100
AcDbEntity
  8
実線（中）
100
AcDbLine
 10
259.0
 20
192.0755940540291
 30
0.0
 11
259.0
 21
190.1613420704107
 31
0.0
  0
LINE
  5
2D24
330
18
100
AcDbEntity
  8
実線（中）
100
AcDbLine
 10
262.0
 20
195.9765923051183
 30
0.0
 11
262.0
 21
190.1
 31
0.0
  0
ARC
  5
2D25
330
18
100
AcDbEntity
  8
実線（中）
100
AcDbCircle
 10
257.3
 20
188.9843886010315
 30
0.0
 40
1.199999999999999
100
AcDbArc
 50
270.7502589904176
 51
0.0
  0
LINE
  5
2D26
330
18
100
AcDbEntity
  8
実線（中）
100
AcDbLine
 10
262.0
 20
190.1613420704107
 30
0.0
 11
259.0
 21
190.1613420704107
 31
0.0
  0
LINE
  5
2D27
330
18
100
AcDbEntity
  8
実線（中）
100
AcDbLine
 10
262.0
 20
190.1
 30
0.0
 11
258.5
 21
190.1
 31
0.0
  0
LINE
  5
2D28
330
18
100
AcDbEntity
  8
実線（中）
100
AcDbLine
 10
260.5
 20
195.7512717395993
 30
0.0
 11
260.5
 21
198.987067407584
 31
0.0
  0
LINE
  5
2D29
330
18
100
AcDbEntity
  8
実線（中）
100
AcDbLine
 10
260.5
 20
195.7512717395993
 30
0.0
 11
261.3000000000001
 21
195.7512717395993
 31
0.0
  0
LINE
  5
2D2A
330
18
100
AcDbEntity
  8
実線（中）
100
AcDbLine
 10
262.0
 20
198.987067407584
 30
0.0
 11
259.0
 21
198.987067407584
 31
0.0
  0
ARC
  5
2D2B
330
18
100
AcDbEntity
  8
実線（中）
100
AcDbCircle
 10
249.4600000000001
 20
194.09404671145
 30
0.0
 40
11.0
100
AcDbArc
 50
344.178383797065
 51
349.4265591703817
  0
LINE
  5
2D2C
330
18
100
AcDbEntity
  8
実線（中）
100
AcDbLine
 10
260.5
 20
191.1940467114499
 30
0.0
 11
260.5
 21
192.0755940540291
 31
0.0
  0
LINE
  5
2D2D
330
18
100
AcDbEntity
  8
実線（中）
100
AcDbLine
 10
260.5
 20
191.1940467114499
 30
0.0
 11
261.3000000000001
 21
191.1940467114499
 31
0.0
  0
ARC
  5
2D2E
330
18
100
AcDbEntity
  8
実線（中）
100
AcDbCircle
 10
249.4600000000001
 20
194.09404671145
 30
0.0
 40
10.0
100
AcDbArc
 50
342.554373288772
 51
348.3551140694363
  0
LINE
  5
2D2F
330
18
100
AcDbEntity
  8
実線（中）
100
AcDbLine
 10
259.0
 20
191.0960467114499
 30
0.0
 11
260.043
 21
191.0960467114499
 31
0.0
  0
LINE
  5
2D30
330
18
100
AcDbEntity
  8
実線（中）
100
AcDbLine
 10
259.0
 20
195.6532717395993
 30
0.0
 11
260.043
 21
195.6532717395993
 31
0.0
  0
LINE
  5
2D31
330
18
100
AcDbEntity
  8
実線（中）
100
AcDbLine
 10
262.0
 20
193.6615934112764
 30
0.0
 11
259.0
 21
193.6615934112764
 31
0.0
  0
LINE
  5
2D32
330
18
100
AcDbEntity
  8
実線（中）
100
AcDbLine
 10
262.0
 20
192.0755940540291
 30
0.0
 11
259.0
 21
192.0755940540291
 31
0.0
  0
ARC
  5
2D33
330
18
100
AcDbEntity
  8
実線（中）
100
AcDbCircle
 10
249.4600000000001
 20
198.6512717395993
 30
0.0
 40
10.0
100
AcDbArc
 50
342.554373288772
 51
1.924329212567128
  0
ARC
  5
2D34
330
18
100
AcDbEntity
  8
実線（中）
100
AcDbCircle
 10
249.4600000000001
 20
198.6512717395993
 30
0.0
 40
11.0
100
AcDbArc
 50
344.178383797065
 51
1.74933309265723
  0
LINE
  5
2D35
330
18
100
AcDbEntity
  8
実線（中）
100
AcDbLine
 10
259.0
 20
198.987067407584
 30
0.0
 11
259.0
 21
193.6615934112764
 31
0.0
  0
LINE
  5
2D36
330
18
100
AcDbEntity
  8
実線（中）
100
AcDbLine
 10
262.0
 20
231.0129325924159
 30
0.0
 11
262.0
 21
209.3891511235085
 31
0.0
  0
LINE
  5
2D37
330
18
100
AcDbEntity
  8
実線（中）
100
AcDbLine
 10
262.0
 20
209.3891511235085
 30
0.0
 11
259.0
 21
209.3891511235085
 31
0.0
  0
LINE
  5
2D38
330
18
100
AcDbEntity
  8
実線（中）
100
AcDbLine
 10
260.5
 20
203.8723062041507
 30
0.0
 11
261.3000000000001
 21
203.8723062041507
 31
0.0
  0
LINE
  5
2D39
330
18
100
AcDbEntity
  8
実線（中）
100
AcDbLine
 10
259.0
 20
203.7743062041506
 30
0.0
 11
260.043
 21
203.7743062041506
 31
0.0
  0
LINE
  5
2D3A
330
18
100
AcDbEntity
  8
実線（中）
100
AcDbLine
 10
262.0
 20
201.8133389569159
 30
0.0
 11
259.0
 21
201.8133389569159
 31
0.0
  0
LINE
  5
2D3B
330
18
100
AcDbEntity
  8
実線（中）
100
AcDbLine
 10
260.5
 20
203.8723062041507
 30
0.0
 11
260.5
 21
209.3891511235085
 31
0.0
  0
ARC
  5
2D3C
330
18
100
AcDbEntity
  8
実線（中）
100
AcDbCircle
 10
249.4600000000001
 20
206.7723062041507
 30
0.0
 40
11.0
100
AcDbArc
 50
344.178383797065
 51
13.76233436001421
  0
ARC
  5
2D3D
330
18
100
AcDbEntity
  8
実線（中）
100
AcDbCircle
 10
249.4600000000001
 20
206.7723062041507
 30
0.0
 40
10.0
100
AcDbArc
 50
342.554373288772
 51
15.17003743918437
  0
LINE
  5
2D3E
330
18
100
AcDbEntity
  8
実線（中）
100
AcDbLine
 10
259.0000000000001
 20
209.3891511235085
 30
0.0
 11
259.0000000000001
 21
201.8133389569159
 31
0.0
  0
LINE
  5
2D3F
330
18
100
AcDbEntity
  8
実線（中）
100
AcDbLine
 10
259.0
 20
239.9
 30
0.0
 11
259.0
 21
237.9244059459709
 31
0.0
  0
LINE
  5
2D40
330
18
100
AcDbEntity
  8
実線（中）
100
AcDbLine
 10
262.0
 20
237.9244059459709
 30
0.0
 11
259.0
 21
237.9244059459709
 31
0.0
  0
LINE
  5
2D41
330
18
100
AcDbEntity
  8
実線（中）
100
AcDbLine
 10
262.0
 20
239.8386579295893
 30
0.0
 11
259.0
 21
239.8386579295893
 31
0.0
  0
ARC
  5
2D42
330
18
100
AcDbEntity
  8
実線（中）
100
AcDbCircle
 10
249.4600000000001
 20
235.90595328855
 30
0.0
 40
10.0
100
AcDbArc
 50
11.64488593056374
 51
17.44562671122806
  0
ARC
  5
2D43
330
18
100
AcDbEntity
  8
実線（中）
100
AcDbCircle
 10
249.4600000000001
 20
235.90595328855
 30
0.0
 40
11.0
100
AcDbArc
 50
10.5734408296183
 51
15.82161620293504
  0
LINE
  5
2D44
330
18
100
AcDbEntity
  8
実線（中）
100
AcDbLine
 10
260.5
 20
238.8059532885501
 30
0.0
 11
260.5
 21
237.9244059459709
 31
0.0
  0
LINE
  5
2D45
330
18
100
AcDbEntity
  8
実線（中）
100
AcDbLine
 10
259.0
 20
238.90395328855
 30
0.0
 11
260.043
 21
238.90395328855
 31
0.0
  0
LINE
  5
2D46
330
18
100
AcDbEntity
  8
実線（中）
100
AcDbLine
 10
260.5
 20
238.8059532885501
 30
0.0
 11
261.3000000000001
 21
238.8059532885501
 31
0.0
  0
LINE
  5
2D47
330
18
100
AcDbEntity
  8
実線（中）
100
AcDbLine
 10
262.0
 20
236.3384065887236
 30
0.0
 11
259.0
 21
236.3384065887236
 31
0.0
  0
LINE
  5
2D48
330
18
100
AcDbEntity
  8
実線（中）
100
AcDbLine
 10
262.0
 20
239.9
 30
0.0
 11
258.5
 21
239.9
 31
0.0
  0
ARC
  5
2D49
330
18
100
AcDbEntity
  8
実線（中）
100
AcDbCircle
 10
249.4600000000001
 20
231.3487282604007
 30
0.0
 40
10.0
100
AcDbArc
 50
358.0756707874328
 51
17.44562671122806
  0
ARC
  5
2D4A
330
18
100
AcDbEntity
  8
実線（中）
100
AcDbCircle
 10
249.4600000000001
 20
231.3487282604007
 30
0.0
 40
11.0
100
AcDbArc
 50
358.2506669073428
 51
15.82161620293504
  0
LINE
  5
2D4B
330
18
100
AcDbEntity
  8
実線（中）
100
AcDbLine
 10
259.0
 20
234.3467282604007
 30
0.0
 11
260.043
 21
234.3467282604007
 31
0.0
  0
LINE
  5
2D4C
330
18
100
AcDbEntity
  8
実線（中）
100
AcDbLine
 10
262.0
 20
231.012932592416
 30
0.0
 11
259.0
 21
231.012932592416
 31
0.0
  0
LINE
  5
2D4D
330
18
100
AcDbEntity
  8
実線（中）
100
AcDbLine
 10
260.5
 20
234.2487282604007
 30
0.0
 11
260.5
 21
231.012932592416
 31
0.0
  0
LINE
  5
2D4E
330
18
100
AcDbEntity
  8
実線（中）
100
AcDbLine
 10
260.5
 20
234.2487282604007
 30
0.0
 11
261.3000000000001
 21
234.2487282604007
 31
0.0
  0
LINE
  5
2D4F
330
18
100
AcDbEntity
  8
実線（中）
100
AcDbLine
 10
262.0
 20
234.0234076948817
 30
0.0
 11
262.0
 21
239.9
 31
0.0
  0
LINE
  5
2D50
330
18
100
AcDbEntity
  8
実線（中）
100
AcDbLine
 10
259.0
 20
236.3384065887236
 30
0.0
 11
259.0
 21
231.012932592416
 31
0.0
  0
ARC
  5
2D51
330
18
100
AcDbEntity
  8
実線（中）
100
AcDbCircle
 10
261.3000000000001
 20
195.79404671145
 30
0.0
 40
1.199999999999903
100
AcDbArc
 50
359.9999999999959
 51
28.82768831794545
  0
LINE
  5
2D52
330
18
100
AcDbEntity
  8
実線（中）
100
AcDbLine
 10
262.5
 20
196.9512717395993
 30
0.0
 11
262.5
 21
200.3512717395994
 31
0.0
  0
LINE
  5
2D53
330
18
100
AcDbEntity
  8
実線（中）
100
AcDbLine
 10
262.5
 20
192.3940467114499
 30
0.0
 11
262.5
 21
195.7940467114499
 31
0.0
  0
LINE
  5
2D54
330
18
100
AcDbEntity
  8
実線（中）
100
AcDbLine
 10
262.5
 20
205.0723062041507
 30
0.0
 11
262.5
 21
208.4723062041507
 31
0.0
  0
LINE
  5
2D55
330
18
100
AcDbEntity
  8
実線（中）
100
AcDbLine
 10
262.5
 20
233.0487282604007
 30
0.0
 11
262.5
 21
229.6487282604006
 31
0.0
  0
ARC
  5
2D56
330
18
100
AcDbEntity
  8
実線（中）
100
AcDbCircle
 10
261.3000000000001
 20
234.20595328855
 30
0.0
 40
1.199999999999903
100
AcDbArc
 50
331.1723116820545
 51
0.0000000000040851
  0
LINE
  5
2D57
330
18
100
AcDbEntity
  8
実線（中）
100
AcDbLine
 10
262.5
 20
237.60595328855
 30
0.0
 11
262.5
 21
234.20595328855
 31
0.0
  0
ARC
  5
2D58
330
18
100
AcDbEntity
  8
実線（中）
100
AcDbCircle
 10
257.3
 20
241.0156113989685
 30
0.0
 40
1.199999999999999
100
AcDbArc
 50
0.0
 51
89.24974100958246
  0
LINE
  5
2D59
330
18
100
AcDbEntity
  8
実線（中）
100
AcDbLine
 10
257.3157129385033
 20
187.7844914789566
 30
0.0
 11
216.5
 21
187.4
 31
0.0
  0
LINE
  5
2D5A
330
18
100
AcDbEntity
  8
実線（中）
100
AcDbLine
 10
257.3157129385033
 20
242.2155085210434
 30
0.0
 11
216.5
 21
242.6
 31
0.0
  0
LINE
  5
2E23
330
18
100
AcDbEntity
  8
実線（中）
100
AcDbLine
 10
299.0
 20
274.0
 30
0.0
 11
299.0
 21
214.5
 31
0.0
  0
LINE
  5
2E24
330
18
100
AcDbEntity
  8
実線（中）
100
AcDbLine
 10
401.0
 20
274.0
 30
0.0
 11
401.0
 21
214.5
 31
0.0
  0
LINE
  5
2E2D
330
18
100
AcDbEntity
  8
実線（中）
100
AcDbLine
 10
393.0
 20
187.0
 30
0.0
 11
307.0
 21
187.0
 31
0.0
  0
LINE
  5
2E30
330
18
100
AcDbEntity
  8
実線（中）
100
AcDbLine
 10
399.0
 20
193.0
 30
0.0
 11
399.0
 21
237.0
 31
0.0
  0
ARC
  5
2E31
330
18
100
AcDbEntity
  8
実線（中）
100
AcDbCircle
 10
393.0
 20
193.0
 30
0.0
 40
6.0
100
AcDbArc
 50
270.0
 51
0.000000000000007
  0
ARC
  5
2E5E
330
18
100
AcDbEntity
  8
実線（中）
100
AcDbCircle
 10
307.0
 20
193.0
 30
0.0
 40
6.0
100
AcDbArc
 50
180.0
 51
270.0
  0
LINE
  5
2E5F
330
18
100
AcDbEntity
  8
実線（中）
100
AcDbLine
 10
301.0
 20
193.0
 30
0.0
 11
301.0
 21
237.0
 31
0.0
  0
LINE
  5
2E61
330
18
100
AcDbEntity
  8
実線（中）
100
AcDbLine
 10
401.0
 20
274.0
 30
0.0
 11
299.0
 21
274.0
 31
0.0
  0
LINE
  5
2E67
330
18
100
AcDbEntity
  8
実線（中）
100
AcDbLine
 10
393.0
 20
243.0
 30
0.0
 11
307.0
 21
243.0
 31
0.0
  0
ARC
  5
2E69
330
18
100
AcDbEntity
  8
実線（中）
100
AcDbCircle
 10
307.0
 20
237.0
 30
0.0
 40
6.0
100
AcDbArc
 50
90.00000000000003
 51
180.0
  0
ARC
  5
2E6A
330
18
100
AcDbEntity
  8
実線（中）
100
AcDbCircle
 10
393.0
 20
237.0
 30
0.0
 40
6.0
100
AcDbArc
 50
0.0
 51
90.00000000000003
  0
LINE
  5
2E6B
330
18
100
AcDbEntity
  8
実線（中）
100
AcDbLine
 10
329.4914675108216
 20
210.9428957198121
 30
0.0
 11
325.7403962339619
 21
209.3891511235085
 31
0.0
  0
ARC
  5
2E6C
330
18
100
AcDbEntity
  8
実線（中）
100
AcDbCircle
 10
329.7249237325035
 20
208.5500943923806
 30
0.0
 40
0.2
100
AcDbArc
 50
22.49999999999999
 51
112.5
  0
ARC
  5
2E6D
330
18
100
AcDbEntity
  8
実線（中）
100
AcDbCircle
 10
329.5953939508611
 20
205.4657432392744
 30
0.0
 40
0.5
100
AcDbArc
 50
22.49999999999999
 51
112.5
  0
LINE
  5
2E6E
330
18
100
AcDbEntity
  8
実線（中）
100
AcDbLine
 10
329.0940593265237
 20
208.5052602394638
 30
0.0
 11
329.6483870460306
 21
208.7348702988828
 31
0.0
  0
ARC
  5
2E6F
330
18
100
AcDbEntity
  8
実線（中）
100
AcDbCircle
 10
329.1705960129968
 20
208.3204843329615
 30
0.0
 40
0.2
100
AcDbArc
 50
112.5
 51
202.5000000000001
  0
LINE
  5
2E70
330
18
100
AcDbEntity
  8
実線（中）
100
AcDbLine
 10
328.9858201064945
 20
208.2439476464884
 30
0.0
 11
329.2919668523865
 21
207.5048440204794
 31
0.0
  0
LINE
  5
2E71
330
18
100
AcDbEntity
  8
実線（中）
100
AcDbLine
 10
328.2822651763045
 20
206.5454157921491
 30
0.0
 11
329.0213688023134
 21
206.8515625380412
 31
0.0
  0
LINE
  5
2E72
330
18
100
AcDbEntity
  8
実線（中）
100
AcDbLine
 10
328.6649486086696
 20
205.6215362596379
 30
0.0
 11
329.4040522346786
 21
205.9276830055298
 31
0.0
  0
LINE
  5
2E73
330
18
100
AcDbEntity
  8
実線（中）
100
AcDbLine
 10
328.1740259562752
 20
206.284103199174
 30
0.0
 11
328.4036360156942
 21
205.729775479667
 31
0.0
  0
ARC
  5
2E74
330
18
100
AcDbEntity
  8
実線（中）
100
AcDbCircle
 10
328.3588018627775
 20
206.360639885647
 30
0.0
 40
0.2
100
AcDbArc
 50
112.5
 51
202.5000000000001
  0
ARC
  5
2E75
330
18
100
AcDbEntity
  8
実線（中）
100
AcDbCircle
 10
328.5884119221965
 20
205.8063121661402
 30
0.0
 40
0.2
100
AcDbArc
 50
202.5000000000001
 51
292.5
  0
ARC
  5
2E76
330
18
100
AcDbEntity
  8
実線（中）
100
AcDbCircle
 10
328.8300270861309
 20
207.313502304297
 30
0.0
 40
0.5
100
AcDbArc
 50
292.5
 51
22.49999999999999
  0
LINE
  5
2E77
330
18
100
AcDbEntity
  8
実線（中）
100
AcDbLine
 10
330.869127867336
 20
207.6169294027713
 30
0.0
 11
331.6082314933451
 21
207.9230761486635
 31
0.0
  0
ARC
  5
2E78
330
18
100
AcDbEntity
  8
実線（中）
100
AcDbCircle
 10
331.6847681798182
 20
207.7383002421613
 30
0.0
 40
0.2
100
AcDbArc
 50
22.49999999999999
 51
112.5
  0
LINE
  5
2E79
330
18
100
AcDbEntity
  8
実線（中）
100
AcDbLine
 10
331.2518112997012
 20
206.6930498702602
 30
0.0
 11
331.9909149257102
 21
206.9991966161522
 31
0.0
  0
LINE
  5
2E7A
330
18
100
AcDbEntity
  8
実線（中）
100
AcDbLine
 10
330.981213249628
 20
206.039768387822
 30
0.0
 11
331.2873599955202
 21
205.3006647618129
 31
0.0
  0
ARC
  5
2E7B
330
18
100
AcDbEntity
  8
実線（中）
100
AcDbCircle
 10
331.4431530158837
 20
206.2311101040046
 30
0.0
 40
0.5
100
AcDbArc
 50
112.5
 51
202.5000000000001
  0
ARC
  5
2E7C
330
18
100
AcDbEntity
  8
実線（中）
100
AcDbCircle
 10
331.9143782392372
 20
207.1839725226545
 30
0.0
 40
0.2
100
AcDbArc
 50
292.5
 51
22.49999999999999
  0
LINE
  5
2E7D
330
18
100
AcDbEntity
  8
実線（中）
100
AcDbLine
 10
331.8695440863203
 20
207.8148369286342
 30
0.0
 11
332.0991541457394
 21
207.2605092091273
 31
0.0
  0
LINE
  5
2E7E
330
18
100
AcDbEntity
  8
実線（中）
100
AcDbLine
 10
329.9096996390058
 20
208.6266310788535
 30
0.0
 11
330.2158463848979
 21
207.8875274528445
 31
0.0
  0
ARC
  5
2E7F
330
18
100
AcDbEntity
  8
実線（中）
100
AcDbCircle
 10
330.6777861511535
 20
208.0788691690271
 30
0.0
 40
0.5
100
AcDbArc
 50
202.5000000000001
 51
292.5
  0
CIRCLE
  5
2E80
330
18
100
AcDbEntity
  8
実線（中）
100
AcDbCircle
 10
330.0
 20
217.0
 30
0.0
 40
2.9
  0
LINE
  5
2E81
330
18
100
AcDbEntity
  8
実線（中）
100
AcDbLine
 10
329.7
 20
215.0
 30
0.0
 11
330.3
 21
215.0
 31
0.0
  0
LINE
  5
2E82
330
18
100
AcDbEntity
  8
実線（中）
100
AcDbLine
 10
329.7
 20
219.0
 30
0.0
 11
330.3
 21
219.0
 31
0.0
  0
CIRCLE
  5
2E83
330
18
100
AcDbEntity
  8
実線（中）
100
AcDbCircle
 10
330.0
 20
217.0
 30
0.0
 40
3.5
  0
ARC
  5
2E84
330
18
100
AcDbEntity
  8
実線（中）
100
AcDbCircle
 10
329.7
 20
215.2
 30
0.0
 40
0.2
100
AcDbArc
 50
180.0
 51
270.0
  0
ARC
  5
2E85
330
18
100
AcDbEntity
  8
実線（中）
100
AcDbCircle
 10
328.2
 20
216.7
 30
0.0
 40
0.2
100
AcDbArc
 50
180.0
 51
270.0
  0
ARC
  5
2E86
330
18
100
AcDbEntity
  8
実線（中）
100
AcDbCircle
 10
329.0
 20
216.0
 30
0.0
 40
0.5
100
AcDbArc
 50
0.0
 51
90.0
  0
LINE
  5
2E87
330
18
100
AcDbEntity
  8
実線（中）
100
AcDbLine
 10
328.2
 20
216.5
 30
0.0
 11
329.0
 21
216.5
 31
0.0
  0
LINE
  5
2E88
330
18
100
AcDbEntity
  8
実線（中）
100
AcDbLine
 10
329.5
 20
218.0
 30
0.0
 11
329.5
 21
218.8
 31
0.0
  0
ARC
  5
2E89
330
18
100
AcDbEntity
  8
実線（中）
100
AcDbCircle
 10
329.0
 20
218.0
 30
0.0
 40
0.5
100
AcDbArc
 50
270.0
 51
0.0
  0
ARC
  5
2E8A
330
18
100
AcDbEntity
  8
実線（中）
100
AcDbCircle
 10
328.2
 20
217.3
 30
0.0
 40
0.2
100
AcDbArc
 50
90.0
 51
180.0
  0
LINE
  5
2E8B
330
18
100
AcDbEntity
  8
実線（中）
100
AcDbLine
 10
328.0
 20
216.7
 30
0.0
 11
328.0
 21
217.3
 31
0.0
  0
LINE
  5
2E8C
330
18
100
AcDbEntity
  8
実線（中）
100
AcDbLine
 10
328.2
 20
217.5
 30
0.0
 11
329.0
 21
217.5
 31
0.0
  0
LINE
  5
2E8D
330
18
100
AcDbEntity
  8
実線（中）
100
AcDbLine
 10
329.5
 20
215.2
 30
0.0
 11
329.5
 21
216.0
 31
0.0
  0
ARC
  5
2E8E
330
18
100
AcDbEntity
  8
実線（中）
100
AcDbCircle
 10
329.7
 20
218.8
 30
0.0
 40
0.2
100
AcDbArc
 50
90.0
 51
180.0
  0
ARC
  5
2E8F
330
18
100
AcDbEntity
  8
実線（中）
100
AcDbCircle
 10
330.3
 20
215.2
 30
0.0
 40
0.2
100
AcDbArc
 50
270.0
 51
0.0
  0
ARC
  5
2E90
330
18
100
AcDbEntity
  8
実線（中）
100
AcDbCircle
 10
331.8
 20
216.7
 30
0.0
 40
0.2
100
AcDbArc
 50
270.0
 51
0.0
  0
ARC
  5
2E91
330
18
100
AcDbEntity
  8
実線（中）
100
AcDbCircle
 10
331.8
 20
217.3
 30
0.0
 40
0.2
100
AcDbArc
 50
0.0
 51
90.0
  0
LINE
  5
2E92
330
18
100
AcDbEntity
  8
実線（中）
100
AcDbLine
 10
331.0
 20
216.5
 30
0.0
 11
331.8
 21
216.5
 31
0.0
  0
LINE
  5
2E93
330
18
100
AcDbEntity
  8
実線（中）
100
AcDbLine
 10
331.0
 20
217.5
 30
0.0
 11
331.8
 21
217.5
 31
0.0
  0
ARC
  5
2E94
330
18
100
AcDbEntity
  8
実線（中）
100
AcDbCircle
 10
331.0
 20
216.0
 30
0.0
 40
0.5
100
AcDbArc
 50
90.0
 51
180.0
  0
LINE
  5
2E95
330
18
100
AcDbEntity
  8
実線（中）
100
AcDbLine
 10
330.5
 20
218.0
 30
0.0
 11
330.5
 21
218.8
 31
0.0
  0
ARC
  5
2E96
330
18
100
AcDbEntity
  8
実線（中）
100
AcDbCircle
 10
331.0
 20
218.0
 30
0.0
 40
0.5
100
AcDbArc
 50
180.0
 51
270.0
  0
LINE
  5
2E97
330
18
100
AcDbEntity
  8
実線（中）
100
AcDbLine
 10
332.0
 20
216.7
 30
0.0
 11
332.0
 21
217.3
 31
0.0
  0
LINE
  5
2E98
330
18
100
AcDbEntity
  8
実線（中）
100
AcDbLine
 10
330.5
 20
215.2
 30
0.0
 11
330.5
 21
216.0
 31
0.0
  0
ARC
  5
2E99
330
18
100
AcDbEntity
  8
実線（中）
100
AcDbCircle
 10
330.3
 20
218.8
 30
0.0
 40
0.2
100
AcDbArc
 50
0.0
 51
90.0
  0
MTEXT
  5
2E9A
330
18
100
AcDbEntity
  8
実線（中）
100
AcDbMText
 10
338.8869064303288
 20
210.4724011538418
 30
0.0
 40
3.5
 41
0.0
 46
0.0
 71
     5
 72
     5
  1
③
  7
寸法文字
 73
     1
 44
1.0
  0
MTEXT
  5
2E9B
330
18
100
AcDbEntity
  8
実線（中）
100
AcDbMText
 10
342.1536479882947
 20
224.079359014182
 30
0.0
 40
3.2
 41
0.0
 46
0.0
 71
     5
 72
     5
  1
M+
  7
寸法文字
 73
     1
 44
1.0
  0
CIRCLE
  5
2E9C
330
18
100
AcDbEntity
  8
実線（中）
100
AcDbCircle
 10
370.0
 20
217.0
 30
0.0
 40
3.5
  0
MTEXT
  5
2E9D
330
18
100
AcDbEntity
  8
実線（中）
100
AcDbMText
 10
361.0596396696859
 20
210.3433520235358
 30
0.0
 40
3.5
 41
0.0
 46
0.0
 71
     5
 72
     5
  1
⑧
  7
寸法文字
 73
     1
 44
1.0
  0
LINE
  5
2E9E
330
18
100
AcDbEntity
  8
実線（中）
100
AcDbLine
 10
370.5085324891783
 20
210.9428957198118
 30
0.0
 11
374.2596037660381
 21
209.3891511235084
 31
0.0
  0
LINE
  5
2E9F
330
18
100
AcDbEntity
  8
実線（中）
100
AcDbLine
 10
370.9059406734762
 20
208.5052602394635
 30
0.0
 11
370.3516129539693
 21
208.7348702988827
 31
0.0
  0
LINE
  5
2EA0
330
18
100
AcDbEntity
  8
実線（中）
100
AcDbLine
 10
370.7080331476134
 20
207.5048440204792
 30
0.0
 11
371.0141798935055
 21
208.2439476464882
 31
0.0
  0
ARC
  5
2EA1
330
18
100
AcDbEntity
  8
実線（中）
100
AcDbCircle
 10
371.1699729138691
 20
207.3135023042967
 30
0.0
 40
0.5
100
AcDbArc
 50
157.5
 51
247.5
  0
LINE
  5
2EA2
330
18
100
AcDbEntity
  8
実線（中）
100
AcDbLine
 10
371.3350513913304
 20
205.6215362596378
 30
0.0
 11
370.5959477653215
 21
205.9276830055297
 31
0.0
  0
LINE
  5
2EA3
330
18
100
AcDbEntity
  8
実線（中）
100
AcDbLine
 10
369.1308721326639
 20
207.6169294027712
 30
0.0
 11
368.3917685066548
 21
207.9230761486633
 31
0.0
  0
ARC
  5
2EA4
330
18
100
AcDbEntity
  8
実線（中）
100
AcDbCircle
 10
370.2750762674963
 20
208.5500943923803
 30
0.0
 40
0.2
100
AcDbArc
 50
67.5
 51
157.5
  0
LINE
  5
2EA5
330
18
100
AcDbEntity
  8
実線（中）
100
AcDbLine
 10
369.7841536151021
 20
207.8875274528442
 30
0.0
 11
370.0903003609942
 21
208.6266310788534
 31
0.0
  0
ARC
  5
2EA6
330
18
100
AcDbEntity
  8
実線（中）
100
AcDbCircle
 10
369.3222138488464
 20
208.0788691690268
 30
0.0
 40
0.5
100
AcDbArc
 50
247.5
 51
337.5
  0
ARC
  5
2EA7
330
18
100
AcDbEntity
  8
実線（中）
100
AcDbCircle
 10
368.3152318201818
 20
207.738300242161
 30
0.0
 40
0.2
100
AcDbArc
 50
67.5
 51
157.5
  0
LINE
  5
2EA8
330
18
100
AcDbEntity
  8
実線（中）
100
AcDbLine
 10
368.7481887002988
 20
206.6930498702599
 30
0.0
 11
368.0090850742897
 21
206.999196616152
 31
0.0
  0
ARC
  5
2EA9
330
18
100
AcDbEntity
  8
実線（中）
100
AcDbCircle
 10
370.4046060491388
 20
205.465743239274
 30
0.0
 40
0.5
100
AcDbArc
 50
67.5
 51
157.5
  0
ARC
  5
2EAA
330
18
100
AcDbEntity
  8
実線（中）
100
AcDbCircle
 10
368.5568469841162
 20
206.2311101040042
 30
0.0
 40
0.5
100
AcDbArc
 50
337.5
 51
67.5
  0
LINE
  5
2EAB
330
18
100
AcDbEntity
  8
実線（中）
100
AcDbLine
 10
368.7126400044799
 20
205.3006647618127
 30
0.0
 11
369.0187867503719
 21
206.0397683878218
 31
0.0
  0
ARC
  5
2EAC
330
18
100
AcDbEntity
  8
実線（中）
100
AcDbCircle
 10
368.0856217607628
 20
207.1839725226543
 30
0.0
 40
0.2
100
AcDbArc
 50
157.5
 51
247.5
  0
LINE
  5
2EAD
330
18
100
AcDbEntity
  8
実線（中）
100
AcDbLine
 10
367.9008458542605
 20
207.2605092091272
 30
0.0
 11
368.1304559136796
 21
207.8148369286341
 31
0.0
  0
LINE
  5
2EAE
330
18
100
AcDbEntity
  8
実線（中）
100
AcDbLine
 10
371.5963639843057
 20
205.7297754796669
 30
0.0
 11
371.8259740437249
 21
206.2841031991737
 31
0.0
  0
ARC
  5
2EAF
330
18
100
AcDbEntity
  8
実線（中）
100
AcDbCircle
 10
371.4115880778034
 20
205.8063121661399
 30
0.0
 40
0.2
100
AcDbArc
 50
247.5
 51
337.5
  0
ARC
  5
2EB0
330
18
100
AcDbEntity
  8
実線（中）
100
AcDbCircle
 10
371.6411981372224
 20
206.3606398856467
 30
0.0
 40
0.2
100
AcDbArc
 50
337.5
 51
67.5
  0
ARC
  5
2EB1
330
18
100
AcDbEntity
  8
実線（中）
100
AcDbCircle
 10
370.8294039870032
 20
208.3204843329613
 30
0.0
 40
0.2
100
AcDbArc
 50
337.5
 51
67.5
  0
LINE
  5
2EB2
330
18
100
AcDbEntity
  8
実線（中）
100
AcDbLine
 10
371.7177348236954
 20
206.545415792149
 30
0.0
 11
370.9786311976865
 21
206.8515625380411
 31
0.0
  0
ARC
  5
2EB3
330
18
100
AcDbEntity
  8
実線（中）
100
AcDbCircle
 10
371.0
 20
216.0
 30
0.0
 40
0.5
100
AcDbArc
 50
90.0
 51
180.0
  0
ARC
  5
2EB4
330
18
100
AcDbEntity
  8
実線（中）
100
AcDbCircle
 10
371.0
 20
218.0
 30
0.0
 40
0.5
100
AcDbArc
 50
180.0
 51
270.0
  0
CIRCLE
  5
2EB5
330
18
100
AcDbEntity
  8
実線（中）
100
AcDbCircle
 10
370.0
 20
217.0
 30
0.0
 40
2.9
  0
LINE
  5
2EB6
330
18
100
AcDbEntity
  8
実線（中）
100
AcDbLine
 10
369.7
 20
219.0
 30
0.0
 11
370.3
 21
219.0
 31
0.0
  0
ARC
  5
2EB7
330
18
100
AcDbEntity
  8
実線（中）
100
AcDbCircle
 10
368.2
 20
216.7
 30
0.0
 40
0.2
100
AcDbArc
 50
180.0
 51
270.0
  0
LINE
  5
2EB8
330
18
100
AcDbEntity
  8
実線（中）
100
AcDbLine
 10
369.5
 20
215.2
 30
0.0
 11
369.5
 21
216.0
 31
0.0
  0
LINE
  5
2EB9
330
18
100
AcDbEntity
  8
実線（中）
100
AcDbLine
 10
370.5
 20
215.2
 30
0.0
 11
370.5
 21
216.0
 31
0.0
  0
LINE
  5
2EBA
330
18
100
AcDbEntity
  8
実線（中）
100
AcDbLine
 10
369.7
 20
215.0
 30
0.0
 11
370.3
 21
215.0
 31
0.0
  0
ARC
  5
2EBB
330
18
100
AcDbEntity
  8
実線（中）
100
AcDbCircle
 10
369.7
 20
215.2
 30
0.0
 40
0.2
100
AcDbArc
 50
180.0
 51
270.0
  0
ARC
  5
2EBC
330
18
100
AcDbEntity
  8
実線（中）
100
AcDbCircle
 10
370.3
 20
215.2
 30
0.0
 40
0.2
100
AcDbArc
 50
270.0
 51
0.0
  0
ARC
  5
2EBD
330
18
100
AcDbEntity
  8
実線（中）
100
AcDbCircle
 10
369.0
 20
216.0
 30
0.0
 40
0.5
100
AcDbArc
 50
0.0
 51
90.0
  0
LINE
  5
2EBE
330
18
100
AcDbEntity
  8
実線（中）
100
AcDbLine
 10
368.2
 20
216.5
 30
0.0
 11
369.0
 21
216.5
 31
0.0
  0
LINE
  5
2EBF
330
18
100
AcDbEntity
  8
実線（中）
100
AcDbLine
 10
369.5
 20
218.0
 30
0.0
 11
369.5
 21
218.8
 31
0.0
  0
ARC
  5
2EC0
330
18
100
AcDbEntity
  8
実線（中）
100
AcDbCircle
 10
369.0
 20
218.0
 30
0.0
 40
0.5
100
AcDbArc
 50
270.0
 51
0.0
  0
LINE
  5
2EC1
330
18
100
AcDbEntity
  8
実線（中）
100
AcDbLine
 10
370.5
 20
218.0
 30
0.0
 11
370.5
 21
218.8
 31
0.0
  0
ARC
  5
2EC2
330
18
100
AcDbEntity
  8
実線（中）
100
AcDbCircle
 10
368.2
 20
217.3
 30
0.0
 40
0.2
100
AcDbArc
 50
90.0
 51
180.0
  0
LINE
  5
2EC3
330
18
100
AcDbEntity
  8
実線（中）
100
AcDbLine
 10
368.0
 20
216.7
 30
0.0
 11
368.0
 21
217.3
 31
0.0
  0
LINE
  5
2EC4
330
18
100
AcDbEntity
  8
実線（中）
100
AcDbLine
 10
368.2
 20
217.5
 30
0.0
 11
369.0
 21
217.5
 31
0.0
  0
ARC
  5
2EC5
330
18
100
AcDbEntity
  8
実線（中）
100
AcDbCircle
 10
369.7
 20
218.8
 30
0.0
 40
0.2
100
AcDbArc
 50
90.0
 51
180.0
  0
ARC
  5
2EC6
330
18
100
AcDbEntity
  8
実線（中）
100
AcDbCircle
 10
370.3
 20
218.8
 30
0.0
 40
0.2
100
AcDbArc
 50
0.0
 51
90.0
  0
ARC
  5
2EC7
330
18
100
AcDbEntity
  8
実線（中）
100
AcDbCircle
 10
371.8
 20
216.7
 30
0.0
 40
0.2
100
AcDbArc
 50
270.0
 51
0.0
  0
ARC
  5
2EC8
330
18
100
AcDbEntity
  8
実線（中）
100
AcDbCircle
 10
371.8
 20
217.3
 30
0.0
 40
0.2
100
AcDbArc
 50
0.0
 51
90.0
  0
LINE
  5
2EC9
330
18
100
AcDbEntity
  8
実線（中）
100
AcDbLine
 10
372.0
 20
216.7
 30
0.0
 11
372.0
 21
217.3
 31
0.0
  0
LINE
  5
2ECA
330
18
100
AcDbEntity
  8
実線（中）
100
AcDbLine
 10
371.0
 20
216.5
 30
0.0
 11
371.8
 21
216.5
 31
0.0
  0
LINE
  5
2ECB
330
18
100
AcDbEntity
  8
実線（中）
100
AcDbLine
 10
371.0
 20
217.5
 30
0.0
 11
371.8
 21
217.5
 31
0.0
  0
CIRCLE
  5
2ECC
330
18
100
AcDbEntity
  8
実線（中）
100
AcDbCircle
 10
350.0
 20
215.0
 30
0.0
 40
28.0
  0
CIRCLE
  5
2ECD
330
18
100
AcDbEntity
  8
実線（中）
100
AcDbCircle
 10
350.0
 20
215.0
 30
0.0
 40
27.2
  0
CIRCLE
  5
2ECE
330
18
100
AcDbEntity
  8
実線（中）
100
AcDbCircle
 10
350.0
 20
215.0
 30
0.0
 40
24.9
  0
MTEXT
  5
2ECF
330
18
100
AcDbEntity
  8
実線（中）
100
AcDbMText
 10
347.1307919026553
 20
203.3480626119889
 30
0.0
 40
3.5
 41
0.0
 46
0.0
 71
     5
 72
     5
  1
⑤
  7
寸法文字
 73
     1
 44
1.0
  0
LINE
  5
2ED0
330
18
100
AcDbEntity
  8
実線（中）
100
AcDbLine
 10
337.1076412678813
 20
200.3669180852984
 30
0.0
 11
337.5638848472414
 21
199.9772492563003
 31
0.0
  0
LINE
  5
2ED1
330
18
100
AcDbEntity
  8
実線（中）
100
AcDbLine
 10
336.3061120264311
 20
199.7364017293644
 30
0.0
 11
336.8256704650953
 21
200.3447265018445
 31
0.0
  0
ARC
  5
2ED2
330
18
100
AcDbEntity
  8
実線（中）
100
AcDbCircle
 10
335.9259090436312
 20
200.0611257535296
 30
0.0
 40
0.5
100
AcDbArc
 50
229.5000000000001
 51
319.5
  0
ARC
  5
2ED3
330
18
100
AcDbEntity
  8
実線（中）
100
AcDbCircle
 10
334.86297063732
 20
200.0484000162737
 30
0.0
 40
0.2
100
AcDbArc
 50
49.49999999999998
 51
139.5
  0
LINE
  5
2ED4
330
18
100
AcDbEntity
  8
実線（中）
100
AcDbLine
 10
334.992860246986
 20
200.2004812093936
 30
0.0
 11
335.6011850194661
 21
199.6809227707295
 31
0.0
  0
ARC
  5
2ED5
330
18
100
AcDbEntity
  8
実線（中）
100
AcDbCircle
 10
336.9777516582153
 20
200.2148368921785
 30
0.0
 40
0.2
100
AcDbArc
 50
49.49999999999998
 51
139.5
  0
ARC
  5
2ED6
330
18
100
AcDbEntity
  8
実線（中）
100
AcDbCircle
 10
337.4339952375753
 20
199.8251680631804
 30
0.0
 40
0.2
100
AcDbArc
 50
319.5
 51
49.49999999999998
  0
LINE
  5
2ED7
330
18
100
AcDbEntity
  8
実線（中）
100
AcDbLine
 10
334.3212206152019
 20
199.7220460465797
 30
0.0
 11
334.7108894442
 21
200.1782896259399
 31
0.0
  0
ARC
  5
2ED8
330
18
100
AcDbEntity
  8
実線（中）
100
AcDbCircle
 10
334.4733018083219
 20
199.5921564369137
 30
0.0
 40
0.2
100
AcDbArc
 50
139.5
 51
229.5000000000001
  0
ARC
  5
2ED9
330
18
100
AcDbEntity
  8
実線（中）
100
AcDbCircle
 10
331.0604695835186
 20
207.1549896365158
 30
0.0
 40
4.099999999999999
100
AcDbArc
 50
292.5
 51
115.1681924016086
  0
CIRCLE
  5
2EDA
330
18
100
AcDbEntity
  8
実線（中）
100
AcDbCircle
 10
330.1365900510074
 20
206.7723062041507
 30
0.0
 40
2.9
  0
LINE
  5
2EDB
330
18
100
AcDbEntity
  8
実線（中）
100
AcDbLine
 10
332.6294716562155
 20
203.3670835532194
 30
0.0
 11
328.8784003793556
 21
201.8133389569159
 31
0.0
  0
ARC
  5
2EDC
330
18
100
AcDbEntity
  8
実線（中）
100
AcDbCircle
 10
331.102584089018
 20
205.22412807534
 30
0.0
 40
0.2
100
AcDbArc
 50
292.5
 51
22.49999999999999
  0
ARC
  5
2EDD
330
18
100
AcDbEntity
  8
実線（中）
100
AcDbCircle
 10
330.5482563695111
 20
204.9945180159209
 30
0.0
 40
0.2
100
AcDbArc
 50
202.5000000000001
 51
292.5
  0
LINE
  5
2EDE
330
18
100
AcDbEntity
  8
実線（中）
100
AcDbLine
 10
330.6247930559842
 20
204.8097421094186
 30
0.0
 11
331.179120775491
 21
205.0393521688377
 31
0.0
  0
LINE
  5
2EDF
330
18
100
AcDbEntity
  8
実線（中）
100
AcDbLine
 10
330.0573337171168
 20
205.6570849554569
 30
0.0
 11
330.3634804630088
 21
204.9179813294478
 31
0.0
  0
MTEXT
  5
2EE0
330
18
100
AcDbEntity
  8
実線（中）
100
AcDbMText
 10
342.1536479882948
 20
205.9206409858179
 30
0.0
 40
3.5
 41
0.0
 46
0.0
 71
     5
 72
     5
  1
④
  7
寸法文字
 73
     1
 44
1.0
  0
MTEXT
  5
2EE1
330
18
100
AcDbEntity
  8
実線（中）
100
AcDbMText
 10
352.733385743729
 20
203.3154545498775
 30
0.0
 40
3.5
 41
0.0
 46
0.0
 71
     5
 72
     5
  1
⑥
  7
寸法文字
 73
     1
 44
1.0
  0
LINE
  5
2EE2
330
18
100
AcDbEntity
  8
実線（中）
100
AcDbLine
 10
362.4361151527586
 20
199.9772492563002
 30
0.0
 11
362.8923587321186
 21
200.3669180852984
 31
0.0
  0
ARC
  5
2EE3
330
18
100
AcDbEntity
  8
実線（中）
100
AcDbCircle
 10
362.5660047624245
 20
199.8251680631803
 30
0.0
 40
0.2
100
AcDbArc
 50
130.4999999999999
 51
220.5
  0
LINE
  5
2EE4
330
18
100
AcDbEntity
  8
実線（中）
100
AcDbLine
 10
363.6938879735688
 20
199.7364017293644
 30
0.0
 11
363.1743295349045
 21
200.3447265018444
 31
0.0
  0
ARC
  5
2EE5
330
18
100
AcDbEntity
  8
実線（中）
100
AcDbCircle
 10
365.1370293626797
 20
200.0484000162737
 30
0.0
 40
0.2
100
AcDbArc
 50
40.49999999999999
 51
130.4999999999999
  0
ARC
  5
2EE6
330
18
100
AcDbEntity
  8
実線（中）
100
AcDbCircle
 10
365.526698191678
 20
199.5921564369137
 30
0.0
 40
0.2
100
AcDbArc
 50
310.5
 51
40.49999999999999
  0
LINE
  5
2EE7
330
18
100
AcDbEntity
  8
実線（中）
100
AcDbLine
 10
365.678779384798
 20
199.7220460465797
 30
0.0
 11
365.2891105557999
 21
200.1782896259398
 31
0.0
  0
LINE
  5
2EE8
330
18
100
AcDbEntity
  8
実線（中）
100
AcDbLine
 10
364.3988149805338
 20
199.6809227707294
 30
0.0
 11
365.0071397530139
 21
200.2004812093937
 31
0.0
  0
ARC
  5
2EE9
330
18
100
AcDbEntity
  8
実線（中）
100
AcDbCircle
 10
364.0740909563687
 20
200.0611257535295
 30
0.0
 40
0.5
100
AcDbArc
 50
220.5
 51
310.5
  0
ARC
  5
2EEA
330
18
100
AcDbEntity
  8
実線（中）
100
AcDbCircle
 10
363.0222483417845
 20
200.2148368921784
 30
0.0
 40
0.2
100
AcDbArc
 50
40.49999999999999
 51
130.4999999999999
  0
ARC
  5
2EEB
330
18
100
AcDbEntity
  8
実線（中）
100
AcDbCircle
 10
368.9395304164814
 20
207.1549896365155
 30
0.0
 40
4.099999999999999
100
AcDbArc
 50
67.5
 51
250.1681924016087
  0
MTEXT
  5
2EEC
330
18
100
AcDbEntity
  8
実線（中）
100
AcDbMText
 10
357.7401371589165
 20
205.8299249315417
 30
0.0
 40
3.5
 41
0.0
 46
0.0
 71
     5
 72
     5
  1
⑦
  7
寸法文字
 73
     1
 44
1.0
  0
LINE
  5
2EED
330
18
100
AcDbEntity
  8
実線（中）
100
AcDbLine
 10
367.3705283437845
 20
203.3670835532192
 30
0.0
 11
371.1215996206444
 21
201.8133389569157
 31
0.0
  0
CIRCLE
  5
2EEE
330
18
100
AcDbEntity
  8
実線（中）
100
AcDbCircle
 10
369.8634099489926
 20
206.7723062041505
 30
0.0
 40
2.9
  0
LINE
  5
2EEF
330
18
100
AcDbEntity
  8
実線（中）
100
AcDbLine
 10
369.3752069440158
 20
204.8097421094184
 30
0.0
 11
368.820879224509
 21
205.0393521688374
 31
0.0
  0
ARC
  5
2EF0
330
18
100
AcDbEntity
  8
実線（中）
100
AcDbCircle
 10
369.4517436304888
 20
204.9945180159207
 30
0.0
 40
0.2
100
AcDbArc
 50
247.5
 51
337.5
  0
ARC
  5
2EF1
330
18
100
AcDbEntity
  8
実線（中）
100
AcDbCircle
 10
368.8974159109821
 20
205.2241280753396
 30
0.0
 40
0.2
100
AcDbArc
 50
157.5
 51
247.5
  0
LINE
  5
2EF2
330
18
100
AcDbEntity
  8
実線（中）
100
AcDbLine
 10
369.6365195369911
 20
204.9179813294476
 30
0.0
 11
369.9426662828832
 21
205.6570849554566
 31
0.0
  0
CIRCLE
  5
2EF3
330
18
100
AcDbEntity
  8
実線（中）
100
AcDbCircle
 10
350.0
 20
215.0
 30
0.0
 40
15.25
  0
CIRCLE
  5
2EF4
330
18
100
AcDbEntity
  8
実線（中）
100
AcDbCircle
 10
363.9631330390989
 20
198.6512717395993
 30
0.0
 40
2.9
  0
ARC
  5
2EF5
330
18
100
AcDbEntity
  8
実線（中）
100
AcDbCircle
 10
363.3136849907687
 20
199.4116777051992
 30
0.0
 40
4.099999999999999
100
AcDbArc
 50
40.49999999999999
 51
223.1681924016087
  0
LINE
  5
2EF6
330
18
100
AcDbEntity
  8
実線（中）
100
AcDbLine
 10
366.4313494497289
 20
202.0744147033531
 30
0.0
 11
369.0681931443631
 21
198.987067407584
 31
0.0
  0
ARC
  5
2EF7
330
18
100
AcDbEntity
  8
実線（中）
100
AcDbCircle
 10
354.785629959046
 20
195.0664166318476
 30
0.0
 40
4.099999999999999
100
AcDbArc
 50
13.5
 51
196.1681924016087
  0
LINE
  5
2EF8
330
18
100
AcDbEntity
  8
実線（中）
100
AcDbLine
 10
362.9334820079687
 20
199.0869536810342
 30
0.0
 11
362.4139235693045
 21
199.6952784535142
 31
0.0
  0
LINE
  5
2EF9
330
18
100
AcDbEntity
  8
実線（中）
100
AcDbLine
 10
362.6371555223979
 20
197.1242538532589
 30
0.0
 11
362.2474866933998
 21
197.5804974326189
 31
0.0
  0
LINE
  5
2EFA
330
18
100
AcDbEntity
  8
実線（中）
100
AcDbLine
 10
362.2696782768538
 20
197.8624682354049
 30
0.0
 11
362.8780030493337
 21
198.3820266740691
 31
0.0
  0
ARC
  5
2EFB
330
18
100
AcDbEntity
  8
実線（中）
100
AcDbCircle
 10
362.3995678865198
 20
197.7103870422849
 30
0.0
 40
0.2
100
AcDbArc
 50
130.4999999999999
 51
220.5
  0
LINE
  5
2EFC
330
18
100
AcDbEntity
  8
実線（中）
100
AcDbLine
 10
364.7519365432933
 20
196.9578169773542
 30
0.0
 11
364.2323781046291
 21
197.5661417498341
 31
0.0
  0
ARC
  5
2EFD
330
18
100
AcDbEntity
  8
実線（中）
100
AcDbCircle
 10
363.852175121829
 20
197.241417725669
 30
0.0
 40
0.5
100
AcDbArc
 50
40.49999999999999
 51
130.4999999999999
  0
LINE
  5
2EFE
330
18
100
AcDbEntity
  8
実線（中）
100
AcDbLine
 10
365.0482630288641
 20
198.9205168051294
 30
0.0
 11
365.656587801344
 21
199.4400752437935
 31
0.0
  0
LINE
  5
2EFF
330
18
100
AcDbEntity
  8
実線（中）
100
AcDbLine
 10
365.5123425088933
 20
197.6072650256844
 30
0.0
 11
364.9927840702292
 21
198.2155897981643
 31
0.0
  0
LINE
  5
2F00
330
18
100
AcDbEntity
  8
実線（中）
100
AcDbLine
 10
365.0339073460792
 20
196.9356253939001
 30
0.0
 11
365.4901509254394
 21
197.3252942228982
 31
0.0
  0
ARC
  5
2F01
330
18
100
AcDbEntity
  8
実線（中）
100
AcDbCircle
 10
365.3602613157732
 20
197.4773754160183
 30
0.0
 40
0.2
100
AcDbArc
 50
310.5
 51
40.49999999999999
  0
ARC
  5
2F02
330
18
100
AcDbEntity
  8
実線（中）
100
AcDbCircle
 10
365.3729870530292
 20
198.5403138223294
 30
0.0
 40
0.5
100
AcDbArc
 50
130.4999999999999
 51
220.5
  0
ARC
  5
2F03
330
18
100
AcDbEntity
  8
実線（中）
100
AcDbCircle
 10
362.5532790251687
 20
198.7622296568692
 30
0.0
 40
0.5
100
AcDbArc
 50
310.5
 51
40.49999999999999
  0
LINE
  5
2F04
330
18
100
AcDbEntity
  8
実線（中）
100
AcDbLine
 10
362.9191263251839
 20
197.1020622698049
 30
0.0
 11
363.527451097664
 21
197.621620708469
 31
0.0
  0
CIRCLE
  5
2F05
330
18
100
AcDbEntity
  8
実線（中）
100
AcDbCircle
 10
355.0190753229019
 20
194.0940467114499
 30
0.0
 40
2.9
  0
LINE
  5
2F06
330
18
100
AcDbEntity
  8
実線（中）
100
AcDbLine
 10
354.2604736190708
 20
195.9687529430885
 30
0.0
 11
354.8438955713095
 21
196.108820161402
 31
0.0
  0
ARC
  5
2F07
330
18
100
AcDbEntity
  8
実線（中）
100
AcDbCircle
 10
354.8905846440805
 20
195.9143461773226
 30
0.0
 40
0.2
100
AcDbArc
 50
13.5
 51
103.5
  0
ARC
  5
2F08
330
18
100
AcDbEntity
  8
実線（中）
100
AcDbCircle
 10
356.2248906071555
 20
193.3551221549081
 30
0.0
 40
0.5
100
AcDbArc
 50
103.5
 51
193.5
  0
LINE
  5
2F09
330
18
100
AcDbEntity
  8
実線（中）
100
AcDbLine
 10
355.1942550744944
 20
192.0792732614978
 30
0.0
 11
355.7776770267331
 21
192.2193404798113
 31
0.0
  0
ARC
  5
2F0A
330
18
100
AcDbEntity
  8
実線（中）
100
AcDbCircle
 10
355.1475660017232
 20
192.2737472455774
 30
0.0
 40
0.2
100
AcDbArc
 50
193.5
 51
283.5
  0
ARC
  5
2F0B
330
18
100
AcDbEntity
  8
実線（中）
100
AcDbCircle
 10
355.7309879539618
 20
192.4138144638909
 30
0.0
 40
0.2
100
AcDbArc
 50
283.5
 51
13.5
  0
LINE
  5
2F0C
330
18
100
AcDbEntity
  8
実線（中）
100
AcDbLine
 10
355.9254619380414
 20
192.4605035366621
 30
0.0
 11
355.7387056469567
 21
193.2383994729802
 31
0.0
  0
ARC
  5
2F0D
330
18
100
AcDbEntity
  8
実線（中）
100
AcDbCircle
 10
356.6993075704609
 20
194.8059593425099
 30
0.0
 40
0.2
100
AcDbArc
 50
13.5
 51
103.5
  0
ARC
  5
2F0E
330
18
100
AcDbEntity
  8
実線（中）
100
AcDbCircle
 10
356.8393747887745
 20
194.2225373902713
 30
0.0
 40
0.2
100
AcDbArc
 50
283.5
 51
13.5
  0
LINE
  5
2F0F
330
18
100
AcDbEntity
  8
実線（中）
100
AcDbLine
 10
357.033848772854
 20
194.2692264630424
 30
0.0
 11
356.8937815545405
 21
194.8526484152812
 31
0.0
  0
ARC
  5
2F10
330
18
100
AcDbEntity
  8
実線（中）
100
AcDbCircle
 10
355.7579998794436
 20
195.2998619957035
 30
0.0
 40
0.5
100
AcDbArc
 50
193.5
 51
283.5
  0
LINE
  5
2F11
330
18
100
AcDbEntity
  8
実線（中）
100
AcDbLine
 10
356.1081679252275
 20
193.8413071151069
 30
0.0
 11
356.8860638615456
 21
194.0280634061917
 31
0.0
  0
LINE
  5
2F12
330
18
100
AcDbEntity
  8
実線（中）
100
AcDbLine
 10
355.8747225613716
 20
194.8136770355046
 30
0.0
 11
356.6526184976898
 21
195.0004333265894
 31
0.0
  0
LINE
  5
2F13
330
18
100
AcDbEntity
  8
実線（中）
100
AcDbLine
 10
355.2718149192448
 20
195.1831393137756
 30
0.0
 11
355.08505862816
 21
195.9610352500937
 31
0.0
  0
LINE
  5
2F14
330
18
100
AcDbEntity
  8
実線（中）
100
AcDbLine
 10
354.9530920176438
 20
192.2270581728062
 30
0.0
 11
354.766335726559
 21
193.0049541091242
 31
0.0
  0
LINE
  5
2F15
330
18
100
AcDbEntity
  8
実線（中）
100
AcDbLine
 10
360.1960205318085
 20
196.7489407070455
 30
0.0
 11
362.8328642264429
 21
193.6615934112764
 31
0.0
  0
LINE
  5
2F16
330
18
100
AcDbEntity
  8
実線（中）
100
AcDbLine
 10
358.7723466326765
 20
196.0235426236568
 30
0.0
 11
359.7201652261849
 21
192.0755940540291
 31
0.0
  0
ARC
  5
2F17
330
18
100
AcDbEntity
  8
実線（中）
100
AcDbCircle
 10
362.7892367155179
 20
197.2541434629249
 30
0.0
 40
0.2
100
AcDbArc
 50
220.5
 51
310.5
  0
CIRCLE
  5
2F18
330
18
100
AcDbEntity
  8
実線（中）
100
AcDbCircle
 10
344.980924677098
 20
194.0940467114499
 30
0.0
 40
2.9
  0
ARC
  5
2F19
330
18
100
AcDbEntity
  8
実線（中）
100
AcDbCircle
 10
345.2143700409539
 20
195.0664166318477
 30
0.0
 40
4.099999999999999
100
AcDbArc
 50
346.5
 51
169.1681924016086
  0
LINE
  5
2F1A
330
18
100
AcDbEntity
  8
実線（中）
100
AcDbLine
 10
339.8039794681912
 20
196.7489407070456
 30
0.0
 11
337.1671357735571
 21
193.6615934112764
 31
0.0
  0
LINE
  5
2F1B
330
18
100
AcDbEntity
  8
実線（中）
100
AcDbLine
 10
337.0665179920312
 20
199.0869536810343
 30
0.0
 11
337.5860764306953
 21
199.6952784535144
 31
0.0
  0
ARC
  5
2F1C
330
18
100
AcDbEntity
  8
実線（中）
100
AcDbCircle
 10
337.6004321134802
 20
197.7103870422851
 30
0.0
 40
0.2
100
AcDbArc
 50
319.5
 51
49.49999999999998
  0
ARC
  5
2F1D
330
18
100
AcDbEntity
  8
実線（中）
100
AcDbCircle
 10
337.2107632844821
 20
197.2541434629251
 30
0.0
 40
0.2
100
AcDbArc
 50
229.5000000000001
 51
319.5
  0
LINE
  5
2F1E
330
18
100
AcDbEntity
  8
実線（中）
100
AcDbLine
 10
337.362844477602
 20
197.124253853259
 30
0.0
 11
337.7525133066002
 21
197.580497432619
 31
0.0
  0
LINE
  5
2F1F
330
18
100
AcDbEntity
  8
実線（中）
100
AcDbLine
 10
337.1219969506661
 20
198.3820266740691
 30
0.0
 11
337.7303217231462
 21
197.862468235405
 31
0.0
  0
ARC
  5
2F20
330
18
100
AcDbEntity
  8
実線（中）
100
AcDbCircle
 10
337.4467209748313
 20
198.7622296568693
 30
0.0
 40
0.5
100
AcDbArc
 50
139.5
 51
229.5000000000001
  0
LINE
  5
2F21
330
18
100
AcDbEntity
  8
実線（中）
100
AcDbLine
 10
341.2276533673233
 20
196.0235426236568
 30
0.0
 11
340.2798347738151
 21
192.0755940540291
 31
0.0
  0
LINE
  5
2F22
330
18
100
AcDbEntity
  8
実線（中）
100
AcDbLine
 10
349.2010867145844
 20
194.1092906400383
 30
0.0
 11
348.2532681210761
 21
190.1613420704107
 31
0.0
  0
LINE
  5
2F23
330
18
100
AcDbEntity
  8
実線（中）
100
AcDbLine
 10
345.8365719155677
 20
193.3744163873952
 30
0.0
 11
346.6144678518858
 21
193.1876600963104
 31
0.0
  0
LINE
  5
2F24
330
18
100
AcDbEntity
  8
実線（中）
100
AcDbLine
 10
346.0700172794235
 20
194.3467863077928
 30
0.0
 11
346.8479132157419
 21
194.1600300167081
 31
0.0
  0
LINE
  5
2F25
330
18
100
AcDbEntity
  8
実線（中）
100
AcDbLine
 10
345.1561044286905
 20
196.108820161402
 30
0.0
 11
345.7395263809292
 21
195.9687529430885
 31
0.0
  0
ARC
  5
2F26
330
18
100
AcDbEntity
  8
実線（中）
100
AcDbCircle
 10
345.1094153559193
 20
195.9143461773226
 30
0.0
 40
0.2
100
AcDbArc
 50
76.49999999999998
 51
166.5
  0
ARC
  5
2F27
330
18
100
AcDbEntity
  8
実線（中）
100
AcDbCircle
 10
345.6928373081579
 20
195.774278959009
 30
0.0
 40
0.2
100
AcDbArc
 50
346.5
 51
76.49999999999998
  0
LINE
  5
2F28
330
18
100
AcDbEntity
  8
実線（中）
100
AcDbLine
 10
344.0745380619586
 20
192.4605035366621
 30
0.0
 11
344.2612943530432
 21
193.2383994729802
 31
0.0
  0
ARC
  5
2F29
330
18
100
AcDbEntity
  8
実線（中）
100
AcDbCircle
 10
343.7751093928444
 20
193.3551221549082
 30
0.0
 40
0.5
100
AcDbArc
 50
346.5
 51
76.49999999999998
  0
ARC
  5
2F2A
330
18
100
AcDbEntity
  8
実線（中）
100
AcDbCircle
 10
344.2420001205562
 20
195.2998619957035
 30
0.0
 40
0.5
100
AcDbArc
 50
256.5000000000001
 51
346.5
  0
LINE
  5
2F2B
330
18
100
AcDbEntity
  8
実線（中）
100
AcDbLine
 10
342.9661512271458
 20
194.2692264630425
 30
0.0
 11
343.1062184454594
 21
194.8526484152811
 31
0.0
  0
ARC
  5
2F2C
330
18
100
AcDbEntity
  8
実線（中）
100
AcDbCircle
 10
343.1606252112254
 20
194.2225373902713
 30
0.0
 40
0.2
100
AcDbArc
 50
166.5
 51
256.5000000000001
  0
ARC
  5
2F2D
330
18
100
AcDbEntity
  8
実線（中）
100
AcDbCircle
 10
343.3006924295389
 20
194.80595934251
 30
0.0
 40
0.2
100
AcDbArc
 50
76.49999999999998
 51
166.5
  0
LINE
  5
2F2E
330
18
100
AcDbEntity
  8
実線（中）
100
AcDbLine
 10
343.1139361384542
 20
194.0280634061917
 30
0.0
 11
343.8918320747723
 21
193.841307115107
 31
0.0
  0
LINE
  5
2F2F
330
18
100
AcDbEntity
  8
実線（中）
100
AcDbLine
 10
343.3473815023101
 20
195.0004333265893
 30
0.0
 11
344.1252774386283
 21
194.8136770355046
 31
0.0
  0
LINE
  5
2F30
330
18
100
AcDbEntity
  8
実線（中）
100
AcDbLine
 10
345.0469079823562
 20
192.2270581728062
 30
0.0
 11
345.2336642734409
 21
193.0049541091242
 31
0.0
  0
LINE
  5
2F31
330
18
100
AcDbEntity
  8
実線（中）
100
AcDbLine
 10
344.2223229732669
 20
192.2193404798114
 30
0.0
 11
344.8057449255056
 21
192.0792732614977
 31
0.0
  0
ARC
  5
2F32
330
18
100
AcDbEntity
  8
実線（中）
100
AcDbCircle
 10
344.269012046038
 20
192.4138144638909
 30
0.0
 40
0.2
100
AcDbArc
 50
166.5
 51
256.5000000000001
  0
ARC
  5
2F33
330
18
100
AcDbEntity
  8
実線（中）
100
AcDbCircle
 10
344.8524339982766
 20
192.2737472455774
 30
0.0
 40
0.2
100
AcDbArc
 50
256.5000000000001
 51
346.5
  0
ARC
  5
2F34
330
18
100
AcDbEntity
  8
実線（中）
100
AcDbCircle
 10
345.7198492336397
 20
192.8882314271963
 30
0.0
 40
0.5
100
AcDbArc
 50
76.49999999999998
 51
166.5
  0
ARC
  5
2F35
330
18
100
AcDbEntity
  8
実線（中）
100
AcDbCircle
 10
346.1867399613515
 20
194.8329712679918
 30
0.0
 40
0.5
100
AcDbArc
 50
166.5
 51
256.5000000000001
  0
LINE
  5
2F36
330
18
100
AcDbEntity
  8
実線（中）
100
AcDbLine
 10
344.728185080755
 20
195.1831393137755
 30
0.0
 11
344.9149413718398
 21
195.9610352500937
 31
0.0
  0
LINE
  5
2F37
330
18
100
AcDbEntity
  8
実線（中）
100
AcDbLine
 10
345.7005550011527
 20
194.9496939499197
 30
0.0
 11
345.8873112922374
 21
195.7275898862378
 31
0.0
  0
ARC
  5
2F38
330
18
100
AcDbEntity
  8
実線（中）
100
AcDbCircle
 10
346.8012241429705
 20
193.9655560326288
 30
0.0
 40
0.2
100
AcDbArc
 50
346.5
 51
76.49999999999998
  0
LINE
  5
2F39
330
18
100
AcDbEntity
  8
実線（中）
100
AcDbLine
 10
346.8556309087365
 20
193.3354450076189
 30
0.0
 11
346.9956981270502
 21
193.9188669598575
 31
0.0
  0
ARC
  5
2F3A
330
18
100
AcDbEntity
  8
実線（中）
100
AcDbCircle
 10
346.661156924657
 20
193.3821340803901
 30
0.0
 40
0.2
100
AcDbArc
 50
256.5000000000001
 51
346.5
  0
LINE
  5
2F3B
330
18
100
AcDbEntity
  8
実線（中）
100
AcDbLine
 10
350.7989132854155
 20
194.1092906400383
 30
0.0
 11
351.7467318789239
 21
190.1613420704107
 31
0.0
  0
ARC
  5
2F3C
330
18
100
AcDbEntity
  8
実線（中）
100
AcDbCircle
 10
354.2801507663601
 20
192.8882314271964
 30
0.0
 40
0.5
100
AcDbArc
 50
13.5
 51
103.5
  0
ARC
  5
2F3D
330
18
100
AcDbEntity
  8
実線（中）
100
AcDbCircle
 10
353.8132600386483
 20
194.8329712679917
 30
0.0
 40
0.5
100
AcDbArc
 50
283.5
 51
13.5
  0
ARC
  5
2F3E
330
18
100
AcDbEntity
  8
実線（中）
100
AcDbCircle
 10
354.3071626918419
 20
195.774278959009
 30
0.0
 40
0.2
100
AcDbArc
 50
103.5
 51
193.5
  0
LINE
  5
2F3F
330
18
100
AcDbEntity
  8
実線（中）
100
AcDbLine
 10
353.1443690912633
 20
193.3354450076188
 30
0.0
 11
353.0043018729497
 21
193.9188669598575
 31
0.0
  0
LINE
  5
2F40
330
18
100
AcDbEntity
  8
実線（中）
100
AcDbLine
 10
353.385532148114
 20
193.1876600963104
 30
0.0
 11
354.1634280844322
 21
193.3744163873952
 31
0.0
  0
ARC
  5
2F41
330
18
100
AcDbEntity
  8
実線（中）
100
AcDbCircle
 10
353.3388430753428
 20
193.3821340803901
 30
0.0
 40
0.2
100
AcDbArc
 50
193.5
 51
283.5
  0
LINE
  5
2F42
330
18
100
AcDbEntity
  8
実線（中）
100
AcDbLine
 10
353.1520867842582
 20
194.1600300167081
 30
0.0
 11
353.9299827205763
 21
194.3467863077928
 31
0.0
  0
ARC
  5
2F43
330
18
100
AcDbEntity
  8
実線（中）
100
AcDbCircle
 10
353.1987758570293
 20
193.9655560326286
 30
0.0
 40
0.2
100
AcDbArc
 50
103.5
 51
193.5
  0
LINE
  5
2F44
330
18
100
AcDbEntity
  8
実線（中）
100
AcDbLine
 10
354.2994449988472
 20
194.9496939499196
 30
0.0
 11
354.1126887077624
 21
195.7275898862378
 31
0.0
  0
CIRCLE
  5
2F45
330
18
100
AcDbEntity
  8
実線（中）
100
AcDbCircle
 10
336.0368669609011
 20
198.6512717395993
 30
0.0
 40
2.9
  0
ARC
  5
2F46
330
18
100
AcDbEntity
  8
実線（中）
100
AcDbCircle
 10
336.6863150092312
 20
199.4116777051994
 30
0.0
 40
4.099999999999999
100
AcDbArc
 50
319.5
 51
142.1681924016086
  0
LINE
  5
2F47
330
18
100
AcDbEntity
  8
実線（中）
100
AcDbLine
 10
334.4876574911067
 20
197.6072650256843
 30
0.0
 11
335.0072159297708
 21
198.2155897981643
 31
0.0
  0
ARC
  5
2F48
330
18
100
AcDbEntity
  8
実線（中）
100
AcDbCircle
 10
334.6270129469707
 20
198.5403138223295
 30
0.0
 40
0.5
100
AcDbArc
 50
319.5
 51
49.49999999999998
  0
LINE
  5
2F49
330
18
100
AcDbEntity
  8
実線（中）
100
AcDbLine
 10
334.3434121986558
 20
199.4400752437936
 30
0.0
 11
334.9517369711358
 21
198.9205168051295
 31
0.0
  0
LINE
  5
2F4A
330
18
100
AcDbEntity
  8
実線（中）
100
AcDbLine
 10
336.4725489023359
 20
197.6216207084691
 30
0.0
 11
337.0808736748159
 21
197.102062269805
 31
0.0
  0
LINE
  5
2F4B
330
18
100
AcDbEntity
  8
実線（中）
100
AcDbLine
 10
335.2480634567068
 20
196.9578169773542
 30
0.0
 11
335.7676218953709
 21
197.5661417498342
 31
0.0
  0
LINE
  5
2F4C
330
18
100
AcDbEntity
  8
実線（中）
100
AcDbLine
 10
334.5098490745606
 20
197.3252942228983
 30
0.0
 11
334.9660926539206
 21
196.9356253939002
 31
0.0
  0
ARC
  5
2F4D
330
18
100
AcDbEntity
  8
実線（中）
100
AcDbCircle
 10
335.0959822635867
 20
197.0877065870203
 30
0.0
 40
0.2
100
AcDbArc
 50
229.5000000000001
 51
319.5
  0
ARC
  5
2F4E
330
18
100
AcDbEntity
  8
実線（中）
100
AcDbCircle
 10
336.1478248781708
 20
197.2414177256691
 30
0.0
 40
0.5
100
AcDbArc
 50
49.49999999999998
 51
139.5
  0
LINE
  5
2F4F
330
18
100
AcDbEntity
  8
実線（中）
100
AcDbLine
 10
333.568650550271
 20
202.0744147033532
 30
0.0
 11
330.9318068556367
 21
198.987067407584
 31
0.0
  0
ARC
  5
2F50
330
18
100
AcDbEntity
  8
実線（中）
100
AcDbCircle
 10
364.9040177364132
 20
197.0877065870202
 30
0.0
 40
0.2
100
AcDbArc
 50
220.5
 51
310.5
  0
LINE
  5
2F51
330
18
100
AcDbEntity
  8
一点鎖線
100
AcDbLine
 10
315.0
 20
215.0
 30
0.0
 11
385.0
 21
215.0
 31
0.0
  0
LINE
  5
2F52
330
18
100
AcDbEntity
  8
一点鎖線
100
AcDbLine
 10
350.0
 20
180.0
 30
0.0
 11
350.0
 21
250.0
 31
0.0
  0
ARC
  5
2F53
330
18
100
AcDbEntity
  8
実線（中）
100
AcDbCircle
 10
363.3136849907687
 20
230.5883222948007
 30
0.0
 40
4.099999999999999
100
AcDbArc
 50
136.8318075983913
 51
319.5
  0
MTEXT
  5
2F54
330
18
100
AcDbEntity
  8
実線（中）
100
AcDbMText
 10
357.7401371589165
 20
224.1700750684582
 30
0.0
 40
3.5
 41
0.0
 46
0.0
 71
     5
 72
     5
  1
②
  7
寸法文字
 73
     1
 44
1.0
  0
ARC
  5
2F55
330
18
100
AcDbEntity
  8
実線（中）
100
AcDbCircle
 10
354.785629959046
 20
234.9335833681524
 30
0.0
 40
4.099999999999999
100
AcDbArc
 50
163.8318075983913
 51
346.5
  0
MTEXT
  5
2F56
330
18
100
AcDbEntity
  8
実線（中）
100
AcDbMText
 10
352.733385743729
 20
226.6845454501225
 30
0.0
 40
3.5
 41
0.0
 46
0.0
 71
     5
 72
     5
  1
①
  7
寸法文字
 73
     1
 44
1.0
  0
ARC
  5
2F57
330
18
100
AcDbEntity
  8
実線（中）
100
AcDbCircle
 10
353.8132600386483
 20
235.1670287320082
 30
0.0
 40
0.5
100
AcDbArc
 50
346.5
 51
76.49999999999995
  0
LINE
  5
2F58
330
18
100
AcDbEntity
  8
実線（中）
100
AcDbLine
 10
354.2604736190708
 20
234.0312470569115
 30
0.0
 11
354.8438955713095
 21
233.8911798385979
 31
0.0
  0
CIRCLE
  5
2F59
330
18
100
AcDbEntity
  8
実線（中）
100
AcDbCircle
 10
355.0190753229019
 20
235.90595328855
 30
0.0
 40
2.9
  0
LINE
  5
2F5A
330
18
100
AcDbEntity
  8
実線（中）
100
AcDbLine
 10
354.2994449988472
 20
235.0503060500804
 30
0.0
 11
354.1126887077624
 21
234.2724101137622
 31
0.0
  0
ARC
  5
2F5B
330
18
100
AcDbEntity
  8
実線（中）
100
AcDbCircle
 10
353.1987758570293
 20
236.0344439673714
 30
0.0
 40
0.2
100
AcDbArc
 50
166.5
 51
256.5
  0
LINE
  5
2F5C
330
18
100
AcDbEntity
  8
実線（中）
100
AcDbLine
 10
353.1520867842582
 20
235.8399699832919
 30
0.0
 11
353.9299827205763
 21
235.6532136922071
 31
0.0
  0
ARC
  5
2F5D
330
18
100
AcDbEntity
  8
実線（中）
100
AcDbCircle
 10
354.3071626918419
 20
234.2257210409909
 30
0.0
 40
0.2
100
AcDbArc
 50
166.5
 51
256.5
  0
LINE
  5
2F5E
330
18
100
AcDbEntity
  8
実線（中）
100
AcDbLine
 10
353.1443690912633
 20
236.6645549923812
 30
0.0
 11
353.0043018729497
 21
236.0811330401425
 31
0.0
  0
LINE
  5
2F5F
330
18
100
AcDbEntity
  8
実線（中）
100
AcDbLine
 10
355.2718149192448
 20
234.8168606862244
 30
0.0
 11
355.08505862816
 21
234.0389647499062
 31
0.0
  0
ARC
  5
2F60
330
18
100
AcDbEntity
  8
実線（中）
100
AcDbCircle
 10
356.6993075704609
 20
235.1940406574901
 30
0.0
 40
0.2
100
AcDbArc
 50
256.5
 51
346.5
  0
ARC
  5
2F61
330
18
100
AcDbEntity
  8
実線（中）
100
AcDbCircle
 10
356.8393747887745
 20
235.7774626097287
 30
0.0
 40
0.2
100
AcDbArc
 50
346.5
 51
76.49999999999995
  0
LINE
  5
2F62
330
18
100
AcDbEntity
  8
実線（中）
100
AcDbLine
 10
357.033848772854
 20
235.7307735369575
 30
0.0
 11
356.8937815545405
 21
235.1473515847188
 31
0.0
  0
LINE
  5
2F63
330
18
100
AcDbEntity
  8
実線（中）
100
AcDbLine
 10
356.1081679252275
 20
236.158692884893
 30
0.0
 11
356.8860638615456
 21
235.9719365938083
 31
0.0
  0
LINE
  5
2F64
330
18
100
AcDbEntity
  8
実線（中）
100
AcDbLine
 10
355.8747225613716
 20
235.1863229644954
 30
0.0
 11
356.6526184976898
 21
234.9995666734106
 31
0.0
  0
ARC
  5
2F65
330
18
100
AcDbEntity
  8
実線（中）
100
AcDbCircle
 10
355.7579998794436
 20
234.7001380042965
 30
0.0
 40
0.5
100
AcDbArc
 50
76.49999999999995
 51
166.5
  0
ARC
  5
2F66
330
18
100
AcDbEntity
  8
実線（中）
100
AcDbCircle
 10
354.8905846440805
 20
234.0856538226774
 30
0.0
 40
0.2
100
AcDbArc
 50
256.5
 51
346.5
  0
ARC
  5
2F67
330
18
100
AcDbEntity
  8
実線（中）
100
AcDbCircle
 10
356.2248906071555
 20
236.6448778450918
 30
0.0
 40
0.5
100
AcDbArc
 50
166.5
 51
256.5
  0
LINE
  5
2F68
330
18
100
AcDbEntity
  8
実線（中）
100
AcDbLine
 10
360.1960205318085
 20
233.2510592929545
 30
0.0
 11
362.8328642264429
 21
236.3384065887236
 31
0.0
  0
LINE
  5
2F69
330
18
100
AcDbEntity
  8
実線（中）
100
AcDbLine
 10
358.7723466326765
 20
233.9764573763432
 30
0.0
 11
359.7201652261849
 21
237.9244059459709
 31
0.0
  0
LINE
  5
2F6A
330
18
100
AcDbEntity
  8
実線（中）
100
AcDbLine
 10
366.4313494497289
 20
227.9255852966469
 30
0.0
 11
369.0681931443631
 21
231.012932592416
 31
0.0
  0
CIRCLE
  5
2F6B
330
18
100
AcDbEntity
  8
実線（中）
100
AcDbCircle
 10
363.9631330390989
 20
231.3487282604007
 30
0.0
 40
2.9
  0
LINE
  5
2F6C
330
18
100
AcDbEntity
  8
実線（中）
100
AcDbLine
 10
365.0482630288641
 20
231.0794831948705
 30
0.0
 11
365.656587801344
 21
230.5599247562065
 31
0.0
  0
ARC
  5
2F6D
330
18
100
AcDbEntity
  8
実線（中）
100
AcDbCircle
 10
362.5532790251687
 20
231.2377703431308
 30
0.0
 40
0.5
100
AcDbArc
 50
319.5
 51
49.49999999999994
  0
LINE
  5
2F6E
330
18
100
AcDbEntity
  8
実線（中）
100
AcDbLine
 10
362.4361151527586
 20
230.0227507436998
 30
0.0
 11
362.8923587321186
 21
229.6330819147016
 31
0.0
  0
LINE
  5
2F6F
330
18
100
AcDbEntity
  8
実線（中）
100
AcDbLine
 10
362.9334820079687
 20
230.9130463189658
 30
0.0
 11
362.4139235693045
 21
230.3047215464858
 31
0.0
  0
ARC
  5
2F70
330
18
100
AcDbEntity
  8
実線（中）
100
AcDbCircle
 10
362.5660047624245
 20
230.1748319368197
 30
0.0
 40
0.2
100
AcDbArc
 50
139.5
 51
229.5
  0
ARC
  5
2F71
330
18
100
AcDbEntity
  8
実線（中）
100
AcDbCircle
 10
364.0740909563687
 20
229.9388742464705
 30
0.0
 40
0.5
100
AcDbArc
 50
49.49999999999994
 51
139.5
  0
LINE
  5
2F72
330
18
100
AcDbEntity
  8
実線（中）
100
AcDbLine
 10
364.3988149805338
 20
230.3190772292706
 30
0.0
 11
365.0071397530139
 21
229.7995187906063
 31
0.0
  0
LINE
  5
2F73
330
18
100
AcDbEntity
  8
実線（中）
100
AcDbLine
 10
365.678779384798
 20
230.2779539534203
 30
0.0
 11
365.2891105557999
 21
229.8217103740602
 31
0.0
  0
ARC
  5
2F74
330
18
100
AcDbEntity
  8
実線（中）
100
AcDbCircle
 10
365.1370293626797
 20
229.9515999837264
 30
0.0
 40
0.2
100
AcDbArc
 50
229.5
 51
319.5
  0
LINE
  5
2F75
330
18
100
AcDbEntity
  8
実線（中）
100
AcDbLine
 10
363.6938879735688
 20
230.2635982706355
 30
0.0
 11
363.1743295349045
 21
229.6552734981556
 31
0.0
  0
ARC
  5
2F76
330
18
100
AcDbEntity
  8
実線（中）
100
AcDbCircle
 10
365.526698191678
 20
230.4078435630863
 30
0.0
 40
0.2
100
AcDbArc
 50
319.5
 51
49.49999999999994
  0
ARC
  5
2F77
330
18
100
AcDbEntity
  8
実線（中）
100
AcDbCircle
 10
363.0222483417845
 20
229.7851631078216
 30
0.0
 40
0.2
100
AcDbArc
 50
229.5
 51
319.5
  0
LINE
  5
2F78
330
18
100
AcDbEntity
  8
実線（中）
100
AcDbLine
 10
362.2696782768538
 20
232.1375317645951
 30
0.0
 11
362.8780030493337
 21
231.6179733259309
 31
0.0
  0
LINE
  5
2F79
330
18
100
AcDbEntity
  8
実線（中）
100
AcDbLine
 10
362.6371555223979
 20
232.875746146741
 30
0.0
 11
362.2474866933998
 21
232.419502567381
 31
0.0
  0
ARC
  5
2F7A
330
18
100
AcDbEntity
  8
実線（中）
100
AcDbCircle
 10
362.3995678865198
 20
232.2896129577151
 30
0.0
 40
0.2
100
AcDbArc
 50
139.5
 51
229.5
  0
ARC
  5
2F7B
330
18
100
AcDbEntity
  8
実線（中）
100
AcDbCircle
 10
365.3729870530292
 20
231.4596861776706
 30
0.0
 40
0.5
100
AcDbArc
 50
139.5
 51
229.5
  0
ARC
  5
2F7C
330
18
100
AcDbEntity
  8
実線（中）
100
AcDbCircle
 10
365.3602613157732
 20
232.5226245839817
 30
0.0
 40
0.2
100
AcDbArc
 50
319.5
 51
49.49999999999994
  0
ARC
  5
2F7D
330
18
100
AcDbEntity
  8
実線（中）
100
AcDbCircle
 10
364.9040177364132
 20
232.9122934129798
 30
0.0
 40
0.2
100
AcDbArc
 50
49.49999999999994
 51
139.5
  0
LINE
  5
2F7E
330
18
100
AcDbEntity
  8
実線（中）
100
AcDbLine
 10
365.0339073460792
 20
233.0643746060999
 30
0.0
 11
365.4901509254394
 21
232.6747057771017
 31
0.0
  0
LINE
  5
2F7F
330
18
100
AcDbEntity
  8
実線（中）
100
AcDbLine
 10
365.5123425088933
 20
232.3927349743156
 30
0.0
 11
364.9927840702292
 21
231.7844102018357
 31
0.0
  0
ARC
  5
2F80
330
18
100
AcDbEntity
  8
実線（中）
100
AcDbCircle
 10
363.852175121829
 20
232.7585822743309
 30
0.0
 40
0.5
100
AcDbArc
 50
229.5
 51
319.5
  0
LINE
  5
2F81
330
18
100
AcDbEntity
  8
実線（中）
100
AcDbLine
 10
364.7519365432933
 20
233.0421830226458
 30
0.0
 11
364.2323781046291
 21
232.4338582501659
 31
0.0
  0
ARC
  5
2F82
330
18
100
AcDbEntity
  8
実線（中）
100
AcDbCircle
 10
362.7892367155179
 20
232.7458565370751
 30
0.0
 40
0.2
100
AcDbArc
 50
49.49999999999994
 51
139.5
  0
LINE
  5
2F83
330
18
100
AcDbEntity
  8
実線（中）
100
AcDbLine
 10
362.9191263251839
 20
232.8979377301951
 30
0.0
 11
363.527451097664
 21
232.378379291531
 31
0.0
  0
DIMENSION
  5
2F84
330
18
100
AcDbEntity
  8
寸法線
100
AcDbDimension
280
     0
  2
*D15
 10
383.3289593094777
 20
205.6325010554321
 30
0.0
 11
381.7599572367808
 21
201.8445949721358
 31
0.0
 70
   160
 71
     5
 42
-1.0
 73
     0
 74
     0
 75
     0
  3
標準小
100
AcDbAlignedDimension
 13
371.1215996206444
 23
201.8133389569157
 33
0.0
 14
374.2596037660381
 24
209.3891511235084
 34
0.0
 50
67.49999999999996
100
AcDbRotatedDimension
1001
ACAD
1000
DSTYLE
1002
{
1070
    40
1040
1.0
1002
}
  0
ARC
  5
2F85
330
18
100
AcDbEntity
  8
実線（中）
100
AcDbCircle
 10
354.2801507663601
 20
237.1117685728036
 30
0.0
 40
0.5
100
AcDbArc
 50
256.5
 51
346.5
  0
ARC
  5
2F86
330
18
100
AcDbEntity
  8
実線（中）
100
AcDbCircle
 10
353.3388430753428
 20
236.6178659196099
 30
0.0
 40
0.2
100
AcDbArc
 50
76.49999999999995
 51
166.5
  0
LINE
  5
2F87
330
18
100
AcDbEntity
  8
実線（中）
100
AcDbLine
 10
353.385532148114
 20
236.8123399036896
 30
0.0
 11
354.1634280844322
 21
236.6255836126048
 31
0.0
  0
LINE
  5
2F88
330
18
100
AcDbEntity
  8
実線（中）
100
AcDbLine
 10
350.7989132854155
 20
235.8907093599616
 30
0.0
 11
351.7467318789239
 21
239.8386579295893
 31
0.0
  0
LINE
  5
2F89
330
18
100
AcDbEntity
  8
実線（中）
100
AcDbLine
 10
355.9254619380414
 20
237.5394964633378
 30
0.0
 11
355.7387056469567
 21
236.7616005270198
 31
0.0
  0
LINE
  5
2F8A
330
18
100
AcDbEntity
  8
実線（中）
100
AcDbLine
 10
355.1942550744944
 20
237.9207267385022
 30
0.0
 11
355.7776770267331
 21
237.7806595201887
 31
0.0
  0
ARC
  5
2F8B
330
18
100
AcDbEntity
  8
実線（中）
100
AcDbCircle
 10
355.1475660017232
 20
237.7262527544226
 30
0.0
 40
0.2
100
AcDbArc
 50
76.49999999999995
 51
166.5
  0
ARC
  5
2F8C
330
18
100
AcDbEntity
  8
実線（中）
100
AcDbCircle
 10
355.7309879539618
 20
237.586185536109
 30
0.0
 40
0.2
100
AcDbArc
 50
346.5
 51
76.49999999999995
  0
LINE
  5
2F8D
330
18
100
AcDbEntity
  8
実線（中）
100
AcDbLine
 10
354.9530920176438
 20
237.7729418271938
 30
0.0
 11
354.766335726559
 21
236.9950458908757
 31
0.0
  0
ARC
  5
2F8E
330
18
100
AcDbEntity
  8
実線（中）
100
AcDbCircle
 10
336.6863150092312
 20
230.5883222948006
 30
0.0
 40
4.099999999999999
100
AcDbArc
 50
217.8318075983913
 51
40.50000000000003
  0
CIRCLE
  5
2F8F
330
18
100
AcDbEntity
  8
実線（中）
100
AcDbCircle
 10
336.0368669609011
 20
231.3487282604007
 30
0.0
 40
2.9
  0
ARC
  5
2F90
330
18
100
AcDbEntity
  8
実線（中）
100
AcDbCircle
 10
345.2143700409539
 20
234.9335833681523
 30
0.0
 40
4.099999999999999
100
AcDbArc
 50
190.8318075983913
 51
13.49999999999998
  0
CIRCLE
  5
2F91
330
18
100
AcDbEntity
  8
実線（中）
100
AcDbCircle
 10
344.980924677098
 20
235.90595328855
 30
0.0
 40
2.9
  0
ARC
  5
2F92
330
18
100
AcDbEntity
  8
実線（中）
100
AcDbCircle
 10
337.4467209748313
 20
231.2377703431307
 30
0.0
 40
0.5
100
AcDbArc
 50
130.4999999999999
 51
220.5
  0
ARC
  5
2F93
330
18
100
AcDbEntity
  8
実線（中）
100
AcDbCircle
 10
337.4339952375753
 20
230.1748319368196
 30
0.0
 40
0.2
100
AcDbArc
 50
310.5
 51
40.50000000000003
  0
ARC
  5
2F94
330
18
100
AcDbEntity
  8
実線（中）
100
AcDbCircle
 10
336.9777516582153
 20
229.7851631078215
 30
0.0
 40
0.2
100
AcDbArc
 50
220.5
 51
310.5
  0
LINE
  5
2F95
330
18
100
AcDbEntity
  8
実線（中）
100
AcDbLine
 10
336.3061120264311
 20
230.2635982706356
 30
0.0
 11
336.8256704650953
 21
229.6552734981554
 31
0.0
  0
LINE
  5
2F96
330
18
100
AcDbEntity
  8
実線（中）
100
AcDbLine
 10
337.1076412678813
 20
229.6330819147016
 30
0.0
 11
337.5638848472414
 21
230.0227507436997
 31
0.0
  0
LINE
  5
2F97
330
18
100
AcDbEntity
  8
実線（中）
100
AcDbLine
 10
337.0665179920312
 20
230.9130463189657
 30
0.0
 11
337.5860764306953
 21
230.3047215464856
 31
0.0
  0
LINE
  5
2F98
330
18
100
AcDbEntity
  8
実線（中）
100
AcDbLine
 10
339.8039794681912
 20
233.2510592929544
 30
0.0
 11
337.1671357735571
 21
236.3384065887236
 31
0.0
  0
LINE
  5
2F99
330
18
100
AcDbEntity
  8
実線（中）
100
AcDbLine
 10
337.1219969506661
 20
231.6179733259308
 30
0.0
 11
337.7303217231462
 21
232.137531764595
 31
0.0
  0
LINE
  5
2F9A
330
18
100
AcDbEntity
  8
実線（中）
100
AcDbLine
 10
336.4725489023359
 20
232.3783792915309
 30
0.0
 11
337.0808736748159
 21
232.897937730195
 31
0.0
  0
LINE
  5
2F9B
330
18
100
AcDbEntity
  8
実線（中）
100
AcDbLine
 10
337.362844477602
 20
232.875746146741
 30
0.0
 11
337.7525133066002
 21
232.419502567381
 31
0.0
  0
ARC
  5
2F9C
330
18
100
AcDbEntity
  8
実線（中）
100
AcDbCircle
 10
337.2107632844821
 20
232.7458565370749
 30
0.0
 40
0.2
100
AcDbArc
 50
40.50000000000003
 51
130.4999999999999
  0
ARC
  5
2F9D
330
18
100
AcDbEntity
  8
実線（中）
100
AcDbCircle
 10
337.6004321134802
 20
232.2896129577149
 30
0.0
 40
0.2
100
AcDbArc
 50
310.5
 51
40.50000000000003
  0
LINE
  5
2F9E
330
18
100
AcDbEntity
  8
実線（中）
100
AcDbLine
 10
341.2276533673233
 20
233.9764573763432
 30
0.0
 11
340.2798347738151
 21
237.9244059459709
 31
0.0
  0
MTEXT
  5
2F9F
330
18
100
AcDbEntity
  8
実線（中）
100
AcDbMText
 10
347.1307919026553
 20
226.6519373880111
 30
0.0
 40
3.2
 41
0.0
 46
0.0
 71
     5
 72
     5
  1
M-
  7
寸法文字
 73
     1
 44
1.0
  0
LINE
  5
2FA0
330
18
100
AcDbEntity
  8
実線（中）
100
AcDbLine
 10
345.8365719155677
 20
236.6255836126048
 30
0.0
 11
346.6144678518858
 21
236.8123399036895
 31
0.0
  0
LINE
  5
2FA1
330
18
100
AcDbEntity
  8
実線（中）
100
AcDbLine
 10
346.0700172794235
 20
235.6532136922071
 30
0.0
 11
346.8479132157419
 21
235.8399699832919
 31
0.0
  0
ARC
  5
2FA2
330
18
100
AcDbEntity
  8
実線（中）
100
AcDbCircle
 10
345.7198492336397
 20
237.1117685728037
 30
0.0
 40
0.5
100
AcDbArc
 50
193.5
 51
283.5
  0
ARC
  5
2FA3
330
18
100
AcDbEntity
  8
実線（中）
100
AcDbCircle
 10
344.8524339982766
 20
237.7262527544226
 30
0.0
 40
0.2
100
AcDbArc
 50
13.49999999999998
 51
103.4999999999999
  0
ARC
  5
2FA4
330
18
100
AcDbEntity
  8
実線（中）
100
AcDbCircle
 10
344.269012046038
 20
237.5861855361091
 30
0.0
 40
0.2
100
AcDbArc
 50
103.4999999999999
 51
193.5
  0
LINE
  5
2FA5
330
18
100
AcDbEntity
  8
実線（中）
100
AcDbLine
 10
344.2223229732669
 20
237.7806595201886
 30
0.0
 11
344.8057449255056
 21
237.9207267385023
 31
0.0
  0
LINE
  5
2FA6
330
18
100
AcDbEntity
  8
実線（中）
100
AcDbLine
 10
345.0469079823562
 20
237.7729418271938
 30
0.0
 11
345.2336642734409
 21
236.9950458908757
 31
0.0
  0
LINE
  5
2FA7
330
18
100
AcDbEntity
  8
実線（中）
100
AcDbLine
 10
344.0745380619586
 20
237.5394964633378
 30
0.0
 11
344.2612943530432
 21
236.7616005270198
 31
0.0
  0
LINE
  5
2FA8
330
18
100
AcDbEntity
  8
実線（中）
100
AcDbLine
 10
345.7005550011527
 20
235.0503060500803
 30
0.0
 11
345.8873112922374
 21
234.2724101137621
 31
0.0
  0
LINE
  5
2FA9
330
18
100
AcDbEntity
  8
実線（中）
100
AcDbLine
 10
344.728185080755
 20
234.8168606862245
 30
0.0
 11
344.9149413718398
 21
234.0389647499062
 31
0.0
  0
ARC
  5
2FAA
330
18
100
AcDbEntity
  8
実線（中）
100
AcDbCircle
 10
346.1867399613515
 20
235.1670287320082
 30
0.0
 40
0.5
100
AcDbArc
 50
103.4999999999999
 51
193.5
  0
LINE
  5
2FAB
330
18
100
AcDbEntity
  8
実線（中）
100
AcDbLine
 10
343.3473815023101
 20
234.9995666734106
 30
0.0
 11
344.1252774386283
 21
235.1863229644953
 31
0.0
  0
LINE
  5
2FAC
330
18
100
AcDbEntity
  8
実線（中）
100
AcDbLine
 10
343.1139361384542
 20
235.9719365938083
 30
0.0
 11
343.8918320747723
 21
236.158692884893
 31
0.0
  0
ARC
  5
2FAD
330
18
100
AcDbEntity
  8
実線（中）
100
AcDbCircle
 10
343.3006924295389
 20
235.19404065749
 30
0.0
 40
0.2
100
AcDbArc
 50
193.5
 51
283.5
  0
ARC
  5
2FAE
330
18
100
AcDbEntity
  8
実線（中）
100
AcDbCircle
 10
343.1606252112254
 20
235.7774626097287
 30
0.0
 40
0.2
100
AcDbArc
 50
103.4999999999999
 51
193.5
  0
LINE
  5
2FAF
330
18
100
AcDbEntity
  8
実線（中）
100
AcDbLine
 10
342.9661512271458
 20
235.7307735369575
 30
0.0
 11
343.1062184454594
 21
235.1473515847189
 31
0.0
  0
ARC
  5
2FB0
330
18
100
AcDbEntity
  8
実線（中）
100
AcDbCircle
 10
344.2420001205562
 20
234.7001380042964
 30
0.0
 40
0.5
100
AcDbArc
 50
13.49999999999998
 51
103.4999999999999
  0
ARC
  5
2FB1
330
18
100
AcDbEntity
  8
実線（中）
100
AcDbCircle
 10
345.6928373081579
 20
234.2257210409909
 30
0.0
 40
0.2
100
AcDbArc
 50
283.5
 51
13.49999999999998
  0
ARC
  5
2FB2
330
18
100
AcDbEntity
  8
実線（中）
100
AcDbCircle
 10
345.1094153559193
 20
234.0856538226774
 30
0.0
 40
0.2
100
AcDbArc
 50
193.5
 51
283.5
  0
LINE
  5
2FB3
330
18
100
AcDbEntity
  8
実線（中）
100
AcDbLine
 10
345.1561044286905
 20
233.8911798385979
 30
0.0
 11
345.7395263809292
 21
234.0312470569115
 31
0.0
  0
ARC
  5
2FB4
330
18
100
AcDbEntity
  8
実線（中）
100
AcDbCircle
 10
343.7751093928444
 20
236.6448778450918
 30
0.0
 40
0.5
100
AcDbArc
 50
283.5
 51
13.49999999999998
  0
ARC
  5
2FB5
330
18
100
AcDbEntity
  8
実線（中）
100
AcDbCircle
 10
346.661156924657
 20
236.6178659196099
 30
0.0
 40
0.2
100
AcDbArc
 50
13.49999999999998
 51
103.4999999999999
  0
ARC
  5
2FB6
330
18
100
AcDbEntity
  8
実線（中）
100
AcDbCircle
 10
346.8012241429705
 20
236.0344439673712
 30
0.0
 40
0.2
100
AcDbArc
 50
283.5
 51
13.49999999999998
  0
LINE
  5
2FB7
330
18
100
AcDbEntity
  8
実線（中）
100
AcDbLine
 10
346.8556309087365
 20
236.6645549923811
 30
0.0
 11
346.9956981270502
 21
236.0811330401424
 31
0.0
  0
LINE
  5
2FB8
330
18
100
AcDbEntity
  8
実線（中）
100
AcDbLine
 10
349.2010867145844
 20
235.8907093599616
 30
0.0
 11
348.2532681210761
 21
239.8386579295893
 31
0.0
  0
LEADER
  5
2FB9
330
18
100
AcDbEntity
  8
寸法線
100
AcDbLeader
  3
標準
 73
     0
 75
     1
 40
5.181818181818182
 41
25.65909090909091
 76
     3
 10
328.1367089942838
 20
204.6721929312631
 30
0.0
 10
297.5
 20
172.5
 30
0.0
 10
292.5
 20
172.5
 30
0.0
340
2FC8
213
-2.5
223
0.0
233
0.0
1001
ACAD
1000
DSTYLE
1002
{
1070
    47
1040
0.2
1070
    48
1040
0.7
1070
    40
1040
1.0
1002
}
  0
LINE
  5
2FBA
330
18
100
AcDbEntity
  8
実線（中）
100
AcDbLine
 10
333.568650550271
 20
227.9255852966468
 30
0.0
 11
330.9318068556367
 21
231.012932592416
 31
0.0
  0
LINE
  5
2FBB
330
18
100
AcDbEntity
  8
実線（中）
100
AcDbLine
 10
334.3434121986558
 20
230.5599247562063
 30
0.0
 11
334.9517369711358
 21
231.0794831948705
 31
0.0
  0
LINE
  5
2FBC
330
18
100
AcDbEntity
  8
実線（中）
100
AcDbLine
 10
334.992860246986
 20
229.7995187906064
 30
0.0
 11
335.6011850194661
 21
230.3190772292705
 31
0.0
  0
ARC
  5
2FBD
330
18
100
AcDbEntity
  8
実線（中）
100
AcDbCircle
 10
334.86297063732
 20
229.9515999837263
 30
0.0
 40
0.2
100
AcDbArc
 50
220.5
 51
310.5
  0
ARC
  5
2FBE
330
18
100
AcDbEntity
  8
実線（中）
100
AcDbCircle
 10
335.9259090436312
 20
229.9388742464704
 30
0.0
 40
0.5
100
AcDbArc
 50
40.50000000000003
 51
130.4999999999999
  0
LINE
  5
2FBF
330
18
100
AcDbEntity
  8
実線（中）
100
AcDbLine
 10
334.3212206152019
 20
230.2779539534203
 30
0.0
 11
334.7108894442
 21
229.8217103740602
 31
0.0
  0
ARC
  5
2FC0
330
18
100
AcDbEntity
  8
実線（中）
100
AcDbCircle
 10
334.4733018083219
 20
230.4078435630863
 30
0.0
 40
0.2
100
AcDbArc
 50
130.4999999999999
 51
220.5
  0
ARC
  5
2FC1
330
18
100
AcDbEntity
  8
実線（中）
100
AcDbCircle
 10
336.1478248781708
 20
232.7585822743309
 30
0.0
 40
0.5
100
AcDbArc
 50
220.5
 51
310.5
  0
ARC
  5
2FC2
330
18
100
AcDbEntity
  8
実線（中）
100
AcDbCircle
 10
335.0959822635867
 20
232.9122934129797
 30
0.0
 40
0.2
100
AcDbArc
 50
40.50000000000003
 51
130.4999999999999
  0
ARC
  5
2FC3
330
18
100
AcDbEntity
  8
実線（中）
100
AcDbCircle
 10
334.6397386842267
 20
232.5226245839817
 30
0.0
 40
0.2
100
AcDbArc
 50
130.4999999999999
 51
220.5
  0
LINE
  5
2FC4
330
18
100
AcDbEntity
  8
実線（中）
100
AcDbLine
 10
334.5098490745606
 20
232.6747057771017
 30
0.0
 11
334.9660926539206
 21
233.0643746060998
 31
0.0
  0
LINE
  5
2FC5
330
18
100
AcDbEntity
  8
実線（中）
100
AcDbLine
 10
335.2480634567068
 20
233.0421830226458
 30
0.0
 11
335.7676218953709
 21
232.4338582501658
 31
0.0
  0
ARC
  5
2FC6
330
18
100
AcDbEntity
  8
実線（中）
100
AcDbCircle
 10
334.6270129469707
 20
231.4596861776704
 30
0.0
 40
0.5
100
AcDbArc
 50
310.5
 51
40.50000000000003
  0
LINE
  5
2FC7
330
18
100
AcDbEntity
  8
実線（中）
100
AcDbLine
 10
334.4876574911067
 20
232.3927349743156
 30
0.0
 11
335.0072159297708
 21
231.7844102018357
 31
0.0
  0
MTEXT
  5
2FC8
102
{ACAD_REACTORS
330
2FB9
102
}
330
18
100
AcDbEntity
  8
寸法線
100
AcDbMText
 10
293.0
 20
174.5
 30
0.0
 40
4.0
 41
0.0
 46
0.0
 71
     9
 72
     1
  1
10-M3ネジ
  7
寸法文字
 73
     1
 44
1.0
  0
LINE
  5
2FD9
330
18
100
AcDbEntity
  8
実線（中）
100
AcDbLine
 10
399.0
 20
237.0
 30
0.0
 11
399.0
 21
271.0
 31
0.0
  0
LINE
  5
2FDA
330
18
100
AcDbEntity
  8
実線（中）
100
AcDbLine
 10
301.0
 20
237.0
 30
0.0
 11
301.0
 21
271.0
 31
0.0
  0
LINE
  5
2FDB
330
18
100
AcDbEntity
  8
実線（中）
100
AcDbLine
 10
301.0
 20
271.0
 30
0.0
 11
399.0
 21
271.0
 31
0.0
  0
LINE
  5
2FDD
330
18
100
AcDbEntity
  8
実線（中）
100
AcDbLine
 10
303.0
 20
241.4721359549996
 30
0.0
 11
303.0
 21
269.0
 31
0.0
  0
LINE
  5
2FDE
330
18
100
AcDbEntity
  8
実線（中）
100
AcDbLine
 10
397.0
 20
241.4721359549996
 30
0.0
 11
397.0
 21
269.0
 31
0.0
  0
LINE
  5
2FDF
330
18
100
AcDbEntity
  8
実線（中）
100
AcDbLine
 10
303.0
 20
269.0
 30
0.0
 11
397.0
 21
269.0
 31
0.0
  0
LINE
  5
2FE1
330
18
100
AcDbEntity
  8
実線（中）
100
AcDbLine
 10
401.0
 20
214.5
 30
0.0
 11
399.0
 21
214.5
 31
0.0
  0
LINE
  5
2FE2
330
18
100
AcDbEntity
  8
実線（中）
100
AcDbLine
 10
299.0
 20
214.5
 30
0.0
 11
301.0
 21
214.5
 31
0.0
  0
LINE
  5
2FE3
330
18
100
AcDbEntity
  8
一点鎖線
100
AcDbLine
 10
389.0
 20
251.0
 30
0.0
 11
389.0
 21
261.0
 31
0.0
  0
LINE
  5
2FE4
330
18
100
AcDbEntity
  8
一点鎖線
100
AcDbLine
 10
311.0
 20
251.0
 30
0.0
 11
311.0
 21
261.0
 31
0.0
  0
INSERT
  5
3023
330
18
100
AcDbEntity
  8
実線（中）
100
AcDbBlockReference
  2
A$C301F4858
 10
295.5000001702256
 20
248.0000000147549
 30
0.0
  0
INSERT
  5
3069
330
18
100
AcDbEntity
  8
実線（中）
100
AcDbBlockReference
  2
A$C3D3D0A8A
 10
386.1000003901103
 20
253.1000005247918
 30
0.0
  0
INSERT
  5
306A
330
18
100
AcDbEntity
  8
実線（中）
100
AcDbBlockReference
  2
A$C3D3D0A8A
 10
308.1000003901103
 20
253.1000005247918
 30
0.0
  0
INSERT
  5
30A1
330
18
100
AcDbEntity
  8
実線（中）
100
AcDbBlockReference
  2
A$C30A01E98
 10
154.9999995046473
 20
247.9999997164338
 30
0.0
  0
DIMENSION
  5
30B0
330
18
100
AcDbEntity
  8
寸法線
100
AcDbDimension
280
     0
  2
*D19
 10
399.0
 20
165.0
 30
0.0
 11
350.0
 21
169.5
 31
0.0
 70
    32
 71
     5
 42
-1.0
 73
     0
 74
     0
 75
     0
  3
標準
100
AcDbAlignedDimension
 13
301.0
 23
192.0
 33
0.0
 14
399.0
 24
192.0
 34
0.0
100
AcDbRotatedDimension
  0
DIMENSION
  5
30BD
330
18
100
AcDbEntity
  8
寸法線
100
AcDbDimension
280
     0
  2
*D20
 10
415.0
 20
187.0
 30
0.0
 11
410.5
 21
215.0
 31
0.0
 70
    32
 71
     5
 42
-1.0
 73
     0
 74
     0
 75
     0
  3
標準
100
AcDbAlignedDimension
 13
394.0
 23
243.0
 33
0.0
 14
394.0
 24
187.0
 34
0.0
 50
90.0
100
AcDbRotatedDimension
  0
DIMENSION
  5
30CA
330
18
100
AcDbEntity
  8
寸法線
100
AcDbDimension
280
     0
  2
*D21
 10
378.0
 20
175.0
 30
0.0
 11
350.0
 21
178.4517045454545
 31
0.0
 70
    32
  1
φ<>
 71
     5
 42
-1.0
 73
     0
 74
     0
 75
     0
  3
標準小
100
AcDbAlignedDimension
 13
322.0
 23
187.0
 33
0.0
 14
378.0
 24
187.0
 34
0.0
100
AcDbRotatedDimension
  0
LINE
  5
30E1
330
18
100
AcDbEntity
  8
一点鎖線
100
AcDbLine
 10
394.0
 20
256.0
 30
0.0
 11
384.0
 21
256.0
 31
0.0
  0
LINE
  5
30E2
330
18
100
AcDbEntity
  8
一点鎖線
100
AcDbLine
 10
316.0
 20
256.0
 30
0.0
 11
306.0
 21
256.0
 31
0.0
  0
LINE
  5
30E3
330
18
100
AcDbEntity
  8
一点鎖線
100
AcDbLine
 10
178.8
 20
256.0
 30
0.0
 11
168.8
 21
256.0
 31
0.0
  0
LINE
  5
30EA
330
18
100
AcDbEntity
  8
一点鎖線
100
AcDbLine
 10
295.5
 20
105.0
 30
0.0
 11
404.4999999999999
 21
105.0
 31
0.0
  0
LINE
  5
30EB
330
18
100
AcDbEntity
  8
実線（中）
100
AcDbLine
 10
399.5
 20
76.5
 30
0.0
 11
300.5
 21
76.5
 31
0.0
  0
LINE
  5
30EC
330
18
100
AcDbEntity
  8
実線（中）
100
AcDbLine
 10
300.5
 20
133.5
 30
0.0
 11
399.5
 21
133.5
 31
0.0
  0
LINE
  5
30ED
330
18
100
AcDbEntity
  8
実線（中）
100
AcDbLine
 10
300.5
 20
76.5
 30
0.0
 11
300.5
 21
133.5
 31
0.0
  0
LINE
  5
30EE
330
18
100
AcDbEntity
  8
一点鎖線
100
AcDbLine
 10
350.0
 20
138.5
 30
0.0
 11
350.0
 21
71.5
 31
0.0
  0
LINE
  5
30EF
330
18
100
AcDbEntity
  8
実線（中）
100
AcDbLine
 10
399.5
 20
133.5
 30
0.0
 11
399.5
 21
76.5
 31
0.0
  0
DIMENSION
  5
313F
330
18
100
AcDbEntity
  8
寸法線
100
AcDbDimension
280
     0
  2
*D22
 10
290.0
 20
215.0
 30
0.0
 11
287.0
 21
235.5
 31
0.0
 70
    32
 71
     5
 42
-1.0
 73
     0
 74
     0
 75
     0
  3
標準小
100
AcDbAlignedDimension
 13
306.0
 23
256.0
 33
0.0
 14
315.0
 24
215.0
 34
0.0
 50
90.0
100
AcDbRotatedDimension
  0
LEADER
  5
314B
330
18
100
AcDbEntity
  8
寸法線
100
AcDbLeader
  3
標準
 73
     0
 75
     1
 40
5.181818181818182
 41
23.06818181818182
 76
     3
 10
308.9730944513771
 20
258.074042886963
 30
0.0
 10
289.5
 20
283.0
 30
0.0
 10
284.5
 20
283.0
 30
0.0
340
314C
213
-2.5
223
0.0
233
0.0
1001
ACAD
1000
DSTYLE
1002
{
1070
    47
1040
0.2
1070
    48
1040
0.7
1070
    40
1040
1.0
1002
}
  0
MTEXT
  5
314C
102
{ACAD_REACTORS
330
314B
102
}
330
18
100
AcDbEntity
  8
寸法線
100
AcDbMText
 10
285.0
 20
285.0
 30
0.0
 40
4.0
 41
0.0
 46
0.0
 71
     9
 72
     1
  1
2-M3ネジ
  7
寸法文字
 73
     1
 44
1.0
  0
DIMENSION
  5
3159
330
18
100
AcDbEntity
  8
寸法線
100
AcDbDimension
280
     0
  2
*D23
 10
389.0
 20
280.0
 30
0.0
 11
350.0
 21
280.0
 31
0.0
 70
   160
 71
     5
 42
-1.0
 73
     0
 74
     0
 75
     0
  3
標準小
100
AcDbAlignedDimension
 13
311.0
 23
261.0
 33
0.0
 14
389.0
 24
261.0
 34
0.0
100
AcDbRotatedDimension
  0
LEADER
  5
317B
330
18
100
AcDbEntity
  8
寸法線
100
AcDbLeader
  3
標準
 73
     0
 75
     1
 40
5.272727272727273
 41
39.68181818181818
 76
     3
 10
295.5
 20
260.5
 30
0.0
 10
261.5
 20
273.0
 30
0.0
 10
256.5
 20
273.0
 30
0.0
340
317C
213
-2.5
223
0.0
233
0.0
1001
ACAD
1000
DSTYLE
1002
{
1070
    47
1040
0.2
1070
    48
1040
0.7
1070
    40
1040
1.0
1002
}
  0
MTEXT
  5
317C
102
{ACAD_REACTORS
330
317B
102
}
330
18
100
AcDbEntity
  8
寸法線
100
AcDbMText
 10
257.0
 20
275.0
 30
0.0
 40
4.0
 41
0.0
 46
0.0
 71
     9
 72
     1
  1
パネル取付金具
  7
寸法文字
 73
     1
 44
1.0
  0
LEADER
  5
317D
330
18
100
AcDbEntity
  8
寸法線
100
AcDbLeader
  3
標準
 76
     2
 10
173.8
 20
262.0
 30
0.0
 10
215.0116136245799
 20
273.0
 30
0.0
213
-2.5
223
0.0
233
0.0
1001
ACAD
1000
DSTYLE
1002
{
1070
    47
1040
0.2
1070
    48
1040
0.7
1070
    40
1040
1.0
1002
}
  0
MTEXT
  5
3189
330
18
100
AcDbEntity
  8
可変文字
100
AcDbMText
 10
300.0
 20
50.56937474762435
 30
0.0
 40
4.5
 41
0.0
 46
0.0
 71
     1
 72
     5
  1
※　パネル厚0.8～3mmまで使用可能
  7
MSPｺﾞｼｯｸ
 73
     1
 44
1.0
  0
DIMENSION
  5
3198
330
18
100
AcDbEntity
  8
寸法線
100
AcDbDimension
280
     0
  2
*D24
 10
404.4999999999999
 20
290.0
 30
0.0
 11
350.0
 21
290.0
 31
0.0
 70
   160
 71
     5
 42
-1.0
 73
     0
 74
     0
 75
     0
  3
標準小
100
AcDbAlignedDimension
 13
295.5
 23
264.0000000000001
 33
0.0
 14
404.4999999999999
 24
255.0
 34
0.0
100
AcDbRotatedDimension
  0
DIMENSION
  5
31B0
330
18
100
AcDbEntity
  8
寸法線
100
AcDbDimension
280
     0
  2
*D25
 10
131.0
 20
285.0
 30
0.0
 11
80.0
 21
289.5
 31
0.0
 70
    32
 71
     5
 42
-1.0
 73
     0
 74
     0
 75
     0
  3
標準
100
AcDbAlignedDimension
 13
29.0
 23
274.0
 33
0.0
 14
131.0
 24
274.0
 34
0.0
100
AcDbRotatedDimension
  0
LINE
  5
3274
330
18
100
AcDbEntity
  8
実線（中）
100
AcDbLine
 10
30.0
 20
215.5
 30
0.0
 11
36.5
 21
224.5
 31
0.0
  0
LINE
  5
3275
330
18
100
AcDbEntity
  8
実線（中）
100
AcDbLine
 10
123.5
 20
224.5
 30
0.0
 11
130.0
 21
215.5
 31
0.0
  0
LINE
  5
3276
330
18
100
AcDbEntity
  8
実線（中）
100
AcDbLine
 10
130.0
 20
215.5
 30
0.0
 11
131.0
 21
214.5
 31
0.0
  0
HATCH
  5
32E3
330
18
100
AcDbEntity
  8
実線（中）
100
AcDbHatch
 10
0.0
 20
0.0
 30
0.0
210
0.0
220
0.0
230
1.0
  2
SOLID
 70
     1
 71
     1
 91
        1
 92
        7
 72
     0
 73
     1
 93
        4
 10
46.9427579795289
 20
245.9107954110644
 10
46.58920458893565
 20
245.5572420204712
 10
67.64644660940679
 20
224.5
 10
68.35355339059323
 20
224.5
 97
        4
330
1FFB
330
1FF3
330
2546
330
1FF2
 75
     0
 76
     1
 47
0.0870093402899273
 98
        1
 10
59.46619803651493
 20
233.1204561809869
450
        0
451
        0
460
0.0
461
0.0
452
        0
462
0.0
453
        0
470

  0
LINE
  5
3318
330
18
100
AcDbEntity
  8
実線（中）
100
AcDbLine
 10
83.49999999999999
 20
215.5
 30
0.0
 11
83.49999999999999
 21
218.5
 31
0.0
  0
ARC
  5
3319
330
18
100
AcDbEntity
  8
実線（中）
100
AcDbCircle
 10
80.0
 20
218.5
 30
0.0
 40
3.5
100
AcDbArc
 50
0.0
 51
180.0
  0
LINE
  5
331A
330
18
100
AcDbEntity
  8
実線（中）
100
AcDbLine
 10
76.5
 20
215.5
 30
0.0
 11
76.5
 21
218.5
 31
0.0
  0
DIMENSION
  5
33B9
330
18
100
AcDbEntity
  8
寸法線
100
AcDbDimension
280
     0
  2
*D27
 10
164.9999999999999
 20
216.5
 30
0.0
 11
165.0
 21
243.75
 31
0.0
 70
   160
 71
     5
 42
-1.0
 73
     0
 74
     0
 75
     0
  3
標準小
100
AcDbAlignedDimension
 13
165.0
 23
271.0
 33
0.0
 14
159.5
 24
216.5
 34
0.0
 50
90.0
100
AcDbRotatedDimension
  0
VIEWPORT
  5
2E
330
15
100
AcDbEntity
 67
     1
  8
0
100
AcDbViewport
 10
369.0200298461718
 20
148.0014960522548
 30
0.0
 40
704.8510242685404
 41
281.0633326410187
 68
     1
 69
     1
 12
369.0200298461718
 22
148.0014960522548
 13
0.0
 23
0.0
 14
1.0
 24
1.0
 15
5.0
 25
5.0
 16
0.0
 26
0.0
 36
1.0
 17
0.0
 27
0.0
 37
0.0
 42
50.0
 43
0.0
 44
0.0
 45
281.0633326410187
 50
0.0
 51
0.0
 72
   100
 90
    33056
  1

281
     0
 71
     1
 74
     0
110
0.0
120
0.0
130
0.0
111
1.0
121
0.0
131
0.0
112
0.0
122
1.0
132
0.0
 79
     0
146
0.0
170
     0
 61
     5
348
34A3
292
     1
282
     1
141
0.0
142
0.0
 63
   250
421
  3355443
  0
LINE
  5
DA
330
15
100
AcDbEntity
 67
     1
  8
枠線
 62
   140
100
AcDbLine
 10
234.5012664770786
 20
18.50047945247244
 30
0.0
 11
24.0012664770786
 21
18.50047945247244
 31
0.0
  0
LINE
  5
DB
330
15
100
AcDbEntity
 67
     1
  8
枠線
100
AcDbLine
 10
29.0012664770786
 20
13.50047945247244
 30
0.0
 11
304.5
 21
13.50047945247244
 31
0.0
  0
LINE
  5
DC
330
15
100
AcDbEntity
 67
     1
  8
枠線
 62
   140
100
AcDbLine
 10
413.5012664770786
 20
287.5004794524724
 30
0.0
 11
24.0
 21
287.5004794524724
 31
0.0
  0
LINE
  5
DD
330
15
100
AcDbEntity
 67
     1
  8
枠線
 62
   140
100
AcDbLine
 10
24.0012664770786
 20
8.50047945247244
 30
0.0
 11
413.5012664770786
 21
8.50047945247244
 31
0.0
  0
LINE
  5
DE
330
15
100
AcDbEntity
 67
     1
  8
枠線
 62
   140
100
AcDbLine
 10
24.0012664770786
 20
8.50047945247244
 30
0.0
 11
24.0012664770786
 21
287.5004794524724
 31
0.0
  0
LINE
  5
E7
330
15
100
AcDbEntity
 67
     1
  8
枠線
100
AcDbLine
 10
131.7512664770786
 20
8.50047945247244
 30
0.0
 11
134.2512664770786
 21
13.50047945247244
 31
0.0
  0
LINE
  5
E8
330
15
100
AcDbEntity
 67
     1
  8
枠線
100
AcDbLine
 10
134.2512664770786
 20
13.50047945247244
 30
0.0
 11
136.7512664770786
 21
8.50047945247244
 31
0.0
  0
LINE
  5
E9
330
15
100
AcDbEntity
 67
     1
  8
枠線
100
AcDbLine
 10
136.7512664770786
 20
18.50047945247244
 30
0.0
 11
136.7512664770786
 21
8.50047945247244
 31
0.0
  0
LINE
  5
EA
330
15
100
AcDbEntity
 67
     1
  8
枠線
100
AcDbLine
 10
131.7512664770786
 20
18.50047945247244
 30
0.0
 11
131.7512664770786
 21
8.50047945247244
 31
0.0
  0
LINE
  5
EB
330
15
100
AcDbEntity
 67
     1
  8
枠線
100
AcDbLine
 10
134.2512664770786
 20
18.50047945247244
 30
0.0
 11
136.7512664770786
 21
13.50047945247244
 31
0.0
  0
LINE
  5
EC
330
15
100
AcDbEntity
 67
     1
  8
枠線
100
AcDbLine
 10
131.7512664770786
 20
13.50047945247244
 30
0.0
 11
134.2512664770786
 21
18.50047945247244
 31
0.0
  0
LINE
  5
10D
330
15
100
AcDbEntity
 67
     1
  8
枠線
 62
   140
100
AcDbLine
 10
413.5012664770786
 20
8.50047945247244
 30
0.0
 11
413.5012664770786
 21
287.5004794524724
 31
0.0
  0
LINE
  5
115
330
15
100
AcDbEntity
 67
     1
  8
枠線
100
AcDbLine
 10
304.5012664770786
 20
38.50047945247244
 30
0.0
 11
413.5012664770786
 21
38.50047945247244
 31
0.0
  0
LINE
  5
117
330
15
100
AcDbEntity
 67
     1
  8
枠線
100
AcDbLine
 10
304.5
 20
18.50047945247244
 30
0.0
 11
413.5012664770786
 21
18.50047945247244
 31
0.0
  0
LINE
  5
119
330
15
100
AcDbEntity
 67
     1
  8
枠線
 62
   140
100
AcDbLine
 10
304.5012664770786
 20
43.5
 30
0.0
 11
413.5012664770786
 21
43.5
 31
0.0
  0
LINE
  5
11D
330
15
100
AcDbEntity
 67
     1
  8
枠線
100
AcDbLine
 10
234.5012664770786
 20
23.50047945247244
 30
0.0
 11
304.5
 21
23.50047945247244
 31
0.0
  0
LINE
  5
125
330
15
100
AcDbEntity
 67
     1
  8
枠線
 62
   140
100
AcDbLine
 10
234.5012664770786
 20
33.5
 30
0.0
 11
234.5012664770786
 21
8.50047945247244
 31
0.0
  0
LINE
  5
137
330
15
100
AcDbEntity
 67
     1
  8
枠線
 62
   140
100
AcDbLine
 10
304.5012664770786
 20
8.50047945247244
 30
0.0
 11
304.5012664770786
 21
43.5
 31
0.0
  0
LINE
  5
15F
330
15
100
AcDbEntity
 67
     1
  8
枠線
 62
   140
100
AcDbLine
 10
364.5012664770786
 20
43.5
 30
0.0
 11
364.5012664770786
 21
8.50047945247244
 31
0.0
  0
LINE
  5
408
330
15
100
AcDbEntity
 67
     1
  8
枠線
100
AcDbLine
 10
249.5012664770786
 20
33.5
 30
0.0
 11
249.5012664770786
 21
8.50047945247244
 31
0.0
  0
LINE
  5
41F
330
15
100
AcDbEntity
 67
     1
  8
枠線
100
AcDbLine
 10
284.5012664770786
 20
13.5
 30
0.0
 11
284.5012664770786
 21
8.50047945247244
 31
0.0
  0
MTEXT
  5
420
330
15
100
AcDbEntity
 67
     1
  8
文字（固定）
100
AcDbMText
 10
354.5012664770786
 20
41.00047945247244
 30
0.0
 40
2.5
 41
0.0
 46
0.0
 71
     5
 72
     5
  1
製  図
  7
MS明朝
 73
     1
 44
1.0
  0
MTEXT
  5
422
330
15
100
AcDbEntity
 67
     1
  8
文字（可変）
100
AcDbMText
 10
354.5012664770786
 20
31.50047945247244
 30
0.0
 40
2.5
 41
0.0
 46
0.0
 71
     5
 72
     5
  1
髙 松
  7
MSｺﾞｼｯｸ
 73
     1
 44
1.0
  0
MTEXT
  5
423
330
15
100
AcDbEntity
 67
     1
  8
文字（可変）
100
AcDbMText
 10
354.5012664770786
 20
25.50047945247244
 30
0.0
 40
2.5
 41
0.0
 46
0.0
 71
     5
 72
     5
  1
05.12.21
  7
MSｺﾞｼｯｸ
 73
     1
 44
1.0
  0
MTEXT
  5
424
330
15
100
AcDbEntity
 67
     1
  8
文字（固定）
  6
ByBlock
100
AcDbMText
 10
334.5012664770786
 20
13.50047945247244
 30
0.0
 40
4.0
 41
0.0
 46
0.0
 71
     5
 72
     5
  1

  7
MS明朝
 73
     1
 44
1.0
  0
LINE
  5
426
330
15
100
AcDbEntity
 67
     1
  8
枠線
100
AcDbLine
 10
344.5012664770786
 20
43.5
 30
0.0
 11
344.5012664770786
 21
18.50047945247244
 31
0.0
  0
MTEXT
  5
428
330
15
100
AcDbEntity
 67
     1
  8
文字（固定）
100
AcDbMText
 10
314.5012664770786
 20
41.00047945247244
 30
0.0
 40
2.5
 41
0.0
 46
0.0
 71
     5
 72
     5
  1
検  印
  7
MS明朝
 73
     1
 44
1.0
  0
LINE
  5
42A
330
15
100
AcDbEntity
 67
     1
  8
枠線
100
AcDbLine
 10
324.5012664770786
 20
18.50047945247244
 30
0.0
 11
324.5012664770786
 21
43.50047945247244
 31
0.0
  0
CIRCLE
  5
42B
330
15
100
AcDbEntity
 67
     1
  8
枠線
100
AcDbCircle
 10
334.5012664770786
 20
28.50047945247244
 30
0.0
 40
9.199999999999999
  0
MTEXT
  5
42C
330
15
100
AcDbEntity
 67
     1
  8
文字（可変）
100
AcDbMText
 10
334.5012664770786
 20
23.50047945247244
 30
0.0
 40
2.5
 41
0.0
 46
0.0
 71
     5
 72
     5
  1
髙 松
  7
MSｺﾞｼｯｸ
 73
     1
 44
1.0
  0
MTEXT
  5
42D
330
15
100
AcDbEntity
 67
     1
  8
文字（固定）
100
AcDbMText
 10
334.5012664770786
 20
41.00047945247244
 30
0.0
 40
2.5
 41
0.0
 46
0.0
 71
     5
 72
     5
  1
設  計
  7
MS明朝
 73
     1
 44
1.0
  0
MTEXT
  5
42E
330
15
100
AcDbEntity
 67
     1
  8
文字（可変）
100
AcDbMText
 10
334.5012664770786
 20
33.50047945247244
 30
0.0
 40
2.5
 41
0.0
 46
0.0
 71
     5
 72
     5
  1
設 計
  7
MSｺﾞｼｯｸ
 73
     1
 44
1.0
  0
MTEXT
  5
42F
330
15
100
AcDbEntity
 67
     1
  8
文字（可変）
100
AcDbMText
 10
334.5012664770786
 20
28.50047945247244
 30
0.0
 40
2.5
 41
0.0
 46
0.0
 71
     5
 72
     5
  1
05.12.21
  7
MSｺﾞｼｯｸ
 73
     1
 44
1.0
  0
LINE
  5
430
330
15
100
AcDbEntity
 67
     1
  8
枠線
100
AcDbLine
 10
343.5012664770786
 20
30.50047945247244
 30
0.0
 11
325.5012664770786
 21
30.50047945247244
 31
0.0
  0
LINE
  5
431
330
15
100
AcDbEntity
 67
     1
  8
枠線
100
AcDbLine
 10
325.5012664770786
 20
26.50047945247244
 30
0.0
 11
343.5012664770786
 21
26.50047945247244
 31
0.0
  0
LINE
  5
439
330
15
100
AcDbEntity
 67
     1
  8
枠線
100
AcDbLine
 10
374.5012664770786
 20
28.50047945247244
 30
0.0
 11
408.5012664770785
 21
28.50047945247244
 31
0.0
  0
LINE
  5
43A
330
15
100
AcDbEntity
 67
     1
  8
枠線
100
AcDbLine
 10
371.0012664770786
 20
10.50047945247244
 30
0.0
 11
411.0012664770786
 21
10.50047945247244
 31
0.0
  0
LINE
  5
43B
330
15
100
AcDbEntity
 67
     1
  8
枠線
100
AcDbLine
 10
411.0012664770786
 20
16.50047945247244
 30
0.0
 11
371.0012664770786
 21
16.50047945247244
 31
0.0
  0
MTEXT
  5
43C
330
15
100
AcDbEntity
 67
     1
  8
文字（可変）
100
AcDbMText
 10
371.0012664770786
 20
13.50047945247244
 30
0.0
 40
3.87
 41
0.0
 46
0.0
 71
     4
 72
     5
  1
ＰＳ３０６７０－
  7
MSｺﾞｼｯｸ
 73
     1
 44
1.0
  0
MTEXT
  5
43D
330
15
100
AcDbEntity
 67
     1
  8
文字（可変）
100
AcDbMText
 10
374.5012664770786
 20
33.50047945247244
 30
0.0
 40
3.5
 41
0.0
 46
0.0
 71
     4
 72
     5
  1
ＷＳＣ－１０２ＦＤ
  7
MSPｺﾞｼｯｸ
 73
     1
 44
1.0
  0
MTEXT
  5
43E
330
15
100
AcDbEntity
 67
     1
  8
文字（可変）
100
AcDbMText
 10
374.5012664770786
 20
23.50047945247244
 30
0.0
 40
4.0
 41
0.0
 46
0.0
 71
     4
 72
     5
  1
製品外形図
  7
MSPｺﾞｼｯｸ
 73
     1
 44
1.0
  0
MTEXT
  5
43F
330
15
100
AcDbEntity
 67
     1
  8
文字（固定）
100
AcDbMText
 10
365.2012664770786
 20
27.50047945247244
 30
0.0
 40
2.5
 41
0.0
 46
0.0
 71
     1
 72
     5
  1
品\P名
  7
MS明朝
 73
     1
 44
1.0
  0
LINE
  5
440
330
15
100
AcDbEntity
 67
     1
  8
枠線
100
AcDbLine
 10
369.5012664770786
 20
38.50047945247244
 30
0.0
 11
369.5012664770786
 21
8.50047945247244
 31
0.0
  0
MTEXT
  5
441
330
15
100
AcDbEntity
 67
     1
  8
文字（固定）
100
AcDbMText
 10
365.2012664770786
 20
17.50047945247244
 30
0.0
 40
2.5
 41
0.0
 46
0.0
 71
     1
 72
     5
  1
図\P番
  7
MS明朝
 73
     1
 44
1.0
  0
LINE
  5
442
330
15
100
AcDbEntity
 67
     1
  8
枠線
100
AcDbLine
 10
381.0012664770786
 20
16.50047945247244
 30
0.0
 11
381.0012664770786
 21
10.50047945247244
 31
0.0
  0
LINE
  5
443
330
15
100
AcDbEntity
 67
     1
  8
枠線
100
AcDbLine
 10
376.0012664770786
 20
16.50047945247244
 30
0.0
 11
376.0012664770786
 21
10.50047945247244
 31
0.0
  0
LINE
  5
444
330
15
100
AcDbEntity
 67
     1
  8
枠線
100
AcDbLine
 10
371.0012664770786
 20
16.50047945247244
 30
0.0
 11
371.0012664770786
 21
10.50047945247244
 31
0.0
  0
LINE
  5
445
330
15
100
AcDbEntity
 67
     1
  8
枠線
100
AcDbLine
 10
371.0012664770786
 20
10.50047945247244
 30
0.0
 11
371.0012664770786
 21
10.50047945247244
 31
0.0
  0
MTEXT
  5
447
330
15
100
AcDbEntity
 67
     1
  8
文字（固定）
100
AcDbMText
 10
372.0012664770786
 20
41.00047945247244
 30
0.0
 40
2.0
 41
0.0
 46
0.0
 71
     5
 72
     5
  1
部品コード
  7
MS明朝
 73
     1
 44
1.0
  0
MTEXT
  5
448
330
15
100
AcDbEntity
 67
     1
  8
文字（固定）
100
AcDbMText
 10
365.2012664770786
 20
37.50047945247244
 30
0.0
 40
2.5
 41
0.0
 46
0.0
 71
     1
 72
     5
  1
形\P名
  7
MS明朝
 73
     1
 44
1.0
  0
LINE
  5
449
330
15
100
AcDbEntity
 67
     1
  8
枠線
100
AcDbLine
 10
379.5012664770786
 20
38.50047945247244
 30
0.0
 11
379.5012664770786
 21
43.50047945247244
 31
0.0
  0
LINE
  5
44A
330
15
100
AcDbEntity
 67
     1
  8
枠線
100
AcDbLine
 10
396.0012664770786
 20
16.50047945247244
 30
0.0
 11
396.0012664770786
 21
10.50047945247244
 31
0.0
  0
LINE
  5
44B
330
15
100
AcDbEntity
 67
     1
  8
枠線
100
AcDbLine
 10
391.0012664770786
 20
16.50047945247244
 30
0.0
 11
391.0012664770786
 21
10.50047945247244
 31
0.0
  0
LINE
  5
44C
330
15
100
AcDbEntity
 67
     1
  8
枠線
100
AcDbLine
 10
386.0012664770786
 20
16.50047945247244
 30
0.0
 11
386.0012664770786
 21
10.50047945247244
 31
0.0
  0
LINE
  5
44D
330
15
100
AcDbEntity
 67
     1
  8
枠線
100
AcDbLine
 10
411.0012664770786
 20
10.50047945247244
 30
0.0
 11
411.0012664770786
 21
16.50047945247244
 31
0.0
  0
LINE
  5
44E
330
15
100
AcDbEntity
 67
     1
  8
枠線
100
AcDbLine
 10
406.0012664770786
 20
16.50047945247244
 30
0.0
 11
406.0012664770786
 21
10.50047945247244
 31
0.0
  0
LINE
  5
44F
330
15
100
AcDbEntity
 67
     1
  8
枠線
100
AcDbLine
 10
401.0012664770786
 20
16.50047945247244
 30
0.0
 11
401.0012664770786
 21
10.50047945247244
 31
0.0
  0
LINE
  5
452
330
15
100
AcDbEntity
 67
     1
  8
枠線
100
AcDbLine
 10
31.50126647707862
 20
18.50047945247243
 30
0.0
 11
34.00126647707862
 21
13.50047945247243
 31
0.0
  0
LINE
  5
453
330
15
100
AcDbEntity
 67
     1
  8
枠線
100
AcDbLine
 10
34.00126647707862
 20
18.50047945247243
 30
0.0
 11
34.00126647707862
 21
8.500479452472433
 31
0.0
  0
MTEXT
  5
454
330
15
100
AcDbEntity
 67
     1
  8
文字（固定）
  6
ByBlock
100
AcDbMText
 10
24.70126647707861
 20
17.50047945247243
 30
0.0
 40
2.5
 41
0.0
 46
0.0
 71
     1
 72
     5
  1
改\P訂
  7
MS明朝
 73
     1
 44
1.0
  0
LINE
  5
455
330
15
100
AcDbEntity
 67
     1
  8
枠線
100
AcDbLine
 10
29.00126647707862
 20
18.50047945247243
 30
0.0
 11
29.00126647707862
 21
8.500479452472433
 31
0.0
  0
LINE
  5
456
330
15
100
AcDbEntity
 67
     1
  8
枠線
100
AcDbLine
 10
29.00126647707862
 20
13.50047945247243
 30
0.0
 11
31.50126647707862
 21
18.50047945247243
 31
0.0
  0
LINE
  5
457
330
15
100
AcDbEntity
 67
     1
  8
枠線
100
AcDbLine
 10
31.50126647707862
 20
13.50047945247243
 30
0.0
 11
34.00126647707862
 21
8.500479452472433
 31
0.0
  0
LINE
  5
458
330
15
100
AcDbEntity
 67
     1
  8
枠線
100
AcDbLine
 10
29.00126647707862
 20
8.500479452472433
 30
0.0
 11
31.50126647707862
 21
13.50047945247243
 31
0.0
  0
LINE
  5
459
330
15
100
AcDbEntity
 67
     1
  8
枠線
  6
ByBlock
100
AcDbLine
 10
31.50126647707862
 20
18.50047945247243
 30
0.0
 11
31.50126647707862
 21
18.50047945247243
 31
0.0
  0
MTEXT
  5
45A
330
15
100
AcDbEntity
 67
     1
  8
0
100
AcDbMText
 10
30.75126647707862
 20
16.00047945247243
 30
0.0
 40
2.5
 41
0.0
 46
0.0
 71
     4
 72
     5
  1
2  98.03.03 ｶﾞﾗｽｴﾎﾟ ｷｼ t=1.6mm
  7
MSｺﾞｼｯｸ
 73
     1
 44
1.0
  0
MTEXT
  5
45B
330
15
100
AcDbEntity
 67
     1
  8
0
100
AcDbMText
 10
31.00126647707862
 20
11.00047945247243
 30
0.0
 40
2.5
 41
0.0
 46
0.0
 71
     4
 72
     5
  1
1  98.03.03 ｶﾞﾗｽｴﾎﾟ ｷｼ t=1.6mm
  7
MSｺﾞｼｯｸ
 73
     1
 44
1.0
  0
LINE
  5
4E0
330
15
100
AcDbEntity
 67
     1
  8
枠線
 62
   140
100
AcDbLine
 10
234.5000001432493
 20
33.5
 30
0.0
 11
304.5000001432493
 21
33.5
 31
0.0
  0
MTEXT
  5
4E1
330
15
100
AcDbEntity
 67
     1
  8
文字（固定）
100
AcDbMText
 10
277.0
 20
11.0
 30
0.0
 40
2.5
 41
0.0
 46
0.0
 71
     5
 72
     5
  1
単  位
  7
MS明朝
 73
     1
 44
1.0
  0
MTEXT
  5
4E2
330
15
100
AcDbEntity
 67
     1
  8
文字（可変）
100
AcDbMText
 10
259.5
 20
11.0
 30
0.0
 40
2.5
 41
0.0
 46
0.0
 71
     5
 72
     5
  1
４／５
  7
MSｺﾞｼｯｸ
 73
     1
 44
1.0
  0
MTEXT
  5
4E3
330
15
100
AcDbEntity
 67
     1
  8
文字（固定）
100
AcDbMText
 10
236.5000001432493
 20
23.99789318546872
 30
0.0
 40
2.5
 41
0.0
 46
0.0
 71
     7
 72
     5
  1
関  係\P図  番
  7
MS明朝
 73
     1
 44
1.0
  0
MTEXT
  5
4E4
330
15
100
AcDbEntity
 67
     1
  8
文字（固定）
100
AcDbMText
 10
236.5000001432493
 20
13.99789318546872
 30
0.0
 40
2.5
 41
0.0
 46
0.0
 71
     7
 72
     5
  1
規  格\P仕  様
  7
MS明朝
 73
     1
 44
1.0
  0
MTEXT
  5
4E5
330
15
100
AcDbEntity
 67
     1
  8
文字（固定）
100
AcDbMText
 10
242.0
 20
11.0
 30
0.0
 40
2.5
 41
0.0
 46
0.0
 71
     5
 72
     5
  1
尺  度
  7
MS明朝
 73
     1
 44
1.0
  0
MTEXT
  5
4E6
330
15
100
AcDbEntity
 67
     1
  8
文字（固定）
100
AcDbMText
 10
294.5
 20
11.0
 30
0.0
 40
2.5
 41
0.0
 46
0.0
 71
     5
 72
     5
  1
ｍｍ
  7
MS明朝
 73
     1
 44
1.0
  0
LINE
  5
505
330
15
100
AcDbEntity
 67
     1
  8
枠線
100
AcDbLine
 10
269.5012664770786
 20
13.5
 30
0.0
 11
269.5012664770786
 21
8.50047945247244
 31
0.0
  0
VIEWPORT
  5
1205
330
15
100
AcDbEntity
 67
     1
  8
0
100
AcDbViewport
 10
218.7512664770786
 20
160.5004794524724
 30
0.0
 40
389.5
 41
254.0
 68
     2
 69
     2
 12
209.0547189943665
 22
169.8023345537685
 13
0.0
 23
0.0
 14
1.0
 24
1.0
 15
5.0
 25
5.0
 16
0.0
 26
0.0
 36
1.0
 17
0.0
 27
0.0
 37
0.0
 42
50.0
 43
0.0
 44
0.0
 45
317.5
 50
0.0
 51
0.0
 72
   100
 90
    33568
  1

281
     0
 71
     1
 74
     0
110
0.0
120
0.0
130
0.0
111
1.0
121
0.0
131
0.0
112
0.0
122
1.0
132
0.0
 79
     0
146
0.0
170
     0
 61
     5
348
34A3
292
     1
282
     1
141
0.0
142
0.0
 63
   250
421
  3355443
  0
LINE
  5
347B
330
15
100
AcDbEntity
 67
     1
  8
枠線
100
AcDbLine
 10
305.5012664770786
 20
26.50047945247244
 30
0.0
 11
323.5012664770786
 21
26.50047945247244
 31
0.0
  0
LINE
  5
347C
330
15
100
AcDbEntity
 67
     1
  8
枠線
100
AcDbLine
 10
323.5012664770786
 20
30.50047945247244
 30
0.0
 11
305.5012664770786
 21
30.50047945247244
 31
0.0
  0
MTEXT
  5
347D
330
15
100
AcDbEntity
 67
     1
  8
文字（可変）
100
AcDbMText
 10
314.5012664770786
 20
28.50047945247244
 30
0.0
 40
2.5
 41
0.0
 46
0.0
 71
     5
 72
     5
  1
05.12.21
  7
MSｺﾞｼｯｸ
 73
     1
 44
1.0
  0
CIRCLE
  5
347E
330
15
100
AcDbEntity
 67
     1
  8
枠線
100
AcDbCircle
 10
314.5012664770786
 20
28.50047945247244
 30
0.0
 40
9.199999999999999
  0
MTEXT
  5
347F
330
15
100
AcDbEntity
 67
     1
  8
文字（可変）
100
AcDbMText
 10
314.5012664770786
 20
33.50047945247244
 30
0.0
 40
2.5
 41
0.0
 46
0.0
 71
     5
 72
     5
  1
設 計
  7
MSｺﾞｼｯｸ
 73
     1
 44
1.0
  0
MTEXT
  5
3480
330
15
100
AcDbEntity
 67
     1
  8
文字（可変）
100
AcDbMText
 10
314.5012664770786
 20
23.50047945247244
 30
0.0
 40
2.5
 41
0.0
 46
0.0
 71
     5
 72
     5
  1
髙 松
  7
MSｺﾞｼｯｸ
 73
     1
 44
1.0
  0
ENDSEC
  0
SECTION
  2
OBJECTS
  0
DICTIONARY
  5
C
330
0
100
AcDbDictionary
281
     1
  3
ACAD_COLOR
350
34B6
  3
ACAD_GROUP
350
D
  3
ACAD_LAYOUT
350
34CD
  3
ACAD_MATERIAL
350
3484
  3
ACAD_MLEADERSTYLE
350
34CB
  3
ACAD_MLINESTYLE
350
1B
  3
ACAD_PLOTSETTINGS
350
34CE
  3
ACAD_PLOTSTYLENAME
350
3482
  3
ACAD_SCALELIST
350
34B9
  3
ACAD_TABLESTYLE
350
34B7
  3
ACAD_VISUALSTYLE
350
349D
  3
ACDB_RECOMPOSE_DATA
350
34E6
  3
ACDBVARIABLEDICTIONARY
350
1A82
  3
CONTENTDICTIONARY
350
23
  0
DICTIONARY
  5
34B6
102
{ACAD_REACTORS
330
C
102
}
330
C
100
AcDbDictionary
281
     1
  0
DICTIONARY
  5
D
102
{ACAD_REACTORS
330
C
102
}
330
C
100
AcDbDictionary
281
     1
  0
DICTIONARY
  5
34CD
102
{ACAD_REACTORS
330
C
102
}
330
C
100
AcDbDictionary
281
     1
  3
Model
350
34CF
  3
レイアウト1
350
34D0
  0
DICTIONARY
  5
3484
102
{ACAD_REACTORS
330
C
102
}
330
C
100
AcDbDictionary
281
     1
  3
ByBlock
350
348D
  3
ByLayer
350
3485
  3
Global
350
3495
  0
DICTIONARY
  5
34CB
102
{ACAD_REACTORS
330
C
102
}
330
C
100
AcDbDictionary
281
     1
  3
Standard
350
34CC
  0
DICTIONARY
  5
1B
102
{ACAD_REACTORS
330
C
102
}
330
C
100
AcDbDictionary
281
     1
  3
STANDARD
350
1C
  0
DICTIONARY
  5
34CE
102
{ACAD_REACTORS
330
C
102
}
330
C
100
AcDbDictionary
281
     1
  0
ACDBDICTIONARYWDFLT
  5
3482
102
{ACAD_REACTORS
330
C
102
}
330
C
100
AcDbDictionary
281
     1
  3
Normal
350
3483
100
AcDbDictionaryWithDefault
340
3483
  0
DICTIONARY
  5
34B9
102
{ACAD_REACTORS
330
C
102
}
330
C
100
AcDbDictionary
281
     1
  3
A0
350
34BA
  3
A1
350
34BB
  3
A2
350
34BC
  3
A3
350
34BD
  3
A4
350
34BE
  3
A5
350
34BF
  3
A6
350
34C0
  3
A7
350
34C1
  3
A8
350
34C2
  3
A9
350
34C3
  3
B0
350
34C4
  3
B1
350
34C5
  3
B2
350
34C6
  3
B3
350
34C7
  3
B4
350
34C8
  3
B5
350
34C9
  3
B6
350
34CA
  0
DICTIONARY
  5
34B7
102
{ACAD_REACTORS
330
C
102
}
330
C
100
AcDbDictionary
281
     1
  3
Standard
350
34B8
  0
DICTIONARY
  5
349D
102
{ACAD_REACTORS
330
C
102
}
330
C
100
AcDbDictionary
281
     1
  3
2dWireframe
350
34A3
  3
Basic
350
34A2
  3
Brighten
350
34A9
  3
ColorChange
350
34AD
  3
Conceptual
350
34A6
  3
Dim
350
34A8
  3
EdgeColorOff
350
34B5
  3
Facepattern
350
34AC
  3
Flat
350
349E
  3
FlatWithEdges
350
349F
  3
Gouraud
350
34A0
  3
GouraudWithEdges
350
34A1
  3
Hidden
350
34A5
  3
JitterOff
350
34B3
  3
Linepattern
350
34AB
  3
OverhangOff
350
34B4
  3
Realistic
350
34A7
  3
Shaded
350
34B2
  3
Shaded with edges
350
34B1
  3
Shades of Gray
350
34AE
  3
Sketchy
350
34AF
  3
Thicken
350
34AA
  3
Wireframe
350
34A4
  3
X-Ray
350
34B0
  0
XRECORD
  5
34E6
102
{ACAD_REACTORS
330
C
102
}
330
C
100
AcDbXrecord
280
     1
 90
        1
330
34B8
  0
DICTIONARY
  5
1A82
102
{ACAD_REACTORS
330
C
102
}
330
C
100
AcDbDictionary
281
     1
  3
CANNOSCALE
350
34E0
  3
CMLEADERSTYLE
350
34DE
  3
CTABLESTYLE
350
34DD
  3
LAYEREVAL
350
34E2
  3
LAYERNOTIFY
350
34E3
  3
LIGHTINGUNITS
350
34E1
  3
MSLTSCALE
350
34DF
  3
SORTENTS
350
1A83
  0
DICTIONARY
  5
23
102
{ACAD_REACTORS
330
C
102
}
330
C
100
AcDbDictionary
281
     1
  0
LAYOUT
  5
34CF
102
{ACAD_REACTORS
330
34CD
102
}
330
34CD
100
AcDbPlotSettings
  1

  2
DWG To PDF.pc3
  4

  6

 40
0.0
 41
0.0
 42
0.0
 43
0.0
 44
0.0
 45
0.0
 46
0.0
 47
0.0
 48
0.0
 49
0.0
140
0.0
141
0.0
142
1.0
143
1.0
 70
  1712
 72
     0
 73
     0
 74
     0
  7

 75
     0
147
1.0
 76
     0
 77
     2
 78
   300
148
0.0
149
0.0
100
AcDbLayout
  1
Model
 70
     1
 71
     0
 10
0.0
 20
0.0
 11
12.0
 21
9.0
 12
0.0
 22
0.0
 32
0.0
 14
0.0
 24
0.0
 34
0.0
 15
0.0
 25
0.0
 35
0.0
146
0.0
 13
0.0
 23
0.0
 33
0.0
 16
1.0
 26
0.0
 36
0.0
 17
0.0
 27
1.0
 37
0.0
 76
     0
330
18
  0
LAYOUT
  5
34D0
102
{ACAD_REACTORS
330
34CD
102
}
330
34CD
100
AcDbPlotSettings
  1

  2
DWG To PDF.pc3
  4
ISO_full_bleed_A3_(420.00_x_297.00_MM)
  6

 40
0.7937499880790711
 41
0.7937499880790711
 42
0.79376220703125
 43
0.79376220703125
 44
420.0
 45
297.0
 46
0.0
 47
0.0
 48
0.0
 49
0.0
140
0.0
141
0.0
142
1.0
143
23.99112087309699
 70
   688
 72
     0
 73
     0
 74
     1
  7

 75
     0
147
0.0416820875226957
 76
     0
 77
     2
 78
   300
148
-609.2884166609612
149
-215.599648552574
100
AcDbLayout
  1
レイアウト1
 70
     1
 71
     1
 10
23.23801042338334
 20
7.738452623840542
 11
419.9415839155382
 21
288.2645510218643
 12
0.0
 22
0.0
 32
0.0
 14
23.98773293940792
 24
8.48817513986512
 34
-0.0000000000112498
 15
413.5079965757998
 25
287.5148169646445
 35
0.0000000000002956
146
0.0
 13
0.0
 23
0.0
 33
0.0
 16
1.0
 26
0.0
 36
0.0
 17
0.0
 27
1.0
 37
0.0
 76
     0
330
15
331
2E
1001
ACAD_PSEXT
1000
DWG To PDF.pc3
1000
DWG To PDF
1000
ファイル
1000

1070
     0
  0
MATERIAL
  5
348D
102
{ACAD_XDICTIONARY
360
348E
102
}
102
{ACAD_REACTORS
330
3484
102
}
330
3484
100
AcDbMaterial
  1
ByBlock
 72
     0
 43
0.0208333333333333
 43
0.0
 43
0.0
 43
0.0
 43
0.0
 43
0.0208333333333333
 43
0.0
 43
0.0
 43
0.0
 43
0.0
 43
1.0
 43
0.0
 43
0.0
 43
0.0
 43
0.0
 43
1.0
 77
     0
 47
0.0208333333333333
 47
0.0
 47
0.0
 47
0.0
 47
0.0
 47
0.0208333333333333
 47
0.0
 47
0.0
 47
0.0
 47
0.0
 47
1.0
 47
0.0
 47
0.0
 47
0.0
 47
0.0
 47
1.0
171
     0
 49
0.0208333333333333
 49
0.0
 49
0.0
 49
0.0
 49
0.0
 49
0.0208333333333333
 49
0.0
 49
0.0
 49
0.0
 49
0.0
 49
1.0
 49
0.0
 49
0.0
 49
0.0
 49
0.0
 49
1.0
175
     0
142
0.0208333333333333
142
0.0
142
0.0
142
0.0
142
0.0
142
0.0208333333333333
142
0.0
142
0.0
142
0.0
142
0.0
142
1.0
142
0.0
142
0.0
142
0.0
142
0.0
142
1.0
179
     0
144
0.0208333333333333
144
0.0
144
0.0
144
0.0
144
0.0
144
0.0208333333333333
144
0.0
144
0.0
144
0.0
144
0.0
144
1.0
144
0.0
144
0.0
144
0.0
144
0.0
144
1.0
147
0.0208333333333333
147
0.0
147
0.0
147
0.0
147
0.0
147
0.0208333333333333
147
0.0
147
0.0
147
0.0
147
0.0
147
1.0
147
0.0
147
0.0
147
0.0
147
0.0
147
1.0
  0
MATERIAL
  5
3485
102
{ACAD_XDICTIONARY
360
3486
102
}
102
{ACAD_REACTORS
330
3484
102
}
330
3484
100
AcDbMaterial
  1
ByLayer
 72
     0
 43
0.0208333333333333
 43
0.0
 43
0.0
 43
0.0
 43
0.0
 43
0.0208333333333333
 43
0.0
 43
0.0
 43
0.0
 43
0.0
 43
1.0
 43
0.0
 43
0.0
 43
0.0
 43
0.0
 43
1.0
 77
     0
 47
0.0208333333333333
 47
0.0
 47
0.0
 47
0.0
 47
0.0
 47
0.0208333333333333
 47
0.0
 47
0.0
 47
0.0
 47
0.0
 47
1.0
 47
0.0
 47
0.0
 47
0.0
 47
0.0
 47
1.0
171
     0
 49
0.0208333333333333
 49
0.0
 49
0.0
 49
0.0
 49
0.0
 49
0.0208333333333333
 49
0.0
 49
0.0
 49
0.0
 49
0.0
 49
1.0
 49
0.0
 49
0.0
 49
0.0
 49
0.0
 49
1.0
175
     0
142
0.0208333333333333
142
0.0
142
0.0
142
0.0
142
0.0
142
0.0208333333333333
142
0.0
142
0.0
142
0.0
142
0.0
142
1.0
142
0.0
142
0.0
142
0.0
142
0.0
142
1.0
179
     0
144
0.0208333333333333
144
0.0
144
0.0
144
0.0
144
0.0
144
0.0208333333333333
144
0.0
144
0.0
144
0.0
144
0.0
144
1.0
144
0.0
144
0.0
144
0.0
144
0.0
144
1.0
147
0.0208333333333333
147
0.0
147
0.0
147
0.0
147
0.0
147
0.0208333333333333
147
0.0
147
0.0
147
0.0
147
0.0
147
1.0
147
0.0
147
0.0
147
0.0
147
0.0
147
1.0
  0
MATERIAL
  5
3495
102
{ACAD_XDICTIONARY
360
3496
102
}
102
{ACAD_REACTORS
330
3484
102
}
330
3484
100
AcDbMaterial
  1
Global
 72
     0
 43
0.0208333333333333
 43
0.0
 43
0.0
 43
0.0
 43
0.0
 43
0.0208333333333333
 43
0.0
 43
0.0
 43
0.0
 43
0.0
 43
1.0
 43
0.0
 43
0.0
 43
0.0
 43
0.0
 43
1.0
 77
     0
 47
0.0208333333333333
 47
0.0
 47
0.0
 47
0.0
 47
0.0
 47
0.0208333333333333
 47
0.0
 47
0.0
 47
0.0
 47
0.0
 47
1.0
 47
0.0
 47
0.0
 47
0.0
 47
0.0
 47
1.0
171
     0
 49
0.0208333333333333
 49
0.0
 49
0.0
 49
0.0
 49
0.0
 49
0.0208333333333333
 49
0.0
 49
0.0
 49
0.0
 49
0.0
 49
1.0
 49
0.0
 49
0.0
 49
0.0
 49
0.0
 49
1.0
175
     0
142
0.0208333333333333
142
0.0
142
0.0
142
0.0
142
0.0
142
0.0208333333333333
142
0.0
142
0.0
142
0.0
142
0.0
142
1.0
142
0.0
142
0.0
142
0.0
142
0.0
142
1.0
179
     0
144
0.0208333333333333
144
0.0
144
0.0
144
0.0
144
0.0
144
0.0208333333333333
144
0.0
144
0.0
144
0.0
144
0.0
144
1.0
144
0.0
144
0.0
144
0.0
144
0.0
144
1.0
147
0.0208333333333333
147
0.0
147
0.0
147
0.0
147
0.0
147
0.0208333333333333
147
0.0
147
0.0
147
0.0
147
0.0
147
1.0
147
0.0
147
0.0
147
0.0
147
0.0
147
1.0
  0
MLEADERSTYLE
  5
34CC
102
{ACAD_REACTORS
330
34CB
102
}
330
34CB
100
AcDbMLeaderStyle
179
     2
170
     2
171
     1
172
     0
 90
        2
 40
0.0
 41
0.0
173
     1
 91
-1056964608
340
12
 92
       -2
290
     1
 42
0.09
291
     1
 43
0.36
  3
Standard
 44
0.18
300

342
F
174
     1
178
     6
175
     1
176
     0
 93
-1056964608
 45
0.18
292
     0
297
     0
 46
0.18
 94
-1056964608
 47
1.0
 49
1.0
140
1.0
293
     1
141
0.0
294
     1
177
     0
142
1.0
295
     1
296
     0
143
0.125
271
     0
272
     9
273
     9
  0
MLINESTYLE
  5
1C
102
{ACAD_REACTORS
330
1B
102
}
330
1B
100
AcDbMlineStyle
  2
STANDARD
 70
     0
  3

 62
   256
 51
90.0
 52
90.0
 71
     2
 49
0.5
 62
   256
  6
BYLAYER
 49
-0.5
 62
   256
  6
BYLAYER
  0
ACDBPLACEHOLDER
  5
3483
102
{ACAD_REACTORS
330
3482
102
}
330
3482
  0
SCALE
  5
34BA
102
{ACAD_REACTORS
330
34B9
102
}
330
34B9
100
AcDbScale
 70
     0
300
1:1
140
1.0
141
1.0
290
     1
  0
SCALE
  5
34BB
102
{ACAD_REACTORS
330
34B9
102
}
330
34B9
100
AcDbScale
 70
     0
300
1/128" = 1'-0"
140
0.0078125
141
12.0
290
     0
  0
SCALE
  5
34BC
102
{ACAD_REACTORS
330
34B9
102
}
330
34B9
100
AcDbScale
 70
     0
300
1/64" = 1'-0"
140
0.015625
141
12.0
290
     0
  0
SCALE
  5
34BD
102
{ACAD_REACTORS
330
34B9
102
}
330
34B9
100
AcDbScale
 70
     0
300
1/32" = 1'-0"
140
0.03125
141
12.0
290
     0
  0
SCALE
  5
34BE
102
{ACAD_REACTORS
330
34B9
102
}
330
34B9
100
AcDbScale
 70
     0
300
1/16" = 1'-0"
140
0.0625
141
12.0
290
     0
  0
SCALE
  5
34BF
102
{ACAD_REACTORS
330
34B9
102
}
330
34B9
100
AcDbScale
 70
     0
300
3/32" = 1'-0"
140
0.09375
141
12.0
290
     0
  0
SCALE
  5
34C0
102
{ACAD_REACTORS
330
34B9
102
}
330
34B9
100
AcDbScale
 70
     0
300
1/8" = 1'-0"
140
0.125
141
12.0
290
     0
  0
SCALE
  5
34C1
102
{ACAD_REACTORS
330
34B9
102
}
330
34B9
100
AcDbScale
 70
     0
300
3/16" = 1'-0"
140
0.1875
141
12.0
290
     0
  0
SCALE
  5
34C2
102
{ACAD_REACTORS
330
34B9
102
}
330
34B9
100
AcDbScale
 70
     0
300
1/4" = 1'-0"
140
0.25
141
12.0
290
     0
  0
SCALE
  5
34C3
102
{ACAD_REACTORS
330
34B9
102
}
330
34B9
100
AcDbScale
 70
     0
300
3/8" = 1'-0"
140
0.375
141
12.0
290
     0
  0
SCALE
  5
34C4
102
{ACAD_REACTORS
330
34B9
102
}
330
34B9
100
AcDbScale
 70
     0
300
1/2" = 1'-0"
140
0.5
141
12.0
290
     0
  0
SCALE
  5
34C5
102
{ACAD_REACTORS
330
34B9
102
}
330
34B9
100
AcDbScale
 70
     0
300
3/4" = 1'-0"
140
0.75
141
12.0
290
     0
  0
SCALE
  5
34C6
102
{ACAD_REACTORS
330
34B9
102
}
330
34B9
100
AcDbScale
 70
     0
300
1" = 1'-0"
140
1.0
141
12.0
290
     0
  0
SCALE
  5
34C7
102
{ACAD_REACTORS
330
34B9
102
}
330
34B9
100
AcDbScale
 70
     0
300
1-1/2" = 1'-0"
140
1.5
141
12.0
290
     0
  0
SCALE
  5
34C8
102
{ACAD_REACTORS
330
34B9
102
}
330
34B9
100
AcDbScale
 70
     0
300
3" = 1'-0"
140
3.0
141
12.0
290
     0
  0
SCALE
  5
34C9
102
{ACAD_REACTORS
330
34B9
102
}
330
34B9
100
AcDbScale
 70
     0
300
6" = 1'-0"
140
6.0
141
12.0
290
     0
  0
SCALE
  5
34CA
102
{ACAD_REACTORS
330
34B9
102
}
330
34B9
100
AcDbScale
 70
     0
300
1'-0" = 1'-0"
140
12.0
141
12.0
290
     0
  0
TABLESTYLE
  5
34B8
102
{ACAD_XDICTIONARY
360
34E4
102
}
102
{ACAD_REACTORS
330
34B7
102
}
330
34B7
100
AcDbTableStyle
280
     0
  3
Standard
 70
     0
 71
     0
 40
0.06
 41
0.06
280
     0
281
     0
  7
STANDARD
140
0.18
170
     2
 62
     0
 63
     7
283
     0
 90
      512
 91
        0
  1

274
    -2
284
     1
 64
     0
275
    -2
285
     1
 65
     0
276
    -2
286
     1
 66
     0
277
    -2
287
     1
 67
     0
278
    -2
288
     1
 68
     0
279
    -2
289
     1
 69
     0
  7
STANDARD
140
0.25
170
     5
 62
     0
 63
     7
283
     0
 90
      512
 91
        0
  1

274
    -2
284
     1
 64
     0
275
    -2
285
     1
 65
     0
276
    -2
286
     1
 66
     0
277
    -2
287
     1
 67
     0
278
    -2
288
     1
 68
     0
279
    -2
289
     1
 69
     0
  7
STANDARD
140
0.18
170
     5
 62
     0
 63
     7
283
     0
 90
      512
 91
        0
  1

274
    -2
284
     1
 64
     0
275
    -2
285
     1
 65
     0
276
    -2
286
     1
 66
     0
277
    -2
287
     1
 67
     0
278
    -2
288
     1
 68
     0
279
    -2
289
     1
 69
     0
  0
VISUALSTYLE
  5
34A3
102
{ACAD_REACTORS
330
349D
102
}
330
349D
100
AcDbVisualStyle
  2
2dWireframe
 70
     4
177
     2
291
     0
 71
     0
176
     1
 72
     2
176
     1
 73
     0
176
     1
 90
        0
176
     1
 40
0.6
176
     1
 41
30.0
176
     1
 63
     7
421
 16777215
176
     1
 74
     1
176
     1
 91
        4
176
     1
 64
     7
176
     1
 65
   257
176
     1
 75
     1
176
     1
175
     1
176
     1
 42
1.0
176
     1
 92
        0
176
     1
 66
   257
176
     1
 43
1.0
176
     1
 76
     1
176
     1
 77
     6
176
     1
 78
     2
176
     1
 67
     7
176
     1
 79
     5
176
     1
170
     0
176
     1
171
     0
176
     1
290
     0
176
     1
 93
        1
176
     1
 44
0.0
176
     1
173
     0
176
     1
  0
VISUALSTYLE
  5
34A2
102
{ACAD_REACTORS
330
349D
102
}
330
349D
100
AcDbVisualStyle
  2
Basic
 70
     7
177
     2
291
     1
 71
     1
176
     1
 72
     0
176
     1
 73
     1
176
     1
 90
        0
176
     1
 40
0.6
176
     1
 41
30.0
176
     1
 63
     7
421
 16777215
176
     1
 74
     0
176
     1
 91
        4
176
     1
 64
     7
176
     1
 65
   257
176
     1
 75
     1
176
     1
175
     1
176
     1
 42
1.0
176
     1
 92
        8
176
     1
 66
     7
176
     1
 43
1.0
176
     1
 76
     1
176
     1
 77
     6
176
     1
 78
     2
176
     1
 67
     7
176
     1
 79
     5
176
     1
170
     0
176
     1
171
     0
176
     1
290
     0
176
     1
 93
        1
176
     1
 44
0.0
176
     1
173
     0
176
     1
  0
VISUALSTYLE
  5
34A9
102
{ACAD_REACTORS
330
349D
102
}
330
349D
100
AcDbVisualStyle
  2
Brighten
 70
    12
177
     2
291
     1
 71
     2
176
     1
 72
     2
176
     1
 73
     0
176
     1
 90
        0
176
     1
 40
0.6
176
     1
 41
30.0
176
     1
 63
     7
421
 16777215
176
     1
 74
     1
176
     1
 91
        4
176
     1
 64
     7
176
     1
 65
   257
176
     1
 75
     1
176
     1
175
     1
176
     1
 42
1.0
176
     1
 92
        8
176
     1
 66
     7
176
     1
 43
1.0
176
     1
 76
     1
176
     1
 77
     6
176
     1
 78
     2
176
     1
 67
     7
176
     1
 79
     5
176
     1
170
     0
176
     1
171
     0
176
     1
290
     0
176
     1
 93
        1
176
     1
 44
50.0
176
     1
173
     0
176
     1
  0
VISUALSTYLE
  5
34AD
102
{ACAD_REACTORS
330
349D
102
}
330
349D
100
AcDbVisualStyle
  2
ColorChange
 70
    16
177
     2
291
     1
 71
     2
176
     1
 72
     2
176
     1
 73
     3
176
     1
 90
        0
176
     1
 40
0.6
176
     1
 41
30.0
176
     1
 63
     8
421
  8421504
176
     1
 74
     1
176
     1
 91
        4
176
     1
 64
     7
176
     1
 65
   257
176
     1
 75
     1
176
     1
175
     1
176
     1
 42
1.0
176
     1
 92
        8
176
     1
 66
     8
424
  8421504
176
     1
 43
1.0
176
     1
 76
     1
176
     1
 77
     6
176
     1
 78
     2
176
     1
 67
     7
176
     1
 79
     5
176
     1
170
     0
176
     1
171
     0
176
     1
290
     0
176
     1
 93
        1
176
     1
 44
0.0
176
     1
173
     0
176
     1
  0
VISUALSTYLE
  5
34A6
102
{ACAD_REACTORS
330
349D
102
}
330
349D
100
AcDbVisualStyle
  2
Conceptual
 70
     9
177
     2
291
     0
 71
     3
176
     1
 72
     2
176
     1
 73
     0
176
     1
 90
        0
176
     1
 40
0.6
176
     1
 41
30.0
176
     1
 63
     7
421
 16777215
176
     1
 74
     2
176
     1
 91
        2
176
     1
 64
     7
176
     1
 65
   257
176
     1
 75
     1
176
     1
175
     1
176
     1
 42
179.0
176
     1
 92
        8
176
     1
 66
     7
176
     1
 43
1.0
176
     1
 76
     1
176
     1
 77
     6
176
     1
 78
     2
176
     1
 67
     7
176
     1
 79
     3
176
     1
170
     0
176
     1
171
     0
176
     1
290
     0
176
     1
 93
        1
176
     1
 44
0.0
176
     1
173
     0
176
     1
  0
VISUALSTYLE
  5
34A8
102
{ACAD_REACTORS
330
349D
102
}
330
349D
100
AcDbVisualStyle
  2
Dim
 70
    11
177
     2
291
     1
 71
     2
176
     1
 72
     2
176
     1
 73
     0
176
     1
 90
        0
176
     1
 40
0.6
176
     1
 41
30.0
176
     1
 63
     7
421
 16777215
176
     1
 74
     1
176
     1
 91
        4
176
     1
 64
     7
176
     1
 65
   257
176
     1
 75
     1
176
     1
175
     1
176
     1
 42
1.0
176
     1
 92
        8
176
     1
 66
     7
176
     1
 43
1.0
176
     1
 76
     1
176
     1
 77
     6
176
     1
 78
     2
176
     1
 67
     7
176
     1
 79
     5
176
     1
170
     0
176
     1
171
     0
176
     1
290
     0
176
     1
 93
        1
176
     1
 44
-50.0
176
     1
173
     0
176
     1
  0
VISUALSTYLE
  5
34B5
102
{ACAD_REACTORS
330
349D
102
}
330
349D
100
AcDbVisualStyle
  2
EdgeColorOff
 70
    22
177
     2
291
     1
 71
     2
176
     0
 72
     2
176
     0
 73
     0
176
     0
 90
        0
176
     0
 40
0.6
176
     0
 41
30.0
176
     0
 63
     7
421
 16777215
176
     0
 74
     1
176
     0
 91
        4
176
     0
 64
     7
176
     0
 65
   257
176
     0
 75
     1
176
     0
175
     1
176
     0
 42
1.0
176
     0
 92
        8
176
     2
 66
     7
176
     0
 43
1.0
176
     0
 76
     1
176
     0
 77
     6
176
     0
 78
     2
176
     0
 67
     7
176
     0
 79
     5
176
     0
170
     0
176
     0
171
     0
176
     0
290
     0
176
     0
 93
        1
176
     0
 44
0.0
176
     0
173
     0
176
     0
  0
VISUALSTYLE
  5
34AC
102
{ACAD_REACTORS
330
349D
102
}
330
349D
100
AcDbVisualStyle
  2
Facepattern
 70
    15
177
     2
291
     1
 71
     2
176
     1
 72
     2
176
     1
 73
     0
176
     1
 90
        0
176
     1
 40
0.6
176
     1
 41
30.0
176
     1
 63
     7
421
 16777215
176
     1
 74
     1
176
     1
 91
        4
176
     1
 64
     7
176
     1
 65
   257
176
     1
 75
     1
176
     1
175
     1
176
     1
 42
1.0
176
     1
 92
        8
176
     1
 66
     7
176
     1
 43
1.0
176
     1
 76
     1
176
     1
 77
     6
176
     1
 78
     2
176
     1
 67
     7
176
     1
 79
     5
176
     1
170
     0
176
     1
171
     0
176
     1
290
     0
176
     1
 93
        1
176
     1
 44
0.0
176
     1
173
     0
176
     1
  0
VISUALSTYLE
  5
349E
102
{ACAD_REACTORS
330
349D
102
}
330
349D
100
AcDbVisualStyle
  2
Flat
 70
     0
177
     2
291
     1
 71
     2
176
     1
 72
     1
176
     1
 73
     1
176
     1
 90
        2
176
     1
 40
0.6
176
     1
 41
30.0
176
     1
 63
     7
421
 16777215
176
     1
 74
     0
176
     1
 91
        0
176
     1
 64
     7
176
     1
 65
   257
176
     1
 75
     1
176
     1
175
     1
176
     1
 42
1.0
176
     1
 92
        8
176
     1
 66
     7
176
     1
 43
1.0
176
     1
 76
     1
176
     1
 77
     6
176
     1
 78
     2
176
     1
 67
     7
176
     1
 79
     5
176
     1
170
     0
176
     1
171
     0
176
     1
290
     0
176
     1
 93
       13
176
     1
 44
0.0
176
     1
173
     0
176
     1
  0
VISUALSTYLE
  5
349F
102
{ACAD_REACTORS
330
349D
102
}
330
349D
100
AcDbVisualStyle
  2
FlatWithEdges
 70
     1
177
     2
291
     1
 71
     2
176
     1
 72
     1
176
     1
 73
     1
176
     1
 90
        2
176
     1
 40
0.6
176
     1
 41
30.0
176
     1
 63
     7
421
 16777215
176
     1
 74
     1
176
     1
 91
        0
176
     1
 64
     7
176
     1
 65
   257
176
     1
 75
     1
176
     1
175
     1
176
     1
 42
1.0
176
     1
 92
        0
176
     1
 66
   257
176
     1
 43
1.0
176
     1
 76
     1
176
     1
 77
     6
176
     1
 78
     2
176
     1
 67
     7
176
     1
 79
     5
176
     1
170
     0
176
     1
171
     0
176
     1
290
     0
176
     1
 93
       13
176
     1
 44
0.0
176
     1
173
     0
176
     1
  0
VISUALSTYLE
  5
34A0
102
{ACAD_REACTORS
330
349D
102
}
330
349D
100
AcDbVisualStyle
  2
Gouraud
 70
     2
177
     2
291
     1
 71
     2
176
     1
 72
     2
176
     1
 73
     1
176
     1
 90
        2
176
     1
 40
0.6
176
     1
 41
30.0
176
     1
 63
     7
421
 16777215
176
     1
 74
     0
176
     1
 91
        0
176
     1
 64
     7
176
     1
 65
   257
176
     1
 75
     1
176
     1
175
     1
176
     1
 42
1.0
176
     1
 92
        0
176
     1
 66
     7
176
     1
 43
1.0
176
     1
 76
     1
176
     1
 77
     6
176
     1
 78
     2
176
     1
 67
     7
176
     1
 79
     5
176
     1
170
     0
176
     1
171
     0
176
     1
290
     0
176
     1
 93
       13
176
     1
 44
0.0
176
     1
173
     0
176
     1
  0
VISUALSTYLE
  5
34A1
102
{ACAD_REACTORS
330
349D
102
}
330
349D
100
AcDbVisualStyle
  2
GouraudWithEdges
 70
     3
177
     2
291
     1
 71
     2
176
     1
 72
     2
176
     1
 73
     1
176
     1
 90
        2
176
     1
 40
0.6
176
     1
 41
30.0
176
     1
 63
     7
421
 16777215
176
     1
 74
     1
176
     1
 91
        0
176
     1
 64
     7
176
     1
 65
   257
176
     1
 75
     1
176
     1
175
     1
176
     1
 42
1.0
176
     1
 92
        0
176
     1
 66
   257
176
     1
 43
1.0
176
     1
 76
     1
176
     1
 77
     6
176
     1
 78
     2
176
     1
 67
     7
176
     1
 79
     5
176
     1
170
     0
176
     1
171
     0
176
     1
290
     0
176
     1
 93
       13
176
     1
 44
0.0
176
     1
173
     0
176
     1
  0
VISUALSTYLE
  5
34A5
102
{ACAD_REACTORS
330
349D
102
}
330
349D
100
AcDbVisualStyle
  2
Hidden
 70
     6
177
     2
291
     0
 71
     1
176
     1
 72
     2
176
     1
 73
     2
176
     1
 90
        0
176
     1
 40
0.6
176
     1
 41
30.0
176
     1
 63
     7
421
 16777215
176
     1
 74
     2
176
     1
 91
        2
176
     1
 64
     7
176
     1
 65
   257
176
     1
 75
     2
176
     1
175
     1
176
     1
 42
40.0
176
     1
 92
        0
176
     1
 66
   257
176
     1
 43
1.0
176
     1
 76
     1
176
     1
 77
     6
176
     1
 78
     2
176
     1
 67
     7
176
     1
 79
     3
176
     1
170
     0
176
     1
171
     0
176
     1
290
     0
176
     1
 93
        1
176
     1
 44
0.0
176
     1
173
     0
176
     1
  0
VISUALSTYLE
  5
34B3
102
{ACAD_REACTORS
330
349D
102
}
330
349D
100
AcDbVisualStyle
  2
JitterOff
 70
    20
177
     2
291
     1
 71
     2
176
     0
 72
     2
176
     0
 73
     0
176
     0
 90
        0
176
     0
 40
0.6
176
     0
 41
30.0
176
     0
 63
     7
421
 16777215
176
     0
 74
     1
176
     0
 91
        4
176
     0
 64
     7
176
     0
 65
   257
176
     0
 75
     1
176
     0
175
     1
176
     0
 42
1.0
176
     0
 92
       10
176
     2
 66
     7
176
     0
 43
1.0
176
     0
 76
     1
176
     0
 77
     6
176
     0
 78
     2
176
     0
 67
     7
176
     0
 79
     5
176
     0
170
     0
176
     0
171
     0
176
     0
290
     0
176
     0
 93
        1
176
     0
 44
0.0
176
     0
173
     0
176
     0
  0
VISUALSTYLE
  5
34AB
102
{ACAD_REACTORS
330
349D
102
}
330
349D
100
AcDbVisualStyle
  2
Linepattern
 70
    14
177
     2
291
     1
 71
     2
176
     1
 72
     2
176
     1
 73
     0
176
     1
 90
        0
176
     1
 40
0.6
176
     1
 41
30.0
176
     1
 63
     7
421
 16777215
176
     1
 74
     1
176
     1
 91
        4
176
     1
 64
     7
176
     1
 65
   257
176
     1
 75
     7
176
     1
175
     7
176
     1
 42
1.0
176
     1
 92
        8
176
     1
 66
     7
176
     1
 43
1.0
176
     1
 76
     1
176
     1
 77
     6
176
     1
 78
     2
176
     1
 67
     7
176
     1
 79
     5
176
     1
170
     0
176
     1
171
     0
176
     1
290
     0
176
     1
 93
        1
176
     1
 44
0.0
176
     1
173
     0
176
     1
  0
VISUALSTYLE
  5
34B4
102
{ACAD_REACTORS
330
349D
102
}
330
349D
100
AcDbVisualStyle
  2
OverhangOff
 70
    21
177
     2
291
     1
 71
     2
176
     0
 72
     2
176
     0
 73
     0
176
     0
 90
        0
176
     0
 40
0.6
176
     0
 41
30.0
176
     0
 63
     7
421
 16777215
176
     0
 74
     1
176
     0
 91
        4
176
     0
 64
     7
176
     0
 65
   257
176
     0
 75
     1
176
     0
175
     1
176
     0
 42
1.0
176
     0
 92
        9
176
     2
 66
     7
176
     0
 43
1.0
176
     0
 76
     1
176
     0
 77
     6
176
     0
 78
     2
176
     0
 67
     7
176
     0
 79
     5
176
     0
170
     0
176
     0
171
     0
176
     0
290
     0
176
     0
 93
        1
176
     0
 44
0.0
176
     0
173
     0
176
     0
  0
VISUALSTYLE
  5
34A7
102
{ACAD_REACTORS
330
349D
102
}
330
349D
100
AcDbVisualStyle
  2
Realistic
 70
     8
177
     2
291
     0
 71
     2
176
     1
 72
     3
176
     1
 73
     0
176
     1
 90
        2
176
     1
 40
0.6
176
     1
 41
30.0
176
     1
 63
     7
421
 16777215
176
     1
 74
     0
176
     1
 91
        0
176
     1
 64
     7
176
     1
 65
   257
176
     1
 75
     1
176
     1
175
     1
176
     1
 42
1.0
176
     1
 92
        8
176
     1
 66
   257
176
     1
 43
1.0
176
     1
 76
     1
176
     1
 77
     6
176
     1
 78
     2
176
     1
 67
     7
176
     1
 79
     3
176
     1
170
     0
176
     1
171
     0
176
     1
290
     0
176
     1
 93
       13
176
     1
 44
0.0
176
     1
173
     0
176
     1
  0
VISUALSTYLE
  5
34B2
102
{ACAD_REACTORS
330
349D
102
}
330
349D
100
AcDbVisualStyle
  2
Shaded
 70
    27
177
     2
291
     0
 71
     2
176
     1
 72
     2
176
     1
 73
     1
176
     1
 90
        2
176
     1
 40
0.6
176
     1
 41
30.0
176
     1
 63
     7
421
 16777215
176
     1
 74
     0
176
     1
 91
        4
176
     1
 64
     7
176
     1
 65
   257
176
     1
 75
     1
176
     1
175
     1
176
     1
 42
1.0
176
     1
 92
        8
176
     1
 66
   257
176
     1
 43
1.0
176
     1
 76
     1
176
     1
 77
     6
176
     1
 78
     2
176
     1
 67
     8
425
  7895160
176
     1
 79
     3
176
     1
170
     0
176
     1
171
     0
176
     1
290
     0
176
     1
 93
        5
176
     1
 44
0.0
176
     1
173
     0
176
     1
  0
VISUALSTYLE
  5
34B1
102
{ACAD_REACTORS
330
349D
102
}
330
349D
100
AcDbVisualStyle
  2
Shaded with edges
 70
    26
177
     2
291
     0
 71
     2
176
     1
 72
     2
176
     1
 73
     1
176
     1
 90
        2
176
     1
 40
0.6
176
     1
 41
30.0
176
     1
 63
     7
421
 16777215
176
     1
 74
     1
176
     1
 91
       10
176
     1
 64
     7
176
     1
 65
   257
176
     1
 75
     2
176
     1
175
     1
176
     1
 42
1.0
176
     1
 92
        8
176
     1
 66
   257
176
     1
 43
1.0
176
     1
 76
     1
176
     1
 77
     6
176
     1
 78
     2
176
     1
 67
     7
176
     1
 79
     3
176
     1
170
     0
176
     1
171
     0
176
     1
290
     0
176
     1
 93
        5
176
     1
 44
0.0
176
     1
173
     0
176
     1
  0
VISUALSTYLE
  5
34AE
102
{ACAD_REACTORS
330
349D
102
}
330
349D
100
AcDbVisualStyle
  2
Shades of Gray
 70
    23
177
     2
291
     0
 71
     2
176
     1
 72
     2
176
     1
 73
     3
176
     1
 90
        0
176
     1
 40
0.6
176
     1
 41
30.0
176
     1
 63
     7
421
 16777215
176
     1
 74
     2
176
     1
 91
        2
176
     1
 64
     7
176
     1
 65
     7
176
     1
 75
     1
176
     1
175
     1
176
     1
 42
40.0
176
     1
 92
        8
176
     1
 66
     7
176
     1
 43
1.0
176
     1
 76
     1
176
     1
 77
     6
176
     1
 78
     2
176
     1
 67
     7
176
     1
 79
     3
176
     1
170
     0
176
     1
171
     0
176
     1
290
     0
176
     1
 93
        1
176
     1
 44
0.0
176
     1
173
     0
176
     1
  0
VISUALSTYLE
  5
34AF
102
{ACAD_REACTORS
330
349D
102
}
330
349D
100
AcDbVisualStyle
  2
Sketchy
 70
    24
177
     2
291
     0
 71
     1
176
     1
 72
     2
176
     1
 73
     2
176
     1
 90
        0
176
     1
 40
0.6
176
     1
 41
30.0
176
     1
 63
     7
421
 16777215
176
     1
 74
     2
176
     1
 91
        2
176
     1
 64
     7
176
     1
 65
     7
176
     1
 75
     1
176
     1
175
     1
176
     1
 42
40.0
176
     1
 92
       11
176
     1
 66
     7
176
     1
 43
1.0
176
     1
 76
     1
176
     1
 77
     6
176
     1
 78
     2
176
     1
 67
     7
176
     1
 79
     6
176
     1
170
     0
176
     1
171
     0
176
     1
290
     0
176
     1
 93
        1
176
     1
 44
0.0
176
     1
173
     0
176
     1
  0
VISUALSTYLE
  5
34AA
102
{ACAD_REACTORS
330
349D
102
}
330
349D
100
AcDbVisualStyle
  2
Thicken
 70
    13
177
     2
291
     1
 71
     2
176
     1
 72
     2
176
     1
 73
     0
176
     1
 90
        0
176
     1
 40
0.6
176
     1
 41
30.0
176
     1
 63
     7
421
 16777215
176
     1
 74
     1
176
     1
 91
        4
176
     1
 64
     7
176
     1
 65
   257
176
     1
 75
     1
176
     1
175
     1
176
     1
 42
1.0
176
     1
 92
       12
176
     1
 66
     7
176
     1
 43
1.0
176
     1
 76
     1
176
     1
 77
     6
176
     1
 78
     2
176
     1
 67
     7
176
     1
 79
     5
176
     1
170
     0
176
     1
171
     0
176
     1
290
     0
176
     1
 93
        1
176
     1
 44
0.0
176
     1
173
     0
176
     1
  0
VISUALSTYLE
  5
34A4
102
{ACAD_REACTORS
330
349D
102
}
330
349D
100
AcDbVisualStyle
  2
Wireframe
 70
     5
177
     2
291
     0
 71
     0
176
     1
 72
     2
176
     1
 73
     0
176
     1
 90
        0
176
     1
 40
0.6
176
     1
 41
30.0
176
     1
 63
     7
421
 16777215
176
     1
 74
     1
176
     1
 91
        4
176
     1
 64
     7
176
     1
 65
   257
176
     1
 75
     1
176
     1
175
     1
176
     1
 42
1.0
176
     1
 92
        0
176
     1
 66
   257
176
     1
 43
1.0
176
     1
 76
     1
176
     1
 77
     6
176
     1
 78
     2
176
     1
 67
     7
176
     1
 79
     3
176
     1
170
     0
176
     1
171
     0
176
     1
290
     0
176
     1
 93
        1
176
     1
 44
0.0
176
     1
173
     0
176
     1
  0
VISUALSTYLE
  5
34B0
102
{ACAD_REACTORS
330
349D
102
}
330
349D
100
AcDbVisualStyle
  2
X-Ray
 70
    25
177
     2
291
     0
 71
     2
176
     1
 72
     2
176
     1
 73
     1
176
     1
 90
        1
176
     1
 40
0.5
176
     1
 41
30.0
176
     1
 63
     7
421
 16777215
176
     1
 74
     1
176
     1
 91
        0
176
     1
 64
     7
176
     1
 65
   257
176
     1
 75
     1
176
     1
175
     1
176
     1
 42
1.0
176
     1
 92
        8
176
     1
 66
     7
176
     1
 43
1.0
176
     1
 76
     1
176
     1
 77
     6
176
     1
 78
     2
176
     1
 67
     7
176
     1
 79
     3
176
     1
170
     0
176
     1
171
     0
176
     1
290
     0
176
     1
 93
       13
176
     1
 44
0.0
176
     1
173
     0
176
     1
  0
DICTIONARYVAR
  5
34E0
102
{ACAD_REACTORS
330
1A82
102
}
330
1A82
100
DictionaryVariables
280
     0
  1
1:1
  0
DICTIONARYVAR
  5
34DE
102
{ACAD_REACTORS
330
1A82
102
}
330
1A82
100
DictionaryVariables
280
     0
  1
STANDARD
  0
DICTIONARYVAR
  5
34DD
102
{ACAD_REACTORS
330
1A82
102
}
330
1A82
100
DictionaryVariables
280
     0
  1
STANDARD
  0
DICTIONARYVAR
  5
34E2
102
{ACAD_REACTORS
330
1A82
102
}
330
1A82
100
DictionaryVariables
280
     0
  1
1
  0
DICTIONARYVAR
  5
34E3
102
{ACAD_REACTORS
330
1A82
102
}
330
1A82
100
DictionaryVariables
280
     0
  1
15
  0
DICTIONARYVAR
  5
34E1
102
{ACAD_REACTORS
330
1A82
102
}
330
1A82
100
DictionaryVariables
280
     0
  1
0
  0
DICTIONARYVAR
  5
34DF
102
{ACAD_REACTORS
330
1A82
102
}
330
1A82
100
DictionaryVariables
280
     0
  1
0
  0
DICTIONARYVAR
  5
1A83
102
{ACAD_REACTORS
330
1A82
102
}
330
1A82
100
DictionaryVariables
280
     0
  1
96
  0
DICTIONARY
  5
348E
330
348D
100
AcDbDictionary
280
     1
281
     1
  3
BUMPTILE
360
3490
  3
DIFFUSETILE
360
348F
  3
OPACITYTILE
360
3493
  3
REFLECTIONTILE
360
3492
  3
REFRACTIONTILE
360
3494
  3
SPECULARTILE
360
3491
  0
DICTIONARY
  5
3486
330
3485
100
AcDbDictionary
280
     1
281
     1
  3
BUMPTILE
360
3488
  3
DIFFUSETILE
360
3487
  3
OPACITYTILE
360
348B
  3
REFLECTIONTILE
360
348A
  3
REFRACTIONTILE
360
348C
  3
SPECULARTILE
360
3489
  0
DICTIONARY
  5
3496
330
3495
100
AcDbDictionary
280
     1
281
     1
  3
BUMPTILE
360
3498
  3
DIFFUSETILE
360
3497
  3
OPACITYTILE
360
349B
  3
REFLECTIONTILE
360
349A
  3
REFRACTIONTILE
360
349C
  3
SPECULARTILE
360
3499
  0
DICTIONARY
  5
34E4
330
34B8
100
AcDbDictionary
280
     1
281
     1
  3
ACAD_ROUNDTRIP_2008_TABLESTYLE_CELLSTYLEMAP
360
34E5
  0
XRECORD
  5
3490
102
{ACAD_REACTORS
330
348E
102
}
330
348E
100
AcDbXrecord
280
     1
270
     1
271
     1
  0
XRECORD
  5
348F
102
{ACAD_REACTORS
330
348E
102
}
330
348E
100
AcDbXrecord
280
     1
270
     1
271
     1
  0
XRECORD
  5
3493
102
{ACAD_REACTORS
330
348E
102
}
330
348E
100
AcDbXrecord
280
     1
270
     1
271
     1
  0
XRECORD
  5
3492
102
{ACAD_REACTORS
330
348E
102
}
330
348E
100
AcDbXrecord
280
     1
270
     1
271
     1
  0
XRECORD
  5
3494
102
{ACAD_REACTORS
330
348E
102
}
330
348E
100
AcDbXrecord
280
     1
270
     1
271
     1
  0
XRECORD
  5
3491
102
{ACAD_REACTORS
330
348E
102
}
330
348E
100
AcDbXrecord
280
     1
270
     1
271
     1
  0
XRECORD
  5
3488
102
{ACAD_REACTORS
330
3486
102
}
330
3486
100
AcDbXrecord
280
     1
270
     1
271
     1
  0
XRECORD
  5
3487
102
{ACAD_REACTORS
330
3486
102
}
330
3486
100
AcDbXrecord
280
     1
270
     1
271
     1
  0
XRECORD
  5
348B
102
{ACAD_REACTORS
330
3486
102
}
330
3486
100
AcDbXrecord
280
     1
270
     1
271
     1
  0
XRECORD
  5
348A
102
{ACAD_REACTORS
330
3486
102
}
330
3486
100
AcDbXrecord
280
     1
270
     1
271
     1
  0
XRECORD
  5
348C
102
{ACAD_REACTORS
330
3486
102
}
330
3486
100
AcDbXrecord
280
     1
270
     1
271
     1
  0
XRECORD
  5
3489
102
{ACAD_REACTORS
330
3486
102
}
330
3486
100
AcDbXrecord
280
     1
270
     1
271
     1
  0
XRECORD
  5
3498
102
{ACAD_REACTORS
330
3496
102
}
330
3496
100
AcDbXrecord
280
     1
270
     1
271
     1
  0
XRECORD
  5
3497
102
{ACAD_REACTORS
330
3496
102
}
330
3496
100
AcDbXrecord
280
     1
270
     1
271
     1
  0
XRECORD
  5
349B
102
{ACAD_REACTORS
330
3496
102
}
330
3496
100
AcDbXrecord
280
     1
270
     1
271
     1
  0
XRECORD
  5
349A
102
{ACAD_REACTORS
330
3496
102
}
330
3496
100
AcDbXrecord
280
     1
270
     1
271
     1
  0
XRECORD
  5
349C
102
{ACAD_REACTORS
330
3496
102
}
330
3496
100
AcDbXrecord
280
     1
270
     1
271
     1
  0
XRECORD
  5
3499
102
{ACAD_REACTORS
330
3496
102
}
330
3496
100
AcDbXrecord
280
     1
270
     1
271
     1
  0
CELLSTYLEMAP
  5
34E5
102
{ACAD_REACTORS
330
34E4
102
}
330
34E4
100
AcDbCellStyleMap
 90
        3
300
CELLSTYLE
  1
TABLEFORMAT_BEGIN
 90
        5
170
     1
 91
        0
 92
    32768
 62
   257
 93
        1
300
CONTENTFORMAT
  1
CONTENTFORMAT_BEGIN
 90
        0
 91
        0
 92
      512
 93
        0
300

 40
0.0
140
1.0
 94
        5
 62
     0
340
F
144
0.25
309
CONTENTFORMAT_END
171
     0
 94
        0
309
TABLEFORMAT_END
  1
CELLSTYLE_BEGIN
 90
        1
 91
        1
300
_TITLE
309
CELLSTYLE_END
300
CELLSTYLE
  1
TABLEFORMAT_BEGIN
 90
        5
170
     1
 91
        0
 92
        0
 62
   257
 93
        1
300
CONTENTFORMAT
  1
CONTENTFORMAT_BEGIN
 90
        0
 91
        0
 92
      512
 93
        0
300

 40
0.0
140
1.0
 94
        5
 62
     0
340
F
144
0.18
309
CONTENTFORMAT_END
171
     0
 94
        0
309
TABLEFORMAT_END
  1
CELLSTYLE_BEGIN
 90
        2
 91
        1
300
_HEADER
309
CELLSTYLE_END
300
CELLSTYLE
  1
TABLEFORMAT_BEGIN
 90
        5
170
     1
 91
        0
 92
        0
 62
   257
 93
        1
300
CONTENTFORMAT
  1
CONTENTFORMAT_BEGIN
 90
        0
 91
        0
 92
      512
 93
        0
300

 40
0.0
140
1.0
 94
        2
 62
     0
340
F
144
0.18
309
CONTENTFORMAT_END
171
     0
 94
        0
309
TABLEFORMAT_END
  1
CELLSTYLE_BEGIN
 90
        3
 91
        2
300
_DATA
309
CELLSTYLE_END
  0
ENDSEC
  0
EOF
