  0
SECTION
  2
HEADER
  9
$ACADVER
  1
AC1015
  9
$ACADMAINTVER
 70
     6
  9
$DWGCODEPAGE
  3
ANSI_932
  9
$INSBASE
 10
0.0
 20
0.0
 30
0.0
  9
$EXTMIN
 10
3.0
 20
39.66537474762436
 30
0.0
  9
$EXTMAX
 10
421.33974595
 20
299.515
 30
0.0
  9
$LIMMIN
 10
0.0
 20
0.0
  9
$LIMMAX
 10
420.0
 20
297.0
  9
$ORTHOMODE
 70
     1
  9
$REGENMODE
 70
     1
  9
$FILLMODE
 70
     1
  9
$QTEXTMODE
 70
     0
  9
$MIRRTEXT
 70
     1
  9
$LTSCALE
 40
1.0
  9
$ATTMODE
 70
     1
  9
$TEXTSIZE
 40
2.5
  9
$TRACEWID
 40
0.05
  9
$TEXTSTYLE
  7
寸法文字
  9
$CLAYER
  8
寸法線
  9
$CELTYPE
  6
BYLAYER
  9
$CECOLOR
 62
   256
  9
$CELTSCALE
 40
1.0
  9
$DISPSILH
 70
     0
  9
$DIMSCALE
 40
1.0
  9
$DIMASZ
 40
3.0
  9
$DIMEXO
 40
0.7
  9
$DIMDLI
 40
3.75
  9
$DIMRND
 40
0.0
  9
$DIMDLE
 40
0.0
  9
$DIMEXE
 40
1.0
  9
$DIMTP
 40
0.0
  9
$DIMTM
 40
0.1
  9
$DIMTXT
 40
3.0
  9
$DIMCEN
 40
2.5
  9
$DIMTSZ
 40
0.0
  9
$DIMTOL
 70
     0
  9
$DIMLIM
 70
     0
  9
$DIMTIH
 70
     0
  9
$DIMTOH
 70
     0
  9
$DIMSE1
 70
     0
  9
$DIMSE2
 70
     0
  9
$DIMTAD
 70
     1
  9
$DIMZIN
 70
     8
  9
$DIMBLK
  1

  9
$DIMASO
 70
     1
  9
$DIMSHO
 70
     1
  9
$DIMPOST
  1

  9
$DIMAPOST
  1

  9
$DIMALT
 70
     0
  9
$DIMALTD
 70
     4
  9
$DIMALTF
 40
0.0394
  9
$DIMLFAC
 40
1.0
  9
$DIMTOFL
 70
     1
  9
$DIMTVP
 40
0.0
  9
$DIMTIX
 70
     0
  9
$DIMSOXD
 70
     0
  9
$DIMSAH
 70
     1
  9
$DIMBLK1
  1
OPEN30
  9
$DIMBLK2
  1
OPEN30
  9
$DIMSTYLE
  2
標準小
  9
$DIMCLRD
 70
     0
  9
$DIMCLRE
 70
     0
  9
$DIMCLRT
 70
     0
  9
$DIMTFAC
 40
0.5
  9
$DIMGAP
 40
1.5
  9
$DIMJUST
 70
     0
  9
$DIMSD1
 70
     0
  9
$DIMSD2
 70
     0
  9
$DIMTOLJ
 70
     1
  9
$DIMTZIN
 70
     8
  9
$DIMALTZ
 70
     0
  9
$DIMALTTZ
 70
     0
  9
$DIMUPT
 70
     1
  9
$DIMDEC
 70
     2
  9
$DIMTDEC
 70
     2
  9
$DIMALTU
 70
     8
  9
$DIMALTTD
 70
     4
  9
$DIMTXSTY
  7
寸法文字
  9
$DIMAUNIT
 70
     0
  9
$DIMADEC
 70
     0
  9
$DIMALTRND
 40
0.0
  9
$DIMAZIN
 70
     0
  9
$DIMDSEP
 70
    46
  9
$DIMATFIT
 70
     3
  9
$DIMFRAC
 70
     0
  9
$DIMLDRBLK
  1

  9
$DIMLUNIT
 70
     2
  9
$DIMLWD
 70
    -2
  9
$DIMLWE
 70
    -2
  9
$DIMTMOVE
 70
     0
  9
$LUNITS
 70
     2
  9
$LUPREC
 70
     2
  9
$SKETCHINC
 40
0.1
  9
$FILLETRAD
 40
0.5
  9
$AUNITS
 70
     0
  9
$AUPREC
 70
     0
  9
$MENU
  1
acad
  9
$ELEVATION
 40
0.0
  9
$PELEVATION
 40
0.0
  9
$THICKNESS
 40
0.0
  9
$LIMCHECK
 70
     0
  9
$CHAMFERA
 40
0.5
  9
$CHAMFERB
 40
0.5
  9
$CHAMFERC
 40
1.0
  9
$CHAMFERD
 40
0.0
  9
$SKPOLY
 70
     0
  9
$TDCREATE
 40
2451201.761584491
  9
$TDUCREATE
 40
2451201.386584491
  9
$TDUPDATE
 40
2458255.351268634
  9
$TDUUPDATE
 40
2458254.976268634
  9
$TDINDWG
 40
1.0246093403
  9
$TDUSRTIMER
 40
2458254.976111505
  9
$USRTIMER
 70
     1
  9
$ANGBASE
 50
0.0
  9
$ANGDIR
 70
     0
  9
$PDMODE
 70
     0
  9
$PDSIZE
 40
0.0
  9
$PLINEWID
 40
0.0
  9
$SPLFRAME
 70
     0
  9
$SPLINETYPE
 70
     6
  9
$SPLINESEGS
 70
     8
  9
$HANDSEED
  5
37BD
  9
$SURFTAB1
 70
     6
  9
$SURFTAB2
 70
     6
  9
$SURFTYPE
 70
     6
  9
$SURFU
 70
     6
  9
$SURFV
 70
     6
  9
$UCSBASE
  2

  9
$UCSNAME
  2

  9
$UCSORG
 10
0.0
 20
0.0
 30
0.0
  9
$UCSXDIR
 10
1.0
 20
0.0
 30
0.0
  9
$UCSYDIR
 10
0.0
 20
1.0
 30
0.0
  9
$UCSORTHOREF
  2

  9
$UCSORTHOVIEW
 70
     0
  9
$UCSORGTOP
 10
0.0
 20
0.0
 30
0.0
  9
$UCSORGBOTTOM
 10
0.0
 20
0.0
 30
0.0
  9
$UCSORGLEFT
 10
0.0
 20
0.0
 30
0.0
  9
$UCSORGRIGHT
 10
0.0
 20
0.0
 30
0.0
  9
$UCSORGFRONT
 10
0.0
 20
0.0
 30
0.0
  9
$UCSORGBACK
 10
0.0
 20
0.0
 30
0.0
  9
$PUCSBASE
  2

  9
$PUCSNAME
  2

  9
$PUCSORG
 10
0.0
 20
0.0
 30
0.0
  9
$PUCSXDIR
 10
1.0
 20
0.0
 30
0.0
  9
$PUCSYDIR
 10
0.0
 20
1.0
 30
0.0
  9
$PUCSORTHOREF
  2

  9
$PUCSORTHOVIEW
 70
     0
  9
$PUCSORGTOP
 10
0.0
 20
0.0
 30
0.0
  9
$PUCSORGBOTTOM
 10
0.0
 20
0.0
 30
0.0
  9
$PUCSORGLEFT
 10
0.0
 20
0.0
 30
0.0
  9
$PUCSORGRIGHT
 10
0.0
 20
0.0
 30
0.0
  9
$PUCSORGFRONT
 10
0.0
 20
0.0
 30
0.0
  9
$PUCSORGBACK
 10
0.0
 20
0.0
 30
0.0
  9
$USERI1
 70
     0
  9
$USERI2
 70
     0
  9
$USERI3
 70
     0
  9
$USERI4
 70
     0
  9
$USERI5
 70
     0
  9
$USERR1
 40
0.0
  9
$USERR2
 40
0.0
  9
$USERR3
 40
0.0
  9
$USERR4
 40
0.0
  9
$USERR5
 40
0.0
  9
$WORLDVIEW
 70
     1
  9
$SHADEDGE
 70
     3
  9
$SHADEDIF
 70
    70
  9
$TILEMODE
 70
     0
  9
$MAXACTVP
 70
    48
  9
$PINSBASE
 10
0.0
 20
0.0
 30
0.0
  9
$PLIMCHECK
 70
     0
  9
$PEXTMIN
 10
24.0
 20
8.500479452472433
 30
0.0
  9
$PEXTMAX
 10
413.5012664770786
 20
287.5004794524724
 30
0.0
  9
$PLIMMIN
 10
14.03571428571428
 20
-21.39237769038471
  9
$PLIMMAX
 10
452.4642857142858
 20
317.3933365953296
  9
$UNITMODE
 70
     0
  9
$VISRETAIN
 70
     1
  9
$PLINEGEN
 70
     0
  9
$PSLTSCALE
 70
     1
  9
$TREEDEPTH
 70
  3020
  9
$CMLSTYLE
  2
STANDARD
  9
$CMLJUST
 70
     0
  9
$CMLSCALE
 40
1.0
  9
$PROXYGRAPHICS
 70
     1
  9
$MEASUREMENT
 70
     0
  9
$CELWEIGHT
370
    -1
  9
$ENDCAPS
280
     0
  9
$JOINSTYLE
280
     0
  9
$LWDISPLAY
290
     0
  9
$INSUNITS
 70
     0
  9
$HYPERLINKBASE
  1

  9
$STYLESHEET
  1

  9
$XEDIT
290
     1
  9
$CEPSNTYPE
380
     0
  9
$PSTYLEMODE
290
     1
  9
$FINGERPRINTGUID
  2
{1D6996C5-07CC-4C0A-802B-FE763C9E958F}
  9
$VERSIONGUID
  2
{FAEB1C32-E019-11D5-929B-00C0DF256EC4}
  9
$EXTNAMES
290
     1
  9
$PSVPSCALE
 40
0.0
  9
$OLESTARTUP
290
     0
  0
ENDSEC
  0
SECTION
  2
CLASSES
  0
CLASS
  1
LWPOLYLINE
  2
AcDbPolyline
  3
ObjectDBX Classes
 90
        0
280
     0
281
     1
  0
CLASS
  1
HATCH
  2
AcDbHatch
  3
ObjectDBX Classes
 90
        0
280
     0
281
     1
  0
CLASS
  1
DICTIONARYVAR
  2
AcDbDictionaryVar
  3
ObjectDBX Classes
 90
        0
280
     0
281
     0
  0
CLASS
  1
VISUALSTYLE
  2
AcDbVisualStyle
  3
ObjectDBX Classes
 90
     4095
280
     0
281
     0
  0
CLASS
  1
ACDBDICTIONARYWDFLT
  2
AcDbDictionaryWithDefault
  3
ObjectDBX Classes
 90
        0
280
     0
281
     0
  0
CLASS
  1
SCALE
  2
AcDbScale
  3
ObjectDBX Classes
 90
     1153
280
     0
281
     0
  0
CLASS
  1
MATERIAL
  2
AcDbMaterial
  3
ObjectDBX Classes
 90
     1153
280
     0
281
     0
  0
CLASS
  1
TABLESTYLE
  2
AcDbTableStyle
  3
ObjectDBX Classes
 90
     4095
280
     0
281
     0
  0
CLASS
  1
MLEADERSTYLE
  2
AcDbMLeaderStyle
  3
ACDB_MLEADERSTYLE_CLASS
 90
     4095
280
     0
281
     0
  0
CLASS
  1
SUN
  2
AcDbSun
  3
SCENEOE
 90
     1153
280
     0
281
     0
  0
CLASS
  1
RASTERVARIABLES
  2
AcDbRasterVariables
  3
ISM
 90
        0
280
     0
281
     0
  0
CLASS
  1
ACDBPLACEHOLDER
  2
AcDbPlaceHolder
  3
ObjectDBX Classes
 90
        0
280
     0
281
     0
  0
CLASS
  1
LAYOUT
  2
AcDbLayout
  3
ObjectDBX Classes
 90
        0
280
     0
281
     0
  0
ENDSEC
  0
SECTION
  2
TABLES
  0
TABLE
  2
VPORT
  5
8
330
0
100
AcDbSymbolTable
 70
     1
  0
VPORT
  5
3662
330
8
100
AcDbSymbolTableRecord
100
AcDbViewportTableRecord
  2
*ACTIVE
 70
     0
 10
0.0
 20
0.0
 11
1.0
 21
1.0
 12
211.5541086457137
 22
167.3054435291333
 13
0.0
 23
0.0
 14
1.0
 24
1.0
 15
5.0
 25
5.0
 16
0.0
 26
0.0
 36
1.0
 17
0.0
 27
0.0
 37
0.0
 40
293.1813073326283
 41
1.438489646772229
 42
50.0
 43
0.0
 44
0.0
 50
0.0
 51
0.0
 71
     0
 72
   100
 73
     1
 74
     1
 75
     0
 76
     1
 77
     0
 78
     0
281
     0
 65
     1
110
0.0
120
0.0
130
0.0
111
1.0
121
0.0
131
0.0
112
0.0
122
1.0
132
0.0
 79
     0
146
0.0
  0
ENDTAB
  0
TABLE
  2
LTYPE
  5
5
330
0
100
AcDbSymbolTable
 70
     6
  0
LTYPE
  5
12
330
5
100
AcDbSymbolTableRecord
100
AcDbLinetypeTableRecord
  2
BYBLOCK
 70
     0
  3

 72
    65
 73
     0
 40
0.0
  0
LTYPE
  5
13
330
5
100
AcDbSymbolTableRecord
100
AcDbLinetypeTableRecord
  2
BYLAYER
 70
     0
  3

 72
    65
 73
     0
 40
0.0
  0
LTYPE
  5
14
330
5
100
AcDbSymbolTableRecord
100
AcDbLinetypeTableRecord
  2
CONTINUOUS
 70
     0
  3
Solid line
 72
    65
 73
     0
 40
0.0
  0
LTYPE
  5
36
330
5
100
AcDbSymbolTableRecord
100
AcDbLinetypeTableRecord
  2
WACOM_LSTYLE_M1
 70
     0
  3
実線     [---------]
 72
    65
 73
     2
 40
24.0
 49
12.0
 74
     0
 49
12.0
 74
     0
  0
LTYPE
  5
1EC
330
5
100
AcDbSymbolTableRecord
100
AcDbLinetypeTableRecord
  2
WACOM_LSTYLE_M3
 70
     0
  3
点線     [- - - - -]
 72
    65
 73
     2
 40
2.0
 49
1.0
 74
     0
 49
-1.0
 74
     0
  0
LTYPE
  5
1ED
330
5
100
AcDbSymbolTableRecord
100
AcDbLinetypeTableRecord
  2
WACOM_LSTYLE_M4
 70
     0
  3
一点鎖線 [--- - ---]
 72
    65
 73
     4
 40
10.0
 49
7.0
 74
     0
 49
-1.0
 74
     0
 49
1.0
 74
     0
 49
-1.0
 74
     0
  0
LTYPE
  5
1EE
330
5
100
AcDbSymbolTableRecord
100
AcDbLinetypeTableRecord
  2
WACOM_LSTYLE_M5
 70
     0
  3
二点鎖線 [-- - - --]
 72
    65
 73
     6
 40
10.0
 49
5.0
 74
     0
 49
-1.0
 74
     0
 49
1.0
 74
     0
 49
-1.0
 74
     0
 49
1.0
 74
     0
 49
-1.0
 74
     0
  0
LTYPE
  5
1EF
330
5
100
AcDbSymbolTableRecord
100
AcDbLinetypeTableRecord
  2
WACOM_LSTYLE_M2
 70
     0
  3
破線     [-- -- -- ]
 72
    65
 73
     2
 40
4.0
 49
3.0
 74
     0
 49
-1.0
 74
     0
  0
ENDTAB
  0
TABLE
  2
LAYER
  5
2
330
0
100
AcDbSymbolTable
 70
    15
  0
LAYER
  5
E
330
2
100
AcDbSymbolTableRecord
100
AcDbLayerTableRecord
  2
0
 70
     0
 62
    -7
  6
CONTINUOUS
370
    -3
390
378B
  0
LAYER
  5
37
330
2
100
AcDbSymbolTableRecord
100
AcDbLayerTableRecord
  2
文字（可変）
 70
     0
 62
     1
  6
WACOM_LSTYLE_M1
370
    -3
390
378B
  0
LAYER
  5
38
330
2
100
AcDbSymbolTableRecord
100
AcDbLayerTableRecord
  2
文字（固定）
 70
     0
 62
     3
  6
WACOM_LSTYLE_M1
370
    -3
390
378B
  0
LAYER
  5
39
330
2
100
AcDbSymbolTableRecord
100
AcDbLayerTableRecord
  2
枠線
 70
     0
 62
     4
  6
WACOM_LSTYLE_M1
370
    -3
390
378B
  0
LAYER
  5
3A
330
2
100
AcDbSymbolTableRecord
100
AcDbLayerTableRecord
  2
実線（中）
 70
     0
 62
     7
  6
WACOM_LSTYLE_M1
370
    -3
390
378B
  0
LAYER
  5
1F0
330
2
100
AcDbSymbolTableRecord
100
AcDbLayerTableRecord
  2
寸法線
 70
     0
 62
     2
  6
WACOM_LSTYLE_M1
370
    -3
390
378B
  0
LAYER
  5
1F1
330
2
100
AcDbSymbolTableRecord
100
AcDbLayerTableRecord
  2
一点鎖線
 70
     0
 62
     3
  6
WACOM_LSTYLE_M4
370
    -3
390
378B
  0
LAYER
  5
1F2
330
2
100
AcDbSymbolTableRecord
100
AcDbLayerTableRecord
  2
実線（太）
 70
     0
 62
    30
  6
WACOM_LSTYLE_M1
370
    -3
390
378B
  0
LAYER
  5
1F3
330
2
100
AcDbSymbolTableRecord
100
AcDbLayerTableRecord
  2
点線
 70
     0
 62
     4
  6
WACOM_LSTYLE_M3
370
    -3
390
378B
  0
LAYER
  5
1F4
330
2
100
AcDbSymbolTableRecord
100
AcDbLayerTableRecord
  2
実線（細）
 70
     0
 62
     4
  6
WACOM_LSTYLE_M1
370
    -3
390
378B
  0
LAYER
  5
1F5
330
2
100
AcDbSymbolTableRecord
100
AcDbLayerTableRecord
  2
補助線
 70
     0
 62
     5
  6
WACOM_LSTYLE_M3
370
    -3
390
378B
  0
LAYER
  5
1F6
330
2
100
AcDbSymbolTableRecord
100
AcDbLayerTableRecord
  2
DEFPOINTS
 70
     0
 62
     7
  6
WACOM_LSTYLE_M1
290
     0
370
    -3
390
378B
  0
LAYER
  5
1F7
330
2
100
AcDbSymbolTableRecord
100
AcDbLayerTableRecord
  2
二点鎖線
 70
     0
 62
     3
  6
WACOM_LSTYLE_M5
370
    -3
390
378B
  0
LAYER
  5
1F8
330
2
100
AcDbSymbolTableRecord
100
AcDbLayerTableRecord
  2
破線
 70
     0
 62
     4
  6
WACOM_LSTYLE_M2
370
    -3
390
378B
  0
LAYER
  5
5DE
330
2
100
AcDbSymbolTableRecord
100
AcDbLayerTableRecord
  2
可変文字
 70
     0
 62
     1
  6
WACOM_LSTYLE_M1
370
    -3
390
378B
  0
ENDTAB
  0
TABLE
  2
STYLE
  5
3
330
0
100
AcDbSymbolTable
 70
     5
  0
STYLE
  5
F
330
3
100
AcDbSymbolTableRecord
100
AcDbTextStyleTableRecord
  2
STANDARD
 70
     0
 40
0.0
 41
1.0
 50
0.0
 71
     0
 42
0.2
  3
txt
  4

  0
STYLE
  5
3D
330
3
100
AcDbSymbolTableRecord
100
AcDbTextStyleTableRecord
  2
寸法文字
 70
     0
 40
0.0
 41
1.0
 50
0.0
 71
     0
 42
2.5
  3
MS PGothic.ttf
  4

1001
ACAD
1000
MS PGothic
1071
    32818
  0
STYLE
  5
1F9
330
3
100
AcDbSymbolTableRecord
100
AcDbTextStyleTableRecord
  2
MSｺﾞｼｯｸ
 70
     0
 40
0.0
 41
1.0
 50
0.0
 71
     0
 42
2.5
  3
MS Gothic.ttf
  4

1001
ACAD
1000
MS Gothic
1071
    32817
  0
STYLE
  5
1FA
330
3
100
AcDbSymbolTableRecord
100
AcDbTextStyleTableRecord
  2
MS明朝
 70
     0
 40
0.0
 41
1.0
 50
0.0
 71
     0
 42
2.5
  3
MS Mincho.ttf
  4

1001
ACAD
1000
MS Mincho
1071
    32785
  0
STYLE
  5
19D8
330
3
100
AcDbSymbolTableRecord
100
AcDbTextStyleTableRecord
  2
MSPｺﾞｼｯｸ
 70
     0
 40
0.0
 41
1.0
 50
0.0
 71
     0
 42
2.5
  3
MS PGothic.ttf
  4

1001
ACAD
1000
MS PGothic
1071
    32818
  0
ENDTAB
  0
TABLE
  2
VIEW
  5
6
330
0
100
AcDbSymbolTable
 70
     0
  0
ENDTAB
  0
TABLE
  2
UCS
  5
7
330
0
100
AcDbSymbolTable
 70
     0
  0
ENDTAB
  0
TABLE
  2
APPID
  5
9
330
0
100
AcDbSymbolTable
 70
     3
  0
APPID
  5
10
330
9
100
AcDbSymbolTableRecord
100
AcDbRegAppTableRecord
  2
ACAD
 70
     0
  0
APPID
  5
24
330
9
100
AcDbSymbolTableRecord
100
AcDbRegAppTableRecord
  2
CONTENTTABDATA
 70
     0
  0
APPID
  5
25
330
9
100
AcDbSymbolTableRecord
100
AcDbRegAppTableRecord
  2
CONTENTCURRENTTAB
 70
     0
  0
ENDTAB
  0
TABLE
  2
DIMSTYLE
  5
A
330
0
100
AcDbSymbolTable
 70
     6
100
AcDbDimStyleTable
  0
DIMSTYLE
105
1D
330
A
100
AcDbSymbolTableRecord
100
AcDbDimStyleTableRecord
  2
STANDARD
 70
     0
178
     0
340
F
  0
DIMSTYLE
105
1FC
102
{ACAD_REACTORS
330
C3F
330
D61
330
1363
330
1DD0
330
1ECE
330
2D18
330
30B0
330
30CA
102
}
330
A
100
AcDbSymbolTableRecord
100
AcDbDimStyleTableRecord
  2
標準
 70
     0
 41
5.0
 42
1.0
 43
3.75
 44
1.0
 73
     0
 74
     0
 77
     1
 78
     8
140
5.0
141
2.5
143
0.0394
147
2.0
171
     4
172
     1
173
     1
178
     0
271
     2
272
     2
273
     8
274
     4
284
     8
340
3D
341
1283
343
1283
344
1283
  0
DIMSTYLE
105
1364
102
{ACAD_REACTORS
330
137C
330
1389
330
1DD3
330
1DD4
330
1DD2
330
2890
330
2F84
330
33B1
102
}
330
A
100
AcDbSymbolTableRecord
100
AcDbDimStyleTableRecord
  2
標準小
 70
     0
 41
3.0
 42
0.7
 43
3.75
 44
1.0
 48
0.1
 73
     0
 74
     0
 77
     1
 78
     8
140
3.0
141
2.5
143
0.0394
146
0.5
147
1.5
171
     4
172
     1
173
     1
178
     0
271
     2
272
     2
273
     8
274
     4
284
     8
288
     1
340
3D
341
1283
343
1283
344
1283
  0
DIMSTYLE
105
311C
102
{ACAD_REACTORS
330
313F
330
3159
330
31B0
102
}
330
A
100
AcDbSymbolTableRecord
100
AcDbDimStyleTableRecord
  2
許容差
 70
     0
 41
5.0
 42
1.0
 43
3.75
 44
1.0
 47
0.5
 71
     1
 73
     0
 74
     0
 77
     1
 78
     8
140
4.0
141
2.5
143
0.0394
146
0.6
147
1.5
171
     4
172
     1
173
     1
178
     0
271
     2
272
     2
273
     8
274
     4
284
     8
340
3D
341
1283
343
1283
344
1283
  0
DIMSTYLE
105
3223
102
{ACAD_REACTORS
330
3383
330
3562
330
3587
330
3675
102
}
330
A
100
AcDbSymbolTableRecord
100
AcDbDimStyleTableRecord
  2
標準小丸
 70
     0
 41
3.0
 42
0.7
 43
3.75
 44
1.0
 48
0.1
 73
     0
 74
     0
 77
     1
 78
     8
140
3.0
141
2.5
143
0.0394
146
0.5
147
1.5
171
     4
172
     1
173
     1
178
     0
271
     2
272
     2
273
     8
274
     4
284
     8
288
     1
340
3D
341
321C
343
321C
344
321C
  0
ENDTAB
  0
TABLE
  2
BLOCK_RECORD
  5
1
330
0
100
AcDbSymbolTable
 70
    30
  0
BLOCK_RECORD
  5
18
330
1
100
AcDbSymbolTableRecord
100
AcDbBlockTableRecord
  2
*MODEL_SPACE
340
37AF
  0
BLOCK_RECORD
  5
15
330
1
100
AcDbSymbolTableRecord
100
AcDbBlockTableRecord
  2
*PAPER_SPACE
340
37B0
  0
BLOCK_RECORD
  5
10B5
330
1
100
AcDbSymbolTableRecord
100
AcDbBlockTableRecord
  2
*D1
340
0
  0
BLOCK_RECORD
  5
10FD
330
1
100
AcDbSymbolTableRecord
100
AcDbBlockTableRecord
  2
*D2
340
0
  0
BLOCK_RECORD
  5
1283
330
1
100
AcDbSymbolTableRecord
100
AcDbBlockTableRecord
  2
_OPEN30
340
0
102
{BLKREFS
331
2593
331
2594
331
3182
331
369B
331
36B3
331
365B
331
36CB
331
312C
331
3322
331
3642
331
34A5
331
36E3
331
36EE
331
36F9
331
31B5
331
35AD
331
375D
331
3710
331
3752
331
3183
331
369C
331
36B4
331
365C
331
36CC
331
312D
331
3323
331
3643
331
34A6
331
36E4
331
36EF
331
36FA
331
31B6
331
35AE
331
375E
331
3705
331
3711
331
3753
331
36A8
331
36C0
331
36D8
331
3706
331
36A9
331
36C1
331
36D9
102
}
  0
BLOCK_RECORD
  5
1355
330
1
100
AcDbSymbolTableRecord
100
AcDbBlockTableRecord
  2
*D4
340
0
  0
BLOCK_RECORD
  5
1370
330
1
100
AcDbSymbolTableRecord
100
AcDbBlockTableRecord
  2
*D5
340
0
  0
BLOCK_RECORD
  5
137D
330
1
100
AcDbSymbolTableRecord
100
AcDbBlockTableRecord
  2
*D6
340
0
  0
BLOCK_RECORD
  5
1DD6
330
1
100
AcDbSymbolTableRecord
100
AcDbBlockTableRecord
  2
*D7
340
0
  0
BLOCK_RECORD
  5
1DEE
330
1
100
AcDbSymbolTableRecord
100
AcDbBlockTableRecord
  2
*D8
340
0
  0
BLOCK_RECORD
  5
1DFA
330
1
100
AcDbSymbolTableRecord
100
AcDbBlockTableRecord
  2
*D9
340
0
  0
BLOCK_RECORD
  5
1E12
330
1
100
AcDbSymbolTableRecord
100
AcDbBlockTableRecord
  2
*D10
340
0
  0
BLOCK_RECORD
  5
1E89
330
1
100
AcDbSymbolTableRecord
100
AcDbBlockTableRecord
  2
*D11
340
0
  0
BLOCK_RECORD
  5
1EC2
330
1
100
AcDbSymbolTableRecord
100
AcDbBlockTableRecord
  2
*D12
340
0
  0
BLOCK_RECORD
  5
2883
330
1
100
AcDbSymbolTableRecord
100
AcDbBlockTableRecord
  2
*D13
340
0
  0
BLOCK_RECORD
  5
2D5B
330
1
100
AcDbSymbolTableRecord
100
AcDbBlockTableRecord
  2
*D14
340
0
  0
BLOCK_RECORD
  5
2FC9
330
1
100
AcDbSymbolTableRecord
100
AcDbBlockTableRecord
  2
*D15
340
0
  0
BLOCK_RECORD
  5
304C
330
1
100
AcDbSymbolTableRecord
100
AcDbBlockTableRecord
  2
A$C3D3D0A8A
340
0
102
{BLKREFS
331
33F0
331
3451
102
}
  0
BLOCK_RECORD
  5
30A4
330
1
100
AcDbSymbolTableRecord
100
AcDbBlockTableRecord
  2
*D17
340
0
  0
BLOCK_RECORD
  5
30BE
330
1
100
AcDbSymbolTableRecord
100
AcDbBlockTableRecord
  2
*D18
340
0
  0
BLOCK_RECORD
  5
3133
330
1
100
AcDbSymbolTableRecord
100
AcDbBlockTableRecord
  2
*D19
340
0
  0
BLOCK_RECORD
  5
314D
330
1
100
AcDbSymbolTableRecord
100
AcDbBlockTableRecord
  2
*D20
340
0
  0
BLOCK_RECORD
  5
31A4
330
1
100
AcDbSymbolTableRecord
100
AcDbBlockTableRecord
  2
*D21
340
0
  0
BLOCK_RECORD
  5
321C
330
1
100
AcDbSymbolTableRecord
100
AcDbBlockTableRecord
  2
_DOTSMALL
340
0
102
{BLKREFS
331
32F4
331
32F5
331
32E9
331
32EA
102
}
  0
BLOCK_RECORD
  5
3377
330
1
100
AcDbSymbolTableRecord
100
AcDbBlockTableRecord
  2
*D23
340
0
  0
BLOCK_RECORD
  5
33BE
330
1
100
AcDbSymbolTableRecord
100
AcDbBlockTableRecord
  2
*D24
340
0
  0
BLOCK_RECORD
  5
3423
330
1
100
AcDbSymbolTableRecord
100
AcDbBlockTableRecord
  2
A$C79953EA4
340
0
102
{BLKREFS
331
3438
331
3452
102
}
  0
BLOCK_RECORD
  5
3555
330
1
100
AcDbSymbolTableRecord
100
AcDbBlockTableRecord
  2
*D26
340
0
  0
BLOCK_RECORD
  5
357B
330
1
100
AcDbSymbolTableRecord
100
AcDbBlockTableRecord
  2
*D27
340
0
  0
BLOCK_RECORD
  5
3620
330
1
100
AcDbSymbolTableRecord
100
AcDbBlockTableRecord
  2
A$C732F3514
340
0
102
{BLKREFS
331
363D
102
}
  0
BLOCK_RECORD
  5
3669
330
1
100
AcDbSymbolTableRecord
100
AcDbBlockTableRecord
  2
*D29
340
0
  0
ENDTAB
  0
ENDSEC
  0
SECTION
  2
BLOCKS
  0
BLOCK
  5
19
330
18
100
AcDbEntity
  8
0
100
AcDbBlockBegin
  2
*MODEL_SPACE
 70
     0
 10
0.0
 20
0.0
 30
0.0
  3
*MODEL_SPACE
  1

  0
ENDBLK
  5
1A
330
18
100
AcDbEntity
  8
0
100
AcDbBlockEnd
  0
BLOCK
  5
16
330
15
100
AcDbEntity
 67
     1
  8
0
100
AcDbBlockBegin
  2
*PAPER_SPACE
 70
     0
 10
0.0
 20
0.0
 30
0.0
  3
*PAPER_SPACE
  1

  0
ENDBLK
  5
17
330
15
100
AcDbEntity
 67
     1
  8
0
100
AcDbBlockEnd
  0
BLOCK
  5
258F
330
10B5
100
AcDbEntity
  8
0
100
AcDbBlockBegin
  2
*D1
 70
     1
 10
0.0
 20
0.0
 30
0.0
  3
*D1
  1

  0
LINE
  5
2590
330
10B5
100
AcDbEntity
  8
0
  6
ByBlock
 62
     0
100
AcDbLine
 10
28.0
 20
270.5
 30
0.0
 11
9.000000000000002
 21
270.5
 31
0.0
  0
LINE
  5
2591
330
10B5
100
AcDbEntity
  8
0
  6
ByBlock
 62
     0
100
AcDbLine
 10
28.0
 20
211.0
 30
0.0
 11
8.999999999999998
 21
211.0
 31
0.0
  0
LINE
  5
2592
330
10B5
100
AcDbEntity
  8
0
  6
ByBlock
 62
     0
100
AcDbLine
 10
10.0
 20
265.5
 30
0.0
 11
9.999999999999998
 21
216.0
 31
0.0
  0
INSERT
  5
2593
330
10B5
100
AcDbEntity
  8
0
  6
ByBlock
 62
     0
100
AcDbBlockReference
  2
_OPEN30
 10
10.0
 20
270.5
 30
0.0
 41
5.0
 42
5.0
 43
5.0
 50
90.0
  0
INSERT
  5
2594
330
10B5
100
AcDbEntity
  8
0
  6
ByBlock
 62
     0
100
AcDbBlockReference
  2
_OPEN30
 10
9.999999999999998
 20
211.0
 30
0.0
 41
5.0
 42
5.0
 43
5.0
 50
270.0
  0
MTEXT
  5
2595
330
10B5
100
AcDbEntity
  8
0
  6
ByBlock
 62
     0
100
AcDbMText
 10
5.500000000000001
 20
240.75
 30
0.0
 40
5.0
 41
0.0
 71
     5
 72
     1
  1
\A1;59.5
  7
寸法文字
 11
6.123031769111886E-17
 21
1.0
 31
0.0
 73
     1
 44
1.0
  0
POINT
  5
2596
330
10B5
100
AcDbEntity
  8
DEFPOINTS
  6
ByBlock
 62
     0
100
AcDbPoint
 10
29.0
 20
270.5
 30
0.0
  0
POINT
  5
2597
330
10B5
100
AcDbEntity
  8
DEFPOINTS
  6
ByBlock
 62
     0
100
AcDbPoint
 10
29.0
 20
211.0
 30
0.0
  0
POINT
  5
2598
330
10B5
100
AcDbEntity
  8
DEFPOINTS
  6
ByBlock
 62
     0
100
AcDbPoint
 10
9.999999999999998
 20
211.0
 30
0.0
  0
ENDBLK
  5
2599
330
10B5
100
AcDbEntity
  8
0
100
AcDbBlockEnd
  0
BLOCK
  5
317E
330
10FD
100
AcDbEntity
  8
0
100
AcDbBlockBegin
  2
*D2
 70
     1
 10
0.0
 20
0.0
 30
0.0
  3
*D2
  1

  0
LINE
  5
317F
330
10FD
100
AcDbEntity
  8
0
  6
ByBlock
 62
     0
100
AcDbLine
 10
399.5
 20
65.5
 30
0.0
 11
399.5
 21
49.0
 31
0.0
  0
LINE
  5
3180
330
10FD
100
AcDbEntity
  8
0
  6
ByBlock
 62
     0
100
AcDbLine
 10
300.5
 20
65.5
 30
0.0
 11
300.5
 21
49.0
 31
0.0
  0
LINE
  5
3181
330
10FD
100
AcDbEntity
  8
0
  6
ByBlock
 62
     0
100
AcDbLine
 10
394.5
 20
50.0
 30
0.0
 11
305.5
 21
50.0
 31
0.0
  0
INSERT
  5
3182
330
10FD
100
AcDbEntity
  8
0
  6
ByBlock
 62
     0
100
AcDbBlockReference
  2
_OPEN30
 10
399.5
 20
50.0
 30
0.0
 41
5.0
 42
5.0
 43
5.0
  0
INSERT
  5
3183
330
10FD
100
AcDbEntity
  8
0
  6
ByBlock
 62
     0
100
AcDbBlockReference
  2
_OPEN30
 10
300.5
 20
50.0
 30
0.0
 41
5.0
 42
5.0
 43
5.0
 50
180.0
  0
MTEXT
  5
3184
330
10FD
100
AcDbEntity
  8
0
  6
ByBlock
 62
     0
100
AcDbMText
 10
349.9985
 20
54.5
 30
0.0
 40
5.0
 41
0.0
 71
     5
 72
     1
  1
\A1;99
  7
寸法文字
 73
     1
 44
1.0
  0
POINT
  5
3185
330
10FD
100
AcDbEntity
  8
DEFPOINTS
  6
ByBlock
 62
     0
100
AcDbPoint
 10
399.5
 20
66.5
 30
0.0
  0
POINT
  5
3186
330
10FD
100
AcDbEntity
  8
DEFPOINTS
  6
ByBlock
 62
     0
100
AcDbPoint
 10
300.5
 20
66.5
 30
0.0
  0
POINT
  5
3187
330
10FD
100
AcDbEntity
  8
DEFPOINTS
  6
ByBlock
 62
     0
100
AcDbPoint
 10
300.5
 20
50.0
 30
0.0
  0
ENDBLK
  5
3188
330
10FD
100
AcDbEntity
  8
0
100
AcDbBlockEnd
  0
BLOCK
  5
1284
330
1283
100
AcDbEntity
  8
0
100
AcDbBlockBegin
  2
_OPEN30
 70
     0
 10
0.0
 20
0.0
 30
0.0
  3
_OPEN30
  1

  0
LINE
  5
1285
330
1283
100
AcDbEntity
  8
0
  6
ByBlock
 62
     0
100
AcDbLine
 10
-1.0
 20
0.26794919
 30
0.0
 11
0.0
 21
0.0
 31
0.0
  0
LINE
  5
1286
330
1283
100
AcDbEntity
  8
0
  6
ByBlock
 62
     0
100
AcDbLine
 10
0.0
 20
0.0
 30
0.0
 11
-1.0
 21
-0.26794919
 31
0.0
  0
LINE
  5
1287
330
1283
100
AcDbEntity
  8
0
  6
ByBlock
 62
     0
100
AcDbLine
 10
0.0
 20
0.0
 30
0.0
 11
-1.0
 21
0.0
 31
0.0
  0
ENDBLK
  5
1288
330
1283
100
AcDbEntity
  8
0
100
AcDbBlockEnd
  0
BLOCK
  5
3697
330
1355
100
AcDbEntity
  8
0
100
AcDbBlockBegin
  2
*D4
 70
     1
 10
0.0
 20
0.0
 30
0.0
  3
*D4
  1

  0
LINE
  5
3698
330
1355
100
AcDbEntity
  8
0
  6
ByBlock
 62
     0
100
AcDbLine
 10
24.3
 20
244.25
 30
0.0
 11
19.0
 21
244.25
 31
0.0
  0
LINE
  5
3699
330
1355
100
AcDbEntity
  8
0
  6
ByBlock
 62
     0
100
AcDbLine
 10
28.3
 20
219.5
 30
0.0
 11
19.0
 21
219.5
 31
0.0
  0
LINE
  5
369A
330
1355
100
AcDbEntity
  8
0
  6
ByBlock
 62
     0
100
AcDbLine
 10
20.0
 20
241.25
 30
0.0
 11
20.0
 21
222.5
 31
0.0
  0
INSERT
  5
369B
330
1355
100
AcDbEntity
  8
0
  6
ByBlock
 62
     0
100
AcDbBlockReference
  2
_OPEN30
 10
20.0
 20
244.25
 30
0.0
 41
3.0
 42
3.0
 43
3.0
 50
90.0
  0
INSERT
  5
369C
330
1355
100
AcDbEntity
  8
0
  6
ByBlock
 62
     0
100
AcDbBlockReference
  2
_OPEN30
 10
20.0
 20
219.5
 30
0.0
 41
3.0
 42
3.0
 43
3.0
 50
270.0
  0
MTEXT
  5
369D
330
1355
100
AcDbEntity
  8
0
  6
ByBlock
 62
     0
100
AcDbMText
 10
17.0
 20
231.875
 30
0.0
 40
3.0
 41
0.0
 71
     5
 72
     1
  1
\A1;24.75
  7
寸法文字
 11
6.123031769111886E-17
 21
1.0
 31
0.0
 73
     1
 44
1.0
  0
POINT
  5
369E
330
1355
100
AcDbEntity
  8
DEFPOINTS
  6
ByBlock
 62
     0
100
AcDbPoint
 10
25.0
 20
244.25
 30
0.0
  0
POINT
  5
369F
330
1355
100
AcDbEntity
  8
DEFPOINTS
  6
ByBlock
 62
     0
100
AcDbPoint
 10
29.0
 20
219.5
 30
0.0
  0
POINT
  5
36A0
330
1355
100
AcDbEntity
  8
DEFPOINTS
  6
ByBlock
 62
     0
100
AcDbPoint
 10
20.0
 20
219.5
 30
0.0
  0
ENDBLK
  5
36A1
330
1355
100
AcDbEntity
  8
0
100
AcDbBlockEnd
  0
BLOCK
  5
36A2
330
1370
100
AcDbEntity
  8
0
100
AcDbBlockBegin
  2
*D5
 70
     1
 10
0.0
 20
0.0
 30
0.0
  3
*D5
  1

  0
LINE
  5
36A3
330
1370
100
AcDbEntity
  8
0
  6
ByBlock
 62
     0
100
AcDbLine
 10
29.3
 20
219.5
 30
0.0
 11
19.0
 21
219.5
 31
0.0
  0
LINE
  5
36A4
330
1370
100
AcDbEntity
  8
0
  6
ByBlock
 62
     0
100
AcDbLine
 10
28.3
 20
218.5
 30
0.0
 11
19.0
 21
218.5
 31
0.0
  0
LINE
  5
36A5
330
1370
100
AcDbEntity
  8
0
  6
ByBlock
 62
     0
100
AcDbLine
 10
20.0
 20
222.5
 30
0.0
 11
20.0
 21
225.5
 31
0.0
  0
LINE
  5
36A6
330
1370
100
AcDbEntity
  8
0
  6
ByBlock
 62
     0
100
AcDbLine
 10
20.0
 20
215.5
 30
0.0
 11
20.0
 21
208.5965909090909
 31
0.0
  0
LINE
  5
36A7
330
1370
100
AcDbEntity
  8
0
  6
ByBlock
 62
     0
100
AcDbLine
 10
20.0
 20
219.5
 30
0.0
 11
20.0
 21
218.5
 31
0.0
  0
INSERT
  5
36A8
330
1370
100
AcDbEntity
  8
0
  6
ByBlock
 62
     0
100
AcDbBlockReference
  2
_OPEN30
 10
20.0
 20
219.5
 30
0.0
 41
3.0
 42
3.0
 43
3.0
 50
270.0
  0
INSERT
  5
36A9
330
1370
100
AcDbEntity
  8
0
  6
ByBlock
 62
     0
100
AcDbBlockReference
  2
_OPEN30
 10
20.0
 20
218.5
 30
0.0
 41
3.0
 42
3.0
 43
3.0
 50
90.0
  0
MTEXT
  5
36AA
330
1370
100
AcDbEntity
  8
0
  6
ByBlock
 62
     0
100
AcDbMText
 10
17.0
 20
210.5482954545455
 30
0.0
 40
3.0
 41
0.0
 71
     5
 72
     1
  1
\A1;1
  7
寸法文字
 11
6.123031769111886E-17
 21
1.0
 31
0.0
 73
     1
 44
1.0
  0
POINT
  5
36AB
330
1370
100
AcDbEntity
  8
DEFPOINTS
  6
ByBlock
 62
     0
100
AcDbPoint
 10
30.0
 20
219.5
 30
0.0
  0
POINT
  5
36AC
330
1370
100
AcDbEntity
  8
DEFPOINTS
  6
ByBlock
 62
     0
100
AcDbPoint
 10
29.0
 20
218.5
 30
0.0
  0
POINT
  5
36AD
330
1370
100
AcDbEntity
  8
DEFPOINTS
  6
ByBlock
 62
     0
100
AcDbPoint
 10
20.0
 20
218.5
 30
0.0
  0
ENDBLK
  5
36AE
330
1370
100
AcDbEntity
  8
0
100
AcDbBlockEnd
  0
BLOCK
  5
36AF
330
137D
100
AcDbEntity
  8
0
100
AcDbBlockBegin
  2
*D6
 70
     1
 10
0.0
 20
0.0
 30
0.0
  3
*D6
  1

  0
LINE
  5
36B0
330
137D
100
AcDbEntity
  8
0
  6
ByBlock
 62
     0
100
AcDbLine
 10
57.0
 20
210.8
 30
0.0
 11
57.0
 21
174.0
 31
0.0
  0
LINE
  5
36B1
330
137D
100
AcDbEntity
  8
0
  6
ByBlock
 62
     0
100
AcDbLine
 10
103.0
 20
210.8
 30
0.0
 11
103.0
 21
174.0
 31
0.0
  0
LINE
  5
36B2
330
137D
100
AcDbEntity
  8
0
  6
ByBlock
 62
     0
100
AcDbLine
 10
60.0
 20
175.0
 30
0.0
 11
100.0
 21
175.0
 31
0.0
  0
INSERT
  5
36B3
330
137D
100
AcDbEntity
  8
0
  6
ByBlock
 62
     0
100
AcDbBlockReference
  2
_OPEN30
 10
57.0
 20
175.0
 30
0.0
 41
3.0
 42
3.0
 43
3.0
 50
180.0
  0
INSERT
  5
36B4
330
137D
100
AcDbEntity
  8
0
  6
ByBlock
 62
     0
100
AcDbBlockReference
  2
_OPEN30
 10
103.0
 20
175.0
 30
0.0
 41
3.0
 42
3.0
 43
3.0
  0
MTEXT
  5
36B5
330
137D
100
AcDbEntity
  8
0
  6
ByBlock
 62
     0
100
AcDbMText
 10
80.0
 20
178.0
 30
0.0
 40
3.0
 41
0.0
 71
     5
 72
     1
  1
\A1;46
  7
寸法文字
 73
     1
 44
1.0
  0
POINT
  5
36B6
330
137D
100
AcDbEntity
  8
DEFPOINTS
  6
ByBlock
 62
     0
100
AcDbPoint
 10
57.0
 20
211.5
 30
0.0
  0
POINT
  5
36B7
330
137D
100
AcDbEntity
  8
DEFPOINTS
  6
ByBlock
 62
     0
100
AcDbPoint
 10
103.0
 20
211.5
 30
0.0
  0
POINT
  5
36B8
330
137D
100
AcDbEntity
  8
DEFPOINTS
  6
ByBlock
 62
     0
100
AcDbPoint
 10
103.0
 20
175.0
 30
0.0
  0
ENDBLK
  5
36B9
330
137D
100
AcDbEntity
  8
0
100
AcDbBlockEnd
  0
BLOCK
  5
3657
330
1DD6
100
AcDbEntity
  8
0
100
AcDbBlockBegin
  2
*D7
 70
     1
 10
0.0
 20
0.0
 30
0.0
  3
*D7
  1

  0
LINE
  5
3658
330
1DD6
100
AcDbEntity
  8
0
  6
ByBlock
 62
     0
100
AcDbLine
 10
155.0
 20
213.5
 30
0.0
 11
155.0
 21
164.0
 31
0.0
  0
LINE
  5
3659
330
1DD6
100
AcDbEntity
  8
0
  6
ByBlock
 62
     0
100
AcDbLine
 10
270.0000000000001
 20
189.1
 30
0.0
 11
270.0000000000001
 21
164.0
 31
0.0
  0
LINE
  5
365A
330
1DD6
100
AcDbEntity
  8
0
  6
ByBlock
 62
     0
100
AcDbLine
 10
160.0
 20
165.0
 30
0.0
 11
265.0000000000001
 21
165.0
 31
0.0
  0
INSERT
  5
365B
330
1DD6
100
AcDbEntity
  8
0
  6
ByBlock
 62
     0
100
AcDbBlockReference
  2
_OPEN30
 10
155.0
 20
165.0
 30
0.0
 41
5.0
 42
5.0
 43
5.0
 50
180.0
  0
INSERT
  5
365C
330
1DD6
100
AcDbEntity
  8
0
  6
ByBlock
 62
     0
100
AcDbBlockReference
  2
_OPEN30
 10
270.0000000000001
 20
165.0
 30
0.0
 41
5.0
 42
5.0
 43
5.0
  0
MTEXT
  5
365D
330
1DD6
100
AcDbEntity
  8
0
  6
ByBlock
 62
     0
100
AcDbMText
 10
212.5
 20
169.5
 30
0.0
 40
5.0
 41
0.0
 71
     5
 72
     1
  1
\A1;115
  7
寸法文字
 73
     1
 44
1.0
  0
POINT
  5
365E
330
1DD6
100
AcDbEntity
  8
DEFPOINTS
  6
ByBlock
 62
     0
100
AcDbPoint
 10
155.0
 20
214.5
 30
0.0
  0
POINT
  5
365F
330
1DD6
100
AcDbEntity
  8
DEFPOINTS
  6
ByBlock
 62
     0
100
AcDbPoint
 10
270.0000000000001
 20
190.1
 30
0.0
  0
POINT
  5
3660
330
1DD6
100
AcDbEntity
  8
DEFPOINTS
  6
ByBlock
 62
     0
100
AcDbPoint
 10
270.0000000000001
 20
165.0
 30
0.0
  0
ENDBLK
  5
3661
330
1DD6
100
AcDbEntity
  8
0
100
AcDbBlockEnd
  0
BLOCK
  5
32F0
330
1DEE
100
AcDbEntity
  8
0
100
AcDbBlockBegin
  2
*D8
 70
     1
 10
0.0
 20
0.0
 30
0.0
  3
*D8
  1

  0
LINE
  5
32F1
330
1DEE
100
AcDbEntity
  8
0
  6
ByBlock
 62
     0
100
AcDbLine
 10
155.0
 20
213.8
 30
0.0
 11
155.0
 21
174.0
 31
0.0
  0
LINE
  5
32F2
330
1DEE
100
AcDbEntity
  8
0
  6
ByBlock
 62
     0
100
AcDbLine
 10
151.0
 20
215.1333333333334
 30
0.0
 11
151.0
 21
174.0
 31
0.0
  0
LINE
  5
32F3
330
1DEE
100
AcDbEntity
  8
0
  6
ByBlock
 62
     0
100
AcDbLine
 10
155.0
 20
175.0
 30
0.0
 11
151.0
 21
175.0
 31
0.0
  0
INSERT
  5
32F4
330
1DEE
100
AcDbEntity
  8
0
  6
ByBlock
 62
     0
100
AcDbBlockReference
  2
_DOTSMALL
 10
155.0
 20
175.0
 30
0.0
 41
3.0
 42
3.0
 43
3.0
  0
INSERT
  5
32F5
330
1DEE
100
AcDbEntity
  8
0
  6
ByBlock
 62
     0
100
AcDbBlockReference
  2
_DOTSMALL
 10
151.0
 20
175.0
 30
0.0
 41
3.0
 42
3.0
 43
3.0
 50
180.0
  0
MTEXT
  5
32F6
330
1DEE
100
AcDbEntity
  8
0
  6
ByBlock
 62
     0
100
AcDbMText
 10
153.0
 20
178.0
 30
0.0
 40
3.0
 41
0.0
 71
     5
 72
     1
  1
\A1;4
  7
寸法文字
 73
     1
 44
1.0
  0
POINT
  5
32F7
330
1DEE
100
AcDbEntity
  8
DEFPOINTS
  6
ByBlock
 62
     0
100
AcDbPoint
 10
155.0
 20
214.5
 30
0.0
  0
POINT
  5
32F8
330
1DEE
100
AcDbEntity
  8
DEFPOINTS
  6
ByBlock
 62
     0
100
AcDbPoint
 10
151.0
 20
215.8333333333333
 30
0.0
  0
POINT
  5
32F9
330
1DEE
100
AcDbEntity
  8
DEFPOINTS
  6
ByBlock
 62
     0
100
AcDbPoint
 10
151.0
 20
175.0
 30
0.0
  0
ENDBLK
  5
32FA
330
1DEE
100
AcDbEntity
  8
0
100
AcDbBlockEnd
  0
BLOCK
  5
32E4
330
1DFA
100
AcDbEntity
  8
0
100
AcDbBlockBegin
  2
*D9
 70
     1
 10
0.0
 20
0.0
 30
0.0
  3
*D9
  1

  0
LINE
  5
32E5
330
1DFA
100
AcDbEntity
  8
0
  6
ByBlock
 62
     0
100
AcDbLine
 10
155.0
 20
213.8
 30
0.0
 11
155.0
 21
174.0
 31
0.0
  0
LINE
  5
32E6
330
1DFA
100
AcDbEntity
  8
0
  6
ByBlock
 62
     0
100
AcDbLine
 10
158.5
 20
196.3
 30
0.0
 11
158.5
 21
174.0
 31
0.0
  0
LINE
  5
32E7
330
1DFA
100
AcDbEntity
  8
0
  6
ByBlock
 62
     0
100
AcDbLine
 10
155.0
 20
175.0
 30
0.0
 11
158.5
 21
175.0
 31
0.0
  0
LINE
  5
32E8
330
1DFA
100
AcDbEntity
  8
0
  6
ByBlock
 62
     0
100
AcDbLine
 10
158.5
 20
175.0
 30
0.0
 11
172.3068181818182
 21
175.0
 31
0.0
  0
INSERT
  5
32E9
330
1DFA
100
AcDbEntity
  8
0
  6
ByBlock
 62
     0
100
AcDbBlockReference
  2
_DOTSMALL
 10
155.0
 20
175.0
 30
0.0
 41
3.0
 42
3.0
 43
3.0
 50
180.0
  0
INSERT
  5
32EA
330
1DFA
100
AcDbEntity
  8
0
  6
ByBlock
 62
     0
100
AcDbBlockReference
  2
_DOTSMALL
 10
158.5
 20
175.0
 30
0.0
 41
3.0
 42
3.0
 43
3.0
  0
MTEXT
  5
32EB
330
1DFA
100
AcDbEntity
  8
0
  6
ByBlock
 62
     0
100
AcDbMText
 10
168.4034090909091
 20
178.0
 30
0.0
 40
3.0
 41
0.0
 71
     5
 72
     1
  1
\A1;3.5
  7
寸法文字
 73
     1
 44
1.0
  0
POINT
  5
32EC
330
1DFA
100
AcDbEntity
  8
DEFPOINTS
  6
ByBlock
 62
     0
100
AcDbPoint
 10
155.0
 20
214.5
 30
0.0
  0
POINT
  5
32ED
330
1DFA
100
AcDbEntity
  8
DEFPOINTS
  6
ByBlock
 62
     0
100
AcDbPoint
 10
158.5
 20
197.0
 30
0.0
  0
POINT
  5
32EE
330
1DFA
100
AcDbEntity
  8
DEFPOINTS
  6
ByBlock
 62
     0
100
AcDbPoint
 10
158.5
 20
175.0
 30
0.0
  0
ENDBLK
  5
32EF
330
1DFA
100
AcDbEntity
  8
0
100
AcDbBlockEnd
  0
BLOCK
  5
36BA
330
1E12
100
AcDbEntity
  8
0
100
AcDbBlockBegin
  2
*D10
 70
     1
 10
0.0
 20
0.0
 30
0.0
  3
*D10
  1

  0
LINE
  5
36BB
330
1E12
100
AcDbEntity
  8
0
  6
ByBlock
 62
     0
100
AcDbLine
 10
146.0
 20
215.1333333333334
 30
0.0
 11
146.0
 21
184.0
 31
0.0
  0
LINE
  5
36BC
330
1E12
100
AcDbEntity
  8
0
  6
ByBlock
 62
     0
100
AcDbLine
 10
138.0
 20
214.6584123500822
 30
0.0
 11
138.0
 21
184.0
 31
0.0
  0
LINE
  5
36BD
330
1E12
100
AcDbEntity
  8
0
  6
ByBlock
 62
     0
100
AcDbLine
 10
149.0
 20
185.0
 30
0.0
 11
152.0
 21
185.0
 31
0.0
  0
LINE
  5
36BE
330
1E12
100
AcDbEntity
  8
0
  6
ByBlock
 62
     0
100
AcDbLine
 10
135.0
 20
185.0
 30
0.0
 11
132.0
 21
185.0
 31
0.0
  0
LINE
  5
36BF
330
1E12
100
AcDbEntity
  8
0
  6
ByBlock
 62
     0
100
AcDbLine
 10
146.0
 20
185.0
 30
0.0
 11
138.0
 21
185.0
 31
0.0
  0
INSERT
  5
36C0
330
1E12
100
AcDbEntity
  8
0
  6
ByBlock
 62
     0
100
AcDbBlockReference
  2
_OPEN30
 10
146.0
 20
185.0
 30
0.0
 41
3.0
 42
3.0
 43
3.0
 50
180.0
  0
INSERT
  5
36C1
330
1E12
100
AcDbEntity
  8
0
  6
ByBlock
 62
     0
100
AcDbBlockReference
  2
_OPEN30
 10
138.0
 20
185.0
 30
0.0
 41
3.0
 42
3.0
 43
3.0
  0
MTEXT
  5
36C2
330
1E12
100
AcDbEntity
  8
0
  6
ByBlock
 62
     0
100
AcDbMText
 10
142.0
 20
188.3579545454545
 30
0.0
 40
3.0
 41
0.0
 71
     5
 72
     1
  1
\A1;(8)
  7
寸法文字
 73
     1
 44
1.0
  0
POINT
  5
36C3
330
1E12
100
AcDbEntity
  8
DEFPOINTS
  6
ByBlock
 62
     0
100
AcDbPoint
 10
146.0
 20
215.8333333333334
 30
0.0
  0
POINT
  5
36C4
330
1E12
100
AcDbEntity
  8
DEFPOINTS
  6
ByBlock
 62
     0
100
AcDbPoint
 10
138.0
 20
215.3584123500822
 30
0.0
  0
POINT
  5
36C5
330
1E12
100
AcDbEntity
  8
DEFPOINTS
  6
ByBlock
 62
     0
100
AcDbPoint
 10
138.0
 20
185.0
 30
0.0
  0
ENDBLK
  5
36C6
330
1E12
100
AcDbEntity
  8
0
100
AcDbBlockEnd
  0
BLOCK
  5
36C7
330
1E89
100
AcDbEntity
  8
0
100
AcDbBlockBegin
  2
*D11
 70
     1
 10
0.0
 20
0.0
 30
0.0
  3
*D11
  1

  0
LINE
  5
36C8
330
1E89
100
AcDbEntity
  8
0
  6
ByBlock
 62
     0
100
AcDbLine
 10
138.0
 20
214.6584123500822
 30
0.0
 11
138.0
 21
164.0
 31
0.0
  0
LINE
  5
36C9
330
1E89
100
AcDbEntity
  8
0
  6
ByBlock
 62
     0
100
AcDbLine
 10
150.0
 20
213.8
 30
0.0
 11
150.0
 21
164.0
 31
0.0
  0
LINE
  5
36CA
330
1E89
100
AcDbEntity
  8
0
  6
ByBlock
 62
     0
100
AcDbLine
 10
141.0
 20
165.0
 30
0.0
 11
147.0
 21
165.0
 31
0.0
  0
INSERT
  5
36CB
330
1E89
100
AcDbEntity
  8
0
  6
ByBlock
 62
     0
100
AcDbBlockReference
  2
_OPEN30
 10
138.0
 20
165.0
 30
0.0
 41
3.0
 42
3.0
 43
3.0
 50
180.0
  0
INSERT
  5
36CC
330
1E89
100
AcDbEntity
  8
0
  6
ByBlock
 62
     0
100
AcDbBlockReference
  2
_OPEN30
 10
150.0
 20
165.0
 30
0.0
 41
3.0
 42
3.0
 43
3.0
  0
MTEXT
  5
36CD
330
1E89
100
AcDbEntity
  8
0
  6
ByBlock
 62
     0
100
AcDbMText
 10
144.0
 20
168.3579545454545
 30
0.0
 40
3.0
 41
0.0
 71
     5
 72
     1
  1
\A1;(12)
  7
寸法文字
 73
     1
 44
1.0
  0
POINT
  5
36CE
330
1E89
100
AcDbEntity
  8
DEFPOINTS
  6
ByBlock
 62
     0
100
AcDbPoint
 10
138.0
 20
215.3584123500822
 30
0.0
  0
POINT
  5
36CF
330
1E89
100
AcDbEntity
  8
DEFPOINTS
  6
ByBlock
 62
     0
100
AcDbPoint
 10
150.0
 20
214.5
 30
0.0
  0
POINT
  5
36D0
330
1E89
100
AcDbEntity
  8
DEFPOINTS
  6
ByBlock
 62
     0
100
AcDbPoint
 10
150.0
 20
165.0
 30
0.0
  0
ENDBLK
  5
36D1
330
1E89
100
AcDbEntity
  8
0
100
AcDbBlockEnd
  0
BLOCK
  5
3128
330
1EC2
100
AcDbEntity
  8
0
100
AcDbBlockBegin
  2
*D12
 70
     1
 10
0.0
 20
0.0
 30
0.0
  3
*D12
  1

  0
LINE
  5
3129
330
1EC2
100
AcDbEntity
  8
0
  6
ByBlock
 62
     0
100
AcDbLine
 10
390.5
 20
113.5
 30
0.0
 11
406.0
 21
113.5
 31
0.0
  0
LINE
  5
312A
330
1EC2
100
AcDbEntity
  8
0
  6
ByBlock
 62
     0
100
AcDbLine
 10
390.5
 20
56.5
 30
0.0
 11
406.0
 21
56.5
 31
0.0
  0
LINE
  5
312B
330
1EC2
100
AcDbEntity
  8
0
  6
ByBlock
 62
     0
100
AcDbLine
 10
405.0
 20
108.5
 30
0.0
 11
405.0
 21
61.5
 31
0.0
  0
INSERT
  5
312C
330
1EC2
100
AcDbEntity
  8
0
  6
ByBlock
 62
     0
100
AcDbBlockReference
  2
_OPEN30
 10
405.0
 20
113.5
 30
0.0
 41
5.0
 42
5.0
 43
5.0
 50
90.0
  0
INSERT
  5
312D
330
1EC2
100
AcDbEntity
  8
0
  6
ByBlock
 62
     0
100
AcDbBlockReference
  2
_OPEN30
 10
405.0
 20
56.5
 30
0.0
 41
5.0
 42
5.0
 43
5.0
 50
270.0
  0
MTEXT
  5
312E
330
1EC2
100
AcDbEntity
  8
0
  6
ByBlock
 62
     0
100
AcDbMText
 10
400.7136363636363
 20
85.0
 30
0.0
 40
4.0
 41
0.0
 71
     5
 72
     1
  1
\A1;57{\H2.400000;\S+0.5^ -0;}
  7
寸法文字
 11
6.123031769111886E-17
 21
1.0
 31
0.0
 73
     1
 44
1.0
  0
POINT
  5
312F
330
1EC2
100
AcDbEntity
  8
DEFPOINTS
  6
ByBlock
 62
     0
100
AcDbPoint
 10
389.5
 20
113.5
 30
0.0
  0
POINT
  5
3130
330
1EC2
100
AcDbEntity
  8
DEFPOINTS
  6
ByBlock
 62
     0
100
AcDbPoint
 10
389.5
 20
56.5
 30
0.0
  0
POINT
  5
3131
330
1EC2
100
AcDbEntity
  8
DEFPOINTS
  6
ByBlock
 62
     0
100
AcDbPoint
 10
405.0
 20
56.5
 30
0.0
  0
ENDBLK
  5
3132
330
1EC2
100
AcDbEntity
  8
0
100
AcDbBlockEnd
  0
BLOCK
  5
331E
330
2883
100
AcDbEntity
  8
0
100
AcDbBlockBegin
  2
*D13
 70
     1
 10
0.0
 20
0.0
 30
0.0
  3
*D13
  1

  0
LINE
  5
331F
330
2883
100
AcDbEntity
  8
0
  6
ByBlock
 62
     0
100
AcDbLine
 10
28.0
 20
214.5
 30
0.0
 11
8.999999999999998
 21
214.5
 31
0.0
  0
LINE
  5
3320
330
2883
100
AcDbEntity
  8
0
  6
ByBlock
 62
     0
100
AcDbLine
 10
79.0
 20
187.0
 30
0.0
 11
8.999999999999996
 21
187.0
 31
0.0
  0
LINE
  5
3321
330
2883
100
AcDbEntity
  8
0
  6
ByBlock
 62
     0
100
AcDbLine
 10
10.0
 20
209.5
 30
0.0
 11
10.0
 21
192.0
 31
0.0
  0
INSERT
  5
3322
330
2883
100
AcDbEntity
  8
0
  6
ByBlock
 62
     0
100
AcDbBlockReference
  2
_OPEN30
 10
10.0
 20
214.5
 30
0.0
 41
5.0
 42
5.0
 43
5.0
 50
90.0
  0
INSERT
  5
3323
330
2883
100
AcDbEntity
  8
0
  6
ByBlock
 62
     0
100
AcDbBlockReference
  2
_OPEN30
 10
9.999999999999998
 20
187.0
 30
0.0
 41
5.0
 42
5.0
 43
5.0
 50
270.0
  0
MTEXT
  5
3324
330
2883
100
AcDbEntity
  8
0
  6
ByBlock
 62
     0
100
AcDbMText
 10
5.5
 20
200.75
 30
0.0
 40
5.0
 41
0.0
 71
     5
 72
     1
  1
\A1;27.5
  7
寸法文字
 11
6.123031769111886E-17
 21
1.0
 31
0.0
 73
     1
 44
1.0
  0
POINT
  5
3325
330
2883
100
AcDbEntity
  8
DEFPOINTS
  6
ByBlock
 62
     0
100
AcDbPoint
 10
29.0
 20
214.5
 30
0.0
  0
POINT
  5
3326
330
2883
100
AcDbEntity
  8
DEFPOINTS
  6
ByBlock
 62
     0
100
AcDbPoint
 10
80.0
 20
187.0
 30
0.0
  0
POINT
  5
3327
330
2883
100
AcDbEntity
  8
DEFPOINTS
  6
ByBlock
 62
     0
100
AcDbPoint
 10
9.999999999999998
 20
187.0
 30
0.0
  0
ENDBLK
  5
3328
330
2883
100
AcDbEntity
  8
0
100
AcDbBlockEnd
  0
BLOCK
  5
363E
330
2D5B
100
AcDbEntity
  8
0
100
AcDbBlockBegin
  2
*D14
 70
     1
 10
0.0
 20
0.0
 30
0.0
  3
*D14
  1

  0
LINE
  5
363F
330
2D5B
100
AcDbEntity
  8
0
  6
ByBlock
 62
     0
100
AcDbLine
 10
271.0
 20
243.0
 30
0.0
 11
286.0000000000812
 21
243.0
 31
0.0
  0
LINE
  5
3640
330
2D5B
100
AcDbEntity
  8
0
  6
ByBlock
 62
     0
100
AcDbLine
 10
271.0
 20
187.0001601066622
 30
0.0
 11
286.0000000000812
 21
187.0001601066622
 31
0.0
  0
LINE
  5
3641
330
2D5B
100
AcDbEntity
  8
0
  6
ByBlock
 62
     0
100
AcDbLine
 10
285.0000000000812
 20
238.0
 30
0.0
 11
285.0000000000812
 21
192.0001601066622
 31
0.0
  0
INSERT
  5
3642
330
2D5B
100
AcDbEntity
  8
0
  6
ByBlock
 62
     0
100
AcDbBlockReference
  2
_OPEN30
 10
285.0000000000812
 20
243.0
 30
0.0
 41
5.0
 42
5.0
 43
5.0
 50
90.0
  0
INSERT
  5
3643
330
2D5B
100
AcDbEntity
  8
0
  6
ByBlock
 62
     0
100
AcDbBlockReference
  2
_OPEN30
 10
285.0000000000812
 20
187.0001601066622
 30
0.0
 41
5.0
 42
5.0
 43
5.0
 50
270.0
  0
MTEXT
  5
3644
330
2D5B
100
AcDbEntity
  8
0
  6
ByBlock
 62
     0
100
AcDbMText
 10
280.5000000000812
 20
215.0000389733323
 30
0.0
 40
5.0
 41
0.0
 71
     5
 72
     1
  1
\A1;56
  7
寸法文字
 11
6.123031769111886E-17
 21
1.0
 31
0.0
 73
     1
 44
1.0
  0
POINT
  5
3645
330
2D5B
100
AcDbEntity
  8
DEFPOINTS
  6
ByBlock
 62
     0
100
AcDbPoint
 10
270.0
 20
243.0
 30
0.0
  0
POINT
  5
3646
330
2D5B
100
AcDbEntity
  8
DEFPOINTS
  6
ByBlock
 62
     0
100
AcDbPoint
 10
270.0
 20
187.0001601066622
 30
0.0
  0
POINT
  5
3647
330
2D5B
100
AcDbEntity
  8
DEFPOINTS
  6
ByBlock
 62
     0
100
AcDbPoint
 10
285.0000000000812
 20
187.0001601066622
 30
0.0
  0
ENDBLK
  5
3648
330
2D5B
100
AcDbEntity
  8
0
100
AcDbBlockEnd
  0
BLOCK
  5
36D2
330
2FC9
100
AcDbEntity
  8
0
100
AcDbBlockBegin
  2
*D15
 70
     1
 10
0.0
 20
0.0
 30
0.0
  3
*D15
  1

  0
LINE
  5
36D3
330
2FC9
100
AcDbEntity
  8
0
  6
ByBlock
 62
     0
100
AcDbLine
 10
359.8835769808841
 20
238.6050648902493
 30
0.0
 11
361.9729756044338
 21
247.3080364965479
 31
0.0
  0
LINE
  5
36D4
330
2FC9
100
AcDbEntity
  8
0
  6
ByBlock
 62
     0
100
AcDbLine
 10
351.910143633623
 20
240.5193168738676
 30
0.0
 11
353.9995422571727
 21
249.2222884801664
 31
0.0
  0
LINE
  5
36D5
330
2FC9
100
AcDbEntity
  8
0
  6
ByBlock
 62
     0
100
AcDbLine
 10
364.6566400017709
 20
245.6353304845825
 30
0.0
 11
367.5737497629639
 21
244.9349943930148
 31
0.0
  0
LINE
  5
36D6
330
2FC9
100
AcDbEntity
  8
0
  6
ByBlock
 62
     0
100
AcDbLine
 10
350.8489871321237
 20
248.9502546513364
 30
0.0
 11
347.9318773709308
 21
249.6505907429041
 31
0.0
  0
LINE
  5
36D7
330
2FC9
100
AcDbEntity
  8
0
  6
ByBlock
 62
     0
100
AcDbLine
 10
361.7395302405779
 20
246.3356665761502
 30
0.0
 11
353.7660968933168
 21
248.2499185597687
 31
0.0
  0
INSERT
  5
36D8
330
2FC9
100
AcDbEntity
  8
0
  6
ByBlock
 62
     0
100
AcDbBlockReference
  2
_OPEN30
 10
361.7395302405779
 20
246.3356665761502
 30
0.0
 41
3.0
 42
3.0
 43
3.0
 50
166.5
  0
INSERT
  5
36D9
330
2FC9
100
AcDbEntity
  8
0
  6
ByBlock
 62
     0
100
AcDbBlockReference
  2
_OPEN30
 10
353.7660968933168
 20
248.2499185597687
 30
0.0
 41
3.0
 42
3.0
 43
3.0
 50
346.4999999999999
  0
MTEXT
  5
36DA
330
2FC9
100
AcDbEntity
  8
0
  6
ByBlock
 62
     0
100
AcDbMText
 10
358.4531496585151
 20
250.2099023291524
 30
0.0
 40
3.0
 41
0.0
 71
     5
 72
     1
  1
\A1;8.2
  7
寸法文字
 11
0.9723699203976767
 21
-0.2334453638559059
 31
0.0
 73
     1
 44
1.0
  0
POINT
  5
36DB
330
2FC9
100
AcDbEntity
  8
DEFPOINTS
  6
ByBlock
 62
     0
100
AcDbPoint
 10
359.720165226185
 20
237.9244059459709
 30
0.0
  0
POINT
  5
36DC
330
2FC9
100
AcDbEntity
  8
DEFPOINTS
  6
ByBlock
 62
     0
100
AcDbPoint
 10
351.7467318789239
 20
239.8386579295893
 30
0.0
  0
POINT
  5
36DD
330
2FC9
100
AcDbEntity
  8
DEFPOINTS
  6
ByBlock
 62
     0
100
AcDbPoint
 10
353.7660968933168
 20
248.2499185597687
 30
0.0
  0
ENDBLK
  5
36DE
330
2FC9
100
AcDbEntity
  8
0
100
AcDbBlockEnd
  0
BLOCK
  5
3066
330
304C
100
AcDbEntity
  8
0
100
AcDbBlockBegin
  2
A$C3D3D0A8A
 70
     0
 10
0.0
 20
0.0
 30
0.0
  3
A$C3D3D0A8A
  1

  0
LINE
  5
304D
330
304C
100
AcDbEntity
  8
二点鎖線
100
AcDbLine
 10
1.784778361195947
 20
2.820743141317621
 30
0.0
 11
1.045674735186822
 21
3.1268898872097
 31
0.0
  0
LINE
  5
304E
330
304C
100
AcDbEntity
  8
二点鎖線
100
AcDbLine
 10
2.16746179356096
 20
3.744622673828985
 30
0.0
 11
1.428358167551892
 21
4.050769419721007
 31
0.0
  0
CIRCLE
  5
304F
330
304C
100
AcDbEntity
  8
二点鎖線
100
AcDbCircle
 10
2.899999609889733
 20
2.899999475208233
 30
0.0
 40
2.9
  0
LINE
  5
3050
330
304C
100
AcDbEntity
  8
二点鎖線
100
AcDbLine
 10
0.937435515157631
 20
3.388202480184987
 30
0.0
 11
1.167045574576719
 21
3.942530199691873
 31
0.0
  0
ARC
  5
3051
330
304C
100
AcDbEntity
  8
二点鎖線
100
AcDbCircle
 10
1.12221142165987
 20
3.311665793711995
 30
0.0
 40
0.2
100
AcDbArc
 50
157.5
 51
247.5
  0
ARC
  5
3052
330
304C
100
AcDbEntity
  8
二点鎖線
100
AcDbCircle
 10
1.3518214810789
 20
3.865993513218768
 30
0.0
 40
0.2
100
AcDbArc
 50
67.5
 51
157.5
  0
LINE
  5
3053
330
304C
100
AcDbEntity
  8
二点鎖線
100
AcDbLine
 10
4.75432448459253
 20
2.673109063206766
 30
0.0
 11
4.015220858583632
 21
2.979255809098845
 31
0.0
  0
ARC
  5
3054
330
304C
100
AcDbEntity
  8
二点鎖線
100
AcDbCircle
 10
3.865993647900268
 20
4.448177604019008
 30
0.0
 40
0.2
100
AcDbArc
 50
337.5000000000001
 51
67.5
  0
ARC
  5
3055
330
304C
100
AcDbEntity
  8
二点鎖線
100
AcDbCircle
 10
4.677787798119539
 20
2.488333156704414
 30
0.0
 40
0.2
100
AcDbArc
 50
337.5000000000001
 51
67.5
  0
ARC
  5
3056
330
304C
100
AcDbEntity
  8
二点鎖線
100
AcDbCircle
 10
4.448177738700508
 20
1.934005437197698
 30
0.0
 40
0.2
100
AcDbArc
 50
247.5
 51
337.5000000000001
  0
LINE
  5
3057
330
304C
100
AcDbEntity
  8
二点鎖線
100
AcDbLine
 10
4.632953645202747
 20
1.857468750724649
 30
0.0
 11
4.862563704621948
 21
2.411796470231479
 31
0.0
  0
LINE
  5
3058
330
304C
100
AcDbEntity
  8
二点鎖線
100
AcDbLine
 10
1.749229665377015
 20
1.428358032870506
 30
0.0
 11
2.055376411268981
 21
2.167461658879517
 31
0.0
  0
LINE
  5
3059
330
304C
100
AcDbEntity
  8
二点鎖線
100
AcDbLine
 10
2.673109197888266
 20
1.045674600505322
 30
0.0
 11
2.979255943780288
 21
1.784778226514391
 31
0.0
  0
ARC
  5
305A
330
304C
100
AcDbEntity
  8
二点鎖線
100
AcDbCircle
 10
1.934005571879197
 20
1.351821346397401
 30
0.0
 40
0.2
100
AcDbArc
 50
157.5
 51
247.5
  0
ARC
  5
305B
330
304C
100
AcDbEntity
  8
二点鎖線
100
AcDbCircle
 10
2.488333291385914
 20
1.122211286978427
 30
0.0
 40
0.2
100
AcDbArc
 50
247.5
 51
337.5000000000001
  0
LINE
  5
305C
330
304C
100
AcDbEntity
  8
二点鎖線
100
AcDbLine
 10
2.411796604912922
 20
0.9374353804761313
 30
0.0
 11
1.857468885406092
 21
1.167045439895162
 31
0.0
  0
ARC
  5
305D
330
304C
100
AcDbEntity
  8
二点鎖線
100
AcDbCircle
 10
1.593436645013355
 20
2.358803375061996
 30
0.0
 40
0.5
100
AcDbArc
 50
337.5000000000001
 51
67.5
  0
ARC
  5
305E
330
304C
100
AcDbEntity
  8
二点鎖線
100
AcDbCircle
 10
3.441195710035913
 20
1.593436510331799
 30
0.0
 40
0.5
100
AcDbArc
 50
67.5
 51
157.5
  0
ARC
  5
305F
330
304C
100
AcDbEntity
  8
二点鎖線
100
AcDbCircle
 10
2.358803509743495
 20
4.206562440084554
 30
0.0
 40
0.5
100
AcDbArc
 50
247.5
 51
337.5000000000001
  0
LINE
  5
3060
330
304C
100
AcDbEntity
  8
二点鎖線
100
AcDbLine
 10
2.820743275999234
 20
4.015220723901962
 30
0.0
 11
3.126890021891313
 21
4.754324349911144
 31
0.0
  0
ARC
  5
3061
330
304C
100
AcDbEntity
  8
二点鎖線
100
AcDbCircle
 10
3.311665928393381
 20
4.677787663438039
 30
0.0
 40
0.2
100
AcDbArc
 50
67.5
 51
157.5
  0
LINE
  5
3062
330
304C
100
AcDbEntity
  8
二点鎖線
100
AcDbLine
 10
4.371641052227517
 20
1.749229530695516
 30
0.0
 11
3.632537426218562
 21
2.055376276587481
 31
0.0
  0
ARC
  5
3063
330
304C
100
AcDbEntity
  8
二点鎖線
100
AcDbCircle
 10
4.206562574766167
 20
3.441195575354413
 30
0.0
 40
0.5
100
AcDbArc
 50
157.5
 51
247.5
  0
LINE
  5
3064
330
304C
100
AcDbEntity
  8
二点鎖線
100
AcDbLine
 10
3.744622808510485
 20
3.632537291536948
 30
0.0
 11
4.050769554402564
 21
4.371640917545903
 31
0.0
  0
LINE
  5
3065
330
304C
100
AcDbEntity
  8
二点鎖線
100
AcDbLine
 10
3.942530334373259
 20
4.632953510521247
 30
0.0
 11
3.388202614866429
 21
4.862563569940448
 31
0.0
  0
ENDBLK
  5
3067
330
304C
100
AcDbEntity
  8
0
100
AcDbBlockEnd
  0
BLOCK
  5
34A1
330
30A4
100
AcDbEntity
  8
0
100
AcDbBlockBegin
  2
*D17
 70
     1
 10
0.0
 20
0.0
 30
0.0
  3
*D17
  1

  0
LINE
  5
34A2
330
30A4
100
AcDbEntity
  8
0
  6
ByBlock
 62
     0
100
AcDbLine
 10
300.9999999999999
 20
213.5
 30
0.0
 11
300.9999999999999
 21
154.0
 31
0.0
  0
LINE
  5
34A3
330
30A4
100
AcDbEntity
  8
0
  6
ByBlock
 62
     0
100
AcDbLine
 10
399.0
 20
213.2
 30
0.0
 11
399.0
 21
154.0
 31
0.0
  0
LINE
  5
34A4
330
30A4
100
AcDbEntity
  8
0
  6
ByBlock
 62
     0
100
AcDbLine
 10
305.9999999999999
 20
155.0
 30
0.0
 11
394.0
 21
155.0
 31
0.0
  0
INSERT
  5
34A5
330
30A4
100
AcDbEntity
  8
0
  6
ByBlock
 62
     0
100
AcDbBlockReference
  2
_OPEN30
 10
300.9999999999999
 20
155.0
 30
0.0
 41
5.0
 42
5.0
 43
5.0
 50
180.0
  0
INSERT
  5
34A6
330
30A4
100
AcDbEntity
  8
0
  6
ByBlock
 62
     0
100
AcDbBlockReference
  2
_OPEN30
 10
399.0
 20
155.0
 30
0.0
 41
5.0
 42
5.0
 43
5.0
  0
MTEXT
  5
34A7
330
30A4
100
AcDbEntity
  8
0
  6
ByBlock
 62
     0
100
AcDbMText
 10
350.0
 20
159.5
 30
0.0
 40
5.0
 41
0.0
 71
     5
 72
     1
  1
\A1;98
  7
寸法文字
 73
     1
 44
1.0
  0
POINT
  5
34A8
330
30A4
100
AcDbEntity
  8
DEFPOINTS
  6
ByBlock
 62
     0
100
AcDbPoint
 10
300.9999999999999
 20
214.5
 30
0.0
  0
POINT
  5
34A9
330
30A4
100
AcDbEntity
  8
DEFPOINTS
  6
ByBlock
 62
     0
100
AcDbPoint
 10
399.0
 20
214.2
 30
0.0
  0
POINT
  5
34AA
330
30A4
100
AcDbEntity
  8
DEFPOINTS
  6
ByBlock
 62
     0
100
AcDbPoint
 10
399.0
 20
155.0
 30
0.0
  0
ENDBLK
  5
34AB
330
30A4
100
AcDbEntity
  8
0
100
AcDbBlockEnd
  0
BLOCK
  5
36DF
330
30BE
100
AcDbEntity
  8
0
100
AcDbBlockBegin
  2
*D18
 70
     1
 10
0.0
 20
0.0
 30
0.0
  3
*D18
  1

  0
LINE
  5
36E0
330
30BE
100
AcDbEntity
  8
0
  6
ByBlock
 62
     0
100
AcDbLine
 10
322.0
 20
206.3
 30
0.0
 11
322.0
 21
174.0
 31
0.0
  0
LINE
  5
36E1
330
30BE
100
AcDbEntity
  8
0
  6
ByBlock
 62
     0
100
AcDbLine
 10
378.0
 20
206.3
 30
0.0
 11
378.0
 21
174.0
 31
0.0
  0
LINE
  5
36E2
330
30BE
100
AcDbEntity
  8
0
  6
ByBlock
 62
     0
100
AcDbLine
 10
325.0
 20
175.0
 30
0.0
 11
375.0
 21
175.0
 31
0.0
  0
INSERT
  5
36E3
330
30BE
100
AcDbEntity
  8
0
  6
ByBlock
 62
     0
100
AcDbBlockReference
  2
_OPEN30
 10
322.0
 20
175.0
 30
0.0
 41
3.0
 42
3.0
 43
3.0
 50
180.0
  0
INSERT
  5
36E4
330
30BE
100
AcDbEntity
  8
0
  6
ByBlock
 62
     0
100
AcDbBlockReference
  2
_OPEN30
 10
378.0
 20
175.0
 30
0.0
 41
3.0
 42
3.0
 43
3.0
  0
MTEXT
  5
36E5
330
30BE
100
AcDbEntity
  8
0
  6
ByBlock
 62
     0
100
AcDbMText
 10
350.0
 20
178.4517045454545
 30
0.0
 40
3.0
 41
0.0
 71
     5
 72
     1
  1
\A1;φ56
  7
寸法文字
 73
     1
 44
1.0
  0
POINT
  5
36E6
330
30BE
100
AcDbEntity
  8
DEFPOINTS
  6
ByBlock
 62
     0
100
AcDbPoint
 10
322.0
 20
207.0
 30
0.0
  0
POINT
  5
36E7
330
30BE
100
AcDbEntity
  8
DEFPOINTS
  6
ByBlock
 62
     0
100
AcDbPoint
 10
378.0
 20
207.0
 30
0.0
  0
POINT
  5
36E8
330
30BE
100
AcDbEntity
  8
DEFPOINTS
  6
ByBlock
 62
     0
100
AcDbPoint
 10
378.0
 20
175.0
 30
0.0
  0
ENDBLK
  5
36E9
330
30BE
100
AcDbEntity
  8
0
100
AcDbBlockEnd
  0
BLOCK
  5
36EA
330
3133
100
AcDbEntity
  8
0
100
AcDbBlockBegin
  2
*D19
 70
     1
 10
0.0
 20
0.0
 30
0.0
  3
*D19
  1

  0
LINE
  5
36EB
330
3133
100
AcDbEntity
  8
0
  6
ByBlock
 62
     0
100
AcDbLine
 10
304.3
 20
243.5
 30
0.0
 11
289.0
 21
243.5
 31
0.0
  0
LINE
  5
36EC
330
3133
100
AcDbEntity
  8
0
  6
ByBlock
 62
     0
100
AcDbLine
 10
314.3
 20
215.0
 30
0.0
 11
289.0
 21
215.0
 31
0.0
  0
LINE
  5
36ED
330
3133
100
AcDbEntity
  8
0
  6
ByBlock
 62
     0
100
AcDbLine
 10
290.0
 20
240.5
 30
0.0
 11
290.0
 21
218.0
 31
0.0
  0
INSERT
  5
36EE
330
3133
100
AcDbEntity
  8
0
  6
ByBlock
 62
     0
100
AcDbBlockReference
  2
_OPEN30
 10
290.0
 20
243.5
 30
0.0
 41
3.0
 42
3.0
 43
3.0
 50
90.0
  0
INSERT
  5
36EF
330
3133
100
AcDbEntity
  8
0
  6
ByBlock
 62
     0
100
AcDbBlockReference
  2
_OPEN30
 10
290.0
 20
215.0
 30
0.0
 41
3.0
 42
3.0
 43
3.0
 50
270.0
  0
MTEXT
  5
36F0
330
3133
100
AcDbEntity
  8
0
  6
ByBlock
 62
     0
100
AcDbMText
 10
287.0
 20
229.25
 30
0.0
 40
3.0
 41
0.0
 71
     5
 72
     1
  1
\A1;28.5
  7
寸法文字
 11
6.123031769111886E-17
 21
1.0
 31
0.0
 73
     1
 44
1.0
  0
POINT
  5
36F1
330
3133
100
AcDbEntity
  8
DEFPOINTS
  6
ByBlock
 62
     0
100
AcDbPoint
 10
305.0
 20
243.5
 30
0.0
  0
POINT
  5
36F2
330
3133
100
AcDbEntity
  8
DEFPOINTS
  6
ByBlock
 62
     0
100
AcDbPoint
 10
315.0
 20
215.0
 30
0.0
  0
POINT
  5
36F3
330
3133
100
AcDbEntity
  8
DEFPOINTS
  6
ByBlock
 62
     0
100
AcDbPoint
 10
290.0
 20
215.0
 30
0.0
  0
ENDBLK
  5
36F4
330
3133
100
AcDbEntity
  8
0
100
AcDbBlockEnd
  0
BLOCK
  5
36F5
330
314D
100
AcDbEntity
  8
0
100
AcDbBlockBegin
  2
*D20
 70
     1
 10
0.0
 20
0.0
 30
0.0
  3
*D20
  1

  0
LINE
  5
36F6
330
314D
100
AcDbEntity
  8
0
  6
ByBlock
 62
     0
100
AcDbLine
 10
310.0
 20
249.2
 30
0.0
 11
310.0
 21
296.0
 31
0.0
  0
LINE
  5
36F7
330
314D
100
AcDbEntity
  8
0
  6
ByBlock
 62
     0
100
AcDbLine
 10
390.0
 20
249.2
 30
0.0
 11
390.0
 21
296.0
 31
0.0
  0
LINE
  5
36F8
330
314D
100
AcDbEntity
  8
0
  6
ByBlock
 62
     0
100
AcDbLine
 10
313.0
 20
295.0
 30
0.0
 11
387.0
 21
295.0
 31
0.0
  0
INSERT
  5
36F9
330
314D
100
AcDbEntity
  8
0
  6
ByBlock
 62
     0
100
AcDbBlockReference
  2
_OPEN30
 10
310.0
 20
295.0
 30
0.0
 41
3.0
 42
3.0
 43
3.0
 50
180.0
  0
INSERT
  5
36FA
330
314D
100
AcDbEntity
  8
0
  6
ByBlock
 62
     0
100
AcDbBlockReference
  2
_OPEN30
 10
390.0
 20
295.0
 30
0.0
 41
3.0
 42
3.0
 43
3.0
  0
MTEXT
  5
36FB
330
314D
100
AcDbEntity
  8
0
  6
ByBlock
 62
     0
100
AcDbMText
 10
350.0
 20
298.0
 30
0.0
 40
3.0
 41
0.0
 71
     5
 72
     1
  1
\A1;80
  7
寸法文字
 73
     1
 44
1.0
  0
POINT
  5
36FC
330
314D
100
AcDbEntity
  8
DEFPOINTS
  6
ByBlock
 62
     0
100
AcDbPoint
 10
310.0
 20
248.5
 30
0.0
  0
POINT
  5
36FD
330
314D
100
AcDbEntity
  8
DEFPOINTS
  6
ByBlock
 62
     0
100
AcDbPoint
 10
390.0
 20
248.5
 30
0.0
  0
POINT
  5
36FE
330
314D
100
AcDbEntity
  8
DEFPOINTS
  6
ByBlock
 62
     0
100
AcDbPoint
 10
390.0
 20
295.0
 30
0.0
  0
ENDBLK
  5
36FF
330
314D
100
AcDbEntity
  8
0
100
AcDbBlockEnd
  0
BLOCK
  5
31B1
330
31A4
100
AcDbEntity
  8
0
100
AcDbBlockBegin
  2
*D21
 70
     1
 10
0.0
 20
0.0
 30
0.0
  3
*D21
  1

  0
LINE
  5
31B2
330
31A4
100
AcDbEntity
  8
0
  6
ByBlock
 62
     0
100
AcDbLine
 10
29.0
 20
275.0
 30
0.0
 11
29.0
 21
286.0
 31
0.0
  0
LINE
  5
31B3
330
31A4
100
AcDbEntity
  8
0
  6
ByBlock
 62
     0
100
AcDbLine
 10
131.0
 20
275.0
 30
0.0
 11
131.0
 21
286.0
 31
0.0
  0
LINE
  5
31B4
330
31A4
100
AcDbEntity
  8
0
  6
ByBlock
 62
     0
100
AcDbLine
 10
34.0
 20
285.0
 30
0.0
 11
126.0
 21
285.0
 31
0.0
  0
INSERT
  5
31B5
330
31A4
100
AcDbEntity
  8
0
  6
ByBlock
 62
     0
100
AcDbBlockReference
  2
_OPEN30
 10
29.0
 20
285.0
 30
0.0
 41
5.0
 42
5.0
 43
5.0
 50
180.0
  0
INSERT
  5
31B6
330
31A4
100
AcDbEntity
  8
0
  6
ByBlock
 62
     0
100
AcDbBlockReference
  2
_OPEN30
 10
131.0
 20
285.0
 30
0.0
 41
5.0
 42
5.0
 43
5.0
  0
MTEXT
  5
31B7
330
31A4
100
AcDbEntity
  8
0
  6
ByBlock
 62
     0
100
AcDbMText
 10
80.0
 20
289.5
 30
0.0
 40
5.0
 41
0.0
 71
     5
 72
     1
  1
\A1;102
  7
寸法文字
 73
     1
 44
1.0
  0
POINT
  5
31B8
330
31A4
100
AcDbEntity
  8
DEFPOINTS
  6
ByBlock
 62
     0
100
AcDbPoint
 10
29.0
 20
274.0
 30
0.0
  0
POINT
  5
31B9
330
31A4
100
AcDbEntity
  8
DEFPOINTS
  6
ByBlock
 62
     0
100
AcDbPoint
 10
131.0
 20
274.0
 30
0.0
  0
POINT
  5
31BA
330
31A4
100
AcDbEntity
  8
DEFPOINTS
  6
ByBlock
 62
     0
100
AcDbPoint
 10
131.0
 20
285.0
 30
0.0
  0
ENDBLK
  5
31BB
330
31A4
100
AcDbEntity
  8
0
100
AcDbBlockEnd
  0
BLOCK
  5
321D
330
321C
100
AcDbEntity
  8
0
100
AcDbBlockBegin
  2
_DOTSMALL
 70
     0
 10
0.0
 20
0.0
 30
0.0
  3
_DOTSMALL
  1

  0
LWPOLYLINE
  5
321E
330
321C
100
AcDbEntity
  8
0
  6
ByBlock
 62
     0
100
AcDbPolyline
 90
        2
 70
     1
 43
0.5
 10
-0.0625
 20
0.0
 42
1.0
 10
0.0625
 20
0.0
 42
1.0
  0
ENDBLK
  5
3222
330
321C
100
AcDbEntity
  8
0
100
AcDbBlockEnd
  0
BLOCK
  5
35A9
330
3377
100
AcDbEntity
  8
0
100
AcDbBlockBegin
  2
*D23
 70
     1
 10
0.0
 20
0.0
 30
0.0
  3
*D23
  1

  0
LINE
  5
35AA
330
3377
100
AcDbEntity
  8
0
  6
ByBlock
 62
     0
100
AcDbLine
 10
402.0
 20
243.0
 30
0.0
 11
421.0
 21
243.0
 31
0.0
  0
LINE
  5
35AB
330
3377
100
AcDbEntity
  8
0
  6
ByBlock
 62
     0
100
AcDbLine
 10
360.0
 20
187.0
 30
0.0
 11
421.0
 21
187.0
 31
0.0
  0
LINE
  5
35AC
330
3377
100
AcDbEntity
  8
0
  6
ByBlock
 62
     0
100
AcDbLine
 10
420.0
 20
238.0
 30
0.0
 11
420.0
 21
192.0
 31
0.0
  0
INSERT
  5
35AD
330
3377
100
AcDbEntity
  8
0
  6
ByBlock
 62
     0
100
AcDbBlockReference
  2
_OPEN30
 10
420.0
 20
243.0
 30
0.0
 41
5.0
 42
5.0
 43
5.0
 50
90.0
  0
INSERT
  5
35AE
330
3377
100
AcDbEntity
  8
0
  6
ByBlock
 62
     0
100
AcDbBlockReference
  2
_OPEN30
 10
420.0
 20
187.0
 30
0.0
 41
5.0
 42
5.0
 43
5.0
 50
270.0
  0
MTEXT
  5
35AF
330
3377
100
AcDbEntity
  8
0
  6
ByBlock
 62
     0
100
AcDbMText
 10
415.5
 20
215.0
 30
0.0
 40
5.0
 41
0.0
 71
     5
 72
     1
  1
\A1;56
  7
寸法文字
 11
6.123031769111886E-17
 21
1.0
 31
0.0
 73
     1
 44
1.0
  0
POINT
  5
35B0
330
3377
100
AcDbEntity
  8
DEFPOINTS
  6
ByBlock
 62
     0
100
AcDbPoint
 10
401.0
 20
243.0
 30
0.0
  0
POINT
  5
35B1
330
3377
100
AcDbEntity
  8
DEFPOINTS
  6
ByBlock
 62
     0
100
AcDbPoint
 10
359.0
 20
187.0
 30
0.0
  0
POINT
  5
35B2
330
3377
100
AcDbEntity
  8
DEFPOINTS
  6
ByBlock
 62
     0
100
AcDbPoint
 10
420.0
 20
187.0
 30
0.0
  0
ENDBLK
  5
35B3
330
3377
100
AcDbEntity
  8
0
100
AcDbBlockEnd
  0
BLOCK
  5
3759
330
33BE
100
AcDbEntity
  8
0
100
AcDbBlockBegin
  2
*D24
 70
     1
 10
0.0
 20
0.0
 30
0.0
  3
*D24
  1

  0
LINE
  5
375A
330
33BE
100
AcDbEntity
  8
0
  6
ByBlock
 62
     0
100
AcDbLine
 10
316.5
 20
212.8
 30
0.0
 11
316.5
 21
164.0
 31
0.0
  0
LINE
  5
375B
330
33BE
100
AcDbEntity
  8
0
  6
ByBlock
 62
     0
100
AcDbLine
 10
383.5
 20
212.8
 30
0.0
 11
383.5
 21
164.0
 31
0.0
  0
LINE
  5
375C
330
33BE
100
AcDbEntity
  8
0
  6
ByBlock
 62
     0
100
AcDbLine
 10
319.5
 20
165.0
 30
0.0
 11
380.5
 21
165.0
 31
0.0
  0
INSERT
  5
375D
330
33BE
100
AcDbEntity
  8
0
  6
ByBlock
 62
     0
100
AcDbBlockReference
  2
_OPEN30
 10
316.5
 20
165.0
 30
0.0
 41
3.0
 42
3.0
 43
3.0
 50
180.0
  0
INSERT
  5
375E
330
33BE
100
AcDbEntity
  8
0
  6
ByBlock
 62
     0
100
AcDbBlockReference
  2
_OPEN30
 10
383.5
 20
165.0
 30
0.0
 41
3.0
 42
3.0
 43
3.0
  0
MTEXT
  5
375F
330
33BE
100
AcDbEntity
  8
0
  6
ByBlock
 62
     0
100
AcDbMText
 10
350.0
 20
168.4517045454545
 30
0.0
 40
3.0
 41
0.0
 71
     5
 72
     1
  1
\A1;φ67
  7
寸法文字
 73
     1
 44
1.0
  0
POINT
  5
3760
330
33BE
100
AcDbEntity
  8
DEFPOINTS
  6
ByBlock
 62
     0
100
AcDbPoint
 10
316.5
 20
213.5
 30
0.0
  0
POINT
  5
3761
330
33BE
100
AcDbEntity
  8
DEFPOINTS
  6
ByBlock
 62
     0
100
AcDbPoint
 10
383.5
 20
213.5
 30
0.0
  0
POINT
  5
3762
330
33BE
100
AcDbEntity
  8
DEFPOINTS
  6
ByBlock
 62
     0
100
AcDbPoint
 10
383.5
 20
165.0
 30
0.0
  0
ENDBLK
  5
3763
330
33BE
100
AcDbEntity
  8
0
100
AcDbBlockEnd
  0
BLOCK
  5
3434
330
3423
100
AcDbEntity
  8
0
100
AcDbBlockBegin
  2
A$C79953EA4
 70
     0
 10
0.0
 20
0.0
 30
0.0
  3
A$C79953EA4
  1

  0
LINE
  5
3424
330
3423
100
AcDbEntity
  8
二点鎖線
100
AcDbLine
 10
0.0000001846384521
 20
0.0000001972807695
 30
0.0
 11
0.0000001846384521
 21
70.00000019728077
 31
0.0
  0
LINE
  5
3425
330
3423
100
AcDbEntity
  8
二点鎖線
100
AcDbLine
 10
12.00000018463845
 20
70.00000019728077
 30
0.0
 11
12.00000018463845
 21
0.0000001972807695
 31
0.0
  0
LINE
  5
3426
330
3423
100
AcDbEntity
  8
二点鎖線
100
AcDbLine
 10
3.000000184638452
 20
0.0000001972807695
 30
0.0
 11
0.0000001846384521
 21
3.000000197280769
 31
0.0
  0
LINE
  5
3427
330
3423
100
AcDbEntity
  8
二点鎖線
100
AcDbLine
 10
9.000000184638452
 20
0.0000001972807695
 30
0.0
 11
12.00000018463845
 21
3.000000197280769
 31
0.0
  0
LINE
  5
3428
330
3423
100
AcDbEntity
  8
二点鎖線
100
AcDbLine
 10
12.00000018463845
 20
0.0000001972807695
 30
0.0
 11
0.0000001846384521
 21
0.0000001972807695
 31
0.0
  0
LINE
  5
3429
330
3423
100
AcDbEntity
  8
二点鎖線
100
AcDbLine
 10
0.0000001846384521
 20
6.500000197280769
 30
0.0
 11
12.00000018463845
 21
6.500000197280769
 31
0.0
  0
LINE
  5
342A
330
3423
100
AcDbEntity
  8
二点鎖線
100
AcDbLine
 10
0.0000001846384521
 20
5.700000197280772
 30
0.0
 11
12.00000018463845
 21
5.700000197280772
 31
0.0
  0
LINE
  5
342B
330
3423
100
AcDbEntity
  8
二点鎖線
100
AcDbLine
 10
4.250000184638452
 20
31.75000019728077
 30
0.0
 11
4.250000184638452
 21
38.25000019728077
 31
0.0
  0
LINE
  5
342C
330
3423
100
AcDbEntity
  8
二点鎖線
100
AcDbLine
 10
7.750000184638452
 20
31.75000019728077
 30
0.0
 11
7.750000184638452
 21
38.25000019728077
 31
0.0
  0
ARC
  5
342D
330
3423
100
AcDbEntity
  8
二点鎖線
100
AcDbCircle
 10
6.000000184638452
 20
31.75000019728077
 30
0.0
 40
1.75
100
AcDbArc
 50
180.0
 51
0.0
  0
ARC
  5
342E
330
3423
100
AcDbEntity
  8
二点鎖線
100
AcDbCircle
 10
6.000000184638452
 20
38.25000019728077
 30
0.0
 40
1.75
100
AcDbArc
 50
0.0
 51
180.0
  0
LINE
  5
342F
330
3423
100
AcDbEntity
  8
二点鎖線
100
AcDbLine
 10
0.0000001846384521
 20
70.00000019728077
 30
0.0
 11
12.00000018463845
 21
70.00000019728077
 31
0.0
  0
LINE
  5
3430
330
3423
100
AcDbEntity
  8
二点鎖線
100
AcDbLine
 10
0.0000001846384521
 20
63.50000019728077
 30
0.0
 11
12.00000018463845
 21
63.50000019728077
 31
0.0
  0
LINE
  5
3431
330
3423
100
AcDbEntity
  8
二点鎖線
100
AcDbLine
 10
0.0000001846384521
 20
64.30000019728077
 30
0.0
 11
12.00000018463845
 21
64.30000019728077
 31
0.0
  0
LINE
  5
3432
330
3423
100
AcDbEntity
  8
二点鎖線
100
AcDbLine
 10
3.000000184638452
 20
70.00000019728077
 30
0.0
 11
0.0000001846384521
 21
67.00000019728077
 31
0.0
  0
LINE
  5
3433
330
3423
100
AcDbEntity
  8
二点鎖線
100
AcDbLine
 10
9.000000184638452
 20
70.00000019728077
 30
0.0
 11
12.00000018463845
 21
67.00000019728077
 31
0.0
  0
ENDBLK
  5
3435
330
3423
100
AcDbEntity
  8
0
100
AcDbBlockEnd
  0
BLOCK
  5
3700
330
3555
100
AcDbEntity
  8
0
100
AcDbBlockBegin
  2
*D26
 70
     1
 10
0.0
 20
0.0
 30
0.0
  3
*D26
  1

  0
LINE
  5
3701
330
3555
100
AcDbEntity
  8
0
  6
ByBlock
 62
     0
100
AcDbLine
 10
384.0
 20
279.2
 30
0.0
 11
384.0
 21
286.0
 31
0.0
  0
LINE
  5
3702
330
3555
100
AcDbEntity
  8
0
  6
ByBlock
 62
     0
100
AcDbLine
 10
396.0
 20
279.2
 30
0.0
 11
396.0
 21
286.0
 31
0.0
  0
LINE
  5
3703
330
3555
100
AcDbEntity
  8
0
  6
ByBlock
 62
     0
100
AcDbLine
 10
387.0
 20
285.0
 30
0.0
 11
393.0
 21
285.0
 31
0.0
  0
LINE
  5
3704
330
3555
100
AcDbEntity
  8
0
  6
ByBlock
 62
     0
100
AcDbLine
 10
396.0
 20
285.0
 30
0.0
 11
405.6818181818182
 21
285.0
 31
0.0
  0
INSERT
  5
3705
330
3555
100
AcDbEntity
  8
0
  6
ByBlock
 62
     0
100
AcDbBlockReference
  2
_OPEN30
 10
384.0
 20
285.0
 30
0.0
 41
3.0
 42
3.0
 43
3.0
 50
180.0
  0
INSERT
  5
3706
330
3555
100
AcDbEntity
  8
0
  6
ByBlock
 62
     0
100
AcDbBlockReference
  2
_OPEN30
 10
396.0
 20
285.0
 30
0.0
 41
3.0
 42
3.0
 43
3.0
  0
MTEXT
  5
3707
330
3555
100
AcDbEntity
  8
0
  6
ByBlock
 62
     0
100
AcDbMText
 10
402.3409090909091
 20
288.0
 30
0.0
 40
3.0
 41
0.0
 71
     5
 72
     1
  1
\A1;12
  7
寸法文字
 73
     1
 44
1.0
  0
POINT
  5
3708
330
3555
100
AcDbEntity
  8
DEFPOINTS
  6
ByBlock
 62
     0
100
AcDbPoint
 10
384.0
 20
278.5
 30
0.0
  0
POINT
  5
3709
330
3555
100
AcDbEntity
  8
DEFPOINTS
  6
ByBlock
 62
     0
100
AcDbPoint
 10
396.0
 20
278.5
 30
0.0
  0
POINT
  5
370A
330
3555
100
AcDbEntity
  8
DEFPOINTS
  6
ByBlock
 62
     0
100
AcDbPoint
 10
396.0
 20
285.0
 30
0.0
  0
ENDBLK
  5
370B
330
3555
100
AcDbEntity
  8
0
100
AcDbBlockEnd
  0
BLOCK
  5
370C
330
357B
100
AcDbEntity
  8
0
100
AcDbBlockBegin
  2
*D27
 70
     1
 10
0.0
 20
0.0
 30
0.0
  3
*D27
  1

  0
LINE
  5
370D
330
357B
100
AcDbEntity
  8
0
  6
ByBlock
 62
     0
100
AcDbLine
 10
396.7
 20
278.5
 30
0.0
 11
411.0
 21
278.5
 31
0.0
  0
LINE
  5
370E
330
357B
100
AcDbEntity
  8
0
  6
ByBlock
 62
     0
100
AcDbLine
 10
396.7
 20
208.5
 30
0.0
 11
411.0
 21
208.5
 31
0.0
  0
LINE
  5
370F
330
357B
100
AcDbEntity
  8
0
  6
ByBlock
 62
     0
100
AcDbLine
 10
410.0
 20
275.5
 30
0.0
 11
410.0
 21
211.5
 31
0.0
  0
INSERT
  5
3710
330
357B
100
AcDbEntity
  8
0
  6
ByBlock
 62
     0
100
AcDbBlockReference
  2
_OPEN30
 10
410.0
 20
278.5
 30
0.0
 41
3.0
 42
3.0
 43
3.0
 50
90.0
  0
INSERT
  5
3711
330
357B
100
AcDbEntity
  8
0
  6
ByBlock
 62
     0
100
AcDbBlockReference
  2
_OPEN30
 10
410.0
 20
208.5
 30
0.0
 41
3.0
 42
3.0
 43
3.0
 50
270.0
  0
MTEXT
  5
3712
330
357B
100
AcDbEntity
  8
0
  6
ByBlock
 62
     0
100
AcDbMText
 10
407.0
 20
249.0
 30
0.0
 40
3.0
 41
0.0
 71
     5
 72
     1
  1
\A1;70
  7
寸法文字
 11
6.123031769111886E-17
 21
1.0
 31
0.0
 73
     1
 44
1.0
  0
POINT
  5
3713
330
357B
100
AcDbEntity
  8
DEFPOINTS
  6
ByBlock
 62
     0
100
AcDbPoint
 10
396.0
 20
278.5
 30
0.0
  0
POINT
  5
3714
330
357B
100
AcDbEntity
  8
DEFPOINTS
  6
ByBlock
 62
     0
100
AcDbPoint
 10
396.0
 20
208.5
 30
0.0
  0
POINT
  5
3715
330
357B
100
AcDbEntity
  8
DEFPOINTS
  6
ByBlock
 62
     0
100
AcDbPoint
 10
410.0
 20
208.5
 30
0.0
  0
ENDBLK
  5
3716
330
357B
100
AcDbEntity
  8
0
100
AcDbBlockEnd
  0
BLOCK
  5
363B
330
3620
100
AcDbEntity
  8
0
100
AcDbBlockBegin
  2
A$C732F3514
 70
     0
 10
0.0
 20
0.0
 30
0.0
  3
A$C732F3514
  1

  0
LINE
  5
3621
330
3620
100
AcDbEntity
  8
二点鎖線
100
AcDbLine
 10
18.19999980652923
 20
7.199999916645027
 30
0.0
 11
18.19999980652923
 21
62.79999991664505
 31
0.0
  0
LINE
  5
3622
330
3620
100
AcDbEntity
  8
二点鎖線
100
AcDbLine
 10
17.39999980652919
 20
7.999999916645038
 30
0.0
 11
17.39999980652919
 21
61.99999991664504
 31
0.0
  0
LINE
  5
3623
330
3620
100
AcDbEntity
  8
二点鎖線
100
AcDbLine
 10
4.399999806529223
 20
6.699999916645027
 30
0.0
 11
-0.0000001934707825
 21
-0.000000083354962
 31
0.0
  0
LINE
  5
3624
330
3620
100
AcDbEntity
  8
二点鎖線
100
AcDbLine
 10
3.968285207013906
 20
7.499999916645038
 30
0.0
 11
-0.0000001934707825
 21
1.457383511361513
 31
0.0
  0
LINE
  5
3625
330
3620
100
AcDbEntity
  8
二点鎖線
100
AcDbLine
 10
-0.0000001934707825
 20
1.457383511361513
 30
0.0
 11
-0.0000001934707825
 21
-0.000000083354962
 31
0.0
  0
LINE
  5
3626
330
3620
100
AcDbEntity
  8
二点鎖線
100
AcDbLine
 10
4.399999806529223
 20
6.699999916645027
 30
0.0
 11
17.69999980652923
 21
6.699999916645027
 31
0.0
  0
LINE
  5
3627
330
3620
100
AcDbEntity
  8
二点鎖線
100
AcDbLine
 10
3.968285207013906
 20
7.499999916645038
 30
0.0
 11
16.89999980652919
 21
7.499999916645038
 31
0.0
  0
ARC
  5
3628
330
3620
100
AcDbEntity
  8
二点鎖線
100
AcDbCircle
 10
16.89999980652919
 20
7.999999916645038
 30
0.0
 40
0.5
100
AcDbArc
 50
270.0
 51
0.0
  0
ARC
  5
3629
330
3620
100
AcDbEntity
  8
二点鎖線
100
AcDbCircle
 10
17.69999980652923
 20
7.199999916645027
 30
0.0
 40
0.5
100
AcDbArc
 50
270.0
 51
0.0
  0
ARC
  5
362A
330
3620
100
AcDbEntity
  8
二点鎖線
100
AcDbCircle
 10
20.49999980652927
 20
36.69999991664508
 30
0.0
 40
1.2
100
AcDbArc
 50
0.0
 51
90.00000000000001
  0
ARC
  5
362B
330
3620
100
AcDbEntity
  8
二点鎖線
100
AcDbCircle
 10
20.49999980652927
 20
33.29999991664499
 30
0.0
 40
1.2
100
AcDbArc
 50
270.0
 51
0.0
  0
LINE
  5
362C
330
3620
100
AcDbEntity
  8
二点鎖線
100
AcDbLine
 10
19.69999980652921
 20
32.09999991664506
 30
0.0
 11
19.69999980652921
 21
37.89999991664502
 31
0.0
  0
ARC
  5
362D
330
3620
100
AcDbEntity
  8
二点鎖線
100
AcDbCircle
 10
8.660203555584673
 20
34.99996689530491
 30
0.0
 40
9.999795723242643
100
AcDbArc
 50
342.5542037948432
 51
17.44615720368354
  0
ARC
  5
362E
330
3620
100
AcDbEntity
  8
二点鎖線
100
AcDbCircle
 10
8.66687658118289
 20
34.99899081441833
 30
0.0
 40
10.99310866283732
100
AcDbArc
 50
344.1736719989361
 51
15.83143380558731
  0
LINE
  5
362F
330
3620
100
AcDbEntity
  8
二点鎖線
100
AcDbLine
 10
19.69999980652921
 20
32.09999991664506
 30
0.0
 11
20.49999980652927
 21
32.09999991664506
 31
0.0
  0
LINE
  5
3630
330
3620
100
AcDbEntity
  8
二点鎖線
100
AcDbLine
 10
18.19999980652921
 20
32.00199991664499
 30
0.0
 11
19.24299980652921
 21
32.00199991664499
 31
0.0
  0
LINE
  5
3631
330
3620
100
AcDbEntity
  8
二点鎖線
100
AcDbLine
 10
19.69999980652921
 20
37.89999991664502
 30
0.0
 11
20.49999980652927
 21
37.89999991664502
 31
0.0
  0
LINE
  5
3632
330
3620
100
AcDbEntity
  8
二点鎖線
100
AcDbLine
 10
18.19999980652921
 20
37.99799991664509
 30
0.0
 11
19.24299980652921
 21
37.99799991664509
 31
0.0
  0
LINE
  5
3633
330
3620
100
AcDbEntity
  8
二点鎖線
100
AcDbLine
 10
3.968285207013906
 20
62.49999991664504
 30
0.0
 11
16.89999980652919
 21
62.49999991664504
 31
0.0
  0
LINE
  5
3634
330
3620
100
AcDbEntity
  8
二点鎖線
100
AcDbLine
 10
4.399999806529223
 20
63.29999991664505
 30
0.0
 11
17.69999980652923
 21
63.29999991664505
 31
0.0
  0
LINE
  5
3635
330
3620
100
AcDbEntity
  8
二点鎖線
100
AcDbLine
 10
3.968285207013906
 20
62.49999991664504
 30
0.0
 11
-0.0000001934707825
 21
68.54261632192856
 31
0.0
  0
LINE
  5
3636
330
3620
100
AcDbEntity
  8
二点鎖線
100
AcDbLine
 10
4.399999806529223
 20
63.29999991664505
 30
0.0
 11
-0.0000001934707825
 21
69.99999991664504
 31
0.0
  0
LINE
  5
3637
330
3620
100
AcDbEntity
  8
二点鎖線
100
AcDbLine
 10
-0.0000001934707825
 20
69.99999991664504
 30
0.0
 11
-0.0000001934707825
 21
68.54261632192856
 31
0.0
  0
ARC
  5
3638
330
3620
100
AcDbEntity
  8
二点鎖線
100
AcDbCircle
 10
16.89999980652919
 20
61.99999991664504
 30
0.0
 40
0.5
100
AcDbArc
 50
0.0
 51
90.00000000000001
  0
ARC
  5
3639
330
3620
100
AcDbEntity
  8
二点鎖線
100
AcDbCircle
 10
17.69999980652923
 20
62.79999991664505
 30
0.0
 40
0.5
100
AcDbArc
 50
0.0
 51
90.00000000000001
  0
LINE
  5
363A
330
3620
100
AcDbEntity
  8
二点鎖線
100
AcDbLine
 10
21.69999980652921
 20
33.29999991664499
 30
0.0
 11
21.69999980652921
 21
36.69999991664508
 31
0.0
  0
ENDBLK
  5
363C
330
3620
100
AcDbEntity
  8
0
100
AcDbBlockEnd
  0
BLOCK
  5
374E
330
3669
100
AcDbEntity
  8
0
100
AcDbBlockBegin
  2
*D29
 70
     1
 10
0.0
 20
0.0
 30
0.0
  3
*D29
  1

  0
LINE
  5
374F
330
3669
100
AcDbEntity
  8
0
  6
ByBlock
 62
     0
100
AcDbLine
 10
159.3
 20
271.0
 30
0.0
 11
159.0
 21
271.0
 31
0.0
  0
LINE
  5
3750
330
3669
100
AcDbEntity
  8
0
  6
ByBlock
 62
     0
100
AcDbLine
 10
159.3
 20
216.5
 30
0.0
 11
159.0
 21
216.5
 31
0.0
  0
LINE
  5
3751
330
3669
100
AcDbEntity
  8
0
  6
ByBlock
 62
     0
100
AcDbLine
 10
160.0
 20
268.0
 30
0.0
 11
160.0
 21
219.5
 31
0.0
  0
INSERT
  5
3752
330
3669
100
AcDbEntity
  8
0
  6
ByBlock
 62
     0
100
AcDbBlockReference
  2
_OPEN30
 10
160.0
 20
271.0
 30
0.0
 41
3.0
 42
3.0
 43
3.0
 50
90.0
  0
INSERT
  5
3753
330
3669
100
AcDbEntity
  8
0
  6
ByBlock
 62
     0
100
AcDbBlockReference
  2
_OPEN30
 10
160.0
 20
216.5
 30
0.0
 41
3.0
 42
3.0
 43
3.0
 50
270.0
  0
MTEXT
  5
3754
330
3669
100
AcDbEntity
  8
0
  6
ByBlock
 62
     0
100
AcDbMText
 10
157.0
 20
243.75
 30
0.0
 40
3.0
 41
0.0
 71
     5
 72
     1
  1
\A1;54.5
  7
寸法文字
 11
6.123031769111886E-17
 21
1.0
 31
0.0
 73
     1
 44
1.0
  0
POINT
  5
3755
330
3669
100
AcDbEntity
  8
DEFPOINTS
  6
ByBlock
 62
     0
100
AcDbPoint
 10
160.0
 20
271.0
 30
0.0
  0
POINT
  5
3756
330
3669
100
AcDbEntity
  8
DEFPOINTS
  6
ByBlock
 62
     0
100
AcDbPoint
 10
160.0
 20
216.5
 30
0.0
  0
POINT
  5
3757
330
3669
100
AcDbEntity
  8
DEFPOINTS
  6
ByBlock
 62
     0
100
AcDbPoint
 10
160.0
 20
216.5
 30
0.0
  0
ENDBLK
  5
3758
330
3669
100
AcDbEntity
  8
0
100
AcDbBlockEnd
  0
ENDSEC
  0
SECTION
  2
ENTITIES
  0
LINE
  5
B58
330
18
100
AcDbEntity
  8
一点鎖線
100
AcDbLine
 10
196.5
 20
215.0
 30
0.0
 11
270.0
 21
215.0
 31
0.0
  0
LINE
  5
C3D
330
18
100
AcDbEntity
  8
一点鎖線
100
AcDbLine
 10
80.0
 20
269.0
 30
0.0
 11
80.0
 21
279.0
 31
0.0
  0
DIMENSION
  5
C3F
330
18
100
AcDbEntity
  8
寸法線
100
AcDbDimension
  2
*D1
 10
10.0
 20
214.5
 30
0.0
 11
10.0
 21
244.25
 31
0.0
 12
0.0
 22
3.5
 32
0.0
 70
   160
 71
     5
 42
-1.0
  3
標準
100
AcDbAlignedDimension
 13
29.0
 23
274.0
 33
0.0
 14
29.0
 24
214.5
 34
0.0
 50
90.0
100
AcDbRotatedDimension
  0
LINE
  5
C42
330
18
100
AcDbEntity
  8
実線（中）
100
AcDbLine
 10
30.0
 20
215.5
 30
0.0
 11
30.0
 21
273.0
 31
0.0
  0
LINE
  5
C5D
330
18
100
AcDbEntity
  8
一点鎖線
100
AcDbLine
 10
80.0
 20
212.5
 30
0.0
 11
80.0
 21
224.5
 31
0.0
  0
LINE
  5
C7B
330
18
100
AcDbEntity
  8
一点鎖線
100
AcDbLine
 10
25.0
 20
244.25
 30
0.0
 11
35.0
 21
244.25
 31
0.0
  0
LINE
  5
CB8
330
18
100
AcDbEntity
  8
実線（中）
100
AcDbLine
 10
130.0
 20
215.5
 30
0.0
 11
130.0
 21
273.0
 31
0.0
  0
LINE
  5
CE7
330
18
100
AcDbEntity
  8
一点鎖線
100
AcDbLine
 10
125.0
 20
244.25
 30
0.0
 11
135.0
 21
244.25
 31
0.0
  0
DIMENSION
  5
D61
330
18
100
AcDbEntity
  8
寸法線
100
AcDbDimension
  2
*D2
 10
300.5
 20
55.0
 30
0.0
 11
349.9985
 21
55.0
 31
0.0
 12
0.0
 22
5.0
 32
0.0
 70
   160
 71
     5
 42
-1.0
  3
標準
100
AcDbAlignedDimension
 13
399.5
 23
71.5
 33
0.0
 14
300.5
 24
71.5
 34
0.0
100
AcDbRotatedDimension
  0
LINE
  5
D92
330
18
100
AcDbEntity
  8
実線（細）
100
AcDbLine
 10
325.0
 20
139.0
 30
0.0
 11
375.0
 21
139.0
 31
0.0
  0
LINE
  5
D93
330
18
100
AcDbEntity
  8
実線（細）
100
AcDbLine
 10
325.0
 20
140.0
 30
0.0
 11
375.0
 21
140.0
 31
0.0
  0
MTEXT
  5
D94
330
18
100
AcDbEntity
  8
可変文字
100
AcDbMText
 10
325.0
 20
147.0
 30
0.0
 40
5.0
 41
0.0
 71
     1
 72
     5
  1
パネルカット寸法
  7
MSPｺﾞｼｯｸ
 73
     1
 44
1.0
  0
LINE
  5
125C
330
18
100
AcDbEntity
  8
一点鎖線
100
AcDbLine
 10
74.0
 20
218.5
 30
0.0
 11
86.0
 21
218.5
 31
0.0
  0
LINE
  5
125D
330
18
100
AcDbEntity
  8
一点鎖線
100
AcDbLine
 10
103.0
 20
211.5
 30
0.0
 11
103.0
 21
227.5
 31
0.0
  0
CIRCLE
  5
125F
330
18
100
AcDbEntity
  8
実線（中）
100
AcDbCircle
 10
80.0
 20
218.5
 30
0.0
 40
2.05
  0
LINE
  5
1264
330
18
100
AcDbEntity
  8
実線（中）
100
AcDbLine
 10
78.8611359916633
 20
216.7954505667141
 30
0.0
 11
81.7045494332859
 21
219.6388640083367
 31
0.0
  0
LINE
  5
1265
330
18
100
AcDbEntity
  8
実線（中）
100
AcDbLine
 10
78.29545056671407
 20
217.3611359916634
 30
0.0
 11
81.13886400833664
 21
220.2045494332859
 31
0.0
  0
CIRCLE
  5
1266
330
18
100
AcDbEntity
  8
点線
100
AcDbCircle
 10
103.0
 20
219.5
 30
0.0
 40
5.0
  0
CIRCLE
  5
1267
330
18
100
AcDbEntity
  8
点線
100
AcDbCircle
 10
103.0
 20
219.5
 30
0.0
 40
3.5
  0
LINE
  5
1268
330
18
100
AcDbEntity
  8
一点鎖線
100
AcDbLine
 10
95.0
 20
219.5
 30
0.0
 11
111.0
 21
219.5
 31
0.0
  0
ARC
  5
1269
330
18
100
AcDbEntity
  8
点線
100
AcDbCircle
 10
103.0
 20
224.5
 30
0.0
 40
0.75
100
AcDbArc
 50
184.3012223046708
 51
355.6987776953292
  0
ARC
  5
126B
330
18
100
AcDbEntity
  8
点線
100
AcDbCircle
 10
100.0610737385376
 20
223.5450849718748
 30
0.0
 40
0.75
100
AcDbArc
 50
220.3012223046708
 51
31.69877769532916
  0
ARC
  5
126C
330
18
100
AcDbEntity
  8
点線
100
AcDbCircle
 10
98.24471741852426
 20
221.0450849718747
 30
0.0
 40
0.75
100
AcDbArc
 50
256.3012223046708
 51
67.6987776953292
  0
ARC
  5
126D
330
18
100
AcDbEntity
  8
点線
100
AcDbCircle
 10
98.2447174185242
 20
217.9549150281253
 30
0.0
 40
0.75
100
AcDbArc
 50
292.3012223046708
 51
103.6987776953292
  0
ARC
  5
126E
330
18
100
AcDbEntity
  8
点線
100
AcDbCircle
 10
100.0610737385376
 20
215.4549150281253
 30
0.0
 40
0.75
100
AcDbArc
 50
328.3012223046708
 51
139.6987776953292
  0
ARC
  5
126F
330
18
100
AcDbEntity
  8
点線
100
AcDbCircle
 10
103.0
 20
214.5
 30
0.0
 40
0.75
100
AcDbArc
 50
4.301222304670791
 51
175.6987776953292
  0
ARC
  5
1270
330
18
100
AcDbEntity
  8
点線
100
AcDbCircle
 10
105.9389262614624
 20
215.4549150281252
 30
0.0
 40
0.75
100
AcDbArc
 50
40.30122230467082
 51
211.6987776953292
  0
ARC
  5
1271
330
18
100
AcDbEntity
  8
点線
100
AcDbCircle
 10
107.7552825814758
 20
217.9549150281253
 30
0.0
 40
0.75
100
AcDbArc
 50
76.30122230467082
 51
247.6987776953292
  0
ARC
  5
1272
330
18
100
AcDbEntity
  8
点線
100
AcDbCircle
 10
107.7552825814757
 20
221.0450849718748
 30
0.0
 40
0.75
100
AcDbArc
 50
112.3012223046708
 51
283.6987776953292
  0
ARC
  5
1273
330
18
100
AcDbEntity
  8
点線
100
AcDbCircle
 10
105.9389262614624
 20
223.5450849718748
 30
0.0
 40
0.75
100
AcDbArc
 50
148.3012223046708
 51
319.6987776953292
  0
LINE
  5
1274
330
18
100
AcDbEntity
  8
一点鎖線
100
AcDbLine
 10
49.0
 20
219.5
 30
0.0
 11
65.0
 21
219.5
 31
0.0
  0
LINE
  5
1275
330
18
100
AcDbEntity
  8
一点鎖線
100
AcDbLine
 10
57.0
 20
211.5
 30
0.0
 11
57.0
 21
227.5
 31
0.0
  0
DIMENSION
  5
1363
330
18
100
AcDbEntity
  8
寸法線
100
AcDbDimension
  2
*D4
 10
20.0
 20
219.5
 30
0.0
 11
17.0
 21
231.875
 31
0.0
 70
    32
 71
     5
 42
-1.0
  3
標準小
100
AcDbAlignedDimension
 13
25.0
 23
244.25
 33
0.0
 14
29.0
 24
219.5
 34
0.0
 50
90.0
100
AcDbRotatedDimension
  0
DIMENSION
  5
137C
330
18
100
AcDbEntity
  8
寸法線
100
AcDbDimension
  2
*D5
 10
20.0
 20
218.5
 30
0.0
 11
17.0
 21
210.5482954545455
 31
0.0
 70
    32
 71
     5
 42
-1.0
  3
標準小
100
AcDbAlignedDimension
 13
30.0
 23
219.5
 33
0.0
 14
29.0
 24
218.5
 34
0.0
 50
90.0
100
AcDbRotatedDimension
  0
DIMENSION
  5
1389
330
18
100
AcDbEntity
  8
寸法線
100
AcDbDimension
  2
*D6
 10
103.0
 20
175.0
 30
0.0
 11
80.0
 21
175.0
 31
0.0
 70
   160
 71
     5
 42
-1.0
  3
標準小
100
AcDbAlignedDimension
 13
57.0
 23
211.5
 33
0.0
 14
103.0
 24
211.5
 34
0.0
100
AcDbRotatedDimension
  0
LINE
  5
138A
330
18
100
AcDbEntity
  8
実線（中）
100
AcDbLine
 10
150.0
 20
274.0
 30
0.0
 11
150.0
 21
214.5
 31
0.0
  0
LINE
  5
138B
330
18
100
AcDbEntity
  8
点線
100
AcDbLine
 10
138.0
 20
215.3584123500822
 30
0.0
 11
137.9999999999999
 21
223.6978376499177
 31
0.0
  0
LINE
  5
1390
330
18
100
AcDbEntity
  8
点線
100
AcDbLine
 10
146.0
 20
220.3164193426484
 30
0.0
 11
146.0
 21
220.3164193426484
 31
0.0
  0
LINE
  5
1391
330
18
100
AcDbEntity
  8
点線
100
AcDbLine
 10
146.0
 20
220.3164193426484
 30
0.0
 11
146.0
 21
220.3164193426484
 31
0.0
  0
LINE
  5
1399
330
18
100
AcDbEntity
  8
点線
100
AcDbLine
 10
138.4798990756586
 20
224.1974334393722
 30
0.0
 11
145.7999999999999
 21
224.491953125
 31
0.0
  0
LINE
  5
139A
330
18
100
AcDbEntity
  8
点線
100
AcDbLine
 10
138.0621001980434
 20
223.9391750971704
 30
0.0
 11
144.7
 21
223.9391750971704
 31
0.0
  0
LINE
  5
139B
330
18
100
AcDbEntity
  8
点線
100
AcDbLine
 10
138.0
 20
223.0599804347118
 30
0.0
 11
144.7
 21
223.0599804347118
 31
0.0
  0
LINE
  5
139C
330
18
100
AcDbEntity
  8
点線
100
AcDbLine
 10
138.0
 20
221.7389861892339
 30
0.0
 11
144.5
 21
221.7389861892339
 31
0.0
  0
LINE
  5
139D
330
18
100
AcDbEntity
  8
点線
100
AcDbLine
 10
138.0
 20
220.3164193426484
 30
0.0
 11
144.5
 21
220.3164193426483
 31
0.0
  0
LINE
  5
139E
330
18
100
AcDbEntity
  8
点線
100
AcDbLine
 10
138.0
 20
218.6835806573516
 30
0.0
 11
144.5
 21
218.6835806573516
 31
0.0
  0
LINE
  5
139F
330
18
100
AcDbEntity
  8
点線
100
AcDbLine
 10
138.0
 20
217.2610138107661
 30
0.0
 11
144.5
 21
217.2610138107661
 31
0.0
  0
LINE
  5
13A0
330
18
100
AcDbEntity
  8
点線
100
AcDbLine
 10
138.0
 20
215.9400195652881
 30
0.0
 11
144.7
 21
215.9400195652881
 31
0.0
  0
LINE
  5
13A1
330
18
100
AcDbEntity
  8
点線
100
AcDbLine
 10
138.0982019023967
 20
215.0608249028294
 30
0.0
 11
144.7
 21
215.0608249028294
 31
0.0
  0
LINE
  5
13A2
330
18
100
AcDbEntity
  8
点線
100
AcDbLine
 10
138.4798990756587
 20
214.8588165606277
 30
0.0
 11
145.8
 21
214.564296875
 31
0.0
  0
LINE
  5
13A6
330
18
100
AcDbEntity
  8
点線
100
AcDbLine
 10
145.0
 20
215.3608249028294
 30
0.0
 11
145.0
 21
215.6400195652881
 31
0.0
  0
LINE
  5
13A7
330
18
100
AcDbEntity
  8
点線
100
AcDbLine
 10
145.0
 20
217.7610138107661
 30
0.0
 11
145.0
 21
218.1835806573516
 31
0.0
  0
LINE
  5
13A8
330
18
100
AcDbEntity
  8
点線
100
AcDbLine
 10
145.0
 20
220.8164193426483
 30
0.0
 11
145.0
 21
221.2389861892339
 31
0.0
  0
LINE
  5
13A9
330
18
100
AcDbEntity
  8
点線
100
AcDbLine
 10
145.0
 20
223.3599804347118
 30
0.0
 11
145.0
 21
223.6391750971704
 31
0.0
  0
ARC
  5
13AE
330
18
100
AcDbEntity
  8
点線
100
AcDbCircle
 10
144.5
 20
220.8164193426483
 30
0.0
 40
0.5
100
AcDbArc
 50
270.0
 51
0.0
  0
ARC
  5
13B2
330
18
100
AcDbEntity
  8
点線
100
AcDbCircle
 10
144.5
 20
218.1835806573516
 30
0.0
 40
0.5
100
AcDbArc
 50
0.0
 51
90.0
  0
ARC
  5
13B3
330
18
100
AcDbEntity
  8
点線
100
AcDbCircle
 10
144.5
 20
217.7610138107661
 30
0.0
 40
0.5
100
AcDbArc
 50
270.0
 51
0.0
  0
ARC
  5
13B4
330
18
100
AcDbEntity
  8
点線
100
AcDbCircle
 10
144.5
 20
221.2389861892339
 30
0.0
 40
0.5
100
AcDbArc
 50
0.0
 51
90.0
  0
ARC
  5
13B7
330
18
100
AcDbEntity
  8
点線
100
AcDbCircle
 10
144.7
 20
215.3608249028294
 30
0.0
 40
0.3
100
AcDbArc
 50
270.0
 51
0.0
  0
ARC
  5
13B8
330
18
100
AcDbEntity
  8
点線
100
AcDbCircle
 10
144.7
 20
223.6391750971704
 30
0.0
 40
0.3
100
AcDbArc
 50
0.0
 51
90.0
  0
ARC
  5
13B9
330
18
100
AcDbEntity
  8
点線
100
AcDbCircle
 10
144.7
 20
215.6400195652881
 30
0.0
 40
0.3
100
AcDbArc
 50
0.0
 51
90.0
  0
ARC
  5
13BA
330
18
100
AcDbEntity
  8
点線
100
AcDbCircle
 10
144.7
 20
223.3599804347118
 30
0.0
 40
0.3
100
AcDbArc
 50
270.0
 51
0.0
  0
ARC
  5
13BB
330
18
100
AcDbEntity
  8
点線
100
AcDbCircle
 10
138.4999999999999
 20
223.6978376499177
 30
0.0
 40
0.5
100
AcDbArc
 50
92.3040171636315
 51
180.0000000000009
  0
ARC
  5
13BC
330
18
100
AcDbEntity
  8
点線
100
AcDbCircle
 10
138.5
 20
215.3584123500822
 30
0.0
 40
0.5
100
AcDbArc
 50
180.0000000000009
 51
267.6959828363687
  0
LINE
  5
13BD
330
18
100
AcDbEntity
  8
点線
100
AcDbLine
 10
145.8
 20
214.564296875
 30
0.0
 11
145.7999999999999
 21
224.491953125
 31
0.0
  0
LINE
  5
1D8F
330
18
100
AcDbEntity
  8
実線（細）
100
AcDbLine
 10
189.0
 20
140.0
 30
0.0
 11
231.0
 21
140.0
 31
0.0
  0
LINE
  5
1D90
330
18
100
AcDbEntity
  8
実線（細）
100
AcDbLine
 10
189.0
 20
139.0
 30
0.0
 11
231.0
 21
139.0
 31
0.0
  0
MTEXT
  5
1D91
330
18
100
AcDbEntity
  8
可変文字
100
AcDbMText
 10
210.0
 20
147.0
 30
0.0
 40
5.0
 41
0.0
 71
     2
 72
     5
  1
端　子　配　列
  7
MSPｺﾞｼｯｸ
 73
     1
 44
1.0
  0
CIRCLE
  5
1D92
330
18
100
AcDbEntity
  8
可変文字
100
AcDbCircle
 10
175.0
 20
115.0
 30
0.0
 40
4.0
  0
MTEXT
  5
1D93
330
18
100
AcDbEntity
  8
可変文字
100
AcDbMText
 10
180.0
 20
115.0
 30
0.0
 40
5.0
 41
0.0
 71
     4
 72
     5
  1
入力－
  7
MSPｺﾞｼｯｸ
 73
     1
 44
1.0
  0
CIRCLE
  5
1D94
330
18
100
AcDbEntity
  8
可変文字
100
AcDbCircle
 10
175.0
 20
105.0
 30
0.0
 40
4.0
  0
CIRCLE
  5
1D95
330
18
100
AcDbEntity
  8
可変文字
100
AcDbCircle
 10
175.0
 20
95.0
 30
0.0
 40
4.0
  0
MTEXT
  5
1D96
330
18
100
AcDbEntity
  8
可変文字
100
AcDbMText
 10
175.0
 20
95.0
 30
0.0
 40
5.0
 41
0.0
 71
     5
 72
     5
  1
2
  7
MSPｺﾞｼｯｸ
 73
     1
 44
1.0
  0
MTEXT
  5
1D97
330
18
100
AcDbEntity
  8
可変文字
100
AcDbMText
 10
175.0
 20
105.0
 30
0.0
 40
5.0
 41
0.0
 71
     5
 72
     5
  1
1
  7
MSｺﾞｼｯｸ
 73
     1
 44
1.0
  0
MTEXT
  5
1D98
330
18
100
AcDbEntity
  8
可変文字
100
AcDbMText
 10
180.0
 20
95.0
 30
0.0
 40
5.0
 41
0.0
 71
     4
 72
     5
  1
電源V(-)
  7
MSPｺﾞｼｯｸ
 73
     1
 44
1.0
  0
MTEXT
  5
1D99
330
18
100
AcDbEntity
  8
可変文字
100
AcDbMText
 10
180.0
 20
105.0
 30
0.0
 40
5.0
 41
0.0
 71
     4
 72
     5
  1
電源U(+)
  7
MSPｺﾞｼｯｸ
 73
     1
 44
1.0
  0
MTEXT
  5
1D9A
330
18
100
AcDbEntity
  8
可変文字
100
AcDbMText
 10
175.0
 20
115.0
 30
0.0
 40
4.0
 41
0.0
 71
     5
 72
     5
  1
M-
  7
MSPｺﾞｼｯｸ
 73
     1
 44
1.0
  0
CIRCLE
  5
1D9B
330
18
100
AcDbEntity
  8
可変文字
100
AcDbCircle
 10
175.0
 20
125.0
 30
0.0
 40
4.0
  0
MTEXT
  5
1D9C
330
18
100
AcDbEntity
  8
可変文字
100
AcDbMText
 10
175.0
 20
125.0
 30
0.0
 40
4.0
 41
0.0
 71
     5
 72
     5
  1
M+
  7
MSPｺﾞｼｯｸ
 73
     1
 44
1.0
  0
MTEXT
  5
1D9D
330
18
100
AcDbEntity
  8
可変文字
100
AcDbMText
 10
180.0
 20
125.0
 30
0.0
 40
5.0
 41
0.0
 71
     4
 72
     5
  1
入力＋
  7
MSPｺﾞｼｯｸ
 73
     1
 44
1.0
  0
MTEXT
  5
1D9E
330
18
100
AcDbEntity
  8
可変文字
100
AcDbMText
 10
215.0
 20
115.0
 30
0.0
 40
5.0
 41
0.0
 71
     5
 72
     5
  1
4
  7
MSPｺﾞｼｯｸ
 73
     1
 44
1.0
  0
MTEXT
  5
1D9F
330
18
100
AcDbEntity
  8
可変文字
100
AcDbMText
 10
232.5
 20
115.0
 30
0.0
 40
5.0
 41
0.0
 71
     4
 72
     5
  1
Ｈ出力
  7
MSPｺﾞｼｯｸ
 73
     1
 44
1.0
  0
LINE
  5
1DA0
330
18
100
AcDbEntity
  8
実線（中）
100
AcDbLine
 10
230.0
 20
113.5
 30
0.0
 11
228.0
 21
111.0
 31
0.0
  0
LINE
  5
1DA1
330
18
100
AcDbEntity
  8
実線（中）
100
AcDbLine
 10
232.0
 20
111.0
 30
0.0
 11
230.0
 21
113.5
 31
0.0
  0
CIRCLE
  5
1DA2
330
18
100
AcDbEntity
  8
可変文字
100
AcDbCircle
 10
215.0
 20
115.0
 30
0.0
 40
4.0
  0
MTEXT
  5
1DA3
330
18
100
AcDbEntity
  8
可変文字
100
AcDbMText
 10
232.5
 20
84.5
 30
0.0
 40
5.0
 41
0.0
 71
     4
 72
     5
  1
Ｌ出力
  7
MSPｺﾞｼｯｸ
 73
     1
 44
1.0
  0
HATCH
  5
1DA4
330
18
100
AcDbEntity
  8
実線（中）
100
AcDbHatch
 10
0.0
 20
0.0
 30
0.0
210
0.0
220
0.0
230
1.0
  2
SOLID
 70
     1
 71
     1
 91
        2
 92
        7
 72
     1
 73
     1
 93
        2
 10
224.0
 20
85.0
 42
1.0
 10
226.0
 20
85.0
 42
1.0
 97
        1
330
1DAE
 92
        7
 72
     0
 73
     1
 93
        3
 10
230.0
 20
87.49999999999997
 10
232.0
 20
90.0
 10
228.0
 20
90.0
 97
        3
330
1DBA
330
1DA6
330
1DA7
 75
     0
 76
     1
 47
0.0376403788826324
 98
        2
 10
225.154986272079
 20
85.0547306014629
 10
229.5981983548
 20
88.81876903714976
  0
CIRCLE
  5
1DA5
330
18
100
AcDbEntity
  8
可変文字
100
AcDbCircle
 10
215.0
 20
85.0
 30
0.0
 40
4.0
  0
LINE
  5
1DA6
102
{ACAD_REACTORS
330
1DA4
102
}
330
18
100
AcDbEntity
  8
実線（中）
100
AcDbLine
 10
230.0
 20
87.5
 30
0.0
 11
228.0
 21
90.0
 31
0.0
  0
LINE
  5
1DA7
102
{ACAD_REACTORS
330
1DA4
102
}
330
18
100
AcDbEntity
  8
実線（中）
100
AcDbLine
 10
232.0
 20
90.0
 30
0.0
 11
230.0
 21
87.5
 31
0.0
  0
LINE
  5
1DA8
330
18
100
AcDbEntity
  8
実線（中）
100
AcDbLine
 10
225.8944271909999
 20
85.44721359549993
 30
0.0
 11
231.0
 21
88.0
 31
0.0
  0
LINE
  5
1DA9
330
18
100
AcDbEntity
  8
実線（中）
100
AcDbLine
 10
230.0
 20
75.0
 30
0.0
 11
220.0
 21
75.0
 31
0.0
  0
MTEXT
  5
1DAA
330
18
100
AcDbEntity
  8
可変文字
100
AcDbMText
 10
215.0
 20
75.0
 30
0.0
 40
5.0
 41
0.0
 71
     5
 72
     5
  1
8
  7
MSPｺﾞｼｯｸ
 73
     1
 44
1.0
  0
CIRCLE
  5
1DAB
330
18
100
AcDbEntity
  8
可変文字
100
AcDbCircle
 10
215.0
 20
75.0
 30
0.0
 40
4.0
  0
MTEXT
  5
1DAC
330
18
100
AcDbEntity
  8
可変文字
100
AcDbMText
 10
215.0
 20
85.0
 30
0.0
 40
5.0
 41
0.0
 71
     5
 72
     5
  1
7
  7
MSPｺﾞｼｯｸ
 73
     1
 44
1.0
  0
LINE
  5
1DAD
330
18
100
AcDbEntity
  8
実線（中）
100
AcDbLine
 10
220.0
 20
85.0
 30
0.0
 11
224.0
 21
85.0
 31
0.0
  0
CIRCLE
  5
1DAE
102
{ACAD_REACTORS
330
1DA4
102
}
330
18
100
AcDbEntity
  8
実線（中）
100
AcDbCircle
 10
225.0
 20
85.0
 30
0.0
 40
1.0
  0
LINE
  5
1DAF
330
18
100
AcDbEntity
  8
実線（中）
100
AcDbLine
 10
230.0
 20
81.0
 30
0.0
 11
230.0
 21
75.0
 31
0.0
  0
LINE
  5
1DB0
330
18
100
AcDbEntity
  8
実線（中）
100
AcDbLine
 10
232.0
 20
81.0
 30
0.0
 11
230.0
 21
83.5
 31
0.0
  0
LINE
  5
1DB1
330
18
100
AcDbEntity
  8
実線（中）
100
AcDbLine
 10
230.0
 20
83.5
 30
0.0
 11
228.0
 21
81.0
 31
0.0
  0
LINE
  5
1DB2
330
18
100
AcDbEntity
  8
実線（中）
100
AcDbLine
 10
228.0
 20
81.0
 30
0.0
 11
232.0
 21
81.0
 31
0.0
  0
LINE
  5
1DB3
330
18
100
AcDbEntity
  8
実線（中）
100
AcDbLine
 10
230.0
 20
105.0
 30
0.0
 11
220.0
 21
105.0
 31
0.0
  0
LINE
  5
1DB4
330
18
100
AcDbEntity
  8
実線（中）
100
AcDbLine
 10
220.0
 20
95.00000004605647
 30
0.0
 11
230.0
 21
95.00000004605647
 31
0.0
  0
CIRCLE
  5
1DB5
330
18
100
AcDbEntity
  8
可変文字
100
AcDbCircle
 10
215.0
 20
95.0
 30
0.0
 40
4.0
  0
MTEXT
  5
1DB6
330
18
100
AcDbEntity
  8
可変文字
100
AcDbMText
 10
215.0
 20
95.0
 30
0.0
 40
5.0
 41
0.0
 71
     5
 72
     5
  1
6
  7
MSPｺﾞｼｯｸ
 73
     1
 44
1.0
  0
CIRCLE
  5
1DB7
330
18
100
AcDbEntity
  8
可変文字
100
AcDbCircle
 10
215.0
 20
105.0
 30
0.0
 40
4.0
  0
MTEXT
  5
1DB8
330
18
100
AcDbEntity
  8
可変文字
100
AcDbMText
 10
214.6
 20
105.0
 30
0.0
 40
5.0
 41
0.0
 71
     5
 72
     5
  1
5
  7
MSPｺﾞｼｯｸ
 73
     1
 44
1.0
  0
LINE
  5
1DB9
330
18
100
AcDbEntity
  8
実線（中）
100
AcDbLine
 10
230.0
 20
95.00000004605647
 30
0.0
 11
230.0
 21
90.0
 31
0.0
  0
LINE
  5
1DBA
102
{ACAD_REACTORS
330
1DA4
102
}
330
18
100
AcDbEntity
  8
実線（中）
100
AcDbLine
 10
228.0
 20
90.0
 30
0.0
 11
232.0
 21
90.0
 31
0.0
  0
LINE
  5
1DBB
330
18
100
AcDbEntity
  8
実線（中）
100
AcDbLine
 10
230.0
 20
111.0
 30
0.0
 11
230.0
 21
105.0
 31
0.0
  0
LINE
  5
1DBC
330
18
100
AcDbEntity
  8
実線（中）
100
AcDbLine
 10
228.0
 20
111.0
 30
0.0
 11
232.0
 21
111.0
 31
0.0
  0
HATCH
  5
1DBD
330
18
100
AcDbEntity
  8
実線（中）
100
AcDbHatch
 10
0.0
 20
0.0
 30
0.0
210
0.0
220
0.0
230
1.0
  2
SOLID
 70
     1
 71
     1
 91
        2
 92
        7
 72
     1
 73
     1
 93
        2
 10
224.0
 20
115.0
 42
1.0
 10
226.0
 20
115.0
 42
1.0
 97
        1
330
1DC3
 92
        7
 72
     0
 73
     1
 93
        3
 10
230.0
 20
117.5
 10
232.0
 20
120.0
 10
228.0
 20
120.0
 97
        3
330
1DC7
330
1DC6
330
1DC5
 75
     0
 76
     1
 47
0.0376403788826324
 98
        2
 10
225.154986272079
 20
115.0547306014629
 10
229.5981983548
 20
118.8187690371498
  0
LINE
  5
1DBE
330
18
100
AcDbEntity
  8
実線（中）
100
AcDbLine
 10
220.0
 20
125.0000000460565
 30
0.0
 11
230.0
 21
125.0000000460565
 31
0.0
  0
LINE
  5
1DBF
330
18
100
AcDbEntity
  8
実線（中）
100
AcDbLine
 10
225.8944271909999
 20
115.4472135954999
 30
0.0
 11
231.0
 21
118.0
 31
0.0
  0
MTEXT
  5
1DC0
330
18
100
AcDbEntity
  8
可変文字
100
AcDbMText
 10
215.0
 20
125.0
 30
0.0
 40
5.0
 41
0.0
 71
     5
 72
     5
  1
3
  7
MSPｺﾞｼｯｸ
 73
     1
 44
1.0
  0
CIRCLE
  5
1DC1
330
18
100
AcDbEntity
  8
可変文字
100
AcDbCircle
 10
215.0
 20
125.0
 30
0.0
 40
4.0
  0
LINE
  5
1DC2
330
18
100
AcDbEntity
  8
実線（中）
100
AcDbLine
 10
220.0
 20
115.0
 30
0.0
 11
224.0
 21
115.0
 31
0.0
  0
CIRCLE
  5
1DC3
102
{ACAD_REACTORS
330
1DBD
102
}
330
18
100
AcDbEntity
  8
実線（中）
100
AcDbCircle
 10
225.0
 20
115.0
 30
0.0
 40
1.0
  0
LINE
  5
1DC4
330
18
100
AcDbEntity
  8
実線（中）
100
AcDbLine
 10
230.0
 20
125.0000000460565
 30
0.0
 11
230.0
 21
120.0
 31
0.0
  0
LINE
  5
1DC5
102
{ACAD_REACTORS
330
1DBD
102
}
330
18
100
AcDbEntity
  8
実線（中）
100
AcDbLine
 10
232.0
 20
120.0
 30
0.0
 11
230.0
 21
117.5
 31
0.0
  0
LINE
  5
1DC6
102
{ACAD_REACTORS
330
1DBD
102
}
330
18
100
AcDbEntity
  8
実線（中）
100
AcDbLine
 10
230.0
 20
117.5
 30
0.0
 11
228.0
 21
120.0
 31
0.0
  0
LINE
  5
1DC7
102
{ACAD_REACTORS
330
1DBD
102
}
330
18
100
AcDbEntity
  8
実線（中）
100
AcDbLine
 10
228.0
 20
120.0
 30
0.0
 11
232.0
 21
120.0
 31
0.0
  0
DIMENSION
  5
1DD0
330
18
100
AcDbEntity
  8
寸法線
100
AcDbDimension
  2
*D7
 10
265.0000000000001
 20
165.0
 30
0.0
 11
207.5
 21
165.0
 31
0.0
 12
-5.0
 22
0.0
 32
0.0
 70
   160
 71
     5
 42
-1.0
  3
標準
100
AcDbAlignedDimension
 13
150.0
 23
214.5
 33
0.0
 14
265.0000000000001
 24
190.1
 34
0.0
 50
180.0
100
AcDbRotatedDimension
  0
DIMENSION
  5
1DD2
330
18
100
AcDbEntity
  8
寸法線
100
AcDbDimension
  2
*D10
 10
138.0
 20
185.0
 30
0.0
 11
142.0
 21
188.3579545454545
 31
0.0
 70
    32
  1
(<>)
 71
     5
 42
-1.0
  3
標準小
100
AcDbAlignedDimension
 13
146.0
 23
215.8333333333334
 33
0.0
 14
138.0
 24
215.3584123500822
 34
0.0
 50
180.0
100
AcDbRotatedDimension
1001
ACAD
1000
DSTYLE
1002
{
1070
    40
1040
1.0
1002
}
  0
DIMENSION
  5
1DD3
330
18
100
AcDbEntity
  8
寸法線
100
AcDbDimension
  2
*D8
 10
146.0
 20
175.0
 30
0.0
 11
148.0
 21
175.0
 31
0.0
 12
-5.0
 22
0.0
 32
0.0
 70
   160
 71
     5
 42
-1.0
  3
標準小丸
100
AcDbAlignedDimension
 13
150.0
 23
214.5
 33
0.0
 14
146.0
 24
215.8333333333333
 34
0.0
 50
180.0
100
AcDbRotatedDimension
  0
DIMENSION
  5
1DD4
330
18
100
AcDbEntity
  8
寸法線
100
AcDbDimension
  2
*D9
 10
153.5
 20
175.0
 30
0.0
 11
163.4034090909091
 21
175.0
 31
0.0
 12
-5.0
 22
0.0
 32
0.0
 70
   160
 71
     5
 42
-1.0
  3
標準小丸
100
AcDbAlignedDimension
 13
150.0
 23
214.5
 33
0.0
 14
153.5
 24
197.0
 34
0.0
 50
180.0
100
AcDbRotatedDimension
1001
ACAD
1000
DSTYLE
1002
{
1070
    47
1040
0.2
1070
    48
1040
0.7
1002
}
  0
DIMENSION
  5
1E95
330
18
100
AcDbEntity
  8
寸法線
100
AcDbDimension
  2
*D11
 10
150.0
 20
165.0
 30
0.0
 11
144.0
 21
165.0
 31
0.0
 70
   160
  1
(<>)
 71
     5
 42
-1.0
  3
標準小
100
AcDbAlignedDimension
 13
138.0
 23
215.3584123500822
 33
0.0
 14
150.0
 24
214.5
 34
0.0
100
AcDbRotatedDimension
1001
ACAD
1000
DSTYLE
1002
{
1070
    40
1040
1.0
1002
}
  0
DIMENSION
  5
1ECE
330
18
100
AcDbEntity
  8
寸法線
100
AcDbDimension
  2
*D12
 10
415.0
 20
71.5
 30
0.0
 11
410.7136363636363
 21
100.0
 31
0.0
 12
10.0
 22
15.0
 32
0.0
 70
    32
 71
     5
 42
-1.0
  3
許容差
100
AcDbAlignedDimension
 13
399.5
 23
128.5
 33
0.0
 14
399.5
 24
71.5
 34
0.0
 50
90.0
100
AcDbRotatedDimension
  0
LINE
  5
1FEF
330
18
100
AcDbEntity
  8
実線（中）
100
AcDbLine
 10
82.8012798370094
 20
224.5
 30
0.0
 11
91.77812478930282
 21
258.0020414536273
 31
0.0
  0
LINE
  5
1FF0
330
18
100
AcDbEntity
  8
実線（中）
100
AcDbLine
 10
83.6295007813375
 20
224.5
 30
0.0
 11
92.55086545033409
 21
257.7949862175453
 31
0.0
  0
LINE
  5
1FF2
102
{ACAD_REACTORS
330
32E3
102
}
330
18
100
AcDbEntity
  8
実線（中）
100
AcDbLine
 10
68.35355339059326
 20
224.5
 30
0.0
 11
46.94275797952891
 21
245.9107954110644
 31
0.0
  0
LINE
  5
1FF3
102
{ACAD_REACTORS
330
32E3
102
}
330
18
100
AcDbEntity
  8
実線（中）
100
AcDbLine
 10
67.64644660940677
 20
224.5
 30
0.0
 11
46.58920458893563
 21
245.5572420204711
 31
0.0
  0
LINE
  5
1FF4
330
18
100
AcDbEntity
  8
実線（中）
100
AcDbLine
 10
76.37049921866247
 20
224.5
 30
0.0
 11
67.44913454966589
 21
257.7949862175453
 31
0.0
  0
LINE
  5
1FF5
330
18
100
AcDbEntity
  8
実線（中）
100
AcDbLine
 10
77.15120410105678
 20
224.677332357312
 30
0.0
 11
68.22187521069716
 21
258.0020414536273
 31
0.0
  0
ARC
  5
1FF6
330
18
100
AcDbEntity
  8
実線（中）
100
AcDbCircle
 10
79.99999999999999
 20
212.5
 30
0.0
 40
13.0
100
AcDbArc
 50
76.76322535757238
 51
103.2367746424281
  0
ARC
  5
1FF7
330
18
100
AcDbEntity
  8
実線（中）
100
AcDbCircle
 10
79.99999999999999
 20
212.5
 30
0.0
 40
13.0
100
AcDbArc
 50
106.7632253575723
 51
112.6198649480404
  0
LINE
  5
1FF8
330
18
100
AcDbEntity
  8
実線（中）
100
AcDbLine
 10
77.15120410105678
 20
224.677332357312
 30
0.0
 11
76.48939073374248
 21
224.5
 31
0.0
  0
ARC
  5
1FF9
330
18
100
AcDbEntity
  8
実線（中）
100
AcDbCircle
 10
79.99999999999999
 20
212.5
 30
0.0
 40
13.0
100
AcDbArc
 50
67.38013505195957
 51
73.2367746424277
  0
LINE
  5
1FFB
102
{ACAD_REACTORS
330
32E3
102
}
330
18
100
AcDbEntity
  8
実線（中）
100
AcDbLine
 10
46.94275797952891
 20
245.9107954110644
 30
0.0
 11
46.58920458893563
 21
245.5572420204711
 31
0.0
  0
LINE
  5
1FFC
330
18
100
AcDbEntity
  8
実線（中）
100
AcDbLine
 10
68.22187521069716
 20
258.0020414536273
 30
0.0
 11
67.44913454966589
 21
257.7949862175453
 31
0.0
  0
LINE
  5
1FFD
330
18
100
AcDbEntity
  8
実線（中）
100
AcDbLine
 10
91.77812478930282
 20
258.0020414536273
 30
0.0
 11
92.55086545033409
 21
257.7949862175453
 31
0.0
  0
LINE
  5
253B
330
18
100
AcDbEntity
  8
実線（中）
100
AcDbLine
 10
29.0
 20
274.0
 30
0.0
 11
131.0
 21
274.0
 31
0.0
  0
LINE
  5
253C
330
18
100
AcDbEntity
  8
実線（中）
100
AcDbLine
 10
29.0
 20
214.5
 30
0.0
 11
131.0
 21
214.5
 31
0.0
  0
LINE
  5
253D
330
18
100
AcDbEntity
  8
実線（中）
100
AcDbLine
 10
131.0
 20
274.0
 30
0.0
 11
131.0
 21
214.5
 31
0.0
  0
LINE
  5
253E
330
18
100
AcDbEntity
  8
実線（中）
100
AcDbLine
 10
29.0
 20
274.0
 30
0.0
 11
29.0
 21
214.5
 31
0.0
  0
LINE
  5
253F
330
18
100
AcDbEntity
  8
実線（中）
100
AcDbLine
 10
30.0
 20
273.0
 30
0.0
 11
130.0
 21
273.0
 31
0.0
  0
LINE
  5
2540
330
18
100
AcDbEntity
  8
実線（中）
100
AcDbLine
 10
36.5
 20
266.5
 30
0.0
 11
123.5
 21
266.5
 31
0.0
  0
LINE
  5
2541
330
18
100
AcDbEntity
  8
実線（中）
100
AcDbLine
 10
123.5
 20
266.5
 30
0.0
 11
123.5
 21
224.5
 31
0.0
  0
LINE
  5
2542
330
18
100
AcDbEntity
  8
実線（中）
100
AcDbLine
 10
131.0
 20
274.0
 30
0.0
 11
123.5
 21
266.5
 31
0.0
  0
LINE
  5
2543
330
18
100
AcDbEntity
  8
実線（中）
100
AcDbLine
 10
36.5
 20
266.5
 30
0.0
 11
36.5
 21
224.5
 31
0.0
  0
LINE
  5
2544
330
18
100
AcDbEntity
  8
実線（中）
100
AcDbLine
 10
36.5
 20
266.5
 30
0.0
 11
29.0
 21
274.0
 31
0.0
  0
LINE
  5
2545
330
18
100
AcDbEntity
  8
実線（中）
100
AcDbLine
 10
30.0
 20
215.5
 30
0.0
 11
130.0
 21
215.5
 31
0.0
  0
LINE
  5
2546
102
{ACAD_REACTORS
330
32E3
102
}
330
18
100
AcDbEntity
  8
実線（中）
100
AcDbLine
 10
36.5
 20
224.5
 30
0.0
 11
123.5
 21
224.5
 31
0.0
  0
LINE
  5
254A
330
18
100
AcDbEntity
  8
実線（中）
100
AcDbLine
 10
29.0
 20
214.5
 30
0.0
 11
30.0
 21
215.5
 31
0.0
  0
LINE
  5
254F
330
18
100
AcDbEntity
  8
実線（中）
100
AcDbLine
 10
60.5
 20
215.5
 30
0.0
 11
60.5
 21
219.5
 31
0.0
  0
LINE
  5
2550
330
18
100
AcDbEntity
  8
実線（中）
100
AcDbLine
 10
53.5
 20
215.5
 30
0.0
 11
53.5
 21
219.5
 31
0.0
  0
ARC
  5
2551
330
18
100
AcDbEntity
  8
実線（中）
100
AcDbCircle
 10
57.0
 20
219.5
 30
0.0
 40
3.5
100
AcDbArc
 50
0.0
 51
180.0
  0
CIRCLE
  5
2553
330
18
100
AcDbEntity
  8
実線（中）
100
AcDbCircle
 10
57.0
 20
219.5
 30
0.0
 40
2.05
  0
CIRCLE
  5
2554
330
18
100
AcDbEntity
  8
実線（中）
100
AcDbCircle
 10
103.0
 20
219.5
 30
0.0
 40
2.05
  0
LINE
  5
2555
330
18
100
AcDbEntity
  8
実線（中）
100
AcDbLine
 10
99.5
 20
215.5
 30
0.0
 11
99.5
 21
219.5
 31
0.0
  0
LINE
  5
2556
330
18
100
AcDbEntity
  8
実線（中）
100
AcDbLine
 10
106.5
 20
215.5
 30
0.0
 11
106.5
 21
219.5
 31
0.0
  0
ARC
  5
2557
330
18
100
AcDbEntity
  8
実線（中）
100
AcDbCircle
 10
103.0
 20
219.5
 30
0.0
 40
3.5
100
AcDbArc
 50
0.0
 51
180.0
  0
LINE
  5
2558
330
18
100
AcDbEntity
  8
実線（中）
100
AcDbLine
 10
55.8611359916633
 20
217.7954505667141
 30
0.0
 11
58.70454943328591
 21
220.6388640083367
 31
0.0
  0
LINE
  5
2559
330
18
100
AcDbEntity
  8
実線（中）
100
AcDbLine
 10
55.29545056671407
 20
218.3611359916634
 30
0.0
 11
58.13886400833664
 21
221.2045494332859
 31
0.0
  0
LINE
  5
255A
330
18
100
AcDbEntity
  8
実線（中）
100
AcDbLine
 10
101.2954505667141
 20
218.3611359916634
 30
0.0
 11
104.1388640083366
 21
221.2045494332859
 31
0.0
  0
LINE
  5
255B
330
18
100
AcDbEntity
  8
実線（中）
100
AcDbLine
 10
101.8611359916633
 20
217.7954505667141
 30
0.0
 11
104.7045494332859
 21
220.6388640083367
 31
0.0
  0
DIMENSION
  5
2890
330
18
100
AcDbEntity
  8
寸法線
100
AcDbDimension
  2
*D13
 10
9.999999999999998
 20
187.0
 30
0.0
 11
10.0
 21
200.75
 31
0.0
 70
   160
 71
     5
 42
-1.0
  3
標準
100
AcDbAlignedDimension
 13
29.0
 23
214.5
 33
0.0
 14
80.0
 24
187.0
 34
0.0
 50
90.0
100
AcDbRotatedDimension
  0
LINE
  5
28B3
330
18
100
AcDbEntity
  8
実線（中）
100
AcDbLine
 10
146.0
 20
273.0
 30
0.0
 11
146.0
 21
215.8333333333333
 31
0.0
  0
LINE
  5
28B6
330
18
100
AcDbEntity
  8
実線（中）
100
AcDbLine
 10
146.0
 20
273.0
 30
0.0
 11
150.0
 21
274.0
 31
0.0
  0
LINE
  5
28B9
330
18
100
AcDbEntity
  8
実線（中）
100
AcDbLine
 10
150.0
 20
214.5
 30
0.0
 11
146.0
 21
215.8333333333333
 31
0.0
  0
LINE
  5
28BA
330
18
100
AcDbEntity
  8
実線（中）
100
AcDbLine
 10
163.5
 20
187.0
 30
0.0
 11
166.0
 21
187.0
 31
0.0
  0
LINE
  5
28BB
330
18
100
AcDbEntity
  8
実線（中）
100
AcDbLine
 10
150.0
 20
271.0
 30
0.0
 11
166.0
 21
271.0
 31
0.0
  0
LINE
  5
28BC
330
18
100
AcDbEntity
  8
実線（中）
100
AcDbLine
 10
166.0
 20
271.0
 30
0.0
 11
166.0
 21
187.0
 31
0.0
  0
LINE
  5
28BD
330
18
100
AcDbEntity
  8
実線（中）
100
AcDbLine
 10
153.5
 20
216.5
 30
0.0
 11
153.5
 21
197.0
 31
0.0
  0
LINE
  5
28BE
330
18
100
AcDbEntity
  8
実線（中）
100
AcDbLine
 10
150.0
 20
216.5
 30
0.0
 11
166.0
 21
216.5
 31
0.0
  0
ARC
  5
28BF
330
18
100
AcDbEntity
  8
実線（中）
100
AcDbCircle
 10
163.5
 20
197.0
 30
0.0
 40
10.0
100
AcDbArc
 50
180.0
 51
270.0
  0
LINE
  5
28C0
330
18
100
AcDbEntity
  8
実線（中）
100
AcDbLine
 10
217.5
 20
242.6
 30
0.0
 11
217.5
 21
187.4
 31
0.0
  0
LINE
  5
28C1
330
18
100
AcDbEntity
  8
実線（中）
100
AcDbLine
 10
168.0
 20
269.0
 30
0.0
 11
168.0
 21
218.5
 31
0.0
  0
LINE
  5
28C2
330
18
100
AcDbEntity
  8
実線（中）
100
AcDbLine
 10
168.0
 20
269.0
 30
0.0
 11
166.0
 21
271.0
 31
0.0
  0
LINE
  5
28C3
330
18
100
AcDbEntity
  8
実線（中）
100
AcDbLine
 10
166.0
 20
187.0
 30
0.0
 11
217.5
 21
187.4
 31
0.0
  0
LINE
  5
28C4
330
18
100
AcDbEntity
  8
実線（中）
100
AcDbLine
 10
168.0
 20
243.0
 30
0.0
 11
217.5
 21
242.6
 31
0.0
  0
LINE
  5
28C6
330
18
100
AcDbEntity
  8
実線（中）
100
AcDbLine
 10
219.5
 20
242.6
 30
0.0
 11
217.5
 21
242.6
 31
0.0
  0
LINE
  5
28C7
330
18
100
AcDbEntity
  8
実線（中）
100
AcDbLine
 10
219.5
 20
187.4
 30
0.0
 11
217.5
 21
187.4
 31
0.0
  0
DIMENSION
  5
2D18
330
18
100
AcDbEntity
  8
寸法線
100
AcDbDimension
  2
*D14
 10
280.0000000000812
 20
187.0001601066622
 30
0.0
 11
280.0000000000812
 21
215.0000389733323
 31
0.0
 12
-5.0
 22
0.0
 32
0.0
 70
   160
 71
     5
 42
-1.0
  3
標準
100
AcDbAlignedDimension
 13
265.0
 23
243.0
 33
0.0
 14
265.0
 24
187.0001601066622
 34
0.0
 50
90.0
100
AcDbRotatedDimension
  0
LINE
  5
2D19
330
18
100
AcDbEntity
  8
実線（中）
100
AcDbLine
 10
261.5
 20
241.0156113989685
 30
0.0
 11
261.5
 21
188.9843886010315
 31
0.0
  0
ARC
  5
2D1A
330
18
100
AcDbEntity
  8
実線（中）
100
AcDbCircle
 10
264.3000000000001
 20
237.60595328855
 30
0.0
 40
1.2
100
AcDbArc
 50
0.0
 51
90.00000000000001
  0
ARC
  5
2D1B
330
18
100
AcDbEntity
  8
実線（中）
100
AcDbCircle
 10
264.3000000000001
 20
233.0487282604007
 30
0.0
 40
1.2
100
AcDbArc
 50
0.0
 51
90.00000000000001
  0
ARC
  5
2D1C
330
18
100
AcDbEntity
  8
実線（中）
100
AcDbCircle
 10
264.3000000000001
 20
229.6487282604007
 30
0.0
 40
1.199999999999989
100
AcDbArc
 50
305.6853347126483
 51
359.9999999999986
  0
ARC
  5
2D1D
330
18
100
AcDbEntity
  8
実線（中）
100
AcDbCircle
 10
264.3000000000001
 20
208.4723062041507
 30
0.0
 40
1.199999999999989
100
AcDbArc
 50
0.000000000001357
 51
54.31466528735171
  0
ARC
  5
2D1E
330
18
100
AcDbEntity
  8
実線（中）
100
AcDbCircle
 10
264.3000000000001
 20
205.0723062041507
 30
0.0
 40
1.2
100
AcDbArc
 50
270.0
 51
0.0
  0
ARC
  5
2D1F
330
18
100
AcDbEntity
  8
実線（中）
100
AcDbCircle
 10
264.3000000000001
 20
200.3512717395993
 30
0.0
 40
1.199999999999989
100
AcDbArc
 50
0.000000000001357
 51
54.31466528735171
  0
ARC
  5
2D20
330
18
100
AcDbEntity
  8
実線（中）
100
AcDbCircle
 10
264.3000000000001
 20
192.39404671145
 30
0.0
 40
1.2
100
AcDbArc
 50
270.0
 51
0.0
  0
ARC
  5
2D21
330
18
100
AcDbEntity
  8
実線（中）
100
AcDbCircle
 10
264.3000000000001
 20
196.9512717395993
 30
0.0
 40
1.2
100
AcDbArc
 50
270.0
 51
0.0
  0
LINE
  5
2D22
330
18
100
AcDbEntity
  8
実線（中）
100
AcDbLine
 10
265.0
 20
204.0976267696697
 30
0.0
 11
265.0000000000001
 21
198.987067407584
 31
0.0
  0
LINE
  5
2D23
330
18
100
AcDbEntity
  8
実線（中）
100
AcDbLine
 10
262.0
 20
192.0755940540291
 30
0.0
 11
262.0
 21
190.1613420704107
 31
0.0
  0
LINE
  5
2D24
330
18
100
AcDbEntity
  8
実線（中）
100
AcDbLine
 10
265.0
 20
195.9765923051183
 30
0.0
 11
265.0000000000001
 21
190.1
 31
0.0
  0
ARC
  5
2D25
330
18
100
AcDbEntity
  8
実線（中）
100
AcDbCircle
 10
260.3
 20
188.9843886010315
 30
0.0
 40
1.2
100
AcDbArc
 50
270.7502589904175
 51
0.0
  0
LINE
  5
2D26
330
18
100
AcDbEntity
  8
実線（中）
100
AcDbLine
 10
265.0
 20
190.1613420704107
 30
0.0
 11
262.0
 21
190.1613420704107
 31
0.0
  0
LINE
  5
2D27
330
18
100
AcDbEntity
  8
実線（中）
100
AcDbLine
 10
265.0000000000001
 20
190.1
 30
0.0
 11
261.5
 21
190.1
 31
0.0
  0
LINE
  5
2D28
330
18
100
AcDbEntity
  8
実線（中）
100
AcDbLine
 10
263.5
 20
195.7512717395994
 30
0.0
 11
263.5
 21
198.987067407584
 31
0.0
  0
LINE
  5
2D29
330
18
100
AcDbEntity
  8
実線（中）
100
AcDbLine
 10
263.5
 20
195.7512717395994
 30
0.0
 11
264.3000000000001
 21
195.7512717395994
 31
0.0
  0
LINE
  5
2D2A
330
18
100
AcDbEntity
  8
実線（中）
100
AcDbLine
 10
265.0000000000001
 20
198.987067407584
 30
0.0
 11
262.0
 21
198.987067407584
 31
0.0
  0
ARC
  5
2D2B
330
18
100
AcDbEntity
  8
実線（中）
100
AcDbCircle
 10
252.46
 20
194.09404671145
 30
0.0
 40
11.0
100
AcDbArc
 50
344.178383797065
 51
349.4265591703817
  0
LINE
  5
2D2C
330
18
100
AcDbEntity
  8
実線（中）
100
AcDbLine
 10
263.5
 20
191.1940467114499
 30
0.0
 11
263.5
 21
192.0755940540291
 31
0.0
  0
LINE
  5
2D2D
330
18
100
AcDbEntity
  8
実線（中）
100
AcDbLine
 10
263.5
 20
191.1940467114499
 30
0.0
 11
264.3000000000001
 21
191.1940467114499
 31
0.0
  0
ARC
  5
2D2E
330
18
100
AcDbEntity
  8
実線（中）
100
AcDbCircle
 10
252.46
 20
194.09404671145
 30
0.0
 40
10.0
100
AcDbArc
 50
342.554373288772
 51
348.3551140694362
  0
LINE
  5
2D2F
330
18
100
AcDbEntity
  8
実線（中）
100
AcDbLine
 10
262.0
 20
191.09604671145
 30
0.0
 11
263.043
 21
191.09604671145
 31
0.0
  0
LINE
  5
2D30
330
18
100
AcDbEntity
  8
実線（中）
100
AcDbLine
 10
262.0
 20
195.6532717395993
 30
0.0
 11
263.043
 21
195.6532717395993
 31
0.0
  0
LINE
  5
2D31
330
18
100
AcDbEntity
  8
実線（中）
100
AcDbLine
 10
265.0000000000001
 20
193.6615934112764
 30
0.0
 11
262.0
 21
193.6615934112764
 31
0.0
  0
LINE
  5
2D32
330
18
100
AcDbEntity
  8
実線（中）
100
AcDbLine
 10
265.0
 20
192.0755940540291
 30
0.0
 11
262.0
 21
192.0755940540291
 31
0.0
  0
ARC
  5
2D33
330
18
100
AcDbEntity
  8
実線（中）
100
AcDbCircle
 10
252.4600000000001
 20
198.6512717395993
 30
0.0
 40
10.0
100
AcDbArc
 50
342.554373288772
 51
1.924329212567128
  0
ARC
  5
2D34
330
18
100
AcDbEntity
  8
実線（中）
100
AcDbCircle
 10
252.4600000000001
 20
198.6512717395993
 30
0.0
 40
11.0
100
AcDbArc
 50
344.178383797065
 51
1.74933309265723
  0
LINE
  5
2D35
330
18
100
AcDbEntity
  8
実線（中）
100
AcDbLine
 10
262.0
 20
198.987067407584
 30
0.0
 11
262.0
 21
193.6615934112764
 31
0.0
  0
LINE
  5
2D36
330
18
100
AcDbEntity
  8
実線（中）
100
AcDbLine
 10
265.0
 20
231.012932592416
 30
0.0
 11
265.0
 21
209.3891511235084
 31
0.0
  0
LINE
  5
2D37
330
18
100
AcDbEntity
  8
実線（中）
100
AcDbLine
 10
265.0
 20
209.3891511235084
 30
0.0
 11
262.0
 21
209.3891511235084
 31
0.0
  0
LINE
  5
2D38
330
18
100
AcDbEntity
  8
実線（中）
100
AcDbLine
 10
263.5
 20
203.8723062041507
 30
0.0
 11
264.3000000000001
 21
203.8723062041507
 31
0.0
  0
LINE
  5
2D39
330
18
100
AcDbEntity
  8
実線（中）
100
AcDbLine
 10
262.0
 20
203.7743062041507
 30
0.0
 11
263.043
 21
203.7743062041507
 31
0.0
  0
LINE
  5
2D3A
330
18
100
AcDbEntity
  8
実線（中）
100
AcDbLine
 10
265.0
 20
201.8133389569159
 30
0.0
 11
262.0
 21
201.8133389569159
 31
0.0
  0
LINE
  5
2D3B
330
18
100
AcDbEntity
  8
実線（中）
100
AcDbLine
 10
263.5
 20
203.8723062041507
 30
0.0
 11
263.5
 21
209.3891511235084
 31
0.0
  0
ARC
  5
2D3C
330
18
100
AcDbEntity
  8
実線（中）
100
AcDbCircle
 10
252.4600000000001
 20
206.7723062041507
 30
0.0
 40
11.0
100
AcDbArc
 50
344.178383797065
 51
13.76233436001421
  0
ARC
  5
2D3D
330
18
100
AcDbEntity
  8
実線（中）
100
AcDbCircle
 10
252.4600000000001
 20
206.7723062041507
 30
0.0
 40
10.0
100
AcDbArc
 50
342.554373288772
 51
15.17003743918437
  0
LINE
  5
2D3E
330
18
100
AcDbEntity
  8
実線（中）
100
AcDbLine
 10
262.0000000000001
 20
209.3891511235084
 30
0.0
 11
262.0000000000001
 21
201.8133389569159
 31
0.0
  0
LINE
  5
2D3F
330
18
100
AcDbEntity
  8
実線（中）
100
AcDbLine
 10
262.0
 20
239.9
 30
0.0
 11
262.0
 21
237.9244059459709
 31
0.0
  0
LINE
  5
2D40
330
18
100
AcDbEntity
  8
実線（中）
100
AcDbLine
 10
265.0
 20
237.9244059459709
 30
0.0
 11
262.0
 21
237.9244059459709
 31
0.0
  0
LINE
  5
2D41
330
18
100
AcDbEntity
  8
実線（中）
100
AcDbLine
 10
265.0
 20
239.8386579295893
 30
0.0
 11
262.0
 21
239.8386579295893
 31
0.0
  0
ARC
  5
2D42
330
18
100
AcDbEntity
  8
実線（中）
100
AcDbCircle
 10
252.46
 20
235.90595328855
 30
0.0
 40
10.0
100
AcDbArc
 50
11.64488593056374
 51
17.44562671122806
  0
ARC
  5
2D43
330
18
100
AcDbEntity
  8
実線（中）
100
AcDbCircle
 10
252.46
 20
235.90595328855
 30
0.0
 40
11.0
100
AcDbArc
 50
10.57344082961831
 51
15.82161620293504
  0
LINE
  5
2D44
330
18
100
AcDbEntity
  8
実線（中）
100
AcDbLine
 10
263.5
 20
238.8059532885501
 30
0.0
 11
263.5
 21
237.9244059459709
 31
0.0
  0
LINE
  5
2D45
330
18
100
AcDbEntity
  8
実線（中）
100
AcDbLine
 10
262.0
 20
238.90395328855
 30
0.0
 11
263.043
 21
238.90395328855
 31
0.0
  0
LINE
  5
2D46
330
18
100
AcDbEntity
  8
実線（中）
100
AcDbLine
 10
263.5
 20
238.8059532885501
 30
0.0
 11
264.3000000000001
 21
238.8059532885501
 31
0.0
  0
LINE
  5
2D47
330
18
100
AcDbEntity
  8
実線（中）
100
AcDbLine
 10
265.0000000000001
 20
236.3384065887236
 30
0.0
 11
262.0
 21
236.3384065887236
 31
0.0
  0
LINE
  5
2D48
330
18
100
AcDbEntity
  8
実線（中）
100
AcDbLine
 10
265.0000000000001
 20
239.9
 30
0.0
 11
261.5
 21
239.9
 31
0.0
  0
ARC
  5
2D49
330
18
100
AcDbEntity
  8
実線（中）
100
AcDbCircle
 10
252.4600000000001
 20
231.3487282604007
 30
0.0
 40
10.0
100
AcDbArc
 50
358.0756707874328
 51
17.44562671122806
  0
ARC
  5
2D4A
330
18
100
AcDbEntity
  8
実線（中）
100
AcDbCircle
 10
252.4600000000001
 20
231.3487282604007
 30
0.0
 40
11.0
100
AcDbArc
 50
358.2506669073428
 51
15.82161620293504
  0
LINE
  5
2D4B
330
18
100
AcDbEntity
  8
実線（中）
100
AcDbLine
 10
262.0
 20
234.3467282604007
 30
0.0
 11
263.043
 21
234.3467282604007
 31
0.0
  0
LINE
  5
2D4C
330
18
100
AcDbEntity
  8
実線（中）
100
AcDbLine
 10
265.0000000000001
 20
231.012932592416
 30
0.0
 11
262.0
 21
231.012932592416
 31
0.0
  0
LINE
  5
2D4D
330
18
100
AcDbEntity
  8
実線（中）
100
AcDbLine
 10
263.5
 20
234.2487282604006
 30
0.0
 11
263.5
 21
231.012932592416
 31
0.0
  0
LINE
  5
2D4E
330
18
100
AcDbEntity
  8
実線（中）
100
AcDbLine
 10
263.5
 20
234.2487282604006
 30
0.0
 11
264.3000000000001
 21
234.2487282604006
 31
0.0
  0
LINE
  5
2D4F
330
18
100
AcDbEntity
  8
実線（中）
100
AcDbLine
 10
265.0
 20
234.0234076948817
 30
0.0
 11
265.0000000000001
 21
239.9
 31
0.0
  0
LINE
  5
2D50
330
18
100
AcDbEntity
  8
実線（中）
100
AcDbLine
 10
262.0
 20
236.3384065887236
 30
0.0
 11
262.0
 21
231.012932592416
 31
0.0
  0
ARC
  5
2D51
330
18
100
AcDbEntity
  8
実線（中）
100
AcDbCircle
 10
264.3000000000001
 20
195.7940467114501
 30
0.0
 40
1.199999999999903
100
AcDbArc
 50
359.9999999999959
 51
28.82768831794546
  0
LINE
  5
2D52
330
18
100
AcDbEntity
  8
実線（中）
100
AcDbLine
 10
265.5
 20
196.9512717395993
 30
0.0
 11
265.5
 21
200.3512717395994
 31
0.0
  0
LINE
  5
2D53
330
18
100
AcDbEntity
  8
実線（中）
100
AcDbLine
 10
265.5
 20
192.39404671145
 30
0.0
 11
265.5
 21
195.7940467114499
 31
0.0
  0
LINE
  5
2D54
330
18
100
AcDbEntity
  8
実線（中）
100
AcDbLine
 10
265.5
 20
205.0723062041507
 30
0.0
 11
265.5
 21
208.4723062041508
 31
0.0
  0
LINE
  5
2D55
330
18
100
AcDbEntity
  8
実線（中）
100
AcDbLine
 10
265.5
 20
233.0487282604007
 30
0.0
 11
265.5
 21
229.6487282604006
 31
0.0
  0
ARC
  5
2D56
330
18
100
AcDbEntity
  8
実線（中）
100
AcDbCircle
 10
264.3000000000001
 20
234.2059532885499
 30
0.0
 40
1.199999999999903
100
AcDbArc
 50
331.1723116820546
 51
0.0000000000040851
  0
LINE
  5
2D57
330
18
100
AcDbEntity
  8
実線（中）
100
AcDbLine
 10
265.5
 20
237.60595328855
 30
0.0
 11
265.5
 21
234.2059532885501
 31
0.0
  0
ARC
  5
2D58
330
18
100
AcDbEntity
  8
実線（中）
100
AcDbCircle
 10
260.3
 20
241.0156113989685
 30
0.0
 40
1.2
100
AcDbArc
 50
0.0
 51
89.24974100958246
  0
LINE
  5
2D59
330
18
100
AcDbEntity
  8
実線（中）
100
AcDbLine
 10
260.3157129385033
 20
187.7844914789566
 30
0.0
 11
219.5
 21
187.4
 31
0.0
  0
LINE
  5
2D5A
330
18
100
AcDbEntity
  8
実線（中）
100
AcDbLine
 10
260.3157129385033
 20
242.2155085210434
 30
0.0
 11
219.5
 21
242.6
 31
0.0
  0
LINE
  5
2E23
330
18
100
AcDbEntity
  8
実線（中）
100
AcDbLine
 10
299.0
 20
274.0
 30
0.0
 11
299.0
 21
214.5
 31
0.0
  0
LINE
  5
2E24
330
18
100
AcDbEntity
  8
実線（中）
100
AcDbLine
 10
401.0
 20
274.0
 30
0.0
 11
401.0
 21
214.5
 31
0.0
  0
LINE
  5
2E61
330
18
100
AcDbEntity
  8
実線（中）
100
AcDbLine
 10
401.0
 20
274.0
 30
0.0
 11
299.0
 21
274.0
 31
0.0
  0
LINE
  5
2E66
330
18
100
AcDbEntity
  8
一点鎖線
100
AcDbLine
 10
350.0
 20
271.5
 30
0.0
 11
350.0
 21
281.5
 31
0.0
  0
LINE
  5
2E67
330
18
100
AcDbEntity
  8
実線（中）
100
AcDbLine
 10
374.8193472919817
 20
243.0
 30
0.0
 11
325.1806527080183
 21
243.0
 31
0.0
  0
LINE
  5
2E6B
330
18
100
AcDbEntity
  8
実線（中）
100
AcDbLine
 10
329.4914675108216
 20
210.9428957198121
 30
0.0
 11
325.7403962339619
 21
209.3891511235085
 31
0.0
  0
ARC
  5
2E6C
330
18
100
AcDbEntity
  8
実線（中）
100
AcDbCircle
 10
329.7249237325036
 20
208.5500943923806
 30
0.0
 40
0.2
100
AcDbArc
 50
22.49999999999999
 51
112.5
  0
ARC
  5
2E6D
330
18
100
AcDbEntity
  8
実線（中）
100
AcDbCircle
 10
329.5953939508611
 20
205.4657432392743
 30
0.0
 40
0.5
100
AcDbArc
 50
22.49999999999999
 51
112.5
  0
LINE
  5
2E6E
330
18
100
AcDbEntity
  8
実線（中）
100
AcDbLine
 10
329.0940593265237
 20
208.5052602394638
 30
0.0
 11
329.6483870460306
 21
208.7348702988828
 31
0.0
  0
ARC
  5
2E6F
330
18
100
AcDbEntity
  8
実線（中）
100
AcDbCircle
 10
329.1705960129968
 20
208.3204843329615
 30
0.0
 40
0.2
100
AcDbArc
 50
112.5
 51
202.5000000000001
  0
LINE
  5
2E70
330
18
100
AcDbEntity
  8
実線（中）
100
AcDbLine
 10
328.9858201064945
 20
208.2439476464884
 30
0.0
 11
329.2919668523866
 21
207.5048440204794
 31
0.0
  0
LINE
  5
2E71
330
18
100
AcDbEntity
  8
実線（中）
100
AcDbLine
 10
328.2822651763045
 20
206.5454157921491
 30
0.0
 11
329.0213688023134
 21
206.8515625380412
 31
0.0
  0
LINE
  5
2E72
330
18
100
AcDbEntity
  8
実線（中）
100
AcDbLine
 10
328.6649486086696
 20
205.6215362596379
 30
0.0
 11
329.4040522346785
 21
205.9276830055298
 31
0.0
  0
LINE
  5
2E73
330
18
100
AcDbEntity
  8
実線（中）
100
AcDbLine
 10
328.1740259562752
 20
206.284103199174
 30
0.0
 11
328.4036360156942
 21
205.729775479667
 31
0.0
  0
ARC
  5
2E74
330
18
100
AcDbEntity
  8
実線（中）
100
AcDbCircle
 10
328.3588018627775
 20
206.3606398856469
 30
0.0
 40
0.2
100
AcDbArc
 50
112.5
 51
202.5000000000001
  0
ARC
  5
2E75
330
18
100
AcDbEntity
  8
実線（中）
100
AcDbCircle
 10
328.5884119221965
 20
205.8063121661402
 30
0.0
 40
0.2
100
AcDbArc
 50
202.5000000000001
 51
292.5000000000001
  0
ARC
  5
2E76
330
18
100
AcDbEntity
  8
実線（中）
100
AcDbCircle
 10
328.8300270861309
 20
207.313502304297
 30
0.0
 40
0.5
100
AcDbArc
 50
292.5000000000001
 51
22.49999999999999
  0
LINE
  5
2E77
330
18
100
AcDbEntity
  8
実線（中）
100
AcDbLine
 10
330.869127867336
 20
207.6169294027713
 30
0.0
 11
331.6082314933451
 21
207.9230761486635
 31
0.0
  0
ARC
  5
2E78
330
18
100
AcDbEntity
  8
実線（中）
100
AcDbCircle
 10
331.6847681798181
 20
207.7383002421613
 30
0.0
 40
0.2
100
AcDbArc
 50
22.49999999999999
 51
112.5
  0
LINE
  5
2E79
330
18
100
AcDbEntity
  8
実線（中）
100
AcDbLine
 10
331.2518112997012
 20
206.6930498702602
 30
0.0
 11
331.9909149257102
 21
206.9991966161522
 31
0.0
  0
LINE
  5
2E7A
330
18
100
AcDbEntity
  8
実線（中）
100
AcDbLine
 10
330.981213249628
 20
206.039768387822
 30
0.0
 11
331.2873599955201
 21
205.3006647618129
 31
0.0
  0
ARC
  5
2E7B
330
18
100
AcDbEntity
  8
実線（中）
100
AcDbCircle
 10
331.4431530158837
 20
206.2311101040046
 30
0.0
 40
0.5
100
AcDbArc
 50
112.5
 51
202.5000000000001
  0
ARC
  5
2E7C
330
18
100
AcDbEntity
  8
実線（中）
100
AcDbCircle
 10
331.9143782392372
 20
207.1839725226545
 30
0.0
 40
0.2
100
AcDbArc
 50
292.5000000000001
 51
22.49999999999999
  0
LINE
  5
2E7D
330
18
100
AcDbEntity
  8
実線（中）
100
AcDbLine
 10
331.8695440863203
 20
207.8148369286342
 30
0.0
 11
332.0991541457394
 21
207.2605092091273
 31
0.0
  0
LINE
  5
2E7E
330
18
100
AcDbEntity
  8
実線（中）
100
AcDbLine
 10
329.9096996390058
 20
208.6266310788534
 30
0.0
 11
330.2158463848979
 21
207.8875274528445
 31
0.0
  0
ARC
  5
2E7F
330
18
100
AcDbEntity
  8
実線（中）
100
AcDbCircle
 10
330.6777861511535
 20
208.0788691690271
 30
0.0
 40
0.5
100
AcDbArc
 50
202.5000000000001
 51
292.5000000000001
  0
CIRCLE
  5
2E80
330
18
100
AcDbEntity
  8
実線（中）
100
AcDbCircle
 10
330.0
 20
217.0
 30
0.0
 40
2.9
  0
LINE
  5
2E81
330
18
100
AcDbEntity
  8
実線（中）
100
AcDbLine
 10
329.7
 20
215.0
 30
0.0
 11
330.3
 21
215.0
 31
0.0
  0
LINE
  5
2E82
330
18
100
AcDbEntity
  8
実線（中）
100
AcDbLine
 10
329.7
 20
219.0
 30
0.0
 11
330.3
 21
219.0
 31
0.0
  0
CIRCLE
  5
2E83
330
18
100
AcDbEntity
  8
実線（中）
100
AcDbCircle
 10
330.0
 20
217.0
 30
0.0
 40
3.5
  0
ARC
  5
2E84
330
18
100
AcDbEntity
  8
実線（中）
100
AcDbCircle
 10
329.7
 20
215.2
 30
0.0
 40
0.2
100
AcDbArc
 50
180.0
 51
270.0
  0
ARC
  5
2E85
330
18
100
AcDbEntity
  8
実線（中）
100
AcDbCircle
 10
328.2
 20
216.7
 30
0.0
 40
0.2
100
AcDbArc
 50
180.0
 51
270.0
  0
ARC
  5
2E86
330
18
100
AcDbEntity
  8
実線（中）
100
AcDbCircle
 10
329.0
 20
216.0
 30
0.0
 40
0.5
100
AcDbArc
 50
0.0
 51
90.0
  0
LINE
  5
2E87
330
18
100
AcDbEntity
  8
実線（中）
100
AcDbLine
 10
328.2
 20
216.5
 30
0.0
 11
329.0
 21
216.5
 31
0.0
  0
LINE
  5
2E88
330
18
100
AcDbEntity
  8
実線（中）
100
AcDbLine
 10
329.5
 20
218.0
 30
0.0
 11
329.5
 21
218.8
 31
0.0
  0
ARC
  5
2E89
330
18
100
AcDbEntity
  8
実線（中）
100
AcDbCircle
 10
329.0
 20
218.0
 30
0.0
 40
0.5
100
AcDbArc
 50
270.0
 51
0.0
  0
ARC
  5
2E8A
330
18
100
AcDbEntity
  8
実線（中）
100
AcDbCircle
 10
328.2
 20
217.3
 30
0.0
 40
0.2
100
AcDbArc
 50
90.0
 51
180.0
  0
LINE
  5
2E8B
330
18
100
AcDbEntity
  8
実線（中）
100
AcDbLine
 10
328.0
 20
216.7
 30
0.0
 11
328.0
 21
217.3
 31
0.0
  0
LINE
  5
2E8C
330
18
100
AcDbEntity
  8
実線（中）
100
AcDbLine
 10
328.2
 20
217.5
 30
0.0
 11
329.0
 21
217.5
 31
0.0
  0
LINE
  5
2E8D
330
18
100
AcDbEntity
  8
実線（中）
100
AcDbLine
 10
329.5
 20
215.2
 30
0.0
 11
329.5
 21
216.0
 31
0.0
  0
ARC
  5
2E8E
330
18
100
AcDbEntity
  8
実線（中）
100
AcDbCircle
 10
329.7
 20
218.8
 30
0.0
 40
0.2
100
AcDbArc
 50
90.0
 51
180.0
  0
ARC
  5
2E8F
330
18
100
AcDbEntity
  8
実線（中）
100
AcDbCircle
 10
330.3
 20
215.2
 30
0.0
 40
0.2
100
AcDbArc
 50
270.0
 51
0.0
  0
ARC
  5
2E90
330
18
100
AcDbEntity
  8
実線（中）
100
AcDbCircle
 10
331.8
 20
216.7
 30
0.0
 40
0.2
100
AcDbArc
 50
270.0
 51
0.0
  0
ARC
  5
2E91
330
18
100
AcDbEntity
  8
実線（中）
100
AcDbCircle
 10
331.8
 20
217.3
 30
0.0
 40
0.2
100
AcDbArc
 50
0.0
 51
90.0
  0
LINE
  5
2E92
330
18
100
AcDbEntity
  8
実線（中）
100
AcDbLine
 10
331.0
 20
216.5
 30
0.0
 11
331.8
 21
216.5
 31
0.0
  0
LINE
  5
2E93
330
18
100
AcDbEntity
  8
実線（中）
100
AcDbLine
 10
331.0
 20
217.5
 30
0.0
 11
331.8
 21
217.5
 31
0.0
  0
ARC
  5
2E94
330
18
100
AcDbEntity
  8
実線（中）
100
AcDbCircle
 10
331.0
 20
216.0
 30
0.0
 40
0.5
100
AcDbArc
 50
90.0
 51
180.0
  0
LINE
  5
2E95
330
18
100
AcDbEntity
  8
実線（中）
100
AcDbLine
 10
330.5
 20
218.0
 30
0.0
 11
330.5
 21
218.8
 31
0.0
  0
ARC
  5
2E96
330
18
100
AcDbEntity
  8
実線（中）
100
AcDbCircle
 10
331.0
 20
218.0
 30
0.0
 40
0.5
100
AcDbArc
 50
180.0
 51
270.0
  0
LINE
  5
2E97
330
18
100
AcDbEntity
  8
実線（中）
100
AcDbLine
 10
332.0
 20
216.7
 30
0.0
 11
332.0
 21
217.3
 31
0.0
  0
LINE
  5
2E98
330
18
100
AcDbEntity
  8
実線（中）
100
AcDbLine
 10
330.5
 20
215.2
 30
0.0
 11
330.5
 21
216.0
 31
0.0
  0
ARC
  5
2E99
330
18
100
AcDbEntity
  8
実線（中）
100
AcDbCircle
 10
330.3
 20
218.8
 30
0.0
 40
0.2
100
AcDbArc
 50
0.0
 51
90.0
  0
MTEXT
  5
2E9A
330
18
100
AcDbEntity
  8
実線（中）
100
AcDbMText
 10
338.8869064303288
 20
210.4724011538418
 30
0.0
 40
3.5
 41
0.0
 71
     5
 72
     5
  1
③
  7
寸法文字
 73
     1
 44
1.0
  0
MTEXT
  5
2E9B
330
18
100
AcDbEntity
  8
実線（中）
100
AcDbMText
 10
342.1536479882947
 20
224.079359014182
 30
0.0
 40
3.2
 41
0.0
 71
     5
 72
     5
  1
M+
  7
寸法文字
 73
     1
 44
1.0
  0
CIRCLE
  5
2E9C
330
18
100
AcDbEntity
  8
実線（中）
100
AcDbCircle
 10
370.0
 20
217.0
 30
0.0
 40
3.5
  0
MTEXT
  5
2E9D
330
18
100
AcDbEntity
  8
実線（中）
100
AcDbMText
 10
361.059639669686
 20
210.3433520235358
 30
0.0
 40
3.5
 41
0.0
 71
     5
 72
     5
  1
⑧
  7
寸法文字
 73
     1
 44
1.0
  0
LINE
  5
2E9E
330
18
100
AcDbEntity
  8
実線（中）
100
AcDbLine
 10
370.5085324891783
 20
210.9428957198118
 30
0.0
 11
374.2596037660381
 21
209.3891511235084
 31
0.0
  0
LINE
  5
2E9F
330
18
100
AcDbEntity
  8
実線（中）
100
AcDbLine
 10
370.9059406734762
 20
208.5052602394635
 30
0.0
 11
370.3516129539693
 21
208.7348702988827
 31
0.0
  0
LINE
  5
2EA0
330
18
100
AcDbEntity
  8
実線（中）
100
AcDbLine
 10
370.7080331476134
 20
207.5048440204792
 30
0.0
 11
371.0141798935055
 21
208.2439476464882
 31
0.0
  0
ARC
  5
2EA1
330
18
100
AcDbEntity
  8
実線（中）
100
AcDbCircle
 10
371.1699729138691
 20
207.3135023042967
 30
0.0
 40
0.5
100
AcDbArc
 50
157.5
 51
247.5
  0
LINE
  5
2EA2
330
18
100
AcDbEntity
  8
実線（中）
100
AcDbLine
 10
371.3350513913304
 20
205.6215362596378
 30
0.0
 11
370.5959477653215
 21
205.9276830055297
 31
0.0
  0
LINE
  5
2EA3
330
18
100
AcDbEntity
  8
実線（中）
100
AcDbLine
 10
369.1308721326639
 20
207.6169294027712
 30
0.0
 11
368.3917685066548
 21
207.9230761486633
 31
0.0
  0
ARC
  5
2EA4
330
18
100
AcDbEntity
  8
実線（中）
100
AcDbCircle
 10
370.2750762674963
 20
208.5500943923803
 30
0.0
 40
0.2
100
AcDbArc
 50
67.5
 51
157.5
  0
LINE
  5
2EA5
330
18
100
AcDbEntity
  8
実線（中）
100
AcDbLine
 10
369.7841536151021
 20
207.8875274528442
 30
0.0
 11
370.0903003609942
 21
208.6266310788534
 31
0.0
  0
ARC
  5
2EA6
330
18
100
AcDbEntity
  8
実線（中）
100
AcDbCircle
 10
369.3222138488464
 20
208.0788691690268
 30
0.0
 40
0.5
100
AcDbArc
 50
247.5
 51
337.5000000000001
  0
ARC
  5
2EA7
330
18
100
AcDbEntity
  8
実線（中）
100
AcDbCircle
 10
368.3152318201818
 20
207.738300242161
 30
0.0
 40
0.2
100
AcDbArc
 50
67.5
 51
157.5
  0
LINE
  5
2EA8
330
18
100
AcDbEntity
  8
実線（中）
100
AcDbLine
 10
368.7481887002988
 20
206.6930498702599
 30
0.0
 11
368.0090850742897
 21
206.9991966161519
 31
0.0
  0
ARC
  5
2EA9
330
18
100
AcDbEntity
  8
実線（中）
100
AcDbCircle
 10
370.4046060491388
 20
205.465743239274
 30
0.0
 40
0.5
100
AcDbArc
 50
67.5
 51
157.5
  0
ARC
  5
2EAA
330
18
100
AcDbEntity
  8
実線（中）
100
AcDbCircle
 10
368.5568469841162
 20
206.2311101040042
 30
0.0
 40
0.5
100
AcDbArc
 50
337.5000000000001
 51
67.5
  0
LINE
  5
2EAB
330
18
100
AcDbEntity
  8
実線（中）
100
AcDbLine
 10
368.7126400044799
 20
205.3006647618128
 30
0.0
 11
369.0187867503719
 21
206.0397683878218
 31
0.0
  0
ARC
  5
2EAC
330
18
100
AcDbEntity
  8
実線（中）
100
AcDbCircle
 10
368.0856217607628
 20
207.1839725226542
 30
0.0
 40
0.2
100
AcDbArc
 50
157.5
 51
247.5
  0
LINE
  5
2EAD
330
18
100
AcDbEntity
  8
実線（中）
100
AcDbLine
 10
367.9008458542605
 20
207.2605092091272
 30
0.0
 11
368.1304559136796
 21
207.8148369286341
 31
0.0
  0
LINE
  5
2EAE
330
18
100
AcDbEntity
  8
実線（中）
100
AcDbLine
 10
371.5963639843056
 20
205.7297754796669
 30
0.0
 11
371.8259740437248
 21
206.2841031991737
 31
0.0
  0
ARC
  5
2EAF
330
18
100
AcDbEntity
  8
実線（中）
100
AcDbCircle
 10
371.4115880778034
 20
205.8063121661399
 30
0.0
 40
0.2
100
AcDbArc
 50
247.5
 51
337.5000000000001
  0
ARC
  5
2EB0
330
18
100
AcDbEntity
  8
実線（中）
100
AcDbCircle
 10
371.6411981372224
 20
206.3606398856467
 30
0.0
 40
0.2
100
AcDbArc
 50
337.5000000000001
 51
67.5
  0
ARC
  5
2EB1
330
18
100
AcDbEntity
  8
実線（中）
100
AcDbCircle
 10
370.8294039870032
 20
208.3204843329613
 30
0.0
 40
0.2
100
AcDbArc
 50
337.5000000000001
 51
67.5
  0
LINE
  5
2EB2
330
18
100
AcDbEntity
  8
実線（中）
100
AcDbLine
 10
371.7177348236954
 20
206.545415792149
 30
0.0
 11
370.9786311976865
 21
206.8515625380411
 31
0.0
  0
ARC
  5
2EB3
330
18
100
AcDbEntity
  8
実線（中）
100
AcDbCircle
 10
371.0
 20
216.0
 30
0.0
 40
0.5
100
AcDbArc
 50
90.0
 51
180.0
  0
ARC
  5
2EB4
330
18
100
AcDbEntity
  8
実線（中）
100
AcDbCircle
 10
371.0
 20
218.0
 30
0.0
 40
0.5
100
AcDbArc
 50
180.0
 51
270.0
  0
CIRCLE
  5
2EB5
330
18
100
AcDbEntity
  8
実線（中）
100
AcDbCircle
 10
370.0
 20
217.0
 30
0.0
 40
2.9
  0
LINE
  5
2EB6
330
18
100
AcDbEntity
  8
実線（中）
100
AcDbLine
 10
369.7
 20
219.0
 30
0.0
 11
370.3
 21
219.0
 31
0.0
  0
ARC
  5
2EB7
330
18
100
AcDbEntity
  8
実線（中）
100
AcDbCircle
 10
368.2
 20
216.7
 30
0.0
 40
0.2
100
AcDbArc
 50
180.0
 51
270.0
  0
LINE
  5
2EB8
330
18
100
AcDbEntity
  8
実線（中）
100
AcDbLine
 10
369.5
 20
215.2
 30
0.0
 11
369.5
 21
216.0
 31
0.0
  0
LINE
  5
2EB9
330
18
100
AcDbEntity
  8
実線（中）
100
AcDbLine
 10
370.5
 20
215.2
 30
0.0
 11
370.5
 21
216.0
 31
0.0
  0
LINE
  5
2EBA
330
18
100
AcDbEntity
  8
実線（中）
100
AcDbLine
 10
369.7
 20
215.0
 30
0.0
 11
370.3
 21
215.0
 31
0.0
  0
ARC
  5
2EBB
330
18
100
AcDbEntity
  8
実線（中）
100
AcDbCircle
 10
369.7
 20
215.2
 30
0.0
 40
0.2
100
AcDbArc
 50
180.0
 51
270.0
  0
ARC
  5
2EBC
330
18
100
AcDbEntity
  8
実線（中）
100
AcDbCircle
 10
370.3
 20
215.2
 30
0.0
 40
0.2
100
AcDbArc
 50
270.0
 51
0.0
  0
ARC
  5
2EBD
330
18
100
AcDbEntity
  8
実線（中）
100
AcDbCircle
 10
369.0
 20
216.0
 30
0.0
 40
0.5
100
AcDbArc
 50
0.0
 51
90.0
  0
LINE
  5
2EBE
330
18
100
AcDbEntity
  8
実線（中）
100
AcDbLine
 10
368.2
 20
216.5
 30
0.0
 11
369.0
 21
216.5
 31
0.0
  0
LINE
  5
2EBF
330
18
100
AcDbEntity
  8
実線（中）
100
AcDbLine
 10
369.5
 20
218.0
 30
0.0
 11
369.5
 21
218.8
 31
0.0
  0
ARC
  5
2EC0
330
18
100
AcDbEntity
  8
実線（中）
100
AcDbCircle
 10
369.0
 20
218.0
 30
0.0
 40
0.5
100
AcDbArc
 50
270.0
 51
0.0
  0
LINE
  5
2EC1
330
18
100
AcDbEntity
  8
実線（中）
100
AcDbLine
 10
370.5
 20
218.0
 30
0.0
 11
370.5
 21
218.8
 31
0.0
  0
ARC
  5
2EC2
330
18
100
AcDbEntity
  8
実線（中）
100
AcDbCircle
 10
368.2
 20
217.3
 30
0.0
 40
0.2
100
AcDbArc
 50
90.0
 51
180.0
  0
LINE
  5
2EC3
330
18
100
AcDbEntity
  8
実線（中）
100
AcDbLine
 10
368.0
 20
216.7
 30
0.0
 11
368.0
 21
217.3
 31
0.0
  0
LINE
  5
2EC4
330
18
100
AcDbEntity
  8
実線（中）
100
AcDbLine
 10
368.2
 20
217.5
 30
0.0
 11
369.0
 21
217.5
 31
0.0
  0
ARC
  5
2EC5
330
18
100
AcDbEntity
  8
実線（中）
100
AcDbCircle
 10
369.7
 20
218.8
 30
0.0
 40
0.2
100
AcDbArc
 50
90.0
 51
180.0
  0
ARC
  5
2EC6
330
18
100
AcDbEntity
  8
実線（中）
100
AcDbCircle
 10
370.3
 20
218.8
 30
0.0
 40
0.2
100
AcDbArc
 50
0.0
 51
90.0
  0
ARC
  5
2EC7
330
18
100
AcDbEntity
  8
実線（中）
100
AcDbCircle
 10
371.8
 20
216.7
 30
0.0
 40
0.2
100
AcDbArc
 50
270.0
 51
0.0
  0
ARC
  5
2EC8
330
18
100
AcDbEntity
  8
実線（中）
100
AcDbCircle
 10
371.8
 20
217.3
 30
0.0
 40
0.2
100
AcDbArc
 50
0.0
 51
90.0
  0
LINE
  5
2EC9
330
18
100
AcDbEntity
  8
実線（中）
100
AcDbLine
 10
372.0
 20
216.7
 30
0.0
 11
372.0
 21
217.3
 31
0.0
  0
LINE
  5
2ECA
330
18
100
AcDbEntity
  8
実線（中）
100
AcDbLine
 10
371.0
 20
216.5
 30
0.0
 11
371.8
 21
216.5
 31
0.0
  0
LINE
  5
2ECB
330
18
100
AcDbEntity
  8
実線（中）
100
AcDbLine
 10
371.0
 20
217.5
 30
0.0
 11
371.8
 21
217.5
 31
0.0
  0
CIRCLE
  5
2ECC
330
18
100
AcDbEntity
  8
実線（中）
100
AcDbCircle
 10
350.0
 20
215.0
 30
0.0
 40
28.0
  0
CIRCLE
  5
2ECD
330
18
100
AcDbEntity
  8
実線（中）
100
AcDbCircle
 10
350.0
 20
215.0
 30
0.0
 40
27.2
  0
CIRCLE
  5
2ECE
330
18
100
AcDbEntity
  8
実線（中）
100
AcDbCircle
 10
350.0
 20
215.0
 30
0.0
 40
24.9
  0
MTEXT
  5
2ECF
330
18
100
AcDbEntity
  8
実線（中）
100
AcDbMText
 10
347.1307919026553
 20
203.3480626119889
 30
0.0
 40
3.5
 41
0.0
 71
     5
 72
     5
  1
⑤
  7
寸法文字
 73
     1
 44
1.0
  0
LINE
  5
2ED0
330
18
100
AcDbEntity
  8
実線（中）
100
AcDbLine
 10
337.1076412678813
 20
200.3669180852984
 30
0.0
 11
337.5638848472414
 21
199.9772492563003
 31
0.0
  0
LINE
  5
2ED1
330
18
100
AcDbEntity
  8
実線（中）
100
AcDbLine
 10
336.3061120264312
 20
199.7364017293644
 30
0.0
 11
336.8256704650953
 21
200.3447265018445
 31
0.0
  0
ARC
  5
2ED2
330
18
100
AcDbEntity
  8
実線（中）
100
AcDbCircle
 10
335.9259090436312
 20
200.0611257535296
 30
0.0
 40
0.5
100
AcDbArc
 50
229.5000000000001
 51
319.5
  0
ARC
  5
2ED3
330
18
100
AcDbEntity
  8
実線（中）
100
AcDbCircle
 10
334.86297063732
 20
200.0484000162737
 30
0.0
 40
0.2
100
AcDbArc
 50
49.49999999999999
 51
139.5
  0
LINE
  5
2ED4
330
18
100
AcDbEntity
  8
実線（中）
100
AcDbLine
 10
334.992860246986
 20
200.2004812093936
 30
0.0
 11
335.6011850194661
 21
199.6809227707295
 31
0.0
  0
ARC
  5
2ED5
330
18
100
AcDbEntity
  8
実線（中）
100
AcDbCircle
 10
336.9777516582153
 20
200.2148368921785
 30
0.0
 40
0.2
100
AcDbArc
 50
49.49999999999999
 51
139.5
  0
ARC
  5
2ED6
330
18
100
AcDbEntity
  8
実線（中）
100
AcDbCircle
 10
337.4339952375753
 20
199.8251680631804
 30
0.0
 40
0.2
100
AcDbArc
 50
319.5
 51
49.49999999999999
  0
LINE
  5
2ED7
330
18
100
AcDbEntity
  8
実線（中）
100
AcDbLine
 10
334.3212206152019
 20
199.7220460465797
 30
0.0
 11
334.7108894442
 21
200.1782896259398
 31
0.0
  0
ARC
  5
2ED8
330
18
100
AcDbEntity
  8
実線（中）
100
AcDbCircle
 10
334.4733018083219
 20
199.5921564369137
 30
0.0
 40
0.2
100
AcDbArc
 50
139.5
 51
229.5000000000001
  0
ARC
  5
2ED9
330
18
100
AcDbEntity
  8
実線（中）
100
AcDbCircle
 10
331.0604695835186
 20
207.1549896365158
 30
0.0
 40
4.1
100
AcDbArc
 50
292.5000000000001
 51
115.1681924016087
  0
CIRCLE
  5
2EDA
330
18
100
AcDbEntity
  8
実線（中）
100
AcDbCircle
 10
330.1365900510074
 20
206.7723062041507
 30
0.0
 40
2.9
  0
LINE
  5
2EDB
330
18
100
AcDbEntity
  8
実線（中）
100
AcDbLine
 10
332.6294716562155
 20
203.3670835532195
 30
0.0
 11
328.8784003793556
 21
201.8133389569159
 31
0.0
  0
ARC
  5
2EDC
330
18
100
AcDbEntity
  8
実線（中）
100
AcDbCircle
 10
331.102584089018
 20
205.22412807534
 30
0.0
 40
0.2
100
AcDbArc
 50
292.5000000000001
 51
22.49999999999999
  0
ARC
  5
2EDD
330
18
100
AcDbEntity
  8
実線（中）
100
AcDbCircle
 10
330.5482563695111
 20
204.9945180159209
 30
0.0
 40
0.2
100
AcDbArc
 50
202.5000000000001
 51
292.5000000000001
  0
LINE
  5
2EDE
330
18
100
AcDbEntity
  8
実線（中）
100
AcDbLine
 10
330.6247930559841
 20
204.8097421094186
 30
0.0
 11
331.179120775491
 21
205.0393521688376
 31
0.0
  0
LINE
  5
2EDF
330
18
100
AcDbEntity
  8
実線（中）
100
AcDbLine
 10
330.0573337171168
 20
205.6570849554569
 30
0.0
 11
330.3634804630088
 21
204.9179813294479
 31
0.0
  0
MTEXT
  5
2EE0
330
18
100
AcDbEntity
  8
実線（中）
100
AcDbMText
 10
342.1536479882948
 20
205.920640985818
 30
0.0
 40
3.5
 41
0.0
 71
     5
 72
     5
  1
④
  7
寸法文字
 73
     1
 44
1.0
  0
MTEXT
  5
2EE1
330
18
100
AcDbEntity
  8
実線（中）
100
AcDbMText
 10
352.7333857437289
 20
203.3154545498775
 30
0.0
 40
3.5
 41
0.0
 71
     5
 72
     5
  1
⑥
  7
寸法文字
 73
     1
 44
1.0
  0
LINE
  5
2EE2
330
18
100
AcDbEntity
  8
実線（中）
100
AcDbLine
 10
362.4361151527586
 20
199.9772492563002
 30
0.0
 11
362.8923587321186
 21
200.3669180852984
 31
0.0
  0
ARC
  5
2EE3
330
18
100
AcDbEntity
  8
実線（中）
100
AcDbCircle
 10
362.5660047624245
 20
199.8251680631803
 30
0.0
 40
0.2
100
AcDbArc
 50
130.5
 51
220.5
  0
LINE
  5
2EE4
330
18
100
AcDbEntity
  8
実線（中）
100
AcDbLine
 10
363.6938879735687
 20
199.7364017293644
 30
0.0
 11
363.1743295349045
 21
200.3447265018444
 31
0.0
  0
ARC
  5
2EE5
330
18
100
AcDbEntity
  8
実線（中）
100
AcDbCircle
 10
365.1370293626798
 20
200.0484000162737
 30
0.0
 40
0.2
100
AcDbArc
 50
40.5
 51
130.5
  0
ARC
  5
2EE6
330
18
100
AcDbEntity
  8
実線（中）
100
AcDbCircle
 10
365.526698191678
 20
199.5921564369137
 30
0.0
 40
0.2
100
AcDbArc
 50
310.5000000000001
 51
40.5
  0
LINE
  5
2EE7
330
18
100
AcDbEntity
  8
実線（中）
100
AcDbLine
 10
365.678779384798
 20
199.7220460465797
 30
0.0
 11
365.2891105557999
 21
200.1782896259398
 31
0.0
  0
LINE
  5
2EE8
330
18
100
AcDbEntity
  8
実線（中）
100
AcDbLine
 10
364.3988149805338
 20
199.6809227707294
 30
0.0
 11
365.0071397530139
 21
200.2004812093937
 31
0.0
  0
ARC
  5
2EE9
330
18
100
AcDbEntity
  8
実線（中）
100
AcDbCircle
 10
364.0740909563687
 20
200.0611257535295
 30
0.0
 40
0.5
100
AcDbArc
 50
220.5
 51
310.5000000000001
  0
ARC
  5
2EEA
330
18
100
AcDbEntity
  8
実線（中）
100
AcDbCircle
 10
363.0222483417845
 20
200.2148368921784
 30
0.0
 40
0.2
100
AcDbArc
 50
40.5
 51
130.5
  0
ARC
  5
2EEB
330
18
100
AcDbEntity
  8
実線（中）
100
AcDbCircle
 10
368.9395304164814
 20
207.1549896365156
 30
0.0
 40
4.1
100
AcDbArc
 50
67.5
 51
250.1681924016087
  0
MTEXT
  5
2EEC
330
18
100
AcDbEntity
  8
実線（中）
100
AcDbMText
 10
357.7401371589165
 20
205.8299249315418
 30
0.0
 40
3.5
 41
0.0
 71
     5
 72
     5
  1
⑦
  7
寸法文字
 73
     1
 44
1.0
  0
LINE
  5
2EED
330
18
100
AcDbEntity
  8
実線（中）
100
AcDbLine
 10
367.3705283437845
 20
203.3670835532192
 30
0.0
 11
371.1215996206444
 21
201.8133389569157
 31
0.0
  0
CIRCLE
  5
2EEE
330
18
100
AcDbEntity
  8
実線（中）
100
AcDbCircle
 10
369.8634099489926
 20
206.7723062041505
 30
0.0
 40
2.9
  0
LINE
  5
2EEF
330
18
100
AcDbEntity
  8
実線（中）
100
AcDbLine
 10
369.3752069440158
 20
204.8097421094184
 30
0.0
 11
368.820879224509
 21
205.0393521688374
 31
0.0
  0
ARC
  5
2EF0
330
18
100
AcDbEntity
  8
実線（中）
100
AcDbCircle
 10
369.4517436304888
 20
204.9945180159207
 30
0.0
 40
0.2
100
AcDbArc
 50
247.5
 51
337.5000000000001
  0
ARC
  5
2EF1
330
18
100
AcDbEntity
  8
実線（中）
100
AcDbCircle
 10
368.8974159109821
 20
205.2241280753396
 30
0.0
 40
0.2
100
AcDbArc
 50
157.5
 51
247.5
  0
LINE
  5
2EF2
330
18
100
AcDbEntity
  8
実線（中）
100
AcDbLine
 10
369.6365195369912
 20
204.9179813294476
 30
0.0
 11
369.9426662828832
 21
205.6570849554566
 31
0.0
  0
CIRCLE
  5
2EF3
330
18
100
AcDbEntity
  8
実線（中）
100
AcDbCircle
 10
350.0
 20
215.0
 30
0.0
 40
15.25
  0
CIRCLE
  5
2EF4
330
18
100
AcDbEntity
  8
実線（中）
100
AcDbCircle
 10
363.9631330390989
 20
198.6512717395993
 30
0.0
 40
2.9
  0
ARC
  5
2EF5
330
18
100
AcDbEntity
  8
実線（中）
100
AcDbCircle
 10
363.3136849907687
 20
199.4116777051993
 30
0.0
 40
4.1
100
AcDbArc
 50
40.5
 51
223.1681924016087
  0
LINE
  5
2EF6
330
18
100
AcDbEntity
  8
実線（中）
100
AcDbLine
 10
366.4313494497289
 20
202.0744147033531
 30
0.0
 11
369.0681931443631
 21
198.987067407584
 31
0.0
  0
ARC
  5
2EF7
330
18
100
AcDbEntity
  8
実線（中）
100
AcDbCircle
 10
354.785629959046
 20
195.0664166318476
 30
0.0
 40
4.1
100
AcDbArc
 50
13.5
 51
196.1681924016087
  0
LINE
  5
2EF8
330
18
100
AcDbEntity
  8
実線（中）
100
AcDbLine
 10
362.9334820079687
 20
199.0869536810342
 30
0.0
 11
362.4139235693045
 21
199.6952784535142
 31
0.0
  0
LINE
  5
2EF9
330
18
100
AcDbEntity
  8
実線（中）
100
AcDbLine
 10
362.6371555223978
 20
197.1242538532589
 30
0.0
 11
362.2474866933998
 21
197.580497432619
 31
0.0
  0
LINE
  5
2EFA
330
18
100
AcDbEntity
  8
実線（中）
100
AcDbLine
 10
362.2696782768538
 20
197.8624682354049
 30
0.0
 11
362.8780030493338
 21
198.3820266740691
 31
0.0
  0
ARC
  5
2EFB
330
18
100
AcDbEntity
  8
実線（中）
100
AcDbCircle
 10
362.3995678865198
 20
197.7103870422849
 30
0.0
 40
0.2
100
AcDbArc
 50
130.5
 51
220.5
  0
LINE
  5
2EFC
330
18
100
AcDbEntity
  8
実線（中）
100
AcDbLine
 10
364.7519365432933
 20
196.9578169773542
 30
0.0
 11
364.2323781046291
 21
197.5661417498341
 31
0.0
  0
ARC
  5
2EFD
330
18
100
AcDbEntity
  8
実線（中）
100
AcDbCircle
 10
363.852175121829
 20
197.2414177256691
 30
0.0
 40
0.5
100
AcDbArc
 50
40.5
 51
130.5
  0
LINE
  5
2EFE
330
18
100
AcDbEntity
  8
実線（中）
100
AcDbLine
 10
365.0482630288641
 20
198.9205168051295
 30
0.0
 11
365.656587801344
 21
199.4400752437935
 31
0.0
  0
LINE
  5
2EFF
330
18
100
AcDbEntity
  8
実線（中）
100
AcDbLine
 10
365.5123425088933
 20
197.6072650256844
 30
0.0
 11
364.9927840702292
 21
198.2155897981643
 31
0.0
  0
LINE
  5
2F00
330
18
100
AcDbEntity
  8
実線（中）
100
AcDbLine
 10
365.0339073460792
 20
196.9356253939001
 30
0.0
 11
365.4901509254394
 21
197.3252942228983
 31
0.0
  0
ARC
  5
2F01
330
18
100
AcDbEntity
  8
実線（中）
100
AcDbCircle
 10
365.3602613157732
 20
197.4773754160183
 30
0.0
 40
0.2
100
AcDbArc
 50
310.5000000000001
 51
40.5
  0
ARC
  5
2F02
330
18
100
AcDbEntity
  8
実線（中）
100
AcDbCircle
 10
365.3729870530291
 20
198.5403138223294
 30
0.0
 40
0.5
100
AcDbArc
 50
130.5
 51
220.5
  0
ARC
  5
2F03
330
18
100
AcDbEntity
  8
実線（中）
100
AcDbCircle
 10
362.5532790251687
 20
198.7622296568692
 30
0.0
 40
0.5
100
AcDbArc
 50
310.5000000000001
 51
40.5
  0
LINE
  5
2F04
330
18
100
AcDbEntity
  8
実線（中）
100
AcDbLine
 10
362.9191263251839
 20
197.1020622698049
 30
0.0
 11
363.527451097664
 21
197.621620708469
 31
0.0
  0
CIRCLE
  5
2F05
330
18
100
AcDbEntity
  8
実線（中）
100
AcDbCircle
 10
355.0190753229019
 20
194.0940467114499
 30
0.0
 40
2.9
  0
LINE
  5
2F06
330
18
100
AcDbEntity
  8
実線（中）
100
AcDbLine
 10
354.2604736190708
 20
195.9687529430885
 30
0.0
 11
354.8438955713095
 21
196.108820161402
 31
0.0
  0
ARC
  5
2F07
330
18
100
AcDbEntity
  8
実線（中）
100
AcDbCircle
 10
354.8905846440805
 20
195.9143461773226
 30
0.0
 40
0.2
100
AcDbArc
 50
13.5
 51
103.5
  0
ARC
  5
2F08
330
18
100
AcDbEntity
  8
実線（中）
100
AcDbCircle
 10
356.2248906071555
 20
193.3551221549081
 30
0.0
 40
0.5
100
AcDbArc
 50
103.5
 51
193.5
  0
LINE
  5
2F09
330
18
100
AcDbEntity
  8
実線（中）
100
AcDbLine
 10
355.1942550744944
 20
192.0792732614978
 30
0.0
 11
355.7776770267331
 21
192.2193404798113
 31
0.0
  0
ARC
  5
2F0A
330
18
100
AcDbEntity
  8
実線（中）
100
AcDbCircle
 10
355.1475660017232
 20
192.2737472455774
 30
0.0
 40
0.2
100
AcDbArc
 50
193.5
 51
283.5000000000001
  0
ARC
  5
2F0B
330
18
100
AcDbEntity
  8
実線（中）
100
AcDbCircle
 10
355.7309879539618
 20
192.413814463891
 30
0.0
 40
0.2
100
AcDbArc
 50
283.5000000000001
 51
13.5
  0
LINE
  5
2F0C
330
18
100
AcDbEntity
  8
実線（中）
100
AcDbLine
 10
355.9254619380414
 20
192.4605035366621
 30
0.0
 11
355.7387056469567
 21
193.2383994729802
 31
0.0
  0
ARC
  5
2F0D
330
18
100
AcDbEntity
  8
実線（中）
100
AcDbCircle
 10
356.6993075704609
 20
194.8059593425099
 30
0.0
 40
0.2
100
AcDbArc
 50
13.5
 51
103.5
  0
ARC
  5
2F0E
330
18
100
AcDbEntity
  8
実線（中）
100
AcDbCircle
 10
356.8393747887745
 20
194.2225373902713
 30
0.0
 40
0.2
100
AcDbArc
 50
283.5000000000001
 51
13.5
  0
LINE
  5
2F0F
330
18
100
AcDbEntity
  8
実線（中）
100
AcDbLine
 10
357.033848772854
 20
194.2692264630425
 30
0.0
 11
356.8937815545405
 21
194.8526484152812
 31
0.0
  0
ARC
  5
2F10
330
18
100
AcDbEntity
  8
実線（中）
100
AcDbCircle
 10
355.7579998794436
 20
195.2998619957035
 30
0.0
 40
0.5
100
AcDbArc
 50
193.5
 51
283.5000000000001
  0
LINE
  5
2F11
330
18
100
AcDbEntity
  8
実線（中）
100
AcDbLine
 10
356.1081679252275
 20
193.841307115107
 30
0.0
 11
356.8860638615456
 21
194.0280634061917
 31
0.0
  0
LINE
  5
2F12
330
18
100
AcDbEntity
  8
実線（中）
100
AcDbLine
 10
355.8747225613716
 20
194.8136770355046
 30
0.0
 11
356.6526184976898
 21
195.0004333265894
 31
0.0
  0
LINE
  5
2F13
330
18
100
AcDbEntity
  8
実線（中）
100
AcDbLine
 10
355.2718149192448
 20
195.1831393137756
 30
0.0
 11
355.08505862816
 21
195.9610352500937
 31
0.0
  0
LINE
  5
2F14
330
18
100
AcDbEntity
  8
実線（中）
100
AcDbLine
 10
354.9530920176438
 20
192.2270581728062
 30
0.0
 11
354.766335726559
 21
193.0049541091242
 31
0.0
  0
LINE
  5
2F15
330
18
100
AcDbEntity
  8
実線（中）
100
AcDbLine
 10
360.1960205318085
 20
196.7489407070455
 30
0.0
 11
362.8328642264429
 21
193.6615934112764
 31
0.0
  0
LINE
  5
2F16
330
18
100
AcDbEntity
  8
実線（中）
100
AcDbLine
 10
358.7723466326765
 20
196.0235426236568
 30
0.0
 11
359.7201652261849
 21
192.0755940540291
 31
0.0
  0
ARC
  5
2F17
330
18
100
AcDbEntity
  8
実線（中）
100
AcDbCircle
 10
362.7892367155179
 20
197.254143462925
 30
0.0
 40
0.2
100
AcDbArc
 50
220.5
 51
310.5000000000001
  0
CIRCLE
  5
2F18
330
18
100
AcDbEntity
  8
実線（中）
100
AcDbCircle
 10
344.980924677098
 20
194.0940467114499
 30
0.0
 40
2.9
  0
ARC
  5
2F19
330
18
100
AcDbEntity
  8
実線（中）
100
AcDbCircle
 10
345.2143700409539
 20
195.0664166318477
 30
0.0
 40
4.1
100
AcDbArc
 50
346.5
 51
169.1681924016087
  0
LINE
  5
2F1A
330
18
100
AcDbEntity
  8
実線（中）
100
AcDbLine
 10
339.8039794681912
 20
196.7489407070456
 30
0.0
 11
337.167135773557
 21
193.6615934112764
 31
0.0
  0
LINE
  5
2F1B
330
18
100
AcDbEntity
  8
実線（中）
100
AcDbLine
 10
337.0665179920312
 20
199.0869536810343
 30
0.0
 11
337.5860764306953
 21
199.6952784535144
 31
0.0
  0
ARC
  5
2F1C
330
18
100
AcDbEntity
  8
実線（中）
100
AcDbCircle
 10
337.6004321134802
 20
197.7103870422852
 30
0.0
 40
0.2
100
AcDbArc
 50
319.5
 51
49.49999999999999
  0
ARC
  5
2F1D
330
18
100
AcDbEntity
  8
実線（中）
100
AcDbCircle
 10
337.2107632844821
 20
197.2541434629251
 30
0.0
 40
0.2
100
AcDbArc
 50
229.5000000000001
 51
319.5
  0
LINE
  5
2F1E
330
18
100
AcDbEntity
  8
実線（中）
100
AcDbLine
 10
337.362844477602
 20
197.124253853259
 30
0.0
 11
337.7525133066002
 21
197.580497432619
 31
0.0
  0
LINE
  5
2F1F
330
18
100
AcDbEntity
  8
実線（中）
100
AcDbLine
 10
337.1219969506661
 20
198.3820266740692
 30
0.0
 11
337.7303217231462
 21
197.862468235405
 31
0.0
  0
ARC
  5
2F20
330
18
100
AcDbEntity
  8
実線（中）
100
AcDbCircle
 10
337.4467209748312
 20
198.7622296568693
 30
0.0
 40
0.5
100
AcDbArc
 50
139.5
 51
229.5000000000001
  0
LINE
  5
2F21
330
18
100
AcDbEntity
  8
実線（中）
100
AcDbLine
 10
341.2276533673233
 20
196.0235426236568
 30
0.0
 11
340.2798347738151
 21
192.0755940540291
 31
0.0
  0
LINE
  5
2F22
330
18
100
AcDbEntity
  8
実線（中）
100
AcDbLine
 10
349.2010867145844
 20
194.1092906400384
 30
0.0
 11
348.2532681210761
 21
190.1613420704107
 31
0.0
  0
LINE
  5
2F23
330
18
100
AcDbEntity
  8
実線（中）
100
AcDbLine
 10
345.8365719155677
 20
193.3744163873952
 30
0.0
 11
346.6144678518858
 21
193.1876600963105
 31
0.0
  0
LINE
  5
2F24
330
18
100
AcDbEntity
  8
実線（中）
100
AcDbLine
 10
346.0700172794236
 20
194.3467863077929
 30
0.0
 11
346.8479132157419
 21
194.1600300167082
 31
0.0
  0
LINE
  5
2F25
330
18
100
AcDbEntity
  8
実線（中）
100
AcDbLine
 10
345.1561044286905
 20
196.108820161402
 30
0.0
 11
345.7395263809292
 21
195.9687529430885
 31
0.0
  0
ARC
  5
2F26
330
18
100
AcDbEntity
  8
実線（中）
100
AcDbCircle
 10
345.1094153559193
 20
195.9143461773226
 30
0.0
 40
0.2
100
AcDbArc
 50
76.49999999999999
 51
166.5
  0
ARC
  5
2F27
330
18
100
AcDbEntity
  8
実線（中）
100
AcDbCircle
 10
345.6928373081579
 20
195.7742789590091
 30
0.0
 40
0.2
100
AcDbArc
 50
346.5
 51
76.49999999999999
  0
LINE
  5
2F28
330
18
100
AcDbEntity
  8
実線（中）
100
AcDbLine
 10
344.0745380619586
 20
192.4605035366621
 30
0.0
 11
344.2612943530432
 21
193.2383994729802
 31
0.0
  0
ARC
  5
2F29
330
18
100
AcDbEntity
  8
実線（中）
100
AcDbCircle
 10
343.7751093928443
 20
193.3551221549082
 30
0.0
 40
0.5
100
AcDbArc
 50
346.5
 51
76.49999999999999
  0
ARC
  5
2F2A
330
18
100
AcDbEntity
  8
実線（中）
100
AcDbCircle
 10
344.2420001205562
 20
195.2998619957036
 30
0.0
 40
0.5
100
AcDbArc
 50
256.5000000000001
 51
346.5
  0
LINE
  5
2F2B
330
18
100
AcDbEntity
  8
実線（中）
100
AcDbLine
 10
342.9661512271458
 20
194.2692264630425
 30
0.0
 11
343.1062184454594
 21
194.8526484152811
 31
0.0
  0
ARC
  5
2F2C
330
18
100
AcDbEntity
  8
実線（中）
100
AcDbCircle
 10
343.1606252112254
 20
194.2225373902713
 30
0.0
 40
0.2
100
AcDbArc
 50
166.5
 51
256.5000000000001
  0
ARC
  5
2F2D
330
18
100
AcDbEntity
  8
実線（中）
100
AcDbCircle
 10
343.3006924295389
 20
194.80595934251
 30
0.0
 40
0.2
100
AcDbArc
 50
76.49999999999999
 51
166.5
  0
LINE
  5
2F2E
330
18
100
AcDbEntity
  8
実線（中）
100
AcDbLine
 10
343.1139361384542
 20
194.0280634061917
 30
0.0
 11
343.8918320747723
 21
193.841307115107
 31
0.0
  0
LINE
  5
2F2F
330
18
100
AcDbEntity
  8
実線（中）
100
AcDbLine
 10
343.3473815023101
 20
195.0004333265894
 30
0.0
 11
344.1252774386282
 21
194.8136770355047
 31
0.0
  0
LINE
  5
2F30
330
18
100
AcDbEntity
  8
実線（中）
100
AcDbLine
 10
345.0469079823562
 20
192.2270581728062
 30
0.0
 11
345.2336642734409
 21
193.0049541091242
 31
0.0
  0
LINE
  5
2F31
330
18
100
AcDbEntity
  8
実線（中）
100
AcDbLine
 10
344.2223229732668
 20
192.2193404798114
 30
0.0
 11
344.8057449255056
 21
192.0792732614977
 31
0.0
  0
ARC
  5
2F32
330
18
100
AcDbEntity
  8
実線（中）
100
AcDbCircle
 10
344.269012046038
 20
192.4138144638909
 30
0.0
 40
0.2
100
AcDbArc
 50
166.5
 51
256.5000000000001
  0
ARC
  5
2F33
330
18
100
AcDbEntity
  8
実線（中）
100
AcDbCircle
 10
344.8524339982766
 20
192.2737472455774
 30
0.0
 40
0.2
100
AcDbArc
 50
256.5000000000001
 51
346.5
  0
ARC
  5
2F34
330
18
100
AcDbEntity
  8
実線（中）
100
AcDbCircle
 10
345.7198492336397
 20
192.8882314271963
 30
0.0
 40
0.5
100
AcDbArc
 50
76.49999999999999
 51
166.5
  0
ARC
  5
2F35
330
18
100
AcDbEntity
  8
実線（中）
100
AcDbCircle
 10
346.1867399613515
 20
194.8329712679918
 30
0.0
 40
0.5
100
AcDbArc
 50
166.5
 51
256.5000000000001
  0
LINE
  5
2F36
330
18
100
AcDbEntity
  8
実線（中）
100
AcDbLine
 10
344.7281850807551
 20
195.1831393137755
 30
0.0
 11
344.9149413718397
 21
195.9610352500937
 31
0.0
  0
LINE
  5
2F37
330
18
100
AcDbEntity
  8
実線（中）
100
AcDbLine
 10
345.7005550011527
 20
194.9496939499197
 30
0.0
 11
345.8873112922374
 21
195.7275898862379
 31
0.0
  0
ARC
  5
2F38
330
18
100
AcDbEntity
  8
実線（中）
100
AcDbCircle
 10
346.8012241429705
 20
193.9655560326288
 30
0.0
 40
0.2
100
AcDbArc
 50
346.5
 51
76.49999999999999
  0
LINE
  5
2F39
330
18
100
AcDbEntity
  8
実線（中）
100
AcDbLine
 10
346.8556309087365
 20
193.3354450076189
 30
0.0
 11
346.9956981270502
 21
193.9188669598576
 31
0.0
  0
ARC
  5
2F3A
330
18
100
AcDbEntity
  8
実線（中）
100
AcDbCircle
 10
346.661156924657
 20
193.3821340803901
 30
0.0
 40
0.2
100
AcDbArc
 50
256.5000000000001
 51
346.5
  0
LINE
  5
2F3B
330
18
100
AcDbEntity
  8
実線（中）
100
AcDbLine
 10
350.7989132854154
 20
194.1092906400384
 30
0.0
 11
351.7467318789239
 21
190.1613420704107
 31
0.0
  0
ARC
  5
2F3C
330
18
100
AcDbEntity
  8
実線（中）
100
AcDbCircle
 10
354.2801507663601
 20
192.8882314271964
 30
0.0
 40
0.5
100
AcDbArc
 50
13.5
 51
103.5
  0
ARC
  5
2F3D
330
18
100
AcDbEntity
  8
実線（中）
100
AcDbCircle
 10
353.8132600386483
 20
194.8329712679918
 30
0.0
 40
0.5
100
AcDbArc
 50
283.5000000000001
 51
13.5
  0
ARC
  5
2F3E
330
18
100
AcDbEntity
  8
実線（中）
100
AcDbCircle
 10
354.3071626918419
 20
195.7742789590091
 30
0.0
 40
0.2
100
AcDbArc
 50
103.5
 51
193.5
  0
LINE
  5
2F3F
330
18
100
AcDbEntity
  8
実線（中）
100
AcDbLine
 10
353.1443690912633
 20
193.3354450076188
 30
0.0
 11
353.0043018729497
 21
193.9188669598575
 31
0.0
  0
LINE
  5
2F40
330
18
100
AcDbEntity
  8
実線（中）
100
AcDbLine
 10
353.385532148114
 20
193.1876600963104
 30
0.0
 11
354.1634280844322
 21
193.3744163873952
 31
0.0
  0
ARC
  5
2F41
330
18
100
AcDbEntity
  8
実線（中）
100
AcDbCircle
 10
353.3388430753428
 20
193.3821340803901
 30
0.0
 40
0.2
100
AcDbArc
 50
193.5
 51
283.5000000000001
  0
LINE
  5
2F42
330
18
100
AcDbEntity
  8
実線（中）
100
AcDbLine
 10
353.1520867842582
 20
194.1600300167081
 30
0.0
 11
353.9299827205763
 21
194.3467863077929
 31
0.0
  0
ARC
  5
2F43
330
18
100
AcDbEntity
  8
実線（中）
100
AcDbCircle
 10
353.1987758570293
 20
193.9655560326286
 30
0.0
 40
0.2
100
AcDbArc
 50
103.5
 51
193.5
  0
LINE
  5
2F44
330
18
100
AcDbEntity
  8
実線（中）
100
AcDbLine
 10
354.2994449988472
 20
194.9496939499196
 30
0.0
 11
354.1126887077624
 21
195.7275898862378
 31
0.0
  0
CIRCLE
  5
2F45
330
18
100
AcDbEntity
  8
実線（中）
100
AcDbCircle
 10
336.0368669609011
 20
198.6512717395993
 30
0.0
 40
2.9
  0
ARC
  5
2F46
330
18
100
AcDbEntity
  8
実線（中）
100
AcDbCircle
 10
336.6863150092312
 20
199.4116777051994
 30
0.0
 40
4.1
100
AcDbArc
 50
319.5
 51
142.1681924016087
  0
LINE
  5
2F47
330
18
100
AcDbEntity
  8
実線（中）
100
AcDbLine
 10
334.4876574911067
 20
197.6072650256843
 30
0.0
 11
335.0072159297708
 21
198.2155897981643
 31
0.0
  0
ARC
  5
2F48
330
18
100
AcDbEntity
  8
実線（中）
100
AcDbCircle
 10
334.6270129469707
 20
198.5403138223296
 30
0.0
 40
0.5
100
AcDbArc
 50
319.5
 51
49.49999999999999
  0
LINE
  5
2F49
330
18
100
AcDbEntity
  8
実線（中）
100
AcDbLine
 10
334.3434121986558
 20
199.4400752437937
 30
0.0
 11
334.9517369711359
 21
198.9205168051295
 31
0.0
  0
LINE
  5
2F4A
330
18
100
AcDbEntity
  8
実線（中）
100
AcDbLine
 10
336.4725489023359
 20
197.6216207084692
 30
0.0
 11
337.0808736748159
 21
197.102062269805
 31
0.0
  0
LINE
  5
2F4B
330
18
100
AcDbEntity
  8
実線（中）
100
AcDbLine
 10
335.2480634567067
 20
196.9578169773542
 30
0.0
 11
335.7676218953708
 21
197.5661417498342
 31
0.0
  0
LINE
  5
2F4C
330
18
100
AcDbEntity
  8
実線（中）
100
AcDbLine
 10
334.5098490745606
 20
197.3252942228983
 30
0.0
 11
334.9660926539206
 21
196.9356253939002
 31
0.0
  0
ARC
  5
2F4D
330
18
100
AcDbEntity
  8
実線（中）
100
AcDbCircle
 10
335.0959822635867
 20
197.0877065870203
 30
0.0
 40
0.2
100
AcDbArc
 50
229.5000000000001
 51
319.5
  0
ARC
  5
2F4E
330
18
100
AcDbEntity
  8
実線（中）
100
AcDbCircle
 10
336.1478248781709
 20
197.2414177256691
 30
0.0
 40
0.5
100
AcDbArc
 50
49.49999999999999
 51
139.5
  0
LINE
  5
2F4F
330
18
100
AcDbEntity
  8
実線（中）
100
AcDbLine
 10
333.568650550271
 20
202.0744147033532
 30
0.0
 11
330.9318068556368
 21
198.987067407584
 31
0.0
  0
ARC
  5
2F50
330
18
100
AcDbEntity
  8
実線（中）
100
AcDbCircle
 10
364.9040177364133
 20
197.0877065870202
 30
0.0
 40
0.2
100
AcDbArc
 50
220.5
 51
310.5000000000001
  0
LINE
  5
2F51
330
18
100
AcDbEntity
  8
一点鎖線
100
AcDbLine
 10
315.0
 20
215.0
 30
0.0
 11
385.0
 21
215.0
 31
0.0
  0
LINE
  5
2F52
330
18
100
AcDbEntity
  8
一点鎖線
100
AcDbLine
 10
350.0
 20
180.0
 30
0.0
 11
350.0
 21
250.0
 31
0.0
  0
ARC
  5
2F53
330
18
100
AcDbEntity
  8
実線（中）
100
AcDbCircle
 10
363.3136849907687
 20
230.5883222948007
 30
0.0
 40
4.1
100
AcDbArc
 50
136.8318075983913
 51
319.5
  0
MTEXT
  5
2F54
330
18
100
AcDbEntity
  8
実線（中）
100
AcDbMText
 10
357.7401371589165
 20
224.1700750684582
 30
0.0
 40
3.5
 41
0.0
 71
     5
 72
     5
  1
②
  7
寸法文字
 73
     1
 44
1.0
  0
ARC
  5
2F55
330
18
100
AcDbEntity
  8
実線（中）
100
AcDbCircle
 10
354.785629959046
 20
234.9335833681524
 30
0.0
 40
4.1
100
AcDbArc
 50
163.8318075983913
 51
346.5
  0
MTEXT
  5
2F56
330
18
100
AcDbEntity
  8
実線（中）
100
AcDbMText
 10
352.7333857437289
 20
226.6845454501225
 30
0.0
 40
3.5
 41
0.0
 71
     5
 72
     5
  1
①
  7
寸法文字
 73
     1
 44
1.0
  0
ARC
  5
2F57
330
18
100
AcDbEntity
  8
実線（中）
100
AcDbCircle
 10
353.8132600386483
 20
235.1670287320082
 30
0.0
 40
0.5
100
AcDbArc
 50
346.5
 51
76.49999999999994
  0
LINE
  5
2F58
330
18
100
AcDbEntity
  8
実線（中）
100
AcDbLine
 10
354.2604736190708
 20
234.0312470569115
 30
0.0
 11
354.8438955713095
 21
233.891179838598
 31
0.0
  0
CIRCLE
  5
2F59
330
18
100
AcDbEntity
  8
実線（中）
100
AcDbCircle
 10
355.0190753229019
 20
235.9059532885501
 30
0.0
 40
2.9
  0
LINE
  5
2F5A
330
18
100
AcDbEntity
  8
実線（中）
100
AcDbLine
 10
354.2994449988472
 20
235.0503060500804
 30
0.0
 11
354.1126887077624
 21
234.2724101137622
 31
0.0
  0
ARC
  5
2F5B
330
18
100
AcDbEntity
  8
実線（中）
100
AcDbCircle
 10
353.1987758570293
 20
236.0344439673714
 30
0.0
 40
0.2
100
AcDbArc
 50
166.5
 51
256.5
  0
LINE
  5
2F5C
330
18
100
AcDbEntity
  8
実線（中）
100
AcDbLine
 10
353.1520867842582
 20
235.8399699832919
 30
0.0
 11
353.9299827205763
 21
235.6532136922071
 31
0.0
  0
ARC
  5
2F5D
330
18
100
AcDbEntity
  8
実線（中）
100
AcDbCircle
 10
354.3071626918419
 20
234.2257210409909
 30
0.0
 40
0.2
100
AcDbArc
 50
166.5
 51
256.5
  0
LINE
  5
2F5E
330
18
100
AcDbEntity
  8
実線（中）
100
AcDbLine
 10
353.1443690912633
 20
236.6645549923812
 30
0.0
 11
353.0043018729497
 21
236.0811330401425
 31
0.0
  0
LINE
  5
2F5F
330
18
100
AcDbEntity
  8
実線（中）
100
AcDbLine
 10
355.2718149192448
 20
234.8168606862244
 30
0.0
 11
355.08505862816
 21
234.0389647499063
 31
0.0
  0
ARC
  5
2F60
330
18
100
AcDbEntity
  8
実線（中）
100
AcDbCircle
 10
356.6993075704609
 20
235.1940406574901
 30
0.0
 40
0.2
100
AcDbArc
 50
256.5
 51
346.5
  0
ARC
  5
2F61
330
18
100
AcDbEntity
  8
実線（中）
100
AcDbCircle
 10
356.8393747887745
 20
235.7774626097287
 30
0.0
 40
0.2
100
AcDbArc
 50
346.5
 51
76.49999999999994
  0
LINE
  5
2F62
330
18
100
AcDbEntity
  8
実線（中）
100
AcDbLine
 10
357.033848772854
 20
235.7307735369575
 30
0.0
 11
356.8937815545405
 21
235.1473515847188
 31
0.0
  0
LINE
  5
2F63
330
18
100
AcDbEntity
  8
実線（中）
100
AcDbLine
 10
356.1081679252275
 20
236.158692884893
 30
0.0
 11
356.8860638615456
 21
235.9719365938083
 31
0.0
  0
LINE
  5
2F64
330
18
100
AcDbEntity
  8
実線（中）
100
AcDbLine
 10
355.8747225613716
 20
235.1863229644954
 30
0.0
 11
356.6526184976898
 21
234.9995666734106
 31
0.0
  0
ARC
  5
2F65
330
18
100
AcDbEntity
  8
実線（中）
100
AcDbCircle
 10
355.7579998794436
 20
234.7001380042965
 30
0.0
 40
0.5
100
AcDbArc
 50
76.49999999999994
 51
166.5
  0
ARC
  5
2F66
330
18
100
AcDbEntity
  8
実線（中）
100
AcDbCircle
 10
354.8905846440805
 20
234.0856538226774
 30
0.0
 40
0.2
100
AcDbArc
 50
256.5
 51
346.5
  0
ARC
  5
2F67
330
18
100
AcDbEntity
  8
実線（中）
100
AcDbCircle
 10
356.2248906071555
 20
236.6448778450919
 30
0.0
 40
0.5
100
AcDbArc
 50
166.5
 51
256.5
  0
LINE
  5
2F68
330
18
100
AcDbEntity
  8
実線（中）
100
AcDbLine
 10
360.1960205318085
 20
233.2510592929545
 30
0.0
 11
362.8328642264429
 21
236.3384065887236
 31
0.0
  0
LINE
  5
2F69
330
18
100
AcDbEntity
  8
実線（中）
100
AcDbLine
 10
358.7723466326765
 20
233.9764573763432
 30
0.0
 11
359.7201652261849
 21
237.9244059459709
 31
0.0
  0
LINE
  5
2F6A
330
18
100
AcDbEntity
  8
実線（中）
100
AcDbLine
 10
366.4313494497289
 20
227.9255852966469
 30
0.0
 11
369.0681931443631
 21
231.012932592416
 31
0.0
  0
CIRCLE
  5
2F6B
330
18
100
AcDbEntity
  8
実線（中）
100
AcDbCircle
 10
363.9631330390989
 20
231.3487282604007
 30
0.0
 40
2.9
  0
LINE
  5
2F6C
330
18
100
AcDbEntity
  8
実線（中）
100
AcDbLine
 10
365.0482630288641
 20
231.0794831948705
 30
0.0
 11
365.656587801344
 21
230.5599247562065
 31
0.0
  0
ARC
  5
2F6D
330
18
100
AcDbEntity
  8
実線（中）
100
AcDbCircle
 10
362.5532790251687
 20
231.2377703431308
 30
0.0
 40
0.5
100
AcDbArc
 50
319.5
 51
49.49999999999994
  0
LINE
  5
2F6E
330
18
100
AcDbEntity
  8
実線（中）
100
AcDbLine
 10
362.4361151527586
 20
230.0227507436998
 30
0.0
 11
362.8923587321186
 21
229.6330819147016
 31
0.0
  0
LINE
  5
2F6F
330
18
100
AcDbEntity
  8
実線（中）
100
AcDbLine
 10
362.9334820079687
 20
230.9130463189658
 30
0.0
 11
362.4139235693045
 21
230.3047215464858
 31
0.0
  0
ARC
  5
2F70
330
18
100
AcDbEntity
  8
実線（中）
100
AcDbCircle
 10
362.5660047624245
 20
230.1748319368197
 30
0.0
 40
0.2
100
AcDbArc
 50
139.5
 51
229.5
  0
ARC
  5
2F71
330
18
100
AcDbEntity
  8
実線（中）
100
AcDbCircle
 10
364.0740909563687
 20
229.9388742464705
 30
0.0
 40
0.5
100
AcDbArc
 50
49.49999999999994
 51
139.5
  0
LINE
  5
2F72
330
18
100
AcDbEntity
  8
実線（中）
100
AcDbLine
 10
364.3988149805338
 20
230.3190772292706
 30
0.0
 11
365.0071397530139
 21
229.7995187906063
 31
0.0
  0
LINE
  5
2F73
330
18
100
AcDbEntity
  8
実線（中）
100
AcDbLine
 10
365.678779384798
 20
230.2779539534203
 30
0.0
 11
365.2891105557999
 21
229.8217103740602
 31
0.0
  0
ARC
  5
2F74
330
18
100
AcDbEntity
  8
実線（中）
100
AcDbCircle
 10
365.1370293626798
 20
229.9515999837263
 30
0.0
 40
0.2
100
AcDbArc
 50
229.5
 51
319.5
  0
LINE
  5
2F75
330
18
100
AcDbEntity
  8
実線（中）
100
AcDbLine
 10
363.6938879735687
 20
230.2635982706356
 30
0.0
 11
363.1743295349045
 21
229.6552734981556
 31
0.0
  0
ARC
  5
2F76
330
18
100
AcDbEntity
  8
実線（中）
100
AcDbCircle
 10
365.526698191678
 20
230.4078435630863
 30
0.0
 40
0.2
100
AcDbArc
 50
319.5
 51
49.49999999999994
  0
ARC
  5
2F77
330
18
100
AcDbEntity
  8
実線（中）
100
AcDbCircle
 10
363.0222483417845
 20
229.7851631078216
 30
0.0
 40
0.2
100
AcDbArc
 50
229.5
 51
319.5
  0
LINE
  5
2F78
330
18
100
AcDbEntity
  8
実線（中）
100
AcDbLine
 10
362.2696782768538
 20
232.1375317645951
 30
0.0
 11
362.8780030493338
 21
231.6179733259309
 31
0.0
  0
LINE
  5
2F79
330
18
100
AcDbEntity
  8
実線（中）
100
AcDbLine
 10
362.6371555223978
 20
232.8757461467411
 30
0.0
 11
362.2474866933998
 21
232.419502567381
 31
0.0
  0
ARC
  5
2F7A
330
18
100
AcDbEntity
  8
実線（中）
100
AcDbCircle
 10
362.3995678865198
 20
232.2896129577151
 30
0.0
 40
0.2
100
AcDbArc
 50
139.5
 51
229.5
  0
ARC
  5
2F7B
330
18
100
AcDbEntity
  8
実線（中）
100
AcDbCircle
 10
365.3729870530291
 20
231.4596861776706
 30
0.0
 40
0.5
100
AcDbArc
 50
139.5
 51
229.5
  0
ARC
  5
2F7C
330
18
100
AcDbEntity
  8
実線（中）
100
AcDbCircle
 10
365.3602613157732
 20
232.5226245839817
 30
0.0
 40
0.2
100
AcDbArc
 50
319.5
 51
49.49999999999994
  0
ARC
  5
2F7D
330
18
100
AcDbEntity
  8
実線（中）
100
AcDbCircle
 10
364.9040177364133
 20
232.9122934129798
 30
0.0
 40
0.2
100
AcDbArc
 50
49.49999999999994
 51
139.5
  0
LINE
  5
2F7E
330
18
100
AcDbEntity
  8
実線（中）
100
AcDbLine
 10
365.0339073460792
 20
233.0643746060999
 30
0.0
 11
365.4901509254394
 21
232.6747057771017
 31
0.0
  0
LINE
  5
2F7F
330
18
100
AcDbEntity
  8
実線（中）
100
AcDbLine
 10
365.5123425088933
 20
232.3927349743156
 30
0.0
 11
364.9927840702292
 21
231.7844102018357
 31
0.0
  0
ARC
  5
2F80
330
18
100
AcDbEntity
  8
実線（中）
100
AcDbCircle
 10
363.852175121829
 20
232.7585822743309
 30
0.0
 40
0.5
100
AcDbArc
 50
229.5
 51
319.5
  0
LINE
  5
2F81
330
18
100
AcDbEntity
  8
実線（中）
100
AcDbLine
 10
364.7519365432933
 20
233.0421830226458
 30
0.0
 11
364.2323781046291
 21
232.4338582501659
 31
0.0
  0
ARC
  5
2F82
330
18
100
AcDbEntity
  8
実線（中）
100
AcDbCircle
 10
362.7892367155179
 20
232.745856537075
 30
0.0
 40
0.2
100
AcDbArc
 50
49.49999999999994
 51
139.5
  0
LINE
  5
2F83
330
18
100
AcDbEntity
  8
実線（中）
100
AcDbLine
 10
362.9191263251839
 20
232.8979377301951
 30
0.0
 11
363.527451097664
 21
232.378379291531
 31
0.0
  0
DIMENSION
  5
2F84
330
18
100
AcDbEntity
  8
寸法線
100
AcDbDimension
  2
*D15
 10
353.7660968933168
 20
248.2499185597687
 30
0.0
 11
357.7528135669473
 21
247.2927925679595
 31
0.0
 70
   160
 71
     5
 42
-1.0
  3
標準小
100
AcDbAlignedDimension
 13
359.720165226185
 23
237.9244059459709
 33
0.0
 14
351.7467318789239
 24
239.8386579295893
 34
0.0
 50
166.5
100
AcDbRotatedDimension
1001
ACAD
1000
DSTYLE
1002
{
1070
    40
1040
1.0
1002
}
  0
ARC
  5
2F85
330
18
100
AcDbEntity
  8
実線（中）
100
AcDbCircle
 10
354.2801507663601
 20
237.1117685728036
 30
0.0
 40
0.5
100
AcDbArc
 50
256.5
 51
346.5
  0
ARC
  5
2F86
330
18
100
AcDbEntity
  8
実線（中）
100
AcDbCircle
 10
353.3388430753428
 20
236.6178659196099
 30
0.0
 40
0.2
100
AcDbArc
 50
76.49999999999994
 51
166.5
  0
LINE
  5
2F87
330
18
100
AcDbEntity
  8
実線（中）
100
AcDbLine
 10
353.385532148114
 20
236.8123399036896
 30
0.0
 11
354.1634280844322
 21
236.6255836126048
 31
0.0
  0
LINE
  5
2F88
330
18
100
AcDbEntity
  8
実線（中）
100
AcDbLine
 10
350.7989132854154
 20
235.8907093599616
 30
0.0
 11
351.7467318789239
 21
239.8386579295893
 31
0.0
  0
LINE
  5
2F89
330
18
100
AcDbEntity
  8
実線（中）
100
AcDbLine
 10
355.9254619380414
 20
237.5394964633379
 30
0.0
 11
355.7387056469567
 21
236.7616005270198
 31
0.0
  0
LINE
  5
2F8A
330
18
100
AcDbEntity
  8
実線（中）
100
AcDbLine
 10
355.1942550744944
 20
237.9207267385022
 30
0.0
 11
355.7776770267331
 21
237.7806595201887
 31
0.0
  0
ARC
  5
2F8B
330
18
100
AcDbEntity
  8
実線（中）
100
AcDbCircle
 10
355.1475660017232
 20
237.7262527544226
 30
0.0
 40
0.2
100
AcDbArc
 50
76.49999999999994
 51
166.5
  0
ARC
  5
2F8C
330
18
100
AcDbEntity
  8
実線（中）
100
AcDbCircle
 10
355.7309879539618
 20
237.586185536109
 30
0.0
 40
0.2
100
AcDbArc
 50
346.5
 51
76.49999999999994
  0
LINE
  5
2F8D
330
18
100
AcDbEntity
  8
実線（中）
100
AcDbLine
 10
354.9530920176438
 20
237.7729418271938
 30
0.0
 11
354.766335726559
 21
236.9950458908758
 31
0.0
  0
ARC
  5
2F8E
330
18
100
AcDbEntity
  8
実線（中）
100
AcDbCircle
 10
336.6863150092312
 20
230.5883222948006
 30
0.0
 40
4.1
100
AcDbArc
 50
217.8318075983913
 51
40.50000000000004
  0
CIRCLE
  5
2F8F
330
18
100
AcDbEntity
  8
実線（中）
100
AcDbCircle
 10
336.0368669609011
 20
231.3487282604007
 30
0.0
 40
2.9
  0
ARC
  5
2F90
330
18
100
AcDbEntity
  8
実線（中）
100
AcDbCircle
 10
345.2143700409539
 20
234.9335833681523
 30
0.0
 40
4.1
100
AcDbArc
 50
190.8318075983913
 51
13.49999999999999
  0
CIRCLE
  5
2F91
330
18
100
AcDbEntity
  8
実線（中）
100
AcDbCircle
 10
344.980924677098
 20
235.9059532885501
 30
0.0
 40
2.9
  0
ARC
  5
2F92
330
18
100
AcDbEntity
  8
実線（中）
100
AcDbCircle
 10
337.4467209748312
 20
231.2377703431307
 30
0.0
 40
0.5
100
AcDbArc
 50
130.4999999999999
 51
220.5
  0
ARC
  5
2F93
330
18
100
AcDbEntity
  8
実線（中）
100
AcDbCircle
 10
337.4339952375753
 20
230.1748319368196
 30
0.0
 40
0.2
100
AcDbArc
 50
310.5
 51
40.50000000000004
  0
ARC
  5
2F94
330
18
100
AcDbEntity
  8
実線（中）
100
AcDbCircle
 10
336.9777516582153
 20
229.7851631078215
 30
0.0
 40
0.2
100
AcDbArc
 50
220.5
 51
310.5
  0
LINE
  5
2F95
330
18
100
AcDbEntity
  8
実線（中）
100
AcDbLine
 10
336.3061120264312
 20
230.2635982706356
 30
0.0
 11
336.8256704650953
 21
229.6552734981555
 31
0.0
  0
LINE
  5
2F96
330
18
100
AcDbEntity
  8
実線（中）
100
AcDbLine
 10
337.1076412678813
 20
229.6330819147016
 30
0.0
 11
337.5638848472414
 21
230.0227507436997
 31
0.0
  0
LINE
  5
2F97
330
18
100
AcDbEntity
  8
実線（中）
100
AcDbLine
 10
337.0665179920312
 20
230.9130463189657
 30
0.0
 11
337.5860764306953
 21
230.3047215464856
 31
0.0
  0
LINE
  5
2F98
330
18
100
AcDbEntity
  8
実線（中）
100
AcDbLine
 10
339.8039794681912
 20
233.2510592929544
 30
0.0
 11
337.167135773557
 21
236.3384065887236
 31
0.0
  0
LINE
  5
2F99
330
18
100
AcDbEntity
  8
実線（中）
100
AcDbLine
 10
337.1219969506661
 20
231.6179733259308
 30
0.0
 11
337.7303217231462
 21
232.137531764595
 31
0.0
  0
LINE
  5
2F9A
330
18
100
AcDbEntity
  8
実線（中）
100
AcDbLine
 10
336.4725489023359
 20
232.3783792915308
 30
0.0
 11
337.0808736748159
 21
232.897937730195
 31
0.0
  0
LINE
  5
2F9B
330
18
100
AcDbEntity
  8
実線（中）
100
AcDbLine
 10
337.362844477602
 20
232.875746146741
 30
0.0
 11
337.7525133066002
 21
232.419502567381
 31
0.0
  0
ARC
  5
2F9C
330
18
100
AcDbEntity
  8
実線（中）
100
AcDbCircle
 10
337.2107632844821
 20
232.7458565370749
 30
0.0
 40
0.2
100
AcDbArc
 50
40.50000000000004
 51
130.4999999999999
  0
ARC
  5
2F9D
330
18
100
AcDbEntity
  8
実線（中）
100
AcDbCircle
 10
337.6004321134802
 20
232.2896129577148
 30
0.0
 40
0.2
100
AcDbArc
 50
310.5
 51
40.50000000000004
  0
LINE
  5
2F9E
330
18
100
AcDbEntity
  8
実線（中）
100
AcDbLine
 10
341.2276533673233
 20
233.9764573763432
 30
0.0
 11
340.2798347738151
 21
237.9244059459709
 31
0.0
  0
MTEXT
  5
2F9F
330
18
100
AcDbEntity
  8
実線（中）
100
AcDbMText
 10
347.1307919026553
 20
226.6519373880111
 30
0.0
 40
3.2
 41
0.0
 71
     5
 72
     5
  1
M-
  7
寸法文字
 73
     1
 44
1.0
  0
LINE
  5
2FA0
330
18
100
AcDbEntity
  8
実線（中）
100
AcDbLine
 10
345.8365719155677
 20
236.6255836126048
 30
0.0
 11
346.6144678518858
 21
236.8123399036895
 31
0.0
  0
LINE
  5
2FA1
330
18
100
AcDbEntity
  8
実線（中）
100
AcDbLine
 10
346.0700172794236
 20
235.6532136922071
 30
0.0
 11
346.8479132157419
 21
235.8399699832918
 31
0.0
  0
ARC
  5
2FA2
330
18
100
AcDbEntity
  8
実線（中）
100
AcDbCircle
 10
345.7198492336397
 20
237.1117685728037
 30
0.0
 40
0.5
100
AcDbArc
 50
193.5
 51
283.5000000000001
  0
ARC
  5
2FA3
330
18
100
AcDbEntity
  8
実線（中）
100
AcDbCircle
 10
344.8524339982766
 20
237.7262527544226
 30
0.0
 40
0.2
100
AcDbArc
 50
13.49999999999999
 51
103.4999999999999
  0
ARC
  5
2FA4
330
18
100
AcDbEntity
  8
実線（中）
100
AcDbCircle
 10
344.269012046038
 20
237.5861855361091
 30
0.0
 40
0.2
100
AcDbArc
 50
103.4999999999999
 51
193.5
  0
LINE
  5
2FA5
330
18
100
AcDbEntity
  8
実線（中）
100
AcDbLine
 10
344.2223229732668
 20
237.7806595201886
 30
0.0
 11
344.8057449255056
 21
237.9207267385023
 31
0.0
  0
LINE
  5
2FA6
330
18
100
AcDbEntity
  8
実線（中）
100
AcDbLine
 10
345.0469079823562
 20
237.7729418271938
 30
0.0
 11
345.2336642734409
 21
236.9950458908758
 31
0.0
  0
LINE
  5
2FA7
330
18
100
AcDbEntity
  8
実線（中）
100
AcDbLine
 10
344.0745380619586
 20
237.5394964633379
 30
0.0
 11
344.2612943530432
 21
236.7616005270198
 31
0.0
  0
LINE
  5
2FA8
330
18
100
AcDbEntity
  8
実線（中）
100
AcDbLine
 10
345.7005550011527
 20
235.0503060500803
 30
0.0
 11
345.8873112922374
 21
234.2724101137621
 31
0.0
  0
LINE
  5
2FA9
330
18
100
AcDbEntity
  8
実線（中）
100
AcDbLine
 10
344.7281850807551
 20
234.8168606862245
 30
0.0
 11
344.9149413718397
 21
234.0389647499063
 31
0.0
  0
ARC
  5
2FAA
330
18
100
AcDbEntity
  8
実線（中）
100
AcDbCircle
 10
346.1867399613515
 20
235.1670287320082
 30
0.0
 40
0.5
100
AcDbArc
 50
103.4999999999999
 51
193.5
  0
LINE
  5
2FAB
330
18
100
AcDbEntity
  8
実線（中）
100
AcDbLine
 10
343.3473815023101
 20
234.9995666734106
 30
0.0
 11
344.1252774386282
 21
235.1863229644953
 31
0.0
  0
LINE
  5
2FAC
330
18
100
AcDbEntity
  8
実線（中）
100
AcDbLine
 10
343.1139361384542
 20
235.9719365938083
 30
0.0
 11
343.8918320747723
 21
236.158692884893
 31
0.0
  0
ARC
  5
2FAD
330
18
100
AcDbEntity
  8
実線（中）
100
AcDbCircle
 10
343.3006924295389
 20
235.19404065749
 30
0.0
 40
0.2
100
AcDbArc
 50
193.5
 51
283.5000000000001
  0
ARC
  5
2FAE
330
18
100
AcDbEntity
  8
実線（中）
100
AcDbCircle
 10
343.1606252112254
 20
235.7774626097287
 30
0.0
 40
0.2
100
AcDbArc
 50
103.4999999999999
 51
193.5
  0
LINE
  5
2FAF
330
18
100
AcDbEntity
  8
実線（中）
100
AcDbLine
 10
342.9661512271458
 20
235.7307735369575
 30
0.0
 11
343.1062184454594
 21
235.1473515847189
 31
0.0
  0
ARC
  5
2FB0
330
18
100
AcDbEntity
  8
実線（中）
100
AcDbCircle
 10
344.2420001205562
 20
234.7001380042964
 30
0.0
 40
0.5
100
AcDbArc
 50
13.49999999999999
 51
103.4999999999999
  0
ARC
  5
2FB1
330
18
100
AcDbEntity
  8
実線（中）
100
AcDbCircle
 10
345.6928373081579
 20
234.2257210409909
 30
0.0
 40
0.2
100
AcDbArc
 50
283.5000000000001
 51
13.49999999999999
  0
ARC
  5
2FB2
330
18
100
AcDbEntity
  8
実線（中）
100
AcDbCircle
 10
345.1094153559193
 20
234.0856538226774
 30
0.0
 40
0.2
100
AcDbArc
 50
193.5
 51
283.5000000000001
  0
LINE
  5
2FB3
330
18
100
AcDbEntity
  8
実線（中）
100
AcDbLine
 10
345.1561044286905
 20
233.891179838598
 30
0.0
 11
345.7395263809292
 21
234.0312470569115
 31
0.0
  0
ARC
  5
2FB4
330
18
100
AcDbEntity
  8
実線（中）
100
AcDbCircle
 10
343.7751093928443
 20
236.6448778450918
 30
0.0
 40
0.5
100
AcDbArc
 50
283.5000000000001
 51
13.49999999999999
  0
ARC
  5
2FB5
330
18
100
AcDbEntity
  8
実線（中）
100
AcDbCircle
 10
346.661156924657
 20
236.6178659196099
 30
0.0
 40
0.2
100
AcDbArc
 50
13.49999999999999
 51
103.4999999999999
  0
ARC
  5
2FB6
330
18
100
AcDbEntity
  8
実線（中）
100
AcDbCircle
 10
346.8012241429705
 20
236.0344439673712
 30
0.0
 40
0.2
100
AcDbArc
 50
283.5000000000001
 51
13.49999999999999
  0
LINE
  5
2FB7
330
18
100
AcDbEntity
  8
実線（中）
100
AcDbLine
 10
346.8556309087365
 20
236.6645549923811
 30
0.0
 11
346.9956981270502
 21
236.0811330401424
 31
0.0
  0
LINE
  5
2FB8
330
18
100
AcDbEntity
  8
実線（中）
100
AcDbLine
 10
349.2010867145844
 20
235.8907093599616
 30
0.0
 11
348.2532681210761
 21
239.8386579295893
 31
0.0
  0
LEADER
  5
2FB9
330
18
100
AcDbEntity
  8
寸法線
100
AcDbLeader
  3
標準
 73
     0
 75
     1
 40
5.18
 41
25.652
 76
     3
 10
328.1367089942838
 20
204.6721929312632
 30
0.0
 10
302.5
 20
172.5
 30
0.0
 10
297.5
 20
172.5
 30
0.0
 77
   256
340
2FC8
213
-2.5
223
0.0
233
0.0
1001
ACAD
1000
DSTYLE
1002
{
1070
    47
1040
0.2
1070
    48
1040
0.7
1070
    40
1040
1.0
1002
}
  0
LINE
  5
2FBA
330
18
100
AcDbEntity
  8
実線（中）
100
AcDbLine
 10
333.568650550271
 20
227.9255852966468
 30
0.0
 11
330.9318068556368
 21
231.012932592416
 31
0.0
  0
LINE
  5
2FBB
330
18
100
AcDbEntity
  8
実線（中）
100
AcDbLine
 10
334.3434121986558
 20
230.5599247562063
 30
0.0
 11
334.9517369711359
 21
231.0794831948705
 31
0.0
  0
LINE
  5
2FBC
330
18
100
AcDbEntity
  8
実線（中）
100
AcDbLine
 10
334.992860246986
 20
229.7995187906064
 30
0.0
 11
335.6011850194661
 21
230.3190772292705
 31
0.0
  0
ARC
  5
2FBD
330
18
100
AcDbEntity
  8
実線（中）
100
AcDbCircle
 10
334.86297063732
 20
229.9515999837263
 30
0.0
 40
0.2
100
AcDbArc
 50
220.5
 51
310.5
  0
ARC
  5
2FBE
330
18
100
AcDbEntity
  8
実線（中）
100
AcDbCircle
 10
335.9259090436312
 20
229.9388742464704
 30
0.0
 40
0.5
100
AcDbArc
 50
40.50000000000004
 51
130.4999999999999
  0
LINE
  5
2FBF
330
18
100
AcDbEntity
  8
実線（中）
100
AcDbLine
 10
334.3212206152019
 20
230.2779539534203
 30
0.0
 11
334.7108894442
 21
229.8217103740602
 31
0.0
  0
ARC
  5
2FC0
330
18
100
AcDbEntity
  8
実線（中）
100
AcDbCircle
 10
334.4733018083219
 20
230.4078435630863
 30
0.0
 40
0.2
100
AcDbArc
 50
130.4999999999999
 51
220.5
  0
ARC
  5
2FC1
330
18
100
AcDbEntity
  8
実線（中）
100
AcDbCircle
 10
336.1478248781709
 20
232.7585822743309
 30
0.0
 40
0.5
100
AcDbArc
 50
220.5
 51
310.5
  0
ARC
  5
2FC2
330
18
100
AcDbEntity
  8
実線（中）
100
AcDbCircle
 10
335.0959822635867
 20
232.9122934129797
 30
0.0
 40
0.2
100
AcDbArc
 50
40.50000000000004
 51
130.4999999999999
  0
ARC
  5
2FC3
330
18
100
AcDbEntity
  8
実線（中）
100
AcDbCircle
 10
334.6397386842267
 20
232.5226245839817
 30
0.0
 40
0.2
100
AcDbArc
 50
130.4999999999999
 51
220.5
  0
LINE
  5
2FC4
330
18
100
AcDbEntity
  8
実線（中）
100
AcDbLine
 10
334.5098490745606
 20
232.6747057771017
 30
0.0
 11
334.9660926539206
 21
233.0643746060998
 31
0.0
  0
LINE
  5
2FC5
330
18
100
AcDbEntity
  8
実線（中）
100
AcDbLine
 10
335.2480634567067
 20
233.0421830226458
 30
0.0
 11
335.7676218953708
 21
232.4338582501658
 31
0.0
  0
ARC
  5
2FC6
330
18
100
AcDbEntity
  8
実線（中）
100
AcDbCircle
 10
334.6270129469707
 20
231.4596861776704
 30
0.0
 40
0.5
100
AcDbArc
 50
310.5
 51
40.50000000000004
  0
LINE
  5
2FC7
330
18
100
AcDbEntity
  8
実線（中）
100
AcDbLine
 10
334.4876574911067
 20
232.3927349743157
 30
0.0
 11
335.0072159297708
 21
231.7844102018357
 31
0.0
  0
MTEXT
  5
2FC8
102
{ACAD_REACTORS
330
2FB9
102
}
330
18
100
AcDbEntity
  8
寸法線
100
AcDbMText
 10
298.0
 20
174.5
 30
0.0
 40
4.0
 41
0.0
 71
     9
 72
     1
  1
10-M3ネジ
  7
寸法文字
 73
     1
 44
1.0
  0
LINE
  5
2FD9
330
18
100
AcDbEntity
  8
実線（中）
100
AcDbLine
 10
399.0
 20
216.5
 30
0.0
 11
399.0
 21
271.0
 31
0.0
  0
LINE
  5
2FDA
330
18
100
AcDbEntity
  8
実線（中）
100
AcDbLine
 10
301.0000000000001
 20
216.5
 30
0.0
 11
301.0
 21
271.0
 31
0.0
  0
LINE
  5
2FDB
330
18
100
AcDbEntity
  8
実線（中）
100
AcDbLine
 10
301.0
 20
271.0
 30
0.0
 11
399.0
 21
271.0
 31
0.0
  0
LINE
  5
2FDD
330
18
100
AcDbEntity
  8
実線（中）
100
AcDbLine
 10
303.0000000000001
 20
218.5
 30
0.0
 11
303.0
 21
269.0
 31
0.0
  0
LINE
  5
2FDE
330
18
100
AcDbEntity
  8
実線（中）
100
AcDbLine
 10
397.0
 20
218.5
 30
0.0
 11
397.0
 21
269.0
 31
0.0
  0
LINE
  5
2FDF
330
18
100
AcDbEntity
  8
実線（中）
100
AcDbLine
 10
303.0
 20
269.0
 30
0.0
 11
397.0
 21
269.0
 31
0.0
  0
LINE
  5
2FE1
330
18
100
AcDbEntity
  8
実線（中）
100
AcDbLine
 10
401.0
 20
214.5
 30
0.0
 11
382.958306995354
 21
214.5
 31
0.0
  0
LINE
  5
2FE2
330
18
100
AcDbEntity
  8
実線（中）
100
AcDbLine
 10
299.0
 20
214.5
 30
0.0
 11
317.041693004646
 21
214.5
 31
0.0
  0
DIMENSION
  5
30B0
330
18
100
AcDbEntity
  8
寸法線
100
AcDbDimension
  2
*D17
 10
399.0
 20
155.0
 30
0.0
 11
350.0
 21
155.0
 31
0.0
 70
   160
 71
     5
 42
-1.0
  3
標準
100
AcDbAlignedDimension
 13
300.9999999999999
 23
214.5
 33
0.0
 14
399.0
 24
214.2
 34
0.0
100
AcDbRotatedDimension
  0
DIMENSION
  5
30CA
330
18
100
AcDbEntity
  8
寸法線
100
AcDbDimension
  2
*D18
 10
378.0
 20
175.0
 30
0.0
 11
350.0
 21
178.4517045454545
 31
0.0
 70
    32
  1
φ<>
 71
     5
 42
-1.0
  3
標準小
100
AcDbAlignedDimension
 13
322.0
 23
207.0
 33
0.0
 14
378.0
 24
207.0
 34
0.0
100
AcDbRotatedDimension
  0
LINE
  5
30E3
330
18
100
AcDbEntity
  8
一点鎖線
100
AcDbLine
 10
173.8
 20
243.5
 30
0.0
 11
163.8
 21
243.5
 31
0.0
  0
LINE
  5
30EA
330
18
100
AcDbEntity
  8
一点鎖線
100
AcDbLine
 10
295.5
 20
100.0
 30
0.0
 11
404.5
 21
100.0
 31
0.0
  0
LINE
  5
30EB
330
18
100
AcDbEntity
  8
実線（中）
100
AcDbLine
 10
399.5
 20
71.5
 30
0.0
 11
300.5
 21
71.5
 31
0.0
  0
LINE
  5
30EC
330
18
100
AcDbEntity
  8
実線（中）
100
AcDbLine
 10
300.5
 20
128.5
 30
0.0
 11
399.5
 21
128.5
 31
0.0
  0
LINE
  5
30ED
330
18
100
AcDbEntity
  8
実線（中）
100
AcDbLine
 10
300.5
 20
71.5
 30
0.0
 11
300.5
 21
128.5
 31
0.0
  0
LINE
  5
30EE
330
18
100
AcDbEntity
  8
一点鎖線
100
AcDbLine
 10
350.0
 20
133.5
 30
0.0
 11
350.0
 21
66.5
 31
0.0
  0
LINE
  5
30EF
330
18
100
AcDbEntity
  8
実線（中）
100
AcDbLine
 10
399.5
 20
128.5
 30
0.0
 11
399.5
 21
71.5
 31
0.0
  0
DIMENSION
  5
313F
330
18
100
AcDbEntity
  8
寸法線
100
AcDbDimension
  2
*D19
 10
290.0
 20
215.0
 30
0.0
 11
287.0
 21
229.25
 31
0.0
 70
    32
 71
     5
 42
-1.0
  3
標準小
100
AcDbAlignedDimension
 13
305.0
 23
243.5
 33
0.0
 14
315.0
 24
215.0
 34
0.0
 50
90.0
100
AcDbRotatedDimension
  0
LEADER
  5
314B
330
18
100
AcDbEntity
  8
寸法線
100
AcDbLeader
  3
標準
 73
     0
 75
     1
 40
5.18
 41
23.06
 76
     3
 10
307.3921223522512
 20
244.7684534577083
 30
0.0
 10
294.5
 20
253.4710566964166
 30
0.0
 10
289.5
 20
253.4710566964166
 30
0.0
 77
   256
340
314C
213
-2.5
223
0.0
233
0.0
1001
ACAD
1000
DSTYLE
1002
{
1070
    47
1040
0.2
1070
    48
1040
0.7
1070
    40
1040
1.0
1002
}
  0
MTEXT
  5
314C
102
{ACAD_REACTORS
330
314B
102
}
330
18
100
AcDbEntity
  8
寸法線
100
AcDbMText
 10
290.0
 20
255.4710566964166
 30
0.0
 40
4.0
 41
0.0
 71
     9
 72
     1
  1
2-M3ネジ
  7
寸法文字
 73
     1
 44
1.0
  0
DIMENSION
  5
3159
330
18
100
AcDbEntity
  8
寸法線
100
AcDbDimension
  2
*D20
 10
390.0
 20
295.0
 30
0.0
 11
350.0
 21
295.0
 31
0.0
 70
   160
 71
     5
 42
-1.0
  3
標準小
100
AcDbAlignedDimension
 13
310.0
 23
248.5
 33
0.0
 14
390.0
 24
248.5
 34
0.0
100
AcDbRotatedDimension
  0
LEADER
  5
317B
330
18
100
AcDbEntity
  8
寸法線
100
AcDbLeader
  3
標準
 73
     0
 40
5.268000000000001
 41
39.668
 76
     2
 10
304.0
 20
260.5000000000001
 30
0.0
 10
251.5
 20
268.0
 30
0.0
 77
   256
340
317C
213
-2.5
223
0.0
233
0.0
1001
ACAD
1000
DSTYLE
1002
{
1070
    47
1040
0.2
1070
    48
1040
0.7
1070
    40
1040
1.0
1002
}
  0
MTEXT
  5
317C
102
{ACAD_REACTORS
330
317B
102
}
330
18
100
AcDbEntity
  8
寸法線
100
AcDbMText
 10
252.0
 20
270.0
 30
0.0
 40
4.0
 41
0.0
 71
     9
 72
     1
  1
パネル取付金具
  7
寸法文字
 73
     1
 44
1.0
  0
LEADER
  5
317D
330
18
100
AcDbEntity
  8
寸法線
100
AcDbLeader
  3
標準
 76
     2
 10
168.8
 20
262.0000000000001
 30
0.0
 10
210.0116136245799
 20
268.0
 30
0.0
 77
   256
213
-2.5
223
0.0
233
0.0
1001
ACAD
1000
DSTYLE
1002
{
1070
    47
1040
0.2
1070
    48
1040
0.7
1070
    40
1040
1.0
1002
}
  0
MTEXT
  5
3189
330
18
100
AcDbEntity
  8
可変文字
100
AcDbMText
 10
300.0
 20
45.56937474762435
 30
0.0
 40
4.5
 41
0.0
 71
     1
 72
     5
  1
※　パネル厚0.8～3mmまで使用可能
  7
MSPｺﾞｼｯｸ
 73
     1
 44
1.0
  0
DIMENSION
  5
31B0
330
18
100
AcDbEntity
  8
寸法線
100
AcDbDimension
  2
*D21
 10
131.0
 20
285.0
 30
0.0
 11
80.0
 21
289.5
 31
0.0
 70
    32
 71
     5
 42
-1.0
  3
標準
100
AcDbAlignedDimension
 13
29.0
 23
274.0
 33
0.0
 14
131.0
 24
274.0
 34
0.0
100
AcDbRotatedDimension
  0
LINE
  5
3274
330
18
100
AcDbEntity
  8
実線（中）
100
AcDbLine
 10
30.0
 20
215.5
 30
0.0
 11
36.5
 21
224.5
 31
0.0
  0
LINE
  5
3275
330
18
100
AcDbEntity
  8
実線（中）
100
AcDbLine
 10
123.5
 20
224.5
 30
0.0
 11
130.0
 21
215.5
 31
0.0
  0
LINE
  5
3276
330
18
100
AcDbEntity
  8
実線（中）
100
AcDbLine
 10
130.0
 20
215.5
 30
0.0
 11
131.0
 21
214.5
 31
0.0
  0
HATCH
  5
32E3
330
18
100
AcDbEntity
  8
実線（中）
100
AcDbHatch
 10
0.0
 20
0.0
 30
0.0
210
0.0
220
0.0
230
1.0
  2
SOLID
 70
     1
 71
     1
 91
        1
 92
        7
 72
     0
 73
     1
 93
        4
 10
46.94275797952891
 20
245.9107954110644
 10
46.58920458893565
 20
245.5572420204711
 10
67.6464466094068
 20
224.5
 10
68.35355339059323
 20
224.5
 97
        4
330
1FFB
330
1FF3
330
2546
330
1FF2
 75
     0
 76
     1
 47
0.0870093402899273
 98
        1
 10
59.46619803651492
 20
233.1204561809869
  0
ARC
  5
3319
330
18
100
AcDbEntity
  8
実線（中）
100
AcDbCircle
 10
80.0
 20
220.5
 30
0.0
 40
33.5
100
AcDbArc
 50
190.3176025128722
 51
349.6823974871278
  0
LINE
  5
331B
330
18
100
AcDbEntity
  8
実線（中）
100
AcDbLine
 10
83.5
 20
215.5
 30
0.0
 11
83.5
 21
218.5
 31
0.0
  0
ARC
  5
331C
330
18
100
AcDbEntity
  8
実線（中）
100
AcDbCircle
 10
80.0
 20
218.5
 30
0.0
 40
3.5
100
AcDbArc
 50
0.0
 51
180.0
  0
LINE
  5
331D
330
18
100
AcDbEntity
  8
実線（中）
100
AcDbLine
 10
76.5
 20
215.5
 30
0.0
 11
76.5
 21
218.5
 31
0.0
  0
ARC
  5
3355
330
18
100
AcDbEntity
  8
実線（中）
100
AcDbCircle
 10
350.0
 20
220.5
 30
0.0
 40
33.5
100
AcDbArc
 50
137.8060941726093
 51
42.19390582739071
  0
LINE
  5
3357
330
18
100
AcDbEntity
  8
一点鎖線
100
AcDbLine
 10
315.0
 20
220.5
 30
0.0
 11
385.0
 21
220.5
 31
0.0
  0
LINE
  5
3359
330
18
100
AcDbEntity
  8
実線（中）
100
AcDbLine
 10
399.0
 20
216.5
 30
0.0
 11
383.2603367391252
 21
216.5
 31
0.0
  0
LINE
  5
335A
330
18
100
AcDbEntity
  8
実線（中）
100
AcDbLine
 10
301.0000000000001
 20
216.5
 30
0.0
 11
316.7396632608748
 21
216.5
 31
0.0
  0
LINE
  5
335B
330
18
100
AcDbEntity
  8
実線（中）
100
AcDbLine
 10
303.0000000000001
 20
218.5
 30
0.0
 11
316.5597547855881
 21
218.5
 31
0.0
  0
LINE
  5
335C
330
18
100
AcDbEntity
  8
実線（中）
100
AcDbLine
 10
397.0
 20
218.5
 30
0.0
 11
383.4402452144119
 21
218.5
 31
0.0
  0
DIMENSION
  5
3383
330
18
100
AcDbEntity
  8
寸法線
100
AcDbDimension
  2
*D23
 10
420.0
 20
187.0
 30
0.0
 11
420.0
 21
215.0
 31
0.0
 70
   160
 71
     5
 42
-1.0
  3
標準
100
AcDbAlignedDimension
 13
401.0
 23
243.0
 33
0.0
 14
359.0
 24
187.0
 34
0.0
 50
90.0
100
AcDbRotatedDimension
  0
DIMENSION
  5
33B1
330
18
100
AcDbEntity
  8
寸法線
100
AcDbDimension
  2
*D24
 10
383.5
 20
165.0
 30
0.0
 11
350.0
 21
168.4517045454545
 31
0.0
 70
    32
  1
φ<>
 71
     5
 42
-1.0
  3
標準小
100
AcDbAlignedDimension
 13
316.5
 23
213.5
 33
0.0
 14
383.5
 24
213.5
 34
0.0
100
AcDbRotatedDimension
  0
LINE
  5
33EE
330
18
100
AcDbEntity
  8
一点鎖線
100
AcDbLine
 10
315.0
 20
243.5
 30
0.0
 11
305.0
 21
243.5
 31
0.0
  0
LINE
  5
33EF
330
18
100
AcDbEntity
  8
一点鎖線
100
AcDbLine
 10
310.0
 20
238.5
 30
0.0
 11
310.0
 21
248.5
 31
0.0
  0
INSERT
  5
33F0
330
18
100
AcDbEntity
  8
実線（中）
100
AcDbBlockReference
  2
A$C3D3D0A8A
 10
307.1000003901103
 20
240.6000005247918
 30
0.0
  0
INSERT
  5
3438
330
18
100
AcDbEntity
  8
実線（中）
100
AcDbBlockReference
  2
A$C79953EA4
 10
303.9999998153615
 20
208.7499998027192
 30
0.0
  0
LINE
  5
3450
330
18
100
AcDbEntity
  8
一点鎖線
100
AcDbLine
 10
390.0
 20
238.5
 30
0.0
 11
390.0
 21
248.5
 31
0.0
  0
INSERT
  5
3451
330
18
100
AcDbEntity
  8
実線（中）
100
AcDbBlockReference
  2
A$C3D3D0A8A
 10
387.1000003901103
 20
240.6000005247918
 30
0.0
  0
INSERT
  5
3452
330
18
100
AcDbEntity
  8
実線（中）
100
AcDbBlockReference
  2
A$C79953EA4
 10
383.9999998153615
 20
208.7499998027192
 30
0.0
  0
LINE
  5
3453
330
18
100
AcDbEntity
  8
一点鎖線
100
AcDbLine
 10
395.0
 20
243.5
 30
0.0
 11
385.0
 21
243.5
 31
0.0
  0
DIMENSION
  5
3562
330
18
100
AcDbEntity
  8
寸法線
100
AcDbDimension
  2
*D26
 10
396.0
 20
285.0
 30
0.0
 11
402.3409090909091
 21
285.0
 31
0.0
 70
   160
 71
     5
 42
-1.0
  3
標準小
100
AcDbAlignedDimension
 13
384.0
 23
278.5
 33
0.0
 14
396.0
 24
278.5
 34
0.0
100
AcDbRotatedDimension
  0
DIMENSION
  5
3587
330
18
100
AcDbEntity
  8
寸法線
100
AcDbDimension
  2
*D27
 10
410.0
 20
208.75
 30
0.0
 11
410.0
 21
249.25
 31
0.0
 12
0.0
 22
0.25
 32
0.0
 70
   160
 71
     5
 42
-1.0
  3
標準小
100
AcDbAlignedDimension
 13
396.0
 23
278.75
 33
0.0
 14
396.0
 24
208.75
 34
0.0
 50
90.0
100
AcDbRotatedDimension
  0
LINE
  5
35B4
330
18
100
AcDbEntity
  8
実線（中）
100
AcDbLine
 10
166.0
 20
216.5
 30
0.0
 11
168.0
 21
218.5
 31
0.0
  0
INSERT
  5
363D
330
18
100
AcDbEntity
  8
実線（中）
100
AcDbBlockReference
  2
A$C732F3514
 10
150.6000001934708
 20
208.750000083355
 30
0.0
  0
LINE
  5
364A
330
18
100
AcDbEntity
  8
実線（中）
100
AcDbLine
 10
219.5
 20
242.6
 30
0.0
 11
219.5
 21
187.4
 31
0.0
  0
DIMENSION
  5
3675
330
18
100
AcDbEntity
  8
寸法線
100
AcDbDimension
  2
*D29
 10
160.0
 20
216.5
 30
0.0
 11
160.0
 21
243.75
 31
0.0
 70
   160
 71
     5
 42
-1.0
  3
標準小
100
AcDbAlignedDimension
 13
160.0
 23
271.0
 33
0.0
 14
160.0
 24
216.5
 34
0.0
 50
90.0
100
AcDbRotatedDimension
  0
VIEWPORT
  5
2E
330
15
100
AcDbEntity
 67
     1
  8
0
100
AcDbViewport
 10
0.0
 20
0.0
 30
0.0
 40
447.197142857143
 41
345.5614285714286
 68
     1
 69
     1
 12
233.2500000000001
 22
148.0004794524725
 13
0.0
 23
0.0
 14
1.0
 24
1.0
 15
5.0
 25
5.0
 16
0.0
 26
0.0
 36
1.0
 17
0.0
 27
0.0
 37
0.0
 42
50.0
 43
0.0
 44
0.0
 45
345.5614285714286
 50
0.0
 51
0.0
 72
   100
 90
   557472
  1

281
     0
 71
     1
 74
     0
110
0.0
120
0.0
130
0.0
111
1.0
121
0.0
131
0.0
112
0.0
122
1.0
132
0.0
 79
     0
146
0.0
  0
LINE
  5
DA
330
15
100
AcDbEntity
 67
     1
  8
枠線
 62
   140
100
AcDbLine
 10
234.5012664770786
 20
18.50047945247244
 30
0.0
 11
24.0012664770786
 21
18.50047945247244
 31
0.0
  0
LINE
  5
DB
330
15
100
AcDbEntity
 67
     1
  8
枠線
100
AcDbLine
 10
29.0012664770786
 20
13.50047945247244
 30
0.0
 11
304.5
 21
13.50047945247244
 31
0.0
  0
LINE
  5
DC
330
15
100
AcDbEntity
 67
     1
  8
枠線
 62
   140
100
AcDbLine
 10
413.5012664770786
 20
287.5004794524724
 30
0.0
 11
24.0
 21
287.5004794524724
 31
0.0
  0
LINE
  5
DD
330
15
100
AcDbEntity
 67
     1
  8
枠線
 62
   140
100
AcDbLine
 10
24.0012664770786
 20
8.50047945247244
 30
0.0
 11
413.5012664770786
 21
8.50047945247244
 31
0.0
  0
LINE
  5
DE
330
15
100
AcDbEntity
 67
     1
  8
枠線
 62
   140
100
AcDbLine
 10
24.0012664770786
 20
8.50047945247244
 30
0.0
 11
24.0012664770786
 21
287.5004794524724
 31
0.0
  0
LINE
  5
E7
330
15
100
AcDbEntity
 67
     1
  8
枠線
100
AcDbLine
 10
131.7512664770786
 20
8.50047945247244
 30
0.0
 11
134.2512664770786
 21
13.50047945247244
 31
0.0
  0
LINE
  5
E8
330
15
100
AcDbEntity
 67
     1
  8
枠線
100
AcDbLine
 10
134.2512664770786
 20
13.50047945247244
 30
0.0
 11
136.7512664770786
 21
8.50047945247244
 31
0.0
  0
LINE
  5
E9
330
15
100
AcDbEntity
 67
     1
  8
枠線
100
AcDbLine
 10
136.7512664770786
 20
18.50047945247244
 30
0.0
 11
136.7512664770786
 21
8.50047945247244
 31
0.0
  0
LINE
  5
EA
330
15
100
AcDbEntity
 67
     1
  8
枠線
100
AcDbLine
 10
131.7512664770786
 20
18.50047945247244
 30
0.0
 11
131.7512664770786
 21
8.50047945247244
 31
0.0
  0
LINE
  5
EB
330
15
100
AcDbEntity
 67
     1
  8
枠線
100
AcDbLine
 10
134.2512664770786
 20
18.50047945247244
 30
0.0
 11
136.7512664770786
 21
13.50047945247244
 31
0.0
  0
LINE
  5
EC
330
15
100
AcDbEntity
 67
     1
  8
枠線
100
AcDbLine
 10
131.7512664770786
 20
13.50047945247244
 30
0.0
 11
134.2512664770786
 21
18.50047945247244
 31
0.0
  0
LINE
  5
10D
330
15
100
AcDbEntity
 67
     1
  8
枠線
 62
   140
100
AcDbLine
 10
413.5012664770786
 20
8.50047945247244
 30
0.0
 11
413.5012664770786
 21
287.5004794524724
 31
0.0
  0
LINE
  5
115
330
15
100
AcDbEntity
 67
     1
  8
枠線
100
AcDbLine
 10
304.5012664770786
 20
38.50047945247244
 30
0.0
 11
413.5012664770786
 21
38.50047945247244
 31
0.0
  0
LINE
  5
117
330
15
100
AcDbEntity
 67
     1
  8
枠線
100
AcDbLine
 10
304.5
 20
18.50047945247244
 30
0.0
 11
413.5012664770786
 21
18.50047945247244
 31
0.0
  0
LINE
  5
119
330
15
100
AcDbEntity
 67
     1
  8
枠線
 62
   140
100
AcDbLine
 10
304.5012664770786
 20
43.5
 30
0.0
 11
413.5012664770786
 21
43.5
 31
0.0
  0
LINE
  5
11D
330
15
100
AcDbEntity
 67
     1
  8
枠線
100
AcDbLine
 10
234.5012664770786
 20
23.50047945247244
 30
0.0
 11
304.5
 21
23.50047945247244
 31
0.0
  0
LINE
  5
125
330
15
100
AcDbEntity
 67
     1
  8
枠線
 62
   140
100
AcDbLine
 10
234.5012664770786
 20
33.5
 30
0.0
 11
234.5012664770786
 21
8.50047945247244
 31
0.0
  0
LINE
  5
137
330
15
100
AcDbEntity
 67
     1
  8
枠線
 62
   140
100
AcDbLine
 10
304.5012664770786
 20
8.50047945247244
 30
0.0
 11
304.5012664770786
 21
43.5
 31
0.0
  0
LINE
  5
15F
330
15
100
AcDbEntity
 67
     1
  8
枠線
 62
   140
100
AcDbLine
 10
364.5012664770786
 20
43.5
 30
0.0
 11
364.5012664770786
 21
8.50047945247244
 31
0.0
  0
LINE
  5
408
330
15
100
AcDbEntity
 67
     1
  8
枠線
100
AcDbLine
 10
249.5012664770786
 20
33.5
 30
0.0
 11
249.5012664770786
 21
8.50047945247244
 31
0.0
  0
LINE
  5
41F
330
15
100
AcDbEntity
 67
     1
  8
枠線
100
AcDbLine
 10
284.5012664770786
 20
13.5
 30
0.0
 11
284.5012664770786
 21
8.50047945247244
 31
0.0
  0
MTEXT
  5
420
330
15
100
AcDbEntity
 67
     1
  8
文字（固定）
100
AcDbMText
 10
354.5012664770786
 20
41.00047945247244
 30
0.0
 40
2.5
 41
0.0
 71
     5
 72
     5
  1
製  図
  7
MS明朝
 73
     1
 44
1.0
  0
MTEXT
  5
422
330
15
100
AcDbEntity
 67
     1
  8
文字（可変）
100
AcDbMText
 10
354.5012664770786
 20
31.50047945247244
 30
0.0
 40
2.5
 41
0.0
 71
     5
 72
     5
  1
髙 松
  7
MSｺﾞｼｯｸ
 73
     1
 44
1.0
  0
MTEXT
  5
423
330
15
100
AcDbEntity
 67
     1
  8
文字（可変）
100
AcDbMText
 10
354.5012664770786
 20
25.50047945247244
 30
0.0
 40
2.5
 41
0.0
 71
     5
 72
     5
  1
05.12.21
  7
MSｺﾞｼｯｸ
 73
     1
 44
1.0
  0
MTEXT
  5
424
330
15
100
AcDbEntity
 67
     1
  8
文字（固定）
  6
ByBlock
100
AcDbMText
 10
334.5012664770786
 20
13.50047945247244
 30
0.0
 40
4.0
 41
0.0
 71
     5
 72
     5
  1

  7
MS明朝
 73
     1
 44
1.0
  0
LINE
  5
426
330
15
100
AcDbEntity
 67
     1
  8
枠線
100
AcDbLine
 10
344.5012664770786
 20
43.5
 30
0.0
 11
344.5012664770786
 21
18.50047945247244
 31
0.0
  0
MTEXT
  5
428
330
15
100
AcDbEntity
 67
     1
  8
文字（固定）
100
AcDbMText
 10
314.5012664770786
 20
41.00047945247244
 30
0.0
 40
2.5
 41
0.0
 71
     5
 72
     5
  1
検  印
  7
MS明朝
 73
     1
 44
1.0
  0
LINE
  5
42A
330
15
100
AcDbEntity
 67
     1
  8
枠線
100
AcDbLine
 10
324.5012664770786
 20
18.50047945247244
 30
0.0
 11
324.5012664770786
 21
43.50047945247244
 31
0.0
  0
CIRCLE
  5
42B
330
15
100
AcDbEntity
 67
     1
  8
枠線
100
AcDbCircle
 10
334.5012664770786
 20
28.50047945247244
 30
0.0
 40
9.2
  0
MTEXT
  5
42C
330
15
100
AcDbEntity
 67
     1
  8
文字（可変）
100
AcDbMText
 10
334.5012664770786
 20
23.50047945247244
 30
0.0
 40
2.5
 41
0.0
 71
     5
 72
     5
  1
髙 松
  7
MSｺﾞｼｯｸ
 73
     1
 44
1.0
  0
MTEXT
  5
42D
330
15
100
AcDbEntity
 67
     1
  8
文字（固定）
100
AcDbMText
 10
334.5012664770786
 20
41.00047945247244
 30
0.0
 40
2.5
 41
0.0
 71
     5
 72
     5
  1
設  計
  7
MS明朝
 73
     1
 44
1.0
  0
MTEXT
  5
42E
330
15
100
AcDbEntity
 67
     1
  8
文字（可変）
100
AcDbMText
 10
334.5012664770786
 20
33.50047945247244
 30
0.0
 40
2.5
 41
0.0
 71
     5
 72
     5
  1
設 計
  7
MSｺﾞｼｯｸ
 73
     1
 44
1.0
  0
MTEXT
  5
42F
330
15
100
AcDbEntity
 67
     1
  8
文字（可変）
100
AcDbMText
 10
334.5012664770786
 20
28.50047945247244
 30
0.0
 40
2.5
 41
0.0
 71
     5
 72
     5
  1
05.12.21
  7
MSｺﾞｼｯｸ
 73
     1
 44
1.0
  0
LINE
  5
430
330
15
100
AcDbEntity
 67
     1
  8
枠線
100
AcDbLine
 10
343.5012664770786
 20
30.50047945247244
 30
0.0
 11
325.5012664770786
 21
30.50047945247244
 31
0.0
  0
LINE
  5
431
330
15
100
AcDbEntity
 67
     1
  8
枠線
100
AcDbLine
 10
325.5012664770786
 20
26.50047945247244
 30
0.0
 11
343.5012664770786
 21
26.50047945247244
 31
0.0
  0
LINE
  5
439
330
15
100
AcDbEntity
 67
     1
  8
枠線
100
AcDbLine
 10
374.5012664770786
 20
28.50047945247244
 30
0.0
 11
408.5012664770786
 21
28.50047945247244
 31
0.0
  0
LINE
  5
43A
330
15
100
AcDbEntity
 67
     1
  8
枠線
100
AcDbLine
 10
371.0012664770786
 20
10.50047945247244
 30
0.0
 11
411.0012664770786
 21
10.50047945247244
 31
0.0
  0
LINE
  5
43B
330
15
100
AcDbEntity
 67
     1
  8
枠線
100
AcDbLine
 10
411.0012664770786
 20
16.50047945247244
 30
0.0
 11
371.0012664770786
 21
16.50047945247244
 31
0.0
  0
MTEXT
  5
43C
330
15
100
AcDbEntity
 67
     1
  8
文字（可変）
100
AcDbMText
 10
371.0012664770786
 20
13.50047945247244
 30
0.0
 40
3.87
 41
0.0
 71
     4
 72
     5
  1
ＰＳ３０６７２－
  7
MSｺﾞｼｯｸ
 73
     1
 44
1.0
  0
MTEXT
  5
43D
330
15
100
AcDbEntity
 67
     1
  8
文字（可変）
100
AcDbMText
 10
374.5012664770786
 20
33.50047945247244
 30
0.0
 40
3.5
 41
0.0
 71
     4
 72
     5
  1
ＷＳＥ－１０２ＦＤ
  7
MSPｺﾞｼｯｸ
 73
     1
 44
1.0
  0
MTEXT
  5
43E
330
15
100
AcDbEntity
 67
     1
  8
文字（可変）
100
AcDbMText
 10
374.5012664770786
 20
23.50047945247244
 30
0.0
 40
4.0
 41
0.0
 71
     4
 72
     5
  1
製品外形図
  7
MSPｺﾞｼｯｸ
 73
     1
 44
1.0
  0
MTEXT
  5
43F
330
15
100
AcDbEntity
 67
     1
  8
文字（固定）
100
AcDbMText
 10
365.2012664770786
 20
27.50047945247244
 30
0.0
 40
2.5
 41
0.0
 71
     1
 72
     5
  1
品\P名
  7
MS明朝
 73
     1
 44
1.0
  0
LINE
  5
440
330
15
100
AcDbEntity
 67
     1
  8
枠線
100
AcDbLine
 10
369.5012664770786
 20
38.50047945247244
 30
0.0
 11
369.5012664770786
 21
8.50047945247244
 31
0.0
  0
MTEXT
  5
441
330
15
100
AcDbEntity
 67
     1
  8
文字（固定）
100
AcDbMText
 10
365.2012664770786
 20
17.50047945247244
 30
0.0
 40
2.5
 41
0.0
 71
     1
 72
     5
  1
図\P番
  7
MS明朝
 73
     1
 44
1.0
  0
LINE
  5
442
330
15
100
AcDbEntity
 67
     1
  8
枠線
100
AcDbLine
 10
381.0012664770786
 20
16.50047945247244
 30
0.0
 11
381.0012664770786
 21
10.50047945247244
 31
0.0
  0
LINE
  5
443
330
15
100
AcDbEntity
 67
     1
  8
枠線
100
AcDbLine
 10
376.0012664770786
 20
16.50047945247244
 30
0.0
 11
376.0012664770786
 21
10.50047945247244
 31
0.0
  0
LINE
  5
444
330
15
100
AcDbEntity
 67
     1
  8
枠線
100
AcDbLine
 10
371.0012664770786
 20
16.50047945247244
 30
0.0
 11
371.0012664770786
 21
10.50047945247244
 31
0.0
  0
LINE
  5
445
330
15
100
AcDbEntity
 67
     1
  8
枠線
100
AcDbLine
 10
371.0012664770786
 20
10.50047945247244
 30
0.0
 11
371.0012664770786
 21
10.50047945247244
 31
0.0
  0
MTEXT
  5
447
330
15
100
AcDbEntity
 67
     1
  8
文字（固定）
100
AcDbMText
 10
372.0012664770786
 20
41.00047945247244
 30
0.0
 40
2.0
 41
0.0
 71
     5
 72
     5
  1
部品コード
  7
MS明朝
 73
     1
 44
1.0
  0
MTEXT
  5
448
330
15
100
AcDbEntity
 67
     1
  8
文字（固定）
100
AcDbMText
 10
365.2012664770786
 20
37.50047945247244
 30
0.0
 40
2.5
 41
0.0
 71
     1
 72
     5
  1
形\P名
  7
MS明朝
 73
     1
 44
1.0
  0
LINE
  5
449
330
15
100
AcDbEntity
 67
     1
  8
枠線
100
AcDbLine
 10
379.5012664770786
 20
38.50047945247244
 30
0.0
 11
379.5012664770786
 21
43.50047945247244
 31
0.0
  0
LINE
  5
44A
330
15
100
AcDbEntity
 67
     1
  8
枠線
100
AcDbLine
 10
396.0012664770786
 20
16.50047945247244
 30
0.0
 11
396.0012664770786
 21
10.50047945247244
 31
0.0
  0
LINE
  5
44B
330
15
100
AcDbEntity
 67
     1
  8
枠線
100
AcDbLine
 10
391.0012664770786
 20
16.50047945247244
 30
0.0
 11
391.0012664770786
 21
10.50047945247244
 31
0.0
  0
LINE
  5
44C
330
15
100
AcDbEntity
 67
     1
  8
枠線
100
AcDbLine
 10
386.0012664770786
 20
16.50047945247244
 30
0.0
 11
386.0012664770786
 21
10.50047945247244
 31
0.0
  0
LINE
  5
44D
330
15
100
AcDbEntity
 67
     1
  8
枠線
100
AcDbLine
 10
411.0012664770786
 20
10.50047945247244
 30
0.0
 11
411.0012664770786
 21
16.50047945247244
 31
0.0
  0
LINE
  5
44E
330
15
100
AcDbEntity
 67
     1
  8
枠線
100
AcDbLine
 10
406.0012664770786
 20
16.50047945247244
 30
0.0
 11
406.0012664770786
 21
10.50047945247244
 31
0.0
  0
LINE
  5
44F
330
15
100
AcDbEntity
 67
     1
  8
枠線
100
AcDbLine
 10
401.0012664770786
 20
16.50047945247244
 30
0.0
 11
401.0012664770786
 21
10.50047945247244
 31
0.0
  0
LINE
  5
452
330
15
100
AcDbEntity
 67
     1
  8
枠線
100
AcDbLine
 10
31.50126647707862
 20
18.50047945247243
 30
0.0
 11
34.00126647707862
 21
13.50047945247243
 31
0.0
  0
LINE
  5
453
330
15
100
AcDbEntity
 67
     1
  8
枠線
100
AcDbLine
 10
34.00126647707862
 20
18.50047945247243
 30
0.0
 11
34.00126647707862
 21
8.500479452472433
 31
0.0
  0
MTEXT
  5
454
330
15
100
AcDbEntity
 67
     1
  8
文字（固定）
  6
ByBlock
100
AcDbMText
 10
24.7012664770786
 20
17.50047945247243
 30
0.0
 40
2.5
 41
0.0
 71
     1
 72
     5
  1
改\P訂
  7
MS明朝
 73
     1
 44
1.0
  0
LINE
  5
455
330
15
100
AcDbEntity
 67
     1
  8
枠線
100
AcDbLine
 10
29.00126647707862
 20
18.50047945247243
 30
0.0
 11
29.00126647707862
 21
8.500479452472433
 31
0.0
  0
LINE
  5
456
330
15
100
AcDbEntity
 67
     1
  8
枠線
100
AcDbLine
 10
29.00126647707862
 20
13.50047945247243
 30
0.0
 11
31.50126647707862
 21
18.50047945247243
 31
0.0
  0
LINE
  5
457
330
15
100
AcDbEntity
 67
     1
  8
枠線
100
AcDbLine
 10
31.50126647707862
 20
13.50047945247243
 30
0.0
 11
34.00126647707862
 21
8.500479452472433
 31
0.0
  0
LINE
  5
458
330
15
100
AcDbEntity
 67
     1
  8
枠線
100
AcDbLine
 10
29.00126647707862
 20
8.500479452472433
 30
0.0
 11
31.50126647707862
 21
13.50047945247243
 31
0.0
  0
LINE
  5
459
330
15
100
AcDbEntity
 67
     1
  8
枠線
  6
ByBlock
100
AcDbLine
 10
31.50126647707862
 20
18.50047945247243
 30
0.0
 11
31.50126647707862
 21
18.50047945247243
 31
0.0
  0
MTEXT
  5
45A
330
15
100
AcDbEntity
 67
     1
  8
0
100
AcDbMText
 10
30.75126647707862
 20
16.00047945247243
 30
0.0
 40
2.5
 41
0.0
 71
     4
 72
     5
  1
2  98.03.03 ｶﾞﾗｽｴﾎﾟ ｷｼ t=1.6mm
  7
MSｺﾞｼｯｸ
 73
     1
 44
1.0
  0
MTEXT
  5
45B
330
15
100
AcDbEntity
 67
     1
  8
0
100
AcDbMText
 10
31.00126647707862
 20
11.00047945247243
 30
0.0
 40
2.5
 41
0.0
 71
     4
 72
     5
  1
1  98.03.03 ｶﾞﾗｽｴﾎﾟ ｷｼ t=1.6mm
  7
MSｺﾞｼｯｸ
 73
     1
 44
1.0
  0
LINE
  5
4E0
330
15
100
AcDbEntity
 67
     1
  8
枠線
 62
   140
100
AcDbLine
 10
234.5000001432493
 20
33.5
 30
0.0
 11
304.5000001432493
 21
33.5
 31
0.0
  0
MTEXT
  5
4E1
330
15
100
AcDbEntity
 67
     1
  8
文字（固定）
100
AcDbMText
 10
277.0
 20
11.0
 30
0.0
 40
2.5
 41
0.0
 71
     5
 72
     5
  1
単  位
  7
MS明朝
 73
     1
 44
1.0
  0
MTEXT
  5
4E2
330
15
100
AcDbEntity
 67
     1
  8
文字（可変）
100
AcDbMText
 10
259.5
 20
11.0
 30
0.0
 40
2.5
 41
0.0
 71
     5
 72
     5
  1
４／５
  7
MSｺﾞｼｯｸ
 73
     1
 44
1.0
  0
MTEXT
  5
4E3
330
15
100
AcDbEntity
 67
     1
  8
文字（固定）
100
AcDbMText
 10
236.5000001432493
 20
23.99789318546872
 30
0.0
 40
2.5
 41
0.0
 71
     7
 72
     5
  1
関  係\P図  番
  7
MS明朝
 73
     1
 44
1.0
  0
MTEXT
  5
4E4
330
15
100
AcDbEntity
 67
     1
  8
文字（固定）
100
AcDbMText
 10
236.5000001432493
 20
13.99789318546872
 30
0.0
 40
2.5
 41
0.0
 71
     7
 72
     5
  1
規  格\P仕  様
  7
MS明朝
 73
     1
 44
1.0
  0
MTEXT
  5
4E5
330
15
100
AcDbEntity
 67
     1
  8
文字（固定）
100
AcDbMText
 10
242.0
 20
11.0
 30
0.0
 40
2.5
 41
0.0
 71
     5
 72
     5
  1
尺  度
  7
MS明朝
 73
     1
 44
1.0
  0
MTEXT
  5
4E6
330
15
100
AcDbEntity
 67
     1
  8
文字（固定）
100
AcDbMText
 10
294.5
 20
11.0
 30
0.0
 40
2.5
 41
0.0
 71
     5
 72
     5
  1
ｍｍ
  7
MS明朝
 73
     1
 44
1.0
  0
LINE
  5
505
330
15
100
AcDbEntity
 67
     1
  8
枠線
100
AcDbLine
 10
269.5012664770786
 20
13.5
 30
0.0
 11
269.5012664770786
 21
8.50047945247244
 31
0.0
  0
VIEWPORT
  5
1205
330
15
100
AcDbEntity
 67
     1
  8
0
100
AcDbViewport
 10
218.7512664770786
 20
160.5004794524724
 30
0.0
 40
389.5
 41
254.0
 68
     2
 69
     2
 12
211.5376771766054
 22
169.8012450869791
 13
0.0
 23
0.0
 14
1.0
 24
1.0
 15
5.0
 25
5.0
 16
0.0
 26
0.0
 36
1.0
 17
0.0
 27
0.0
 37
0.0
 42
50.0
 43
0.0
 44
0.0
 45
317.5
 50
0.0
 51
0.0
 72
   100
 90
   557728
  1

281
     0
 71
     1
 74
     0
110
0.0
120
0.0
130
0.0
111
1.0
121
0.0
131
0.0
112
0.0
122
1.0
132
0.0
 79
     0
146
0.0
  0
CIRCLE
  5
376A
330
15
100
AcDbEntity
 67
     1
  8
枠線
100
AcDbCircle
 10
314.5012664770786
 20
28.50047945247244
 30
0.0
 40
9.2
  0
LINE
  5
376B
330
15
100
AcDbEntity
 67
     1
  8
枠線
100
AcDbLine
 10
305.5012664770786
 20
26.50047945247244
 30
0.0
 11
323.5012664770786
 21
26.50047945247244
 31
0.0
  0
LINE
  5
376C
330
15
100
AcDbEntity
 67
     1
  8
枠線
100
AcDbLine
 10
323.5012664770786
 20
30.50047945247244
 30
0.0
 11
305.5012664770786
 21
30.50047945247244
 31
0.0
  0
MTEXT
  5
376D
330
15
100
AcDbEntity
 67
     1
  8
文字（可変）
100
AcDbMText
 10
314.5012664770786
 20
28.50047945247244
 30
0.0
 40
2.5
 41
0.0
 71
     5
 72
     5
  1
05.12.21
  7
MSｺﾞｼｯｸ
 73
     1
 44
1.0
  0
MTEXT
  5
376E
330
15
100
AcDbEntity
 67
     1
  8
文字（可変）
100
AcDbMText
 10
314.5012664770786
 20
33.50047945247244
 30
0.0
 40
2.5
 41
0.0
 71
     5
 72
     5
  1
設 計
  7
MSｺﾞｼｯｸ
 73
     1
 44
1.0
  0
MTEXT
  5
376F
330
15
100
AcDbEntity
 67
     1
  8
文字（可変）
100
AcDbMText
 10
314.5012664770786
 20
23.50047945247244
 30
0.0
 40
2.5
 41
0.0
 71
     5
 72
     5
  1
髙 松
  7
MSｺﾞｼｯｸ
 73
     1
 44
1.0
  0
ENDSEC
  0
SECTION
  2
OBJECTS
  0
DICTIONARY
  5
C
330
0
100
AcDbDictionary
281
     1
  3
ACAD_GROUP
350
D
  3
ACAD_IMAGE_VARS
350
37BB
  3
ACAD_LAYOUT
350
37AE
  3
ACAD_MLINESTYLE
350
1B
  3
ACAD_PLOTSETTINGS
350
3789
  3
ACAD_PLOTSTYLENAME
350
378A
  3
ACAD_SCALELIST
350
378C
  3
ACDBVARIABLEDICTIONARY
350
1A82
  3
APPDATA
350
37BA
  3
CONTENTDICTIONARY
350
23
  3
DWGPROPS
350
37BC
  0
DICTIONARY
  5
D
102
{ACAD_REACTORS
330
C
102
}
330
C
100
AcDbDictionary
281
     1
  0
RASTERVARIABLES
  5
37BB
102
{ACAD_REACTORS
330
C
102
}
330
C
100
AcDbRasterVariables
 90
        0
 70
     1
 71
     1
 72
     0
  0
DICTIONARY
  5
37AE
102
{ACAD_REACTORS
330
C
102
}
330
C
100
AcDbDictionary
281
     1
  3
Model
350
37AF
  3
シート 1
350
37B0
  0
DICTIONARY
  5
1B
102
{ACAD_REACTORS
330
C
102
}
330
C
100
AcDbDictionary
281
     1
  3
STANDARD
350
1C
  0
DICTIONARY
  5
3789
102
{ACAD_REACTORS
330
C
102
}
330
C
100
AcDbDictionary
281
     1
  0
ACDBDICTIONARYWDFLT
  5
378A
102
{ACAD_REACTORS
330
C
102
}
330
C
100
AcDbDictionary
281
     1
  3
Normal
350
378B
100
AcDbDictionaryWithDefault
340
378B
  0
DICTIONARY
  5
378C
102
{ACAD_REACTORS
330
C
102
}
330
C
100
AcDbDictionary
281
     1
  3
A0
350
378D
  3
A1
350
378E
  3
A2
350
378F
  3
A3
350
3790
  3
A4
350
3791
  3
A5
350
3792
  3
A6
350
3793
  3
A7
350
3794
  3
A8
350
3795
  3
A9
350
3796
  3
B0
350
3797
  3
B1
350
3798
  3
B2
350
3799
  3
B3
350
379A
  3
B4
350
379B
  3
B5
350
379C
  3
B6
350
379D
  3
B7
350
379E
  3
B8
350
379F
  3
B9
350
37A0
  3
C0
350
37A1
  3
C1
350
37A2
  3
C2
350
37A3
  3
C3
350
37A4
  3
C4
350
37A5
  3
C5
350
37A6
  3
C6
350
37A7
  3
C7
350
37A8
  3
C8
350
37A9
  3
C9
350
37AA
  3
D0
350
37AB
  3
D1
350
37AC
  3
D2
350
37AD
  0
DICTIONARY
  5
1A82
102
{ACAD_REACTORS
330
C
102
}
330
C
100
AcDbDictionary
281
     1
  3
SORTENTS
350
1A83
  0
DICTIONARY
  5
37BA
102
{ACAD_REACTORS
330
C
102
}
330
C
100
AcDbDictionary
281
     1
  0
DICTIONARY
  5
23
102
{ACAD_REACTORS
330
C
102
}
330
C
100
AcDbDictionary
281
     1
  0
XRECORD
  5
37BC
102
{ACAD_REACTORS
330
C
102
}
330
C
100
AcDbXrecord
280
     1
  1
DWGPROPS COOKIE
  2

  3

  4

  6

  7

  8
kobayashiyusuke
  9

300
=
301
=
302
=
303
=
304
=
305
=
306
=
307
=
308
=
309
=
 40
0.0
 41
2451201.386584491
 42
2458254.976268634
  1

 90
        0
  0
LAYOUT
  5
37AF
102
{ACAD_REACTORS
330
37AE
102
}
330
37AE
100
AcDbPlotSettings
  1

  2
none_device
  4
Letter_(8.50_x_11.00_Inches)
  6

 40
6.35
 41
6.35
 42
6.35
 43
6.35
 44
215.9
 45
279.4
 46
0.0
 47
0.0
 48
0.0
 49
0.0
140
0.0
141
0.0
142
1.0
143
52.7172844031416
 70
  1712
 72
     0
 73
     0
 74
     0
  7

 75
     0
147
0.0189691106308277
148
-17.39826424193977
149
-526.1556625156063
100
AcDbLayout
  1
Model
 70
     1
 71
     0
 10
0.0
 20
0.0
 11
420.0
 21
297.0
 12
0.0
 22
0.0
 32
0.0
 14
3.0
 24
39.66537474762436
 34
0.0
 15
421.33974595
 25
299.515
 35
0.0
146
0.0
 13
0.0
 23
0.0
 33
0.0
 16
1.0
 26
0.0
 36
0.0
 17
0.0
 27
1.0
 37
0.0
 76
     0
330
18
331
3662
  0
LAYOUT
  5
37B0
102
{ACAD_REACTORS
330
37AE
102
}
330
37AE
100
AcDbPlotSettings
  1

  2
none_device
  4
ANSI_A_(11.00_x_8.50_Inches)
  6

 40
6.35
 41
19.05
 42
6.35
 43
19.05
 44
279.4
 45
215.9
 46
0.0
 47
0.0
 48
0.0
 49
0.0
140
0.0
141
0.0
142
1.0
143
39.85714285714287
 70
   688
 72
     0
 73
     0
 74
     1
  7

 75
     0
147
0.025089605734767
148
-609.5999999999999
149
-215.9121780927998
100
AcDbLayout
  1
シート 1
 70
     1
 71
     1
 10
0.0
 20
0.0
 11
10.75
 21
7.75
 12
0.0
 22
0.0
 32
0.0
 14
24.0
 24
8.500479452472433
 34
0.0
 15
413.5012664770786
 25
287.5004794524724
 35
0.0
146
0.0
 13
0.0
 23
0.0
 33
0.0
 16
1.0
 26
0.0
 36
0.0
 17
0.0
 27
1.0
 37
0.0
 76
     0
330
15
331
2E
  0
MLINESTYLE
  5
1C
102
{ACAD_REACTORS
330
1B
102
}
330
1B
100
AcDbMlineStyle
  2
STANDARD
 70
     0
  3

 62
   256
 51
90.0
 52
90.0
 71
     2
 49
0.5
 62
   256
  6
BYLAYER
 49
-0.5
 62
   256
  6
BYLAYER
  0
ACDBPLACEHOLDER
  5
378B
102
{ACAD_REACTORS
330
378A
102
}
330
378A
  0
SCALE
  5
378D
102
{ACAD_REACTORS
330
378C
102
}
330
378C
100
AcDbScale
 70
     0
300
1:1
140
1.0
141
1.0
290
     1
  0
SCALE
  5
378E
102
{ACAD_REACTORS
330
378C
102
}
330
378C
100
AcDbScale
 70
     0
300
1:2
140
1.0
141
2.0
290
     0
  0
SCALE
  5
378F
102
{ACAD_REACTORS
330
378C
102
}
330
378C
100
AcDbScale
 70
     0
300
1:4
140
1.0
141
4.0
290
     0
  0
SCALE
  5
3790
102
{ACAD_REACTORS
330
378C
102
}
330
378C
100
AcDbScale
 70
     0
300
1:5
140
1.0
141
5.0
290
     0
  0
SCALE
  5
3791
102
{ACAD_REACTORS
330
378C
102
}
330
378C
100
AcDbScale
 70
     0
300
1:8
140
1.0
141
8.0
290
     0
  0
SCALE
  5
3792
102
{ACAD_REACTORS
330
378C
102
}
330
378C
100
AcDbScale
 70
     0
300
1:10
140
1.0
141
10.0
290
     0
  0
SCALE
  5
3793
102
{ACAD_REACTORS
330
378C
102
}
330
378C
100
AcDbScale
 70
     0
300
1:16
140
1.0
141
16.0
290
     0
  0
SCALE
  5
3794
102
{ACAD_REACTORS
330
378C
102
}
330
378C
100
AcDbScale
 70
     0
300
1:20
140
1.0
141
20.0
290
     0
  0
SCALE
  5
3795
102
{ACAD_REACTORS
330
378C
102
}
330
378C
100
AcDbScale
 70
     0
300
1:30
140
1.0
141
30.0
290
     0
  0
SCALE
  5
3796
102
{ACAD_REACTORS
330
378C
102
}
330
378C
100
AcDbScale
 70
     0
300
1:40
140
1.0
141
40.0
290
     0
  0
SCALE
  5
3797
102
{ACAD_REACTORS
330
378C
102
}
330
378C
100
AcDbScale
 70
     0
300
1:50
140
1.0
141
50.0
290
     0
  0
SCALE
  5
3798
102
{ACAD_REACTORS
330
378C
102
}
330
378C
100
AcDbScale
 70
     0
300
1:100
140
1.0
141
100.0
290
     0
  0
SCALE
  5
3799
102
{ACAD_REACTORS
330
378C
102
}
330
378C
100
AcDbScale
 70
     0
300
2:1
140
2.0
141
1.0
290
     0
  0
SCALE
  5
379A
102
{ACAD_REACTORS
330
378C
102
}
330
378C
100
AcDbScale
 70
     0
300
4:1
140
4.0
141
1.0
290
     0
  0
SCALE
  5
379B
102
{ACAD_REACTORS
330
378C
102
}
330
378C
100
AcDbScale
 70
     0
300
8:1
140
8.0
141
1.0
290
     0
  0
SCALE
  5
379C
102
{ACAD_REACTORS
330
378C
102
}
330
378C
100
AcDbScale
 70
     0
300
10:1
140
10.0
141
1.0
290
     0
  0
SCALE
  5
379D
102
{ACAD_REACTORS
330
378C
102
}
330
378C
100
AcDbScale
 70
     0
300
100:1
140
100.0
141
1.0
290
     0
  0
SCALE
  5
379E
102
{ACAD_REACTORS
330
378C
102
}
330
378C
100
AcDbScale
 70
     0
300
1/128" = 1'-0"
140
0.0078125
141
12.0
290
     0
  0
SCALE
  5
379F
102
{ACAD_REACTORS
330
378C
102
}
330
378C
100
AcDbScale
 70
     0
300
1/64" = 1'-0"
140
0.015625
141
12.0
290
     0
  0
SCALE
  5
37A0
102
{ACAD_REACTORS
330
378C
102
}
330
378C
100
AcDbScale
 70
     0
300
1/32" = 1'-0"
140
0.03125
141
12.0
290
     0
  0
SCALE
  5
37A1
102
{ACAD_REACTORS
330
378C
102
}
330
378C
100
AcDbScale
 70
     0
300
1/16" = 1'-0"
140
0.0625
141
12.0
290
     0
  0
SCALE
  5
37A2
102
{ACAD_REACTORS
330
378C
102
}
330
378C
100
AcDbScale
 70
     0
300
3/32" = 1'-0"
140
0.09375
141
12.0
290
     0
  0
SCALE
  5
37A3
102
{ACAD_REACTORS
330
378C
102
}
330
378C
100
AcDbScale
 70
     0
300
1/8" = 1'-0"
140
0.125
141
12.0
290
     0
  0
SCALE
  5
37A4
102
{ACAD_REACTORS
330
378C
102
}
330
378C
100
AcDbScale
 70
     0
300
3/16" = 1'-0"
140
0.1875
141
12.0
290
     0
  0
SCALE
  5
37A5
102
{ACAD_REACTORS
330
378C
102
}
330
378C
100
AcDbScale
 70
     0
300
1/4" = 1'-0"
140
0.25
141
12.0
290
     0
  0
SCALE
  5
37A6
102
{ACAD_REACTORS
330
378C
102
}
330
378C
100
AcDbScale
 70
     0
300
3/8" = 1'-0"
140
0.375
141
12.0
290
     0
  0
SCALE
  5
37A7
102
{ACAD_REACTORS
330
378C
102
}
330
378C
100
AcDbScale
 70
     0
300
1/2" = 1'-0"
140
0.5
141
12.0
290
     0
  0
SCALE
  5
37A8
102
{ACAD_REACTORS
330
378C
102
}
330
378C
100
AcDbScale
 70
     0
300
3/4" = 1'-0"
140
0.75
141
12.0
290
     0
  0
SCALE
  5
37A9
102
{ACAD_REACTORS
330
378C
102
}
330
378C
100
AcDbScale
 70
     0
300
1" = 1'-0"
140
1.0
141
12.0
290
     0
  0
SCALE
  5
37AA
102
{ACAD_REACTORS
330
378C
102
}
330
378C
100
AcDbScale
 70
     0
300
1-1/2" = 1'-0"
140
1.5
141
12.0
290
     0
  0
SCALE
  5
37AB
102
{ACAD_REACTORS
330
378C
102
}
330
378C
100
AcDbScale
 70
     0
300
3" = 1'-0"
140
3.0
141
12.0
290
     0
  0
SCALE
  5
37AC
102
{ACAD_REACTORS
330
378C
102
}
330
378C
100
AcDbScale
 70
     0
300
6" = 1'-0"
140
6.0
141
12.0
290
     0
  0
SCALE
  5
37AD
102
{ACAD_REACTORS
330
378C
102
}
330
378C
100
AcDbScale
 70
     0
300
1'-0" = 1'-0"
140
12.0
141
12.0
290
     0
  0
DICTIONARYVAR
  5
1A83
102
{ACAD_REACTORS
330
1A82
102
}
330
1A82
100
DictionaryVariables
280
     0
  1
96
  0
ENDSEC
  0
EOF
