  0
SECTION
  2
HEADER
  9
$ACADVER
  1
AC1015
  9
$ACADMAINTVER
 70
    20
  9
$DWGCODEPAGE
  3
ANSI_932
  9
$INSBASE
 10
0.0
 20
0.0
 30
0.0
  9
$EXTMIN
 10
34.00000000000001
 20
78.99999999999998
 30
0.0
  9
$EXTMAX
 10
166.0
 20
213.0226780332436
 30
0.0
  9
$LIMMIN
 10
0.0
 20
0.0
  9
$LIMMAX
 10
420.0
 20
297.0
  9
$ORTHOMODE
 70
     1
  9
$REGENMODE
 70
     1
  9
$FILLMODE
 70
     1
  9
$QTEXTMODE
 70
     0
  9
$MIRRTEXT
 70
     1
  9
$LTSCALE
 40
1.0
  9
$ATTMODE
 70
     1
  9
$TEXTSIZE
 40
2.5
  9
$TRACEWID
 40
1.0
  9
$TEXTSTYLE
  7
STANDARD
  9
$CLAYER
  8
0
  9
$CELTYPE
  6
BYLAYER
  9
$CECOLOR
 62
   256
  9
$CELTSCALE
 40
1.0
  9
$DISPSILH
 70
     0
  9
$DIMSCALE
 40
0.0
  9
$DIMASZ
 40
3.0
  9
$DIMEXO
 40
1.0
  9
$DIMDLI
 40
3.75
  9
$DIMRND
 40
0.0
  9
$DIMDLE
 40
0.0
  9
$DIMEXE
 40
1.0
  9
$DIMTP
 40
0.0
  9
$DIMTM
 40
0.0
  9
$DIMTXT
 40
4.0
  9
$DIMCEN
 40
2.5
  9
$DIMTSZ
 40
0.0
  9
$DIMTOL
 70
     0
  9
$DIMLIM
 70
     0
  9
$DIMTIH
 70
     0
  9
$DIMTOH
 70
     0
  9
$DIMSE1
 70
     0
  9
$DIMSE2
 70
     0
  9
$DIMTAD
 70
     1
  9
$DIMZIN
 70
     8
  9
$DIMBLK
  1

  9
$DIMASO
 70
     1
  9
$DIMSHO
 70
     1
  9
$DIMPOST
  1

  9
$DIMAPOST
  1

  9
$DIMALT
 70
     0
  9
$DIMALTD
 70
     4
  9
$DIMALTF
 40
0.0394
  9
$DIMLFAC
 40
1.0
  9
$DIMTOFL
 70
     1
  9
$DIMTVP
 40
0.0
  9
$DIMTIX
 70
     0
  9
$DIMSOXD
 70
     0
  9
$DIMSAH
 70
     1
  9
$DIMBLK1
  1
OPEN30
  9
$DIMBLK2
  1
OPEN30
  9
$DIMSTYLE
  2
STANDARD
  9
$DIMCLRD
 70
     0
  9
$DIMCLRE
 70
     0
  9
$DIMCLRT
 70
     0
  9
$DIMTFAC
 40
1.0
  9
$DIMGAP
 40
1.0
  9
$DIMJUST
 70
     0
  9
$DIMSD1
 70
     0
  9
$DIMSD2
 70
     0
  9
$DIMTOLJ
 70
     1
  9
$DIMTZIN
 70
     8
  9
$DIMALTZ
 70
     0
  9
$DIMALTTZ
 70
     0
  9
$DIMUPT
 70
     0
  9
$DIMDEC
 70
     2
  9
$DIMTDEC
 70
     2
  9
$DIMALTU
 70
     8
  9
$DIMALTTD
 70
     4
  9
$DIMTXSTY
  7
STANDARD
  9
$DIMAUNIT
 70
     0
  9
$DIMADEC
 70
     0
  9
$DIMALTRND
 40
0.0
  9
$DIMAZIN
 70
     0
  9
$DIMDSEP
 70
    46
  9
$DIMATFIT
 70
     3
  9
$DIMFRAC
 70
     0
  9
$DIMLDRBLK
  1

  9
$DIMLUNIT
 70
     2
  9
$DIMLWD
 70
    -2
  9
$DIMLWE
 70
    -2
  9
$DIMTMOVE
 70
     0
  9
$LUNITS
 70
     2
  9
$LUPREC
 70
     4
  9
$SKETCHINC
 40
1.0
  9
$FILLETRAD
 40
2.0
  9
$AUNITS
 70
     0
  9
$AUPREC
 70
     0
  9
$MENU
  1
acad
  9
$ELEVATION
 40
0.0
  9
$PELEVATION
 40
0.0
  9
$THICKNESS
 40
0.0
  9
$LIMCHECK
 70
     0
  9
$CHAMFERA
 40
10.0
  9
$CHAMFERB
 40
10.0
  9
$CHAMFERC
 40
20.0
  9
$CHAMFERD
 40
0.0
  9
$SKPOLY
 70
     0
  9
$TDCREATE
 40
2452403.362619942
  9
$TDUCREATE
 40
2452402.987619942
  9
$TDUPDATE
 40
2458766.485021135
  9
$TDUUPDATE
 40
2458766.110021134
  9
$TDINDWG
 40
0.3996860648
  9
$TDUSRTIMER
 40
0.3996860648
  9
$USRTIMER
 70
     1
  9
$ANGBASE
 50
0.0
  9
$ANGDIR
 70
     0
  9
$PDMODE
 70
     0
  9
$PDSIZE
 40
0.0
  9
$PLINEWID
 40
0.0
  9
$SPLFRAME
 70
     0
  9
$SPLINETYPE
 70
     6
  9
$SPLINESEGS
 70
     8
  9
$HANDSEED
  5
18E4
  9
$SURFTAB1
 70
     6
  9
$SURFTAB2
 70
     6
  9
$SURFTYPE
 70
     6
  9
$SURFU
 70
     6
  9
$SURFV
 70
     6
  9
$UCSBASE
  2

  9
$UCSNAME
  2

  9
$UCSORG
 10
0.0
 20
0.0
 30
0.0
  9
$UCSXDIR
 10
1.0
 20
0.0
 30
0.0
  9
$UCSYDIR
 10
0.0
 20
1.0
 30
0.0
  9
$UCSORTHOREF
  2

  9
$UCSORTHOVIEW
 70
     0
  9
$UCSORGTOP
 10
0.0
 20
0.0
 30
0.0
  9
$UCSORGBOTTOM
 10
0.0
 20
0.0
 30
0.0
  9
$UCSORGLEFT
 10
0.0
 20
0.0
 30
0.0
  9
$UCSORGRIGHT
 10
0.0
 20
0.0
 30
0.0
  9
$UCSORGFRONT
 10
0.0
 20
0.0
 30
0.0
  9
$UCSORGBACK
 10
0.0
 20
0.0
 30
0.0
  9
$PUCSBASE
  2

  9
$PUCSNAME
  2

  9
$PUCSORG
 10
0.0
 20
0.0
 30
0.0
  9
$PUCSXDIR
 10
1.0
 20
0.0
 30
0.0
  9
$PUCSYDIR
 10
0.0
 20
1.0
 30
0.0
  9
$PUCSORTHOREF
  2

  9
$PUCSORTHOVIEW
 70
     0
  9
$PUCSORGTOP
 10
0.0
 20
0.0
 30
0.0
  9
$PUCSORGBOTTOM
 10
0.0
 20
0.0
 30
0.0
  9
$PUCSORGLEFT
 10
0.0
 20
0.0
 30
0.0
  9
$PUCSORGRIGHT
 10
0.0
 20
0.0
 30
0.0
  9
$PUCSORGFRONT
 10
0.0
 20
0.0
 30
0.0
  9
$PUCSORGBACK
 10
0.0
 20
0.0
 30
0.0
  9
$USERI1
 70
     0
  9
$USERI2
 70
     0
  9
$USERI3
 70
     0
  9
$USERI4
 70
     0
  9
$USERI5
 70
     0
  9
$USERR1
 40
0.0
  9
$USERR2
 40
0.0
  9
$USERR3
 40
0.0
  9
$USERR4
 40
0.0
  9
$USERR5
 40
0.0
  9
$WORLDVIEW
 70
     1
  9
$SHADEDGE
 70
     3
  9
$SHADEDIF
 70
    70
  9
$TILEMODE
 70
     1
  9
$MAXACTVP
 70
    48
  9
$PINSBASE
 10
0.0
 20
0.0
 30
0.0
  9
$PLIMCHECK
 70
     0
  9
$PEXTMIN
 10
1.000000000000000E+20
 20
1.000000000000000E+20
 30
1.000000000000000E+20
  9
$PEXTMAX
 10
-1.000000000000000E+20
 20
-1.000000000000000E+20
 30
-1.000000000000000E+20
  9
$PLIMMIN
 10
0.0
 20
0.0
  9
$PLIMMAX
 10
420.0
 20
297.0
  9
$UNITMODE
 70
     0
  9
$VISRETAIN
 70
     1
  9
$PLINEGEN
 70
     0
  9
$PSLTSCALE
 70
     1
  9
$TREEDEPTH
 70
  3020
  9
$CMLSTYLE
  2
STANDARD
  9
$CMLJUST
 70
     0
  9
$CMLSCALE
 40
20.0
  9
$PROXYGRAPHICS
 70
     1
  9
$MEASUREMENT
 70
     1
  9
$CELWEIGHT
370
    -1
  9
$ENDCAPS
280
     0
  9
$JOINSTYLE
280
     0
  9
$LWDISPLAY
290
     0
  9
$INSUNITS
 70
     0
  9
$HYPERLINKBASE
  1

  9
$STYLESHEET
  1

  9
$XEDIT
290
     1
  9
$CEPSNTYPE
380
     0
  9
$PSTYLEMODE
290
     1
  9
$FINGERPRINTGUID
  2
{5A565DDC-BAAC-4D2E-A278-9F115910D356}
  9
$VERSIONGUID
  2
{8DDC6183-5A0C-4232-86DA-08D3ECA2362D}
  9
$EXTNAMES
290
     1
  9
$PSVPSCALE
 40
0.0
  9
$OLESTARTUP
290
     0
  0
ENDSEC
  0
SECTION
  2
CLASSES
  0
CLASS
  1
ACDBDICTIONARYWDFLT
  2
AcDbDictionaryWithDefault
  3
ObjectDBX Classes
 90
        0
280
     0
281
     0
  0
CLASS
  1
MATERIAL
  2
AcDbMaterial
  3
ObjectDBX Classes
 90
     1153
280
     0
281
     0
  0
CLASS
  1
VISUALSTYLE
  2
AcDbVisualStyle
  3
ObjectDBX Classes
 90
     4095
280
     0
281
     0
  0
CLASS
  1
TABLESTYLE
  2
AcDbTableStyle
  3
ObjectDBX Classes
 90
     4095
280
     0
281
     0
  0
CLASS
  1
SCALE
  2
AcDbScale
  3
ObjectDBX Classes
 90
     1153
280
     0
281
     0
  0
CLASS
  1
MLEADERSTYLE
  2
AcDbMLeaderStyle
  3
ACDB_MLEADERSTYLE_CLASS
 90
     4095
280
     0
281
     0
  0
CLASS
  1
DICTIONARYVAR
  2
AcDbDictionaryVar
  3
ObjectDBX Classes
 90
        0
280
     0
281
     0
  0
CLASS
  1
CELLSTYLEMAP
  2
AcDbCellStyleMap
  3
ObjectDBX Classes
 90
     1152
280
     0
281
     0
  0
CLASS
  1
ACDBPLACEHOLDER
  2
AcDbPlaceHolder
  3
ObjectDBX Classes
 90
        0
280
     0
281
     0
  0
CLASS
  1
LAYOUT
  2
AcDbLayout
  3
ObjectDBX Classes
 90
        0
280
     0
281
     0
  0
ENDSEC
  0
SECTION
  2
TABLES
  0
TABLE
  2
VPORT
  5
8
330
0
100
AcDbSymbolTable
 70
     1
  0
VPORT
  5
1849
330
8
100
AcDbSymbolTableRecord
100
AcDbViewportTableRecord
  2
*ACTIVE
 70
     0
 10
0.0
 20
0.0
 11
1.0
 21
1.0
 12
100.4930607995501
 22
137.4682833686074
 13
0.0
 23
0.0
 14
0.5
 24
0.5
 15
5.0
 25
5.0
 16
0.0
 26
0.0
 36
1.0
 17
0.0
 27
0.0
 37
0.0
 40
164.0052154696647
 41
2.170059880239521
 42
50.0
 43
0.0
 44
0.0
 50
0.0
 51
0.0
 71
     0
 72
   100
 73
     1
 74
     1
 75
     1
 76
     1
 77
     0
 78
     0
281
     0
 65
     1
110
0.0
120
0.0
130
0.0
111
1.0
121
0.0
131
0.0
112
0.0
122
1.0
132
0.0
 79
     0
146
0.0
  0
ENDTAB
  0
TABLE
  2
LTYPE
  5
5
330
0
100
AcDbSymbolTable
 70
     2
  0
LTYPE
  5
12
330
5
100
AcDbSymbolTableRecord
100
AcDbLinetypeTableRecord
  2
BYBLOCK
 70
     0
  3

 72
    65
 73
     0
 40
0.0
  0
LTYPE
  5
13
330
5
100
AcDbSymbolTableRecord
100
AcDbLinetypeTableRecord
  2
BYLAYER
 70
     0
  3

 72
    65
 73
     0
 40
0.0
  0
LTYPE
  5
14
330
5
100
AcDbSymbolTableRecord
100
AcDbLinetypeTableRecord
  2
CONTINUOUS
 70
     0
  3
Solid line
 72
    65
 73
     0
 40
0.0
  0
LTYPE
  5
C2E
330
5
100
AcDbSymbolTableRecord
100
AcDbLinetypeTableRecord
  2
WACOM_LSTYLE_M4
 70
     0
  3
一点鎖線 [--- - ---]
 72
    65
 73
     4
 40
10.0
 49
7.0
 74
     0
 49
-1.0
 74
     0
 49
1.0
 74
     0
 49
-1.0
 74
     0
  0
ENDTAB
  0
TABLE
  2
LAYER
  5
2
330
0
100
AcDbSymbolTable
 70
     2
  0
LAYER
  5
E
102
{ACAD_XDICTIONARY
360
189D
102
}
330
2
100
AcDbSymbolTableRecord
100
AcDbLayerTableRecord
  2
0
 70
     0
 62
     7
  6
CONTINUOUS
370
    -3
390
184C
  0
LAYER
  5
B4
330
2
100
AcDbSymbolTableRecord
100
AcDbLayerTableRecord
  2
DEFPOINTS
 70
     0
 62
     2
  6
CONTINUOUS
290
     0
370
    -3
390
184C
  0
ENDTAB
  0
TABLE
  2
STYLE
  5
3
330
0
100
AcDbSymbolTable
 70
     1
  0
STYLE
  5
F
330
3
100
AcDbSymbolTableRecord
100
AcDbTextStyleTableRecord
  2
STANDARD
 70
     0
 40
0.0
 41
1.0
 50
0.0
 71
     0
 42
2.5
  3
MS PGothic.ttf
  4

1001
ACAD
1000
MS PGothic
1071
    32818
  0
ENDTAB
  0
TABLE
  2
VIEW
  5
6
330
0
100
AcDbSymbolTable
 70
     0
  0
ENDTAB
  0
TABLE
  2
UCS
  5
7
330
0
100
AcDbSymbolTable
 70
     0
  0
ENDTAB
  0
TABLE
  2
APPID
  5
9
330
0
100
AcDbSymbolTable
 70
     4
  0
APPID
  5
10
330
9
100
AcDbSymbolTableRecord
100
AcDbRegAppTableRecord
  2
ACAD
 70
     0
  0
APPID
  5
941
330
9
100
AcDbSymbolTableRecord
100
AcDbRegAppTableRecord
  2
WACOM_STRING
 70
     0
  0
APPID
  5
B54
330
9
100
AcDbSymbolTableRecord
100
AcDbRegAppTableRecord
  2
DRAWINGVARIABLESXDATA
 70
     0
  0
APPID
  5
18DF
330
9
100
AcDbSymbolTableRecord
100
AcDbRegAppTableRecord
  2
ACAD_MLEADERVER
 70
     0
  0
ENDTAB
  0
TABLE
  2
DIMSTYLE
  5
A
330
0
100
AcDbSymbolTable
 70
     2
100
AcDbDimStyleTable
 71
     0
  0
DIMSTYLE
105
1D
102
{ACAD_REACTORS
330
166A
330
1677
330
169A
330
1715
330
1722
330
181F
330
182E
330
163C
102
}
330
A
100
AcDbSymbolTableRecord
100
AcDbDimStyleTableRecord
  2
STANDARD
 70
     0
 40
0.0
 41
3.0
 42
1.0
 43
3.75
 44
1.0
 73
     0
 74
     0
 77
     1
 78
     8
140
4.0
141
2.5
143
0.0394
147
1.0
171
     4
172
     1
173
     1
271
     2
272
     2
273
     8
274
     4
284
     8
340
F
341
837
343
837
344
837
  0
DIMSTYLE
105
11D8
102
{ACAD_REACTORS
330
14BA
102
}
330
A
100
AcDbSymbolTableRecord
100
AcDbDimStyleTableRecord
  2
許05
 70
     0
 40
0.0
 41
3.0
 42
1.0
 43
3.75
 44
1.0
 47
0.5
 48
0.5
 71
     1
 73
     0
 74
     0
 77
     1
 78
     8
140
4.0
141
2.5
143
0.0394
146
0.6
147
1.0
171
     4
172
     1
173
     1
271
     2
272
     2
273
     8
274
     4
283
     2
284
     8
340
F
341
837
343
837
344
837
  0
ENDTAB
  0
TABLE
  2
BLOCK_RECORD
  5
1
330
0
100
AcDbSymbolTable
 70
    10
  0
BLOCK_RECORD
  5
18
330
1
100
AcDbSymbolTableRecord
100
AcDbBlockTableRecord
  2
*MODEL_SPACE
340
1898
  0
BLOCK_RECORD
  5
15
330
1
100
AcDbSymbolTableRecord
100
AcDbBlockTableRecord
  2
*PAPER_SPACE
340
1899
  0
BLOCK_RECORD
  5
837
330
1
100
AcDbSymbolTableRecord
100
AcDbBlockTableRecord
  2
_OPEN30
340
0
102
{BLKREFS
331
1801
331
1802
331
169F
331
16A0
331
1702
331
1703
331
16F7
331
16F8
331
180C
331
180D
331
17E0
331
17E1
331
171B
331
171C
331
1818
331
1819
331
1842
331
1843
102
}
  0
BLOCK_RECORD
  5
150D
330
1
100
AcDbSymbolTableRecord
100
AcDbBlockTableRecord
  2
*D1
340
0
  0
BLOCK_RECORD
  5
1630
330
1
100
AcDbSymbolTableRecord
100
AcDbBlockTableRecord
  2
*D2
340
0
  0
BLOCK_RECORD
  5
165E
330
1
100
AcDbSymbolTableRecord
100
AcDbBlockTableRecord
  2
*D3
340
0
  0
BLOCK_RECORD
  5
166B
330
1
100
AcDbSymbolTableRecord
100
AcDbBlockTableRecord
  2
*D4
340
0
  0
BLOCK_RECORD
  5
168E
330
1
100
AcDbSymbolTableRecord
100
AcDbBlockTableRecord
  2
*D5
340
0
  0
BLOCK_RECORD
  5
1709
330
1
100
AcDbSymbolTableRecord
100
AcDbBlockTableRecord
  2
*D6
340
0
  0
BLOCK_RECORD
  5
1716
330
1
100
AcDbSymbolTableRecord
100
AcDbBlockTableRecord
  2
*D7
340
0
  0
BLOCK_RECORD
  5
1813
330
1
100
AcDbSymbolTableRecord
100
AcDbBlockTableRecord
  2
*D8
340
0
  0
BLOCK_RECORD
  5
1820
330
1
100
AcDbSymbolTableRecord
100
AcDbBlockTableRecord
  2
*D9
340
0
  0
ENDTAB
  0
ENDSEC
  0
SECTION
  2
BLOCKS
  0
BLOCK
  5
19
330
18
100
AcDbEntity
  8
0
100
AcDbBlockBegin
  2
*MODEL_SPACE
 70
     0
 10
0.0
 20
0.0
 30
0.0
  3
*MODEL_SPACE
  1

  0
ENDBLK
  5
1A
330
18
100
AcDbEntity
  8
0
100
AcDbBlockEnd
  0
BLOCK
  5
16
330
15
100
AcDbEntity
 67
     1
  8
0
100
AcDbBlockBegin
  2
*PAPER_SPACE
 70
     0
 10
0.0
 20
0.0
 30
0.0
  3
*PAPER_SPACE
  1

  0
ENDBLK
  5
17
330
15
100
AcDbEntity
 67
     1
  8
0
100
AcDbBlockEnd
  0
BLOCK
  5
838
330
837
100
AcDbEntity
  8
0
100
AcDbBlockBegin
  2
_OPEN30
 70
     0
 10
0.0
 20
0.0
 30
0.0
  3
_OPEN30
  1

  0
LINE
  5
839
330
837
100
AcDbEntity
  8
0
  6
ByBlock
 62
     0
100
AcDbLine
 10
-1.0
 20
0.26794919
 30
0.0
 11
0.0
 21
0.0
 31
0.0
  0
LINE
  5
83A
330
837
100
AcDbEntity
  8
0
  6
ByBlock
 62
     0
100
AcDbLine
 10
0.0
 20
0.0
 30
0.0
 11
-1.0
 21
-0.26794919
 31
0.0
  0
LINE
  5
83B
330
837
100
AcDbEntity
  8
0
  6
ByBlock
 62
     0
100
AcDbLine
 10
0.0
 20
0.0
 30
0.0
 11
-1.0
 21
0.0
 31
0.0
  0
ENDBLK
  5
83C
330
837
100
AcDbEntity
  8
0
100
AcDbBlockEnd
  0
BLOCK
  5
17FD
330
150D
100
AcDbEntity
  8
0
100
AcDbBlockBegin
  2
*D1
 70
     1
 10
0.0
 20
0.0
 30
0.0
  3
*D1
  1

  0
LINE
  5
17FE
330
150D
100
AcDbEntity
  8
0
  6
ByBlock
 62
     0
100
AcDbLine
 10
99.0
 20
164.0
 30
0.0
 11
156.0
 21
164.0
 31
0.0
  0
LINE
  5
17FF
330
150D
100
AcDbEntity
  8
0
  6
ByBlock
 62
     0
100
AcDbLine
 10
99.0
 20
196.0
 30
0.0
 11
156.0
 21
196.0
 31
0.0
  0
LINE
  5
1800
330
150D
100
AcDbEntity
  8
0
  6
ByBlock
 62
     0
100
AcDbLine
 10
155.0
 20
167.0
 30
0.0
 11
155.0
 21
193.0
 31
0.0
  0
INSERT
  5
1801
330
150D
100
AcDbEntity
  8
0
  6
ByBlock
 62
     0
100
AcDbBlockReference
  2
_OPEN30
 10
155.0
 20
164.0
 30
0.0
 41
3.0
 42
3.0
 43
3.0
 50
270.0
  0
INSERT
  5
1802
330
150D
100
AcDbEntity
  8
0
  6
ByBlock
 62
     0
100
AcDbBlockReference
  2
_OPEN30
 10
155.0
 20
196.0
 30
0.0
 41
3.0
 42
3.0
 43
3.0
 50
90.0
  0
MTEXT
  5
1803
330
150D
100
AcDbEntity
  8
0
  6
ByBlock
 62
     0
100
AcDbMText
 10
152.0
 20
180.0
 30
0.0
 40
4.0
 41
0.0
 71
     5
 72
     1
  1
\A2;32{\H2.400000;\U+00B10.5}
 11
0.0000000000000001
 21
1.0
 31
0.0
 73
     1
 44
1.0
1001
ACAD
1000
MTEXTBEGIN
1070
    73
1070
     1
1070
    44
1040
1.0
1070
    74
1070
     0
1000
MTEXTEND
  0
POINT
  5
1804
330
150D
100
AcDbEntity
  8
DEFPOINTS
  6
ByBlock
 62
     0
100
AcDbPoint
 10
98.0
 20
164.0
 30
0.0
  0
POINT
  5
1805
330
150D
100
AcDbEntity
  8
DEFPOINTS
  6
ByBlock
 62
     0
100
AcDbPoint
 10
98.0
 20
196.0
 30
0.0
  0
POINT
  5
1806
330
150D
100
AcDbEntity
  8
DEFPOINTS
  6
ByBlock
 62
     0
100
AcDbPoint
 10
155.0
 20
196.0
 30
0.0
  0
ENDBLK
  5
1807
330
150D
100
AcDbEntity
  8
0
100
AcDbBlockEnd
  0
BLOCK
  5
169B
330
1630
100
AcDbEntity
  8
0
100
AcDbBlockBegin
  2
*D2
 70
     1
 10
0.0
 20
0.0
 30
0.0
  3
*D2
  1

  0
LINE
  5
169C
330
1630
100
AcDbEntity
  8
0
  6
ByBlock
 62
     0
100
AcDbLine
 10
91.0
 20
201.0
 30
0.0
 11
166.0
 21
201.0
 31
0.0
  0
LINE
  5
169D
330
1630
100
AcDbEntity
  8
0
  6
ByBlock
 62
     0
100
AcDbLine
 10
91.0
 20
159.0
 30
0.0
 11
166.0
 21
159.0
 31
0.0
  0
LINE
  5
169E
330
1630
100
AcDbEntity
  8
0
  6
ByBlock
 62
     0
100
AcDbLine
 10
165.0
 20
198.0
 30
0.0
 11
165.0
 21
162.0
 31
0.0
  0
INSERT
  5
169F
330
1630
100
AcDbEntity
  8
0
  6
ByBlock
 62
     0
100
AcDbBlockReference
  2
_OPEN30
 10
165.0
 20
201.0
 30
0.0
 41
3.0
 42
3.0
 43
3.0
 50
90.0
  0
INSERT
  5
16A0
330
1630
100
AcDbEntity
  8
0
  6
ByBlock
 62
     0
100
AcDbBlockReference
  2
_OPEN30
 10
165.0
 20
159.0
 30
0.0
 41
3.0
 42
3.0
 43
3.0
 50
270.0
  0
MTEXT
  5
16A1
330
1630
100
AcDbEntity
  8
0
  6
ByBlock
 62
     0
100
AcDbMText
 10
162.0
 20
180.0
 30
0.0
 40
4.0
 41
0.0
 71
     5
 72
     1
  1
\A1;42
 11
0.0000000000000001
 21
1.0
 31
0.0
 73
     1
 44
1.0
1001
ACAD
1000
MTEXTBEGIN
1070
    73
1070
     1
1070
    44
1040
1.0
1070
    74
1070
     0
1000
MTEXTEND
  0
POINT
  5
16A2
330
1630
100
AcDbEntity
  8
DEFPOINTS
  6
ByBlock
 62
     0
100
AcDbPoint
 10
90.0
 20
201.0
 30
0.0
  0
POINT
  5
16A3
330
1630
100
AcDbEntity
  8
DEFPOINTS
  6
ByBlock
 62
     0
100
AcDbPoint
 10
90.0
 20
159.0
 30
0.0
  0
POINT
  5
16A4
330
1630
100
AcDbEntity
  8
DEFPOINTS
  6
ByBlock
 62
     0
100
AcDbPoint
 10
165.0
 20
159.0
 30
0.0
  0
ENDBLK
  5
16A5
330
1630
100
AcDbEntity
  8
0
100
AcDbBlockEnd
  0
BLOCK
  5
16FE
330
165E
100
AcDbEntity
  8
0
100
AcDbBlockBegin
  2
*D3
 70
     1
 10
0.0
 20
0.0
 30
0.0
  3
*D3
  1

  0
LINE
  5
16FF
330
165E
100
AcDbEntity
  8
0
  6
ByBlock
 62
     0
100
AcDbLine
 10
64.25
 20
171.0
 30
0.0
 11
64.25
 21
129.0
 31
0.0
  0
LINE
  5
1700
330
165E
100
AcDbEntity
  8
0
  6
ByBlock
 62
     0
100
AcDbLine
 10
115.75
 20
171.0
 30
0.0
 11
115.75
 21
129.0
 31
0.0
  0
LINE
  5
1701
330
165E
100
AcDbEntity
  8
0
  6
ByBlock
 62
     0
100
AcDbLine
 10
67.25
 20
130.0
 30
0.0
 11
112.75
 21
130.0
 31
0.0
  0
INSERT
  5
1702
330
165E
100
AcDbEntity
  8
0
  6
ByBlock
 62
     0
100
AcDbBlockReference
  2
_OPEN30
 10
64.25
 20
130.0
 30
0.0
 41
3.0
 42
3.0
 43
3.0
 50
180.0
  0
INSERT
  5
1703
330
165E
100
AcDbEntity
  8
0
  6
ByBlock
 62
     0
100
AcDbBlockReference
  2
_OPEN30
 10
115.75
 20
130.0
 30
0.0
 41
3.0
 42
3.0
 43
3.0
  0
MTEXT
  5
1704
330
165E
100
AcDbEntity
  8
0
  6
ByBlock
 62
     0
100
AcDbMText
 10
90.0
 20
133.0
 30
0.0
 40
4.0
 41
0.0
 71
     5
 72
     1
  1
\A1;51.5
 73
     1
 44
1.0
1001
ACAD
1000
MTEXTBEGIN
1070
    73
1070
     1
1070
    44
1040
1.0
1070
    74
1070
     0
1000
MTEXTEND
  0
POINT
  5
1705
330
165E
100
AcDbEntity
  8
DEFPOINTS
  6
ByBlock
 62
     0
100
AcDbPoint
 10
64.25
 20
172.0
 30
0.0
  0
POINT
  5
1706
330
165E
100
AcDbEntity
  8
DEFPOINTS
  6
ByBlock
 62
     0
100
AcDbPoint
 10
115.75
 20
172.0
 30
0.0
  0
POINT
  5
1707
330
165E
100
AcDbEntity
  8
DEFPOINTS
  6
ByBlock
 62
     0
100
AcDbPoint
 10
115.75
 20
130.0
 30
0.0
  0
ENDBLK
  5
1708
330
165E
100
AcDbEntity
  8
0
100
AcDbBlockEnd
  0
BLOCK
  5
16F3
330
166B
100
AcDbEntity
  8
0
100
AcDbBlockBegin
  2
*D4
 70
     1
 10
0.0
 20
0.0
 30
0.0
  3
*D4
  1

  0
LINE
  5
16F4
330
166B
100
AcDbEntity
  8
0
  6
ByBlock
 62
     0
100
AcDbLine
 10
59.75
 20
170.5
 30
0.0
 11
59.75
 21
119.0
 31
0.0
  0
LINE
  5
16F5
330
166B
100
AcDbEntity
  8
0
  6
ByBlock
 62
     0
100
AcDbLine
 10
120.25
 20
170.5
 30
0.0
 11
120.25
 21
119.0
 31
0.0
  0
LINE
  5
16F6
330
166B
100
AcDbEntity
  8
0
  6
ByBlock
 62
     0
100
AcDbLine
 10
62.75
 20
120.0
 30
0.0
 11
117.25
 21
120.0
 31
0.0
  0
INSERT
  5
16F7
330
166B
100
AcDbEntity
  8
0
  6
ByBlock
 62
     0
100
AcDbBlockReference
  2
_OPEN30
 10
59.75
 20
120.0
 30
0.0
 41
3.0
 42
3.0
 43
3.0
 50
180.0
  0
INSERT
  5
16F8
330
166B
100
AcDbEntity
  8
0
  6
ByBlock
 62
     0
100
AcDbBlockReference
  2
_OPEN30
 10
120.25
 20
120.0
 30
0.0
 41
3.0
 42
3.0
 43
3.0
  0
MTEXT
  5
16F9
330
166B
100
AcDbEntity
  8
0
  6
ByBlock
 62
     0
100
AcDbMText
 10
90.0
 20
123.0
 30
0.0
 40
4.0
 41
0.0
 71
     5
 72
     1
  1
\A1;60.5
 73
     1
 44
1.0
1001
ACAD
1000
MTEXTBEGIN
1070
    73
1070
     1
1070
    44
1040
1.0
1070
    74
1070
     0
1000
MTEXTEND
  0
POINT
  5
16FA
330
166B
100
AcDbEntity
  8
DEFPOINTS
  6
ByBlock
 62
     0
100
AcDbPoint
 10
59.75
 20
171.5
 30
0.0
  0
POINT
  5
16FB
330
166B
100
AcDbEntity
  8
DEFPOINTS
  6
ByBlock
 62
     0
100
AcDbPoint
 10
120.25
 20
171.5
 30
0.0
  0
POINT
  5
16FC
330
166B
100
AcDbEntity
  8
DEFPOINTS
  6
ByBlock
 62
     0
100
AcDbPoint
 10
120.25
 20
120.0
 30
0.0
  0
ENDBLK
  5
16FD
330
166B
100
AcDbEntity
  8
0
100
AcDbBlockEnd
  0
BLOCK
  5
1808
330
168E
100
AcDbEntity
  8
0
100
AcDbBlockBegin
  2
*D5
 70
     1
 10
0.0
 20
0.0
 30
0.0
  3
*D5
  1

  0
LINE
  5
1809
330
168E
100
AcDbEntity
  8
0
  6
ByBlock
 62
     0
100
AcDbLine
 10
132.75
 20
180.0
 30
0.0
 11
146.0
 21
180.0
 31
0.0
  0
LINE
  5
180A
330
168E
100
AcDbEntity
  8
0
  6
ByBlock
 62
     0
100
AcDbLine
 10
112.5
 20
165.5
 30
0.0
 11
146.0
 21
165.5
 31
0.0
  0
LINE
  5
180B
330
168E
100
AcDbEntity
  8
0
  6
ByBlock
 62
     0
100
AcDbLine
 10
145.0
 20
177.0
 30
0.0
 11
145.0
 21
168.5
 31
0.0
  0
INSERT
  5
180C
330
168E
100
AcDbEntity
  8
0
  6
ByBlock
 62
     0
100
AcDbBlockReference
  2
_OPEN30
 10
145.0
 20
180.0
 30
0.0
 41
3.0
 42
3.0
 43
3.0
 50
90.0
  0
INSERT
  5
180D
330
168E
100
AcDbEntity
  8
0
  6
ByBlock
 62
     0
100
AcDbBlockReference
  2
_OPEN30
 10
145.0
 20
165.5
 30
0.0
 41
3.0
 42
3.0
 43
3.0
 50
270.0
  0
MTEXT
  5
180E
330
168E
100
AcDbEntity
  8
0
  6
ByBlock
 62
     0
100
AcDbMText
 10
142.0
 20
172.75
 30
0.0
 40
4.0
 41
0.0
 71
     5
 72
     1
  1
\A1;14.5
 11
0.0000000000000001
 21
1.0
 31
0.0
 73
     1
 44
1.0
1001
ACAD
1000
MTEXTBEGIN
1070
    73
1070
     1
1070
    44
1040
1.0
1070
    74
1070
     0
1000
MTEXTEND
  0
POINT
  5
180F
330
168E
100
AcDbEntity
  8
DEFPOINTS
  6
ByBlock
 62
     0
100
AcDbPoint
 10
131.75
 20
180.0
 30
0.0
  0
POINT
  5
1810
330
168E
100
AcDbEntity
  8
DEFPOINTS
  6
ByBlock
 62
     0
100
AcDbPoint
 10
111.5
 20
165.5
 30
0.0
  0
POINT
  5
1811
330
168E
100
AcDbEntity
  8
DEFPOINTS
  6
ByBlock
 62
     0
100
AcDbPoint
 10
145.0
 20
165.5
 30
0.0
  0
ENDBLK
  5
1812
330
168E
100
AcDbEntity
  8
0
100
AcDbBlockEnd
  0
BLOCK
  5
17DC
330
1709
100
AcDbEntity
  8
0
100
AcDbBlockBegin
  2
*D6
 70
     1
 10
0.0
 20
0.0
 30
0.0
  3
*D6
  1

  0
LINE
  5
17DD
330
1709
100
AcDbEntity
  8
0
  6
ByBlock
 62
     0
100
AcDbLine
 10
75.0
 20
153.0
 30
0.0
 11
75.0
 21
139.0
 31
0.0
  0
LINE
  5
17DE
330
1709
100
AcDbEntity
  8
0
  6
ByBlock
 62
     0
100
AcDbLine
 10
105.0
 20
153.0
 30
0.0
 11
105.0
 21
139.0
 31
0.0
  0
LINE
  5
17DF
330
1709
100
AcDbEntity
  8
0
  6
ByBlock
 62
     0
100
AcDbLine
 10
78.0
 20
140.0
 30
0.0
 11
102.0
 21
140.0
 31
0.0
  0
INSERT
  5
17E0
330
1709
100
AcDbEntity
  8
0
  6
ByBlock
 62
     0
100
AcDbBlockReference
  2
_OPEN30
 10
75.0
 20
140.0
 30
0.0
 41
3.0
 42
3.0
 43
3.0
 50
180.0
  0
INSERT
  5
17E1
330
1709
100
AcDbEntity
  8
0
  6
ByBlock
 62
     0
100
AcDbBlockReference
  2
_OPEN30
 10
105.0
 20
140.0
 30
0.0
 41
3.0
 42
3.0
 43
3.0
  0
MTEXT
  5
17E2
330
1709
100
AcDbEntity
  8
0
  6
ByBlock
 62
     0
100
AcDbMText
 10
90.0
 20
143.0
 30
0.0
 40
4.0
 41
0.0
 71
     5
 72
     1
  1
\A1;30
 73
     1
 44
1.0
1001
ACAD
1000
MTEXTBEGIN
1070
    73
1070
     1
1070
    44
1040
1.0
1070
    74
1070
     0
1000
MTEXTEND
  0
POINT
  5
17E3
330
1709
100
AcDbEntity
  8
DEFPOINTS
  6
ByBlock
 62
     0
100
AcDbPoint
 10
75.0
 20
154.0
 30
0.0
  0
POINT
  5
17E4
330
1709
100
AcDbEntity
  8
DEFPOINTS
  6
ByBlock
 62
     0
100
AcDbPoint
 10
105.0
 20
154.0
 30
0.0
  0
POINT
  5
17E5
330
1709
100
AcDbEntity
  8
DEFPOINTS
  6
ByBlock
 62
     0
100
AcDbPoint
 10
105.0
 20
140.0
 30
0.0
  0
ENDBLK
  5
17E6
330
1709
100
AcDbEntity
  8
0
100
AcDbBlockEnd
  0
BLOCK
  5
1717
330
1716
100
AcDbEntity
  8
0
100
AcDbBlockBegin
  2
*D7
 70
     1
 10
0.0
 20
0.0
 30
0.0
  3
*D7
  1

  0
LINE
  5
1718
330
1716
100
AcDbEntity
  8
0
  6
ByBlock
 62
     0
100
AcDbLine
 10
65.25
 20
190.0
 30
0.0
 11
39.00000000000001
 21
190.0
 31
0.0
  0
LINE
  5
1719
330
1716
100
AcDbEntity
  8
0
  6
ByBlock
 62
     0
100
AcDbLine
 10
65.25
 20
170.0
 30
0.0
 11
39.0
 21
170.0
 31
0.0
  0
LINE
  5
171A
330
1716
100
AcDbEntity
  8
0
  6
ByBlock
 62
     0
100
AcDbLine
 10
40.0
 20
187.0
 30
0.0
 11
40.0
 21
173.0
 31
0.0
  0
INSERT
  5
171B
330
1716
100
AcDbEntity
  8
0
  6
ByBlock
 62
     0
100
AcDbBlockReference
  2
_OPEN30
 10
40.0
 20
190.0
 30
0.0
 41
3.0
 42
3.0
 43
3.0
 50
90.0
  0
INSERT
  5
171C
330
1716
100
AcDbEntity
  8
0
  6
ByBlock
 62
     0
100
AcDbBlockReference
  2
_OPEN30
 10
40.0
 20
170.0
 30
0.0
 41
3.0
 42
3.0
 43
3.0
 50
270.0
  0
MTEXT
  5
171D
330
1716
100
AcDbEntity
  8
0
  6
ByBlock
 62
     0
100
AcDbMText
 10
37.00000000000001
 20
180.0
 30
0.0
 40
4.0
 41
0.0
 71
     5
 72
     1
  1
\A1;20
 11
0.0000000000000001
 21
1.0
 31
0.0
 73
     1
 44
1.0
1001
ACAD
1000
MTEXTBEGIN
1070
    73
1070
     1
1070
    44
1040
1.0
1070
    74
1070
     0
1000
MTEXTEND
  0
POINT
  5
171E
330
1716
100
AcDbEntity
  8
DEFPOINTS
  6
ByBlock
 62
     0
100
AcDbPoint
 10
66.25
 20
190.0
 30
0.0
  0
POINT
  5
171F
330
1716
100
AcDbEntity
  8
DEFPOINTS
  6
ByBlock
 62
     0
100
AcDbPoint
 10
66.25
 20
170.0
 30
0.0
  0
POINT
  5
1720
330
1716
100
AcDbEntity
  8
DEFPOINTS
  6
ByBlock
 62
     0
100
AcDbPoint
 10
40.0
 20
170.0
 30
0.0
  0
ENDBLK
  5
1721
330
1716
100
AcDbEntity
  8
0
100
AcDbBlockEnd
  0
BLOCK
  5
1814
330
1813
100
AcDbEntity
  8
0
100
AcDbBlockBegin
  2
*D8
 70
     1
 10
0.0
 20
0.0
 30
0.0
  3
*D8
  1

  0
LINE
  5
1815
330
1813
100
AcDbEntity
  8
0
  6
ByBlock
 62
     0
100
AcDbLine
 10
116.75
 20
105.0
 30
0.0
 11
156.0
 21
105.0
 31
0.0
  0
LINE
  5
1816
330
1813
100
AcDbEntity
  8
0
  6
ByBlock
 62
     0
100
AcDbLine
 10
116.75
 20
84.99999999999998
 30
0.0
 11
156.0
 21
84.99999999999998
 31
0.0
  0
LINE
  5
1817
330
1813
100
AcDbEntity
  8
0
  6
ByBlock
 62
     0
100
AcDbLine
 10
155.0
 20
102.0
 30
0.0
 11
155.0
 21
87.99999999999998
 31
0.0
  0
INSERT
  5
1818
330
1813
100
AcDbEntity
  8
0
  6
ByBlock
 62
     0
100
AcDbBlockReference
  2
_OPEN30
 10
155.0
 20
105.0
 30
0.0
 41
3.0
 42
3.0
 43
3.0
 50
90.0
  0
INSERT
  5
1819
330
1813
100
AcDbEntity
  8
0
  6
ByBlock
 62
     0
100
AcDbBlockReference
  2
_OPEN30
 10
155.0
 20
84.99999999999998
 30
0.0
 41
3.0
 42
3.0
 43
3.0
 50
270.0
  0
MTEXT
  5
181A
330
1813
100
AcDbEntity
  8
0
  6
ByBlock
 62
     0
100
AcDbMText
 10
152.0
 20
94.99999999999998
 30
0.0
 40
4.0
 41
0.0
 71
     5
 72
     1
  1
\A1;20
 11
0.0000000000000001
 21
1.0
 31
0.0
 73
     1
 44
1.0
1001
ACAD
1000
MTEXTBEGIN
1070
    73
1070
     1
1070
    44
1040
1.0
1070
    74
1070
     0
1000
MTEXTEND
  0
POINT
  5
181B
330
1813
100
AcDbEntity
  8
DEFPOINTS
  6
ByBlock
 62
     0
100
AcDbPoint
 10
115.75
 20
105.0
 30
0.0
  0
POINT
  5
181C
330
1813
100
AcDbEntity
  8
DEFPOINTS
  6
ByBlock
 62
     0
100
AcDbPoint
 10
115.75
 20
85.0
 30
0.0
  0
POINT
  5
181D
330
1813
100
AcDbEntity
  8
DEFPOINTS
  6
ByBlock
 62
     0
100
AcDbPoint
 10
155.0
 20
84.99999999999998
 30
0.0
  0
ENDBLK
  5
181E
330
1813
100
AcDbEntity
  8
0
100
AcDbBlockEnd
  0
BLOCK
  5
183C
330
1820
100
AcDbEntity
  8
0
100
AcDbBlockBegin
  2
*D9
 70
     1
 10
0.0
 20
0.0
 30
0.0
  3
*D9
  1

  0
LINE
  5
183D
330
1820
100
AcDbEntity
  8
0
  6
ByBlock
 62
     0
100
AcDbLine
 10
95.99999999999999
 20
90.5
 30
0.0
 11
146.0
 21
90.49999999999998
 31
0.0
  0
LINE
  5
183E
330
1820
100
AcDbEntity
  8
0
  6
ByBlock
 62
     0
100
AcDbLine
 10
116.75
 20
84.99999999999998
 30
0.0
 11
146.0
 21
84.99999999999998
 31
0.0
  0
LINE
  5
183F
330
1820
100
AcDbEntity
  8
0
  6
ByBlock
 62
     0
100
AcDbLine
 10
145.0
 20
81.99999999999999
 30
0.0
 11
145.0
 21
78.99999999999998
 31
0.0
  0
LINE
  5
1840
330
1820
100
AcDbEntity
  8
0
  6
ByBlock
 62
     0
100
AcDbLine
 10
145.0
 20
93.49999999999999
 30
0.0
 11
145.0
 21
104.9090909090909
 31
0.0
  0
LINE
  5
1841
330
1820
100
AcDbEntity
  8
0
  6
ByBlock
 62
     0
100
AcDbLine
 10
145.0
 20
84.99999999999998
 30
0.0
 11
145.0
 21
90.49999999999998
 31
0.0
  0
INSERT
  5
1842
330
1820
100
AcDbEntity
  8
0
  6
ByBlock
 62
     0
100
AcDbBlockReference
  2
_OPEN30
 10
145.0
 20
84.99999999999998
 30
0.0
 41
3.0
 42
3.0
 43
3.0
 50
90.0
  0
INSERT
  5
1843
330
1820
100
AcDbEntity
  8
0
  6
ByBlock
 62
     0
100
AcDbBlockReference
  2
_OPEN30
 10
145.0
 20
90.49999999999998
 30
0.0
 41
3.0
 42
3.0
 43
3.0
 50
270.0
  0
MTEXT
  5
1844
330
1820
100
AcDbEntity
  8
0
  6
ByBlock
 62
     0
100
AcDbMText
 10
142.0
 20
100.7045454545454
 30
0.0
 40
4.0
 41
0.0
 71
     5
 72
     1
  1
\A1;5.5
 11
0.0000000000000001
 21
1.0
 31
0.0
 73
     1
 44
1.0
1001
ACAD
1000
MTEXTBEGIN
1070
    73
1070
     1
1070
    44
1040
1.0
1070
    74
1070
     0
1000
MTEXTEND
  0
POINT
  5
1845
330
1820
100
AcDbEntity
  8
DEFPOINTS
  6
ByBlock
 62
     0
100
AcDbPoint
 10
94.99999999999998
 20
90.5
 30
0.0
  0
POINT
  5
1846
330
1820
100
AcDbEntity
  8
DEFPOINTS
  6
ByBlock
 62
     0
100
AcDbPoint
 10
115.75
 20
85.0
 30
0.0
  0
POINT
  5
1847
330
1820
100
AcDbEntity
  8
DEFPOINTS
  6
ByBlock
 62
     0
100
AcDbPoint
 10
145.0
 20
84.99999999999998
 30
0.0
  0
ENDBLK
  5
1848
330
1820
100
AcDbEntity
  8
0
100
AcDbBlockEnd
  0
ENDSEC
  0
SECTION
  2
ENTITIES
  0
LINE
  5
10AB
330
18
100
AcDbEntity
  8
0
  6
WACOM_LSTYLE_M4
100
AcDbLine
 10
131.75
 20
180.0
 30
0.0
 11
48.25
 21
180.0
 31
0.0
  0
DIMENSION
  5
14BA
330
18
100
AcDbEntity
  8
0
100
AcDbDimension
  2
*D1
 10
155.0
 20
196.0
 30
0.0
 11
155.0
 21
180.0
 31
0.0
 70
   160
 71
     5
 42
-1.0
  3
許05
100
AcDbAlignedDimension
 13
98.0
 23
164.0
 33
0.0
 14
98.0
 24
196.0
 34
0.0
 50
90.0
100
AcDbRotatedDimension
1001
ACAD
1000
DSTYLE
1002
{
1070
    40
1040
1.0
1002
}
  0
LINE
  5
153F
330
18
100
AcDbEntity
  8
0
  6
WACOM_LSTYLE_M4
100
AcDbLine
 10
90.0
 20
204.0
 30
0.0
 11
90.0
 21
156.0
 31
0.0
  0
LINE
  5
1540
330
18
100
AcDbEntity
  8
0
100
AcDbLine
 10
115.75
 20
188.0
 30
0.0
 11
115.75
 21
172.0
 31
0.0
  0
LINE
  5
1541
330
18
100
AcDbEntity
  8
0
100
AcDbLine
 10
64.25
 20
188.0
 30
0.0
 11
64.25
 21
172.0
 31
0.0
  0
LINE
  5
1542
330
18
100
AcDbEntity
  8
0
100
AcDbLine
 10
113.75
 20
190.0
 30
0.0
 11
66.25
 21
190.0
 31
0.0
  0
LINE
  5
1543
330
18
100
AcDbEntity
  8
0
100
AcDbLine
 10
113.75
 20
170.0
 30
0.0
 11
66.25
 21
170.0
 31
0.0
  0
LINE
  5
1544
330
18
100
AcDbEntity
  8
0
  6
WACOM_LSTYLE_M4
100
AcDbLine
 10
98.0
 20
164.0
 30
0.0
 11
82.0
 21
164.0
 31
0.0
  0
LINE
  5
1545
330
18
100
AcDbEntity
  8
0
  6
WACOM_LSTYLE_M4
100
AcDbLine
 10
98.0
 20
196.0
 30
0.0
 11
82.0
 21
196.0
 31
0.0
  0
CIRCLE
  5
1546
330
18
100
AcDbEntity
  8
0
100
AcDbCircle
 10
90.0
 20
196.0
 30
0.0
 40
1.75
  0
CIRCLE
  5
1547
330
18
100
AcDbEntity
  8
0
100
AcDbCircle
 10
90.0
 20
164.0
 30
0.0
 40
1.75
  0
LINE
  5
1549
330
18
100
AcDbEntity
  8
0
100
AcDbLine
 10
85.0
 20
196.0
 30
0.0
 11
85.0
 21
190.0
 31
0.0
  0
LINE
  5
154A
330
18
100
AcDbEntity
  8
0
100
AcDbLine
 10
95.0
 20
196.0
 30
0.0
 11
95.0
 21
190.0
 31
0.0
  0
ARC
  5
154B
330
18
100
AcDbEntity
  8
0
100
AcDbCircle
 10
90.0
 20
196.0
 30
0.0
 40
5.0
100
AcDbArc
 50
0.0
 51
180.0
  0
ARC
  5
154D
330
18
100
AcDbEntity
  8
0
100
AcDbCircle
 10
90.0
 20
164.0
 30
0.0
 40
5.0
100
AcDbArc
 50
180.0
 51
0.0
  0
LINE
  5
154E
330
18
100
AcDbEntity
  8
0
100
AcDbLine
 10
95.0
 20
170.0
 30
0.0
 11
95.0
 21
164.0
 31
0.0
  0
LINE
  5
154F
330
18
100
AcDbEntity
  8
0
100
AcDbLine
 10
85.0
 20
170.0
 30
0.0
 11
85.0
 21
164.0
 31
0.0
  0
LINE
  5
1550
330
18
100
AcDbEntity
  8
0
  6
WACOM_LSTYLE_M4
100
AcDbLine
 10
120.25
 20
186.5
 30
0.0
 11
120.25
 21
173.5
 31
0.0
  0
LINE
  5
1551
330
18
100
AcDbEntity
  8
0
100
AcDbLine
 10
125.25
 20
178.0
 30
0.0
 11
128.75
 21
178.0
 31
0.0
  0
LINE
  5
1552
330
18
100
AcDbEntity
  8
0
100
AcDbLine
 10
125.25
 20
177.5
 30
0.0
 11
128.75
 21
177.5
 31
0.0
  0
LINE
  5
1553
330
18
100
AcDbEntity
  8
0
100
AcDbLine
 10
128.75
 20
182.0
 30
0.0
 11
125.25
 21
182.0
 31
0.0
  0
LINE
  5
1554
330
18
100
AcDbEntity
  8
0
100
AcDbLine
 10
128.75
 20
182.5
 30
0.0
 11
125.25
 21
182.5
 31
0.0
  0
LINE
  5
1555
330
18
100
AcDbEntity
  8
0
100
AcDbLine
 10
125.25
 20
182.5
 30
0.0
 11
125.25
 21
181.5
 31
0.0
  0
ARC
  5
1557
330
18
100
AcDbEntity
  8
0
100
AcDbCircle
 10
120.25
 20
180.0
 30
0.0
 40
3.499999999999992
100
AcDbArc
 50
25.37693352515236
 51
334.6230664748476
  0
LINE
  5
1558
330
18
100
AcDbEntity
  8
0
100
AcDbLine
 10
125.25
 20
178.5
 30
0.0
 11
125.25
 21
177.5
 31
0.0
  0
LINE
  5
1559
330
18
100
AcDbEntity
  8
0
100
AcDbLine
 10
123.4122776601684
 20
178.5
 30
0.0
 11
125.25
 21
178.5
 31
0.0
  0
LINE
  5
155A
330
18
100
AcDbEntity
  8
0
100
AcDbLine
 10
123.4122776601684
 20
181.5
 30
0.0
 11
125.25
 21
181.5
 31
0.0
  0
LINE
  5
155B
330
18
100
AcDbEntity
  8
0
100
AcDbLine
 10
128.75
 20
177.5
 30
0.0
 11
128.75
 21
182.5
 31
0.0
  0
CIRCLE
  5
155C
330
18
100
AcDbEntity
  8
0
100
AcDbCircle
 10
120.25
 20
180.0
 30
0.0
 40
2.6
  0
LINE
  5
155D
330
18
100
AcDbEntity
  8
0
100
AcDbLine
 10
120.7
 20
179.1
 30
0.0
 11
120.7
 21
178.38
 31
0.0
  0
LINE
  5
155E
330
18
100
AcDbEntity
  8
0
100
AcDbLine
 10
119.8
 20
179.1
 30
0.0
 11
119.8
 21
178.38
 31
0.0
  0
LINE
  5
155F
330
18
100
AcDbEntity
  8
0
100
AcDbLine
 10
122.05
 20
180.27
 30
0.0
 11
122.05
 21
179.73
 31
0.0
  0
ARC
  5
1560
330
18
100
AcDbEntity
  8
0
100
AcDbCircle
 10
121.87
 20
180.27
 30
0.0
 40
0.18
100
AcDbArc
 50
0.0
 51
89.99999999999998
  0
LINE
  5
1561
330
18
100
AcDbEntity
  8
0
100
AcDbLine
 10
119.8
 20
181.62
 30
0.0
 11
119.8
 21
180.9
 31
0.0
  0
LINE
  5
1562
330
18
100
AcDbEntity
  8
0
100
AcDbLine
 10
120.7
 20
181.62
 30
0.0
 11
120.7
 21
180.9
 31
0.0
  0
ARC
  5
1563
330
18
100
AcDbEntity
  8
0
100
AcDbCircle
 10
119.35
 20
180.9
 30
0.0
 40
0.45
100
AcDbArc
 50
270.0
 51
0.0
  0
ARC
  5
1564
330
18
100
AcDbEntity
  8
0
100
AcDbCircle
 10
121.15
 20
180.9
 30
0.0
 40
0.45
100
AcDbArc
 50
180.0
 51
270.0
  0
LINE
  5
1565
330
18
100
AcDbEntity
  8
0
100
AcDbLine
 10
119.98
 20
181.8
 30
0.0
 11
120.52
 21
181.8
 31
0.0
  0
ARC
  5
1566
330
18
100
AcDbEntity
  8
0
100
AcDbCircle
 10
119.98
 20
181.62
 30
0.0
 40
0.18
100
AcDbArc
 50
89.99999999999998
 51
180.0
  0
ARC
  5
1567
330
18
100
AcDbEntity
  8
0
100
AcDbCircle
 10
120.52
 20
181.62
 30
0.0
 40
0.18
100
AcDbArc
 50
0.0
 51
89.99999999999998
  0
LINE
  5
1568
330
18
100
AcDbEntity
  8
0
100
AcDbLine
 10
121.15
 20
180.45
 30
0.0
 11
121.87
 21
180.45
 31
0.0
  0
ARC
  5
1569
330
18
100
AcDbEntity
  8
0
100
AcDbCircle
 10
121.87
 20
179.73
 30
0.0
 40
0.18
100
AcDbArc
 50
270.0
 51
0.0
  0
LINE
  5
156A
330
18
100
AcDbEntity
  8
0
100
AcDbLine
 10
121.15
 20
179.55
 30
0.0
 11
121.87
 21
179.55
 31
0.0
  0
ARC
  5
156B
330
18
100
AcDbEntity
  8
0
100
AcDbCircle
 10
119.35
 20
179.1
 30
0.0
 40
0.45
100
AcDbArc
 50
0.0
 51
89.99999999999998
  0
ARC
  5
156C
330
18
100
AcDbEntity
  8
0
100
AcDbCircle
 10
121.15
 20
179.1
 30
0.0
 40
0.45
100
AcDbArc
 50
89.99999999999998
 51
180.0
  0
LINE
  5
156D
330
18
100
AcDbEntity
  8
0
100
AcDbLine
 10
118.45
 20
180.27
 30
0.0
 11
118.45
 21
179.73
 31
0.0
  0
ARC
  5
156E
330
18
100
AcDbEntity
  8
0
100
AcDbCircle
 10
118.63
 20
180.27
 30
0.0
 40
0.18
100
AcDbArc
 50
89.99999999999998
 51
180.0
  0
ARC
  5
156F
330
18
100
AcDbEntity
  8
0
100
AcDbCircle
 10
118.63
 20
179.73
 30
0.0
 40
0.18
100
AcDbArc
 50
180.0
 51
270.0
  0
LINE
  5
1570
330
18
100
AcDbEntity
  8
0
100
AcDbLine
 10
118.63
 20
180.45
 30
0.0
 11
119.35
 21
180.45
 31
0.0
  0
LINE
  5
1571
330
18
100
AcDbEntity
  8
0
100
AcDbLine
 10
118.63
 20
179.55
 30
0.0
 11
119.35
 21
179.55
 31
0.0
  0
LINE
  5
1572
330
18
100
AcDbEntity
  8
0
100
AcDbLine
 10
119.98
 20
178.2
 30
0.0
 11
120.52
 21
178.2
 31
0.0
  0
ARC
  5
1573
330
18
100
AcDbEntity
  8
0
100
AcDbCircle
 10
120.52
 20
178.38
 30
0.0
 40
0.18
100
AcDbArc
 50
270.0
 51
0.0
  0
ARC
  5
1574
330
18
100
AcDbEntity
  8
0
100
AcDbCircle
 10
119.98
 20
178.38
 30
0.0
 40
0.18
100
AcDbArc
 50
180.0
 51
270.0
  0
LINE
  5
1575
330
18
100
AcDbEntity
  8
0
100
AcDbLine
 10
118.447224362268
 20
183.0
 30
0.0
 11
115.75
 21
183.0
 31
0.0
  0
LINE
  5
1576
330
18
100
AcDbEntity
  8
0
100
AcDbLine
 10
118.447224362268
 20
177.0
 30
0.0
 11
115.75
 21
177.0
 31
0.0
  0
LINE
  5
1579
330
18
100
AcDbEntity
  8
0
100
AcDbLine
 10
51.25
 20
182.5
 30
0.0
 11
54.75
 21
182.5
 31
0.0
  0
LINE
  5
157A
330
18
100
AcDbEntity
  8
0
100
AcDbLine
 10
51.25
 20
182.0
 30
0.0
 11
54.75
 21
182.0
 31
0.0
  0
LINE
  5
157B
330
18
100
AcDbEntity
  8
0
100
AcDbLine
 10
54.75
 20
177.5
 30
0.0
 11
51.25
 21
177.5
 31
0.0
  0
LINE
  5
157C
330
18
100
AcDbEntity
  8
0
100
AcDbLine
 10
54.75
 20
178.0
 30
0.0
 11
51.25
 21
178.0
 31
0.0
  0
ARC
  5
157D
330
18
100
AcDbEntity
  8
0
100
AcDbCircle
 10
59.75
 20
180.0
 30
0.0
 40
3.499999999999992
100
AcDbArc
 50
205.3769335251524
 51
154.6230664748476
  0
ARC
  5
157E
330
18
100
AcDbEntity
  8
0
100
AcDbCircle
 10
60.65000000000001
 20
179.1
 30
0.0
 40
0.45
100
AcDbArc
 50
90.00000000000003
 51
180.0
  0
ARC
  5
157F
330
18
100
AcDbEntity
  8
0
100
AcDbCircle
 10
60.65000000000001
 20
180.9
 30
0.0
 40
0.45
100
AcDbArc
 50
180.0
 51
270.0
  0
ARC
  5
1580
330
18
100
AcDbEntity
  8
0
100
AcDbCircle
 10
60.02000000000001
 20
178.38
 30
0.0
 40
0.18
100
AcDbArc
 50
270.0
 51
0.000000000000007
  0
ARC
  5
1581
330
18
100
AcDbEntity
  8
0
100
AcDbCircle
 10
60.02000000000001
 20
181.62
 30
0.0
 40
0.18
100
AcDbArc
 50
0.000000000000007
 51
90.00000000000003
  0
CIRCLE
  5
1582
330
18
100
AcDbEntity
  8
0
100
AcDbCircle
 10
59.75
 20
180.0
 30
0.0
 40
2.6
  0
LINE
  5
1583
330
18
100
AcDbEntity
  8
0
100
AcDbLine
 10
61.55277563773198
 20
177.0
 30
0.0
 11
64.25000000000001
 21
177.0
 31
0.0
  0
LINE
  5
1584
330
18
100
AcDbEntity
  8
0
100
AcDbLine
 10
61.55277563773198
 20
183.0
 30
0.0
 11
64.25000000000001
 21
183.0
 31
0.0
  0
ARC
  5
1585
330
18
100
AcDbEntity
  8
0
100
AcDbCircle
 10
61.37
 20
179.73
 30
0.0
 40
0.18
100
AcDbArc
 50
270.0
 51
0.000000000000007
  0
ARC
  5
1586
330
18
100
AcDbEntity
  8
0
100
AcDbCircle
 10
61.37
 20
180.27
 30
0.0
 40
0.18
100
AcDbArc
 50
0.000000000000007
 51
90.00000000000003
  0
LINE
  5
1587
330
18
100
AcDbEntity
  8
0
100
AcDbLine
 10
61.55
 20
180.27
 30
0.0
 11
61.55
 21
179.73
 31
0.0
  0
LINE
  5
1588
330
18
100
AcDbEntity
  8
0
100
AcDbLine
 10
61.37
 20
179.55
 30
0.0
 11
60.65000000000001
 21
179.55
 31
0.0
  0
LINE
  5
1589
330
18
100
AcDbEntity
  8
0
100
AcDbLine
 10
61.37
 20
180.45
 30
0.0
 11
60.65000000000001
 21
180.45
 31
0.0
  0
LINE
  5
158A
330
18
100
AcDbEntity
  8
0
100
AcDbLine
 10
54.75
 20
178.5
 30
0.0
 11
54.75
 21
177.5
 31
0.0
  0
LINE
  5
158B
330
18
100
AcDbEntity
  8
0
100
AcDbLine
 10
56.58772233983163
 20
178.5
 30
0.0
 11
54.75
 21
178.5
 31
0.0
  0
LINE
  5
158C
330
18
100
AcDbEntity
  8
0
100
AcDbLine
 10
56.58772233983163
 20
181.5
 30
0.0
 11
54.75
 21
181.5
 31
0.0
  0
ARC
  5
158D
330
18
100
AcDbEntity
  8
0
100
AcDbCircle
 10
59.48000000000002
 20
178.38
 30
0.0
 40
0.18
100
AcDbArc
 50
180.0
 51
270.0
  0
LINE
  5
158E
330
18
100
AcDbEntity
  8
0
100
AcDbLine
 10
60.02000000000001
 20
178.2
 30
0.0
 11
59.48000000000002
 21
178.2
 31
0.0
  0
ARC
  5
158F
330
18
100
AcDbEntity
  8
0
100
AcDbCircle
 10
58.84999999999999
 20
179.1
 30
0.0
 40
0.45
100
AcDbArc
 50
0.000000000000007
 51
90.00000000000003
  0
LINE
  5
1590
330
18
100
AcDbEntity
  8
0
100
AcDbLine
 10
58.84999999999999
 20
179.55
 30
0.0
 11
58.13000000000001
 21
179.55
 31
0.0
  0
ARC
  5
1591
330
18
100
AcDbEntity
  8
0
100
AcDbCircle
 10
58.13000000000001
 20
179.73
 30
0.0
 40
0.18
100
AcDbArc
 50
180.0
 51
270.0
  0
LINE
  5
1592
330
18
100
AcDbEntity
  8
0
100
AcDbLine
 10
58.84999999999999
 20
180.45
 30
0.0
 11
58.13000000000001
 21
180.45
 31
0.0
  0
ARC
  5
1593
330
18
100
AcDbEntity
  8
0
100
AcDbCircle
 10
59.48000000000002
 20
181.62
 30
0.0
 40
0.18
100
AcDbArc
 50
90.00000000000003
 51
180.0
  0
LINE
  5
1594
330
18
100
AcDbEntity
  8
0
100
AcDbLine
 10
60.02000000000001
 20
181.8
 30
0.0
 11
59.48000000000002
 21
181.8
 31
0.0
  0
ARC
  5
1595
330
18
100
AcDbEntity
  8
0
100
AcDbCircle
 10
58.84999999999999
 20
180.9
 30
0.0
 40
0.45
100
AcDbArc
 50
270.0
 51
0.000000000000007
  0
LINE
  5
1596
330
18
100
AcDbEntity
  8
0
100
AcDbLine
 10
59.29999999999999
 20
181.62
 30
0.0
 11
59.29999999999999
 21
180.9
 31
0.0
  0
LINE
  5
1597
330
18
100
AcDbEntity
  8
0
100
AcDbLine
 10
60.2
 20
181.62
 30
0.0
 11
60.2
 21
180.9
 31
0.0
  0
ARC
  5
1598
330
18
100
AcDbEntity
  8
0
100
AcDbCircle
 10
58.13000000000001
 20
180.27
 30
0.0
 40
0.18
100
AcDbArc
 50
90.00000000000003
 51
180.0
  0
LINE
  5
1599
330
18
100
AcDbEntity
  8
0
100
AcDbLine
 10
57.95
 20
180.27
 30
0.0
 11
57.95
 21
179.73
 31
0.0
  0
LINE
  5
159A
330
18
100
AcDbEntity
  8
0
100
AcDbLine
 10
60.2
 20
179.1
 30
0.0
 11
60.2
 21
178.38
 31
0.0
  0
LINE
  5
159B
330
18
100
AcDbEntity
  8
0
100
AcDbLine
 10
59.29999999999999
 20
179.1
 30
0.0
 11
59.29999999999999
 21
178.38
 31
0.0
  0
LINE
  5
159C
330
18
100
AcDbEntity
  8
0
100
AcDbLine
 10
54.75
 20
182.5
 30
0.0
 11
54.75
 21
181.5
 31
0.0
  0
LINE
  5
159D
330
18
100
AcDbEntity
  8
0
100
AcDbLine
 10
51.25
 20
177.5
 30
0.0
 11
51.25
 21
182.5
 31
0.0
  0
LINE
  5
159E
330
18
100
AcDbEntity
  8
0
  6
WACOM_LSTYLE_M4
100
AcDbLine
 10
59.75
 20
186.5
 30
0.0
 11
59.75
 21
173.5
 31
0.0
  0
LINE
  5
159F
330
18
100
AcDbEntity
  8
0
  6
WACOM_LSTYLE_M4
100
AcDbLine
 10
105.0
 20
173.0
 30
0.0
 11
105.0
 21
154.0
 31
0.0
  0
LINE
  5
15A0
330
18
100
AcDbEntity
  8
0
  6
WACOM_LSTYLE_M4
100
AcDbLine
 10
75.0
 20
173.0
 30
0.0
 11
75.0
 21
154.0
 31
0.0
  0
ARC
  5
15C8
330
18
100
AcDbEntity
  8
0
100
AcDbCircle
 10
104.1
 20
164.6
 30
0.0
 40
0.45
100
AcDbArc
 50
0.0
 51
89.99999999999998
  0
ARC
  5
15C9
330
18
100
AcDbEntity
  8
0
100
AcDbCircle
 10
104.1
 20
166.4
 30
0.0
 40
0.45
100
AcDbArc
 50
270.0
 51
0.0
  0
ARC
  5
15CA
330
18
100
AcDbEntity
  8
0
100
AcDbCircle
 10
105.0
 20
165.5
 30
0.0
 40
3.499999999999992
100
AcDbArc
 50
295.3769335251523
 51
244.6230664748476
  0
CIRCLE
  5
15CB
330
18
100
AcDbEntity
  8
0
100
AcDbCircle
 10
105.0
 20
165.5
 30
0.0
 40
2.6
  0
LINE
  5
15CC
330
18
100
AcDbEntity
  8
0
100
AcDbLine
 10
102.5
 20
157.0
 30
0.0
 11
107.5
 21
157.0
 31
0.0
  0
LINE
  5
15CD
330
18
100
AcDbEntity
  8
0
100
AcDbLine
 10
103.0
 20
160.5
 30
0.0
 11
103.0
 21
157.0
 31
0.0
  0
LINE
  5
15CE
330
18
100
AcDbEntity
  8
0
100
AcDbLine
 10
102.5
 20
160.5
 30
0.0
 11
102.5
 21
157.0
 31
0.0
  0
ARC
  5
15CF
330
18
100
AcDbEntity
  8
0
100
AcDbCircle
 10
103.38
 20
165.23
 30
0.0
 40
0.18
100
AcDbArc
 50
180.0
 51
270.0
  0
LINE
  5
15D0
330
18
100
AcDbEntity
  8
0
100
AcDbLine
 10
103.2
 20
165.77
 30
0.0
 11
103.2
 21
165.23
 31
0.0
  0
LINE
  5
15D1
330
18
100
AcDbEntity
  8
0
100
AcDbLine
 10
104.1
 20
165.95
 30
0.0
 11
103.38
 21
165.95
 31
0.0
  0
LINE
  5
15D2
330
18
100
AcDbEntity
  8
0
100
AcDbLine
 10
104.1
 20
165.05
 30
0.0
 11
103.38
 21
165.05
 31
0.0
  0
LINE
  5
15D3
330
18
100
AcDbEntity
  8
0
100
AcDbLine
 10
103.5
 20
162.3377223398316
 30
0.0
 11
103.5
 21
160.5
 31
0.0
  0
ARC
  5
15D4
330
18
100
AcDbEntity
  8
0
100
AcDbCircle
 10
103.38
 20
165.77
 30
0.0
 40
0.18
100
AcDbArc
 50
89.99999999999998
 51
180.0
  0
LINE
  5
15D5
330
18
100
AcDbEntity
  8
0
100
AcDbLine
 10
103.5
 20
160.5
 30
0.0
 11
102.5
 21
160.5
 31
0.0
  0
LINE
  5
15D6
330
18
100
AcDbEntity
  8
0
100
AcDbLine
 10
102.0
 20
167.3027756377319
 30
0.0
 11
102.0
 21
170.0
 31
0.0
  0
ARC
  5
15D7
330
18
100
AcDbEntity
  8
0
100
AcDbCircle
 10
105.9
 20
166.4
 30
0.0
 40
0.45
100
AcDbArc
 50
180.0
 51
270.0
  0
LINE
  5
15D8
330
18
100
AcDbEntity
  8
0
100
AcDbLine
 10
107.5
 20
157.0
 30
0.0
 11
107.5
 21
160.5
 31
0.0
  0
LINE
  5
15D9
330
18
100
AcDbEntity
  8
0
100
AcDbLine
 10
107.0
 20
157.0
 30
0.0
 11
107.0
 21
160.5
 31
0.0
  0
LINE
  5
15DA
330
18
100
AcDbEntity
  8
0
100
AcDbLine
 10
107.5
 20
160.5
 30
0.0
 11
106.5
 21
160.5
 31
0.0
  0
LINE
  5
15DB
330
18
100
AcDbEntity
  8
0
100
AcDbLine
 10
104.55
 20
164.6
 30
0.0
 11
104.55
 21
163.88
 31
0.0
  0
ARC
  5
15DC
330
18
100
AcDbEntity
  8
0
100
AcDbCircle
 10
104.73
 20
163.88
 30
0.0
 40
0.18
100
AcDbArc
 50
180.0
 51
270.0
  0
LINE
  5
15DD
330
18
100
AcDbEntity
  8
0
100
AcDbLine
 10
105.45
 20
164.6
 30
0.0
 11
105.45
 21
163.88
 31
0.0
  0
ARC
  5
15DE
330
18
100
AcDbEntity
  8
0
100
AcDbCircle
 10
106.62
 20
165.23
 30
0.0
 40
0.18
100
AcDbArc
 50
270.0
 51
0.0
  0
LINE
  5
15DF
330
18
100
AcDbEntity
  8
0
100
AcDbLine
 10
106.8
 20
165.77
 30
0.0
 11
106.8
 21
165.23
 31
0.0
  0
ARC
  5
15E0
330
18
100
AcDbEntity
  8
0
100
AcDbCircle
 10
105.9
 20
164.6
 30
0.0
 40
0.45
100
AcDbArc
 50
89.99999999999998
 51
180.0
  0
LINE
  5
15E1
330
18
100
AcDbEntity
  8
0
100
AcDbLine
 10
106.62
 20
165.05
 30
0.0
 11
105.9
 21
165.05
 31
0.0
  0
LINE
  5
15E2
330
18
100
AcDbEntity
  8
0
100
AcDbLine
 10
106.62
 20
165.95
 30
0.0
 11
105.9
 21
165.95
 31
0.0
  0
ARC
  5
15E3
330
18
100
AcDbEntity
  8
0
100
AcDbCircle
 10
105.27
 20
163.88
 30
0.0
 40
0.18
100
AcDbArc
 50
270.0
 51
0.0
  0
LINE
  5
15E4
330
18
100
AcDbEntity
  8
0
100
AcDbLine
 10
105.27
 20
163.7
 30
0.0
 11
104.73
 21
163.7
 31
0.0
  0
LINE
  5
15E5
330
18
100
AcDbEntity
  8
0
100
AcDbLine
 10
106.5
 20
162.3377223398316
 30
0.0
 11
106.5
 21
160.5
 31
0.0
  0
ARC
  5
15E6
330
18
100
AcDbEntity
  8
0
100
AcDbCircle
 10
106.62
 20
165.77
 30
0.0
 40
0.18
100
AcDbArc
 50
0.0
 51
89.99999999999998
  0
LINE
  5
15E7
330
18
100
AcDbEntity
  8
0
100
AcDbLine
 10
108.0
 20
167.3027756377319
 30
0.0
 11
108.0
 21
170.0
 31
0.0
  0
ARC
  5
15E8
330
18
100
AcDbEntity
  8
0
100
AcDbCircle
 10
104.73
 20
167.12
 30
0.0
 40
0.18
100
AcDbArc
 50
89.99999999999998
 51
180.0
  0
ARC
  5
15E9
330
18
100
AcDbEntity
  8
0
100
AcDbCircle
 10
105.27
 20
167.12
 30
0.0
 40
0.18
100
AcDbArc
 50
0.0
 51
89.99999999999998
  0
LINE
  5
15EA
330
18
100
AcDbEntity
  8
0
100
AcDbLine
 10
105.27
 20
167.3
 30
0.0
 11
104.73
 21
167.3
 31
0.0
  0
LINE
  5
15EB
330
18
100
AcDbEntity
  8
0
100
AcDbLine
 10
104.55
 20
167.12
 30
0.0
 11
104.55
 21
166.4
 31
0.0
  0
LINE
  5
15EC
330
18
100
AcDbEntity
  8
0
100
AcDbLine
 10
105.45
 20
167.12
 30
0.0
 11
105.45
 21
166.4
 31
0.0
  0
LINE
  5
15ED
330
18
100
AcDbEntity
  8
0
  6
WACOM_LSTYLE_M4
100
AcDbLine
 10
111.5
 20
165.5
 30
0.0
 11
98.50000000000001
 21
165.5
 31
0.0
  0
ARC
  5
15EE
330
18
100
AcDbEntity
  8
0
100
AcDbCircle
 10
74.1
 20
164.6
 30
0.0
 40
0.45
100
AcDbArc
 50
0.0
 51
89.99999999999998
  0
ARC
  5
15EF
330
18
100
AcDbEntity
  8
0
100
AcDbCircle
 10
74.1
 20
166.4
 30
0.0
 40
0.45
100
AcDbArc
 50
270.0
 51
0.0
  0
LINE
  5
15F0
330
18
100
AcDbEntity
  8
0
  6
WACOM_LSTYLE_M4
100
AcDbLine
 10
81.5
 20
165.5
 30
0.0
 11
68.5
 21
165.5
 31
0.0
  0
ARC
  5
15F1
330
18
100
AcDbEntity
  8
0
100
AcDbCircle
 10
75.0
 20
165.5
 30
0.0
 40
3.499999999999992
100
AcDbArc
 50
295.3769335251523
 51
244.6230664748476
  0
CIRCLE
  5
15F2
330
18
100
AcDbEntity
  8
0
100
AcDbCircle
 10
75.0
 20
165.5
 30
0.0
 40
2.6
  0
LINE
  5
15F3
330
18
100
AcDbEntity
  8
0
100
AcDbLine
 10
72.5
 20
157.0
 30
0.0
 11
77.5
 21
157.0
 31
0.0
  0
LINE
  5
15F4
330
18
100
AcDbEntity
  8
0
100
AcDbLine
 10
73.0
 20
160.5
 30
0.0
 11
73.0
 21
157.0
 31
0.0
  0
LINE
  5
15F5
330
18
100
AcDbEntity
  8
0
100
AcDbLine
 10
72.5
 20
160.5
 30
0.0
 11
72.5
 21
157.0
 31
0.0
  0
ARC
  5
15F6
330
18
100
AcDbEntity
  8
0
100
AcDbCircle
 10
73.38000000000005
 20
165.23
 30
0.0
 40
0.18
100
AcDbArc
 50
180.0
 51
270.0
  0
LINE
  5
15F7
330
18
100
AcDbEntity
  8
0
100
AcDbLine
 10
73.19999999999999
 20
165.77
 30
0.0
 11
73.19999999999999
 21
165.23
 31
0.0
  0
LINE
  5
15F8
330
18
100
AcDbEntity
  8
0
100
AcDbLine
 10
74.1
 20
165.95
 30
0.0
 11
73.38000000000005
 21
165.95
 31
0.0
  0
LINE
  5
15F9
330
18
100
AcDbEntity
  8
0
100
AcDbLine
 10
74.1
 20
165.05
 30
0.0
 11
73.38000000000005
 21
165.05
 31
0.0
  0
LINE
  5
15FA
330
18
100
AcDbEntity
  8
0
100
AcDbLine
 10
73.5
 20
162.3377223398316
 30
0.0
 11
73.5
 21
160.5
 31
0.0
  0
ARC
  5
15FB
330
18
100
AcDbEntity
  8
0
100
AcDbCircle
 10
73.38000000000005
 20
165.77
 30
0.0
 40
0.18
100
AcDbArc
 50
89.99999999999998
 51
180.0
  0
LINE
  5
15FC
330
18
100
AcDbEntity
  8
0
100
AcDbLine
 10
73.5
 20
160.5
 30
0.0
 11
72.5
 21
160.5
 31
0.0
  0
LINE
  5
15FD
330
18
100
AcDbEntity
  8
0
100
AcDbLine
 10
72.0
 20
167.3027756377319
 30
0.0
 11
72.0
 21
170.0
 31
0.0
  0
ARC
  5
15FE
330
18
100
AcDbEntity
  8
0
100
AcDbCircle
 10
75.9
 20
166.4
 30
0.0
 40
0.45
100
AcDbArc
 50
180.0
 51
270.0
  0
LINE
  5
15FF
330
18
100
AcDbEntity
  8
0
100
AcDbLine
 10
77.5
 20
157.0
 30
0.0
 11
77.5
 21
160.5
 31
0.0
  0
LINE
  5
1600
330
18
100
AcDbEntity
  8
0
100
AcDbLine
 10
77.0
 20
157.0
 30
0.0
 11
77.0
 21
160.5
 31
0.0
  0
LINE
  5
1601
330
18
100
AcDbEntity
  8
0
100
AcDbLine
 10
77.5
 20
160.5
 30
0.0
 11
76.5
 21
160.5
 31
0.0
  0
LINE
  5
1602
330
18
100
AcDbEntity
  8
0
100
AcDbLine
 10
74.55000000000001
 20
164.6
 30
0.0
 11
74.55000000000001
 21
163.88
 31
0.0
  0
ARC
  5
1603
330
18
100
AcDbEntity
  8
0
100
AcDbCircle
 10
74.73000000000005
 20
163.88
 30
0.0
 40
0.18
100
AcDbArc
 50
180.0
 51
270.0
  0
LINE
  5
1604
330
18
100
AcDbEntity
  8
0
100
AcDbLine
 10
75.44999999999999
 20
164.6
 30
0.0
 11
75.44999999999999
 21
163.88
 31
0.0
  0
ARC
  5
1605
330
18
100
AcDbEntity
  8
0
100
AcDbCircle
 10
76.62
 20
165.23
 30
0.0
 40
0.18
100
AcDbArc
 50
270.0
 51
0.0
  0
LINE
  5
1606
330
18
100
AcDbEntity
  8
0
100
AcDbLine
 10
76.80000000000001
 20
165.77
 30
0.0
 11
76.80000000000001
 21
165.23
 31
0.0
  0
ARC
  5
1607
330
18
100
AcDbEntity
  8
0
100
AcDbCircle
 10
75.9
 20
164.6
 30
0.0
 40
0.45
100
AcDbArc
 50
89.99999999999998
 51
180.0
  0
LINE
  5
1608
330
18
100
AcDbEntity
  8
0
100
AcDbLine
 10
76.62
 20
165.05
 30
0.0
 11
75.9
 21
165.05
 31
0.0
  0
LINE
  5
1609
330
18
100
AcDbEntity
  8
0
100
AcDbLine
 10
76.62
 20
165.95
 30
0.0
 11
75.9
 21
165.95
 31
0.0
  0
ARC
  5
160A
330
18
100
AcDbEntity
  8
0
100
AcDbCircle
 10
75.27000000000001
 20
163.88
 30
0.0
 40
0.18
100
AcDbArc
 50
270.0
 51
0.0
  0
LINE
  5
160B
330
18
100
AcDbEntity
  8
0
100
AcDbLine
 10
75.27000000000001
 20
163.7
 30
0.0
 11
74.73000000000005
 21
163.7
 31
0.0
  0
LINE
  5
160C
330
18
100
AcDbEntity
  8
0
100
AcDbLine
 10
76.5
 20
162.3377223398316
 30
0.0
 11
76.5
 21
160.5
 31
0.0
  0
ARC
  5
160D
330
18
100
AcDbEntity
  8
0
100
AcDbCircle
 10
76.62
 20
165.77
 30
0.0
 40
0.18
100
AcDbArc
 50
0.0
 51
89.99999999999998
  0
LINE
  5
160E
330
18
100
AcDbEntity
  8
0
100
AcDbLine
 10
78.0
 20
167.3027756377319
 30
0.0
 11
78.0
 21
170.0
 31
0.0
  0
ARC
  5
160F
330
18
100
AcDbEntity
  8
0
100
AcDbCircle
 10
74.73000000000005
 20
167.12
 30
0.0
 40
0.18
100
AcDbArc
 50
89.99999999999998
 51
180.0
  0
ARC
  5
1610
330
18
100
AcDbEntity
  8
0
100
AcDbCircle
 10
75.27000000000001
 20
167.12
 30
0.0
 40
0.18
100
AcDbArc
 50
0.0
 51
89.99999999999998
  0
LINE
  5
1611
330
18
100
AcDbEntity
  8
0
100
AcDbLine
 10
75.27000000000001
 20
167.3
 30
0.0
 11
74.73000000000005
 21
167.3
 31
0.0
  0
LINE
  5
1612
330
18
100
AcDbEntity
  8
0
100
AcDbLine
 10
74.55000000000001
 20
167.12
 30
0.0
 11
74.55000000000001
 21
166.4
 31
0.0
  0
LINE
  5
1613
330
18
100
AcDbEntity
  8
0
100
AcDbLine
 10
75.44999999999999
 20
167.12
 30
0.0
 11
75.44999999999999
 21
166.4
 31
0.0
  0
ARC
  5
1614
330
18
100
AcDbEntity
  8
0
100
AcDbCircle
 10
66.25
 20
188.0
 30
0.0
 40
2.0
100
AcDbArc
 50
90.0
 51
180.0
  0
ARC
  5
1615
330
18
100
AcDbEntity
  8
0
100
AcDbCircle
 10
66.25
 20
172.0
 30
0.0
 40
2.0
100
AcDbArc
 50
180.0
 51
270.0
  0
ARC
  5
1616
330
18
100
AcDbEntity
  8
0
100
AcDbCircle
 10
113.75
 20
172.0
 30
0.0
 40
2.0
100
AcDbArc
 50
270.0
 51
0.0
  0
ARC
  5
1617
330
18
100
AcDbEntity
  8
0
100
AcDbCircle
 10
113.75
 20
188.0
 30
0.0
 40
2.0
100
AcDbArc
 50
0.0
 51
90.0
  0
LEADER
  5
162E
330
18
100
AcDbEntity
  8
0
100
AcDbLeader
  3
STANDARD
 73
     0
 75
     1
 40
5.409090909090909
 41
23.86363636363636
 76
     3
 10
88.74236359933233
 20
197.216902084687
 30
0.0
 10
78.15912583739809
 20
206.2954053059709
 30
0.0
 10
75.15912583739809
 20
206.2954053059709
 30
0.0
340
162F
1001
ACAD
1000
DSTYLE
1002
{
1070
    40
1040
1.0
1002
}
  0
MTEXT
  5
162F
102
{ACAD_REACTORS
330
162E
102
}
330
18
100
AcDbEntity
  8
0
100
AcDbMText
 10
74.15912583739809
 20
209.9999507605164
 30
0.0
 40
4.0
 41
0.0
 71
     6
 72
     1
  1
2-\U+03C63.5穴
 73
     1
 44
1.0
1001
ACAD
1000
MTEXTBEGIN
1070
    73
1070
     1
1070
    44
1040
1.0
1070
    74
1070
     0
1000
MTEXTEND
  0
DIMENSION
  5
163C
330
18
100
AcDbEntity
  8
0
100
AcDbDimension
  2
*D2
 10
165.0
 20
159.0
 30
0.0
 11
162.0
 21
180.0
 31
0.0
 70
    32
 71
     5
 42
-1.0
  3
STANDARD
100
AcDbAlignedDimension
 13
90.0
 23
201.0
 33
0.0
 14
90.0
 24
159.0
 34
0.0
 50
90.0
100
AcDbRotatedDimension
1001
ACAD
1000
DSTYLE
1002
{
1070
    47
1040
0.3
1070
    48
1040
0.3
1070
    40
1040
1.0
1002
}
  0
DIMENSION
  5
166A
330
18
100
AcDbEntity
  8
0
100
AcDbDimension
  2
*D3
 10
115.75
 20
130.0
 30
0.0
 11
90.0
 21
133.0
 31
0.0
 70
    32
 71
     5
 42
-1.0
  3
STANDARD
100
AcDbAlignedDimension
 13
64.25
 23
172.0
 33
0.0
 14
115.75
 24
172.0
 34
0.0
100
AcDbRotatedDimension
1001
ACAD
1000
DSTYLE
1002
{
1070
    40
1040
1.0
1002
}
  0
DIMENSION
  5
1677
330
18
100
AcDbEntity
  8
0
100
AcDbDimension
  2
*D4
 10
120.25
 20
120.0
 30
0.0
 11
90.0
 21
123.0
 31
0.0
 70
    32
 71
     5
 42
-1.0
  3
STANDARD
100
AcDbAlignedDimension
 13
59.75
 23
171.5
 33
0.0
 14
120.25
 24
171.5
 34
0.0
100
AcDbRotatedDimension
1001
ACAD
1000
DSTYLE
1002
{
1070
    40
1040
1.0
1002
}
  0
DIMENSION
  5
169A
330
18
100
AcDbEntity
  8
0
100
AcDbDimension
  2
*D5
 10
145.0
 20
165.5
 30
0.0
 11
145.0
 21
172.75
 31
0.0
 70
   160
 71
     5
 42
-1.0
  3
STANDARD
100
AcDbAlignedDimension
 13
131.75
 23
180.0
 33
0.0
 14
111.5
 24
165.5
 34
0.0
 50
90.0
100
AcDbRotatedDimension
1001
ACAD
1000
DSTYLE
1002
{
1070
    40
1040
1.0
1002
}
  0
DIMENSION
  5
1715
330
18
100
AcDbEntity
  8
0
100
AcDbDimension
  2
*D6
 10
105.0
 20
140.0
 30
0.0
 11
90.0
 21
143.0
 31
0.0
 70
    32
 71
     5
 42
-1.0
  3
STANDARD
100
AcDbAlignedDimension
 13
75.0
 23
154.0
 33
0.0
 14
105.0
 24
154.0
 34
0.0
100
AcDbRotatedDimension
1001
ACAD
1000
DSTYLE
1002
{
1070
    40
1040
1.0
1002
}
  0
DIMENSION
  5
1722
330
18
100
AcDbEntity
  8
0
100
AcDbDimension
  2
*D7
 10
40.0
 20
170.0
 30
0.0
 11
37.00000000000001
 21
180.0
 31
0.0
 70
    32
 71
     5
 42
-1.0
  3
STANDARD
100
AcDbAlignedDimension
 13
66.25
 23
190.0
 33
0.0
 14
66.25
 24
170.0
 34
0.0
 50
90.0
100
AcDbRotatedDimension
1001
ACAD
1000
DSTYLE
1002
{
1070
    40
1040
1.0
1002
}
  0
LINE
  5
1748
330
18
100
AcDbEntity
  8
0
100
AcDbLine
 10
64.24999999999998
 20
105.0
 30
0.0
 11
64.24999999999998
 21
85.0
 31
0.0
  0
LINE
  5
1749
330
18
100
AcDbEntity
  8
0
100
AcDbLine
 10
115.75
 20
105.0
 30
0.0
 11
115.75
 21
85.0
 31
0.0
  0
LINE
  5
174A
330
18
100
AcDbEntity
  8
0
100
AcDbLine
 10
64.24999999999998
 20
105.0
 30
0.0
 11
115.75
 21
105.0
 31
0.0
  0
LINE
  5
174B
330
18
100
AcDbEntity
  8
0
100
AcDbLine
 10
64.24999999999998
 20
85.0
 30
0.0
 11
115.75
 21
85.0
 31
0.0
  0
LINE
  5
174D
330
18
100
AcDbEntity
  8
0
100
AcDbLine
 10
64.24999999999998
 20
95.0
 30
0.0
 11
115.75
 21
95.0
 31
0.0
  0
LINE
  5
174E
330
18
100
AcDbEntity
  8
0
100
AcDbLine
 10
56.24999999999999
 20
93.8
 30
0.0
 11
64.24999999999998
 21
93.8
 31
0.0
  0
LINE
  5
1752
330
18
100
AcDbEntity
  8
0
100
AcDbLine
 10
56.24999999999999
 20
95.0
 30
0.0
 11
64.24999999999998
 21
95.0
 31
0.0
  0
LINE
  5
1753
330
18
100
AcDbEntity
  8
0
100
AcDbLine
 10
56.24999999999999
 20
93.8
 30
0.0
 11
56.24999999999999
 21
95.0
 31
0.0
  0
LINE
  5
1758
330
18
100
AcDbEntity
  8
0
100
AcDbLine
 10
102.0
 20
93.8
 30
0.0
 11
108.0
 21
93.8
 31
0.0
  0
LINE
  5
1759
330
18
100
AcDbEntity
  8
0
100
AcDbLine
 10
71.99999999999999
 20
93.8
 30
0.0
 11
77.99999999999998
 21
93.8
 31
0.0
  0
LINE
  5
175A
330
18
100
AcDbEntity
  8
0
100
AcDbLine
 10
108.0
 20
95.0
 30
0.0
 11
108.0
 21
93.8
 31
0.0
  0
LINE
  5
175B
330
18
100
AcDbEntity
  8
0
100
AcDbLine
 10
102.0
 20
95.0
 30
0.0
 11
102.0
 21
93.8
 31
0.0
  0
LINE
  5
175C
330
18
100
AcDbEntity
  8
0
100
AcDbLine
 10
77.99999999999998
 20
95.0
 30
0.0
 11
77.99999999999998
 21
93.8
 31
0.0
  0
LINE
  5
175D
330
18
100
AcDbEntity
  8
0
100
AcDbLine
 10
71.99999999999999
 20
95.0
 30
0.0
 11
71.99999999999999
 21
93.8
 31
0.0
  0
ARC
  5
175E
330
18
100
AcDbEntity
  8
0
100
AcDbCircle
 10
103.3
 20
96.80000000000001
 30
0.0
 40
1.2
100
AcDbArc
 50
125.9780599287599
 51
180.0
  0
LINE
  5
175F
330
18
100
AcDbEntity
  8
0
100
AcDbLine
 10
103.1366100187505
 20
96.0
 30
0.0
 11
102.0999999999999
 21
96.0
 31
0.0
  0
LINE
  5
1760
330
18
100
AcDbEntity
  8
0
100
AcDbLine
 10
103.4538336514601
 20
95.50000000000002
 30
0.0
 11
101.0
 21
95.5
 31
0.0
  0
LINE
  5
1761
330
18
100
AcDbEntity
  8
0
100
AcDbLine
 10
108.9999999999999
 20
95.0
 30
0.0
 11
101.0
 21
95.0
 31
0.0
  0
LINE
  5
1762
330
18
100
AcDbEntity
  8
0
100
AcDbLine
 10
102.0999999999999
 20
96.0
 30
0.0
 11
102.0999999999999
 21
96.80000000000001
 31
0.0
  0
LINE
  5
1763
330
18
100
AcDbEntity
  8
0
100
AcDbLine
 10
102.0999999999999
 20
96.0
 30
0.0
 11
102.0999999999999
 21
95.5
 31
0.0
  0
LINE
  5
1764
330
18
100
AcDbEntity
  8
0
100
AcDbLine
 10
101.0
 20
95.50000000000002
 30
0.0
 11
101.0
 21
95.0
 31
0.0
  0
ARC
  5
1765
330
18
100
AcDbEntity
  8
0
100
AcDbCircle
 10
104.5663048397515
 20
96.50618480172454
 30
0.0
 40
1.5
100
AcDbArc
 50
210.0304063728005
 51
268.3539296186374
  0
ARC
  5
1766
330
18
100
AcDbEntity
  8
0
100
AcDbCircle
 10
105.4336951602482
 20
96.50618480172473
 30
0.0
 40
1.5
100
AcDbArc
 50
271.6460703813678
 51
329.9695936271964
  0
LINE
  5
1767
330
18
100
AcDbEntity
  8
0
100
AcDbLine
 10
106.7
 20
98.0
 30
0.0
 11
103.3
 21
98.0
 31
0.0
  0
LINE
  5
1768
330
18
100
AcDbEntity
  8
0
100
AcDbLine
 10
106.3226798090954
 20
95.99999999999999
 30
0.0
 11
103.6773201909045
 21
96.00000000000001
 31
0.0
  0
ARC
  5
1769
330
18
100
AcDbEntity
  8
0
100
AcDbCircle
 10
105.4605905602481
 20
96.50675647703986
 30
0.0
 40
1.0
100
AcDbArc
 50
271.6935061213149
 51
330.799964825539
  0
LINE
  5
176A
330
18
100
AcDbEntity
  8
0
100
AcDbLine
 10
102.4999999999999
 20
99.0
 30
0.0
 11
103.0
 21
99.0
 31
0.0
  0
ARC
  5
176B
330
18
100
AcDbEntity
  8
0
100
AcDbCircle
 10
103.3
 20
96.80000000000001
 30
0.0
 40
1.2
100
AcDbArc
 50
90.0
 51
101.2201120603588
  0
ARC
  5
176C
330
18
100
AcDbEntity
  8
0
100
AcDbCircle
 10
104.5394094397515
 20
96.50675647704035
 30
0.0
 40
1.0
100
AcDbArc
 50
209.2000351744353
 51
268.3064938786781
  0
ELLIPSE
  5
176D
330
18
100
AcDbEntity
  8
0
100
AcDbEllipse
 10
105.0
 20
96.0
 30
0.0
 11
-2.900000000000004
 21
0.0
 31
0.0
210
0.0
220
0.0
230
1.0
 40
0.1724137931034479
 41
1.400966115987156
 42
1.740626537602507
  0
ELLIPSE
  5
176E
330
18
100
AcDbEntity
  8
0
100
AcDbEllipse
 10
105.0
 20
95.5
 30
0.0
 11
-2.900000000000004
 21
0.0
 31
0.0
210
0.0
220
0.0
230
1.0
 40
0.1724137931034479
 41
1.405638493419228
 42
1.735954160170565
  0
ELLIPSE
  5
176F
330
18
100
AcDbEntity
  8
0
100
AcDbEllipse
 10
105.0
 20
99.0
 30
0.0
 11
0.0000000000000013
 21
3.999999999999996
 31
0.0
210
0.0
220
0.0
230
1.0
 40
0.5000000000000005
 41
1.570796326794896
 42
2.411744910921675
  0
ELLIPSE
  5
1770
330
18
100
AcDbEntity
  8
0
100
AcDbEllipse
 10
105.0
 20
99.0
 30
0.0
 11
-0.0000000000000104
 21
4.499999999999998
 31
0.0
210
0.0
220
0.0
230
1.0
 40
0.5555555555555558
 41
1.570796326794895
 42
2.376042138032288
  0
LINE
  5
1771
330
18
100
AcDbEntity
  8
0
100
AcDbLine
 10
107.0
 20
99.0
 30
0.0
 11
107.4999999999999
 21
99.0
 31
0.0
  0
ARC
  5
1772
330
18
100
AcDbEntity
  8
0
100
AcDbCircle
 10
106.7
 20
96.80000000000001
 30
0.0
 40
1.2
100
AcDbArc
 50
78.77988793964251
 51
90.0
  0
LINE
  5
1773
330
18
100
AcDbEntity
  8
0
100
AcDbLine
 10
107.8999999999999
 20
96.0
 30
0.0
 11
107.8999999999999
 21
96.80000000000001
 31
0.0
  0
LINE
  5
1774
330
18
100
AcDbEntity
  8
0
100
AcDbLine
 10
107.8999999999999
 20
96.0
 30
0.0
 11
106.8633899812501
 21
95.99999999999999
 31
0.0
  0
LINE
  5
1775
330
18
100
AcDbEntity
  8
0
100
AcDbLine
 10
107.8999999999999
 20
96.0
 30
0.0
 11
107.8999999999999
 21
95.5
 31
0.0
  0
LINE
  5
1776
330
18
100
AcDbEntity
  8
0
100
AcDbLine
 10
108.9999999999999
 20
95.5
 30
0.0
 11
108.9999999999999
 21
95.0
 31
0.0
  0
LINE
  5
1777
330
18
100
AcDbEntity
  8
0
100
AcDbLine
 10
108.9999999999999
 20
95.5
 30
0.0
 11
106.5461663485395
 21
95.50000000000002
 31
0.0
  0
ARC
  5
1778
330
18
100
AcDbEntity
  8
0
100
AcDbCircle
 10
106.7
 20
96.80000000000001
 30
0.0
 40
1.2
100
AcDbArc
 50
0.0
 51
54.02194007124116
  0
ELLIPSE
  5
1779
330
18
100
AcDbEntity
  8
0
100
AcDbEllipse
 10
105.0
 20
99.0
 30
0.0
 11
0.0000000000000024
 21
4.500000000000008
 31
0.0
210
0.0
220
0.0
230
1.0
 40
0.5555555555555545
 41
3.907143169147299
 42
4.712388980384689
  0
ELLIPSE
  5
177A
330
18
100
AcDbEntity
  8
0
100
AcDbEllipse
 10
105.0
 20
99.0
 30
0.0
 11
-0.0000000000000008
 21
3.999999999999997
 31
0.0
210
0.0
220
0.0
230
1.0
 40
0.5000000000000004
 41
3.871440396257586
 42
4.712388980384689
  0
LINE
  5
177B
330
18
100
AcDbEntity
  8
0
  6
WACOM_LSTYLE_M4
100
AcDbLine
 10
105.0
 20
100.0
 30
0.0
 11
105.0
 21
89.29999999999997
 31
0.0
  0
LINE
  5
177C
330
18
100
AcDbEntity
  8
0
100
AcDbLine
 10
76.69999999999999
 20
98.0
 30
0.0
 11
73.29999999999998
 21
98.0
 31
0.0
  0
LINE
  5
177D
330
18
100
AcDbEntity
  8
0
100
AcDbLine
 10
73.45383365146009
 20
95.50000000000002
 30
0.0
 11
70.99999999999997
 21
95.5
 31
0.0
  0
LINE
  5
177E
330
18
100
AcDbEntity
  8
0
100
AcDbLine
 10
78.99999999999997
 20
95.0
 30
0.0
 11
70.99999999999997
 21
95.0
 31
0.0
  0
ARC
  5
177F
330
18
100
AcDbEntity
  8
0
100
AcDbCircle
 10
74.56630483975152
 20
96.50618480172454
 30
0.0
 40
1.5
100
AcDbArc
 50
210.0304063728005
 51
268.3539296186374
  0
ELLIPSE
  5
1780
330
18
100
AcDbEntity
  8
0
100
AcDbEllipse
 10
74.99999999999997
 20
99.0
 30
0.0
 11
0.0000000000000013
 21
3.999999999999996
 31
0.0
210
0.0
220
0.0
230
1.0
 40
0.5000000000000005
 41
1.570796326794896
 42
2.411744910921675
  0
ARC
  5
1781
330
18
100
AcDbEntity
  8
0
100
AcDbCircle
 10
73.29999999999998
 20
96.80000000000001
 30
0.0
 40
1.2
100
AcDbArc
 50
125.9780599287599
 51
180.0
  0
LINE
  5
1782
330
18
100
AcDbEntity
  8
0
100
AcDbLine
 10
72.49999999999997
 20
99.0
 30
0.0
 11
72.99999999999997
 21
99.0
 31
0.0
  0
ARC
  5
1783
330
18
100
AcDbEntity
  8
0
100
AcDbCircle
 10
73.29999999999998
 20
96.80000000000001
 30
0.0
 40
1.2
100
AcDbArc
 50
90.0
 51
101.2201120603588
  0
LINE
  5
1784
330
18
100
AcDbEntity
  8
0
100
AcDbLine
 10
73.13661001875049
 20
96.0
 30
0.0
 11
72.09999999999997
 21
96.0
 31
0.0
  0
LINE
  5
1785
330
18
100
AcDbEntity
  8
0
100
AcDbLine
 10
72.09999999999997
 20
96.0
 30
0.0
 11
72.09999999999997
 21
95.5
 31
0.0
  0
LINE
  5
1786
330
18
100
AcDbEntity
  8
0
100
AcDbLine
 10
70.99999999999997
 20
95.50000000000002
 30
0.0
 11
70.99999999999997
 21
95.0
 31
0.0
  0
LINE
  5
1787
330
18
100
AcDbEntity
  8
0
100
AcDbLine
 10
72.09999999999997
 20
96.0
 30
0.0
 11
72.09999999999997
 21
96.80000000000001
 31
0.0
  0
ELLIPSE
  5
1788
330
18
100
AcDbEntity
  8
0
100
AcDbEllipse
 10
74.99999999999997
 20
99.0
 30
0.0
 11
-0.0000000000000104
 21
4.499999999999998
 31
0.0
210
0.0
220
0.0
230
1.0
 40
0.5555555555555558
 41
1.570796326794895
 42
2.376042138032288
  0
LINE
  5
1789
330
18
100
AcDbEntity
  8
0
100
AcDbLine
 10
76.99999999999997
 20
99.0
 30
0.0
 11
77.49999999999997
 21
99.0
 31
0.0
  0
ARC
  5
178A
330
18
100
AcDbEntity
  8
0
100
AcDbCircle
 10
76.69999999999999
 20
96.80000000000001
 30
0.0
 40
1.2
100
AcDbArc
 50
0.0
 51
54.02194007124116
  0
LINE
  5
178B
330
18
100
AcDbEntity
  8
0
100
AcDbLine
 10
77.89999999999998
 20
96.0
 30
0.0
 11
76.86338998125015
 21
95.99999999999999
 31
0.0
  0
LINE
  5
178C
330
18
100
AcDbEntity
  8
0
100
AcDbLine
 10
78.99999999999997
 20
95.5
 30
0.0
 11
76.54616634853955
 21
95.50000000000002
 31
0.0
  0
ELLIPSE
  5
178D
330
18
100
AcDbEntity
  8
0
100
AcDbEllipse
 10
74.99999999999997
 20
99.0
 30
0.0
 11
0.0000000000000024
 21
4.500000000000008
 31
0.0
210
0.0
220
0.0
230
1.0
 40
0.5555555555555545
 41
3.907143169147299
 42
4.712388980384689
  0
ARC
  5
178E
330
18
100
AcDbEntity
  8
0
100
AcDbCircle
 10
76.69999999999999
 20
96.80000000000001
 30
0.0
 40
1.2
100
AcDbArc
 50
78.77988793964251
 51
90.0
  0
ARC
  5
178F
330
18
100
AcDbEntity
  8
0
100
AcDbCircle
 10
75.43369516024828
 20
96.50618480172473
 30
0.0
 40
1.5
100
AcDbArc
 50
271.6460703813678
 51
329.9695936271964
  0
LINE
  5
1790
330
18
100
AcDbEntity
  8
0
100
AcDbLine
 10
76.32267980909546
 20
95.99999999999999
 30
0.0
 11
73.67732019090453
 21
96.00000000000001
 31
0.0
  0
ARC
  5
1791
330
18
100
AcDbEntity
  8
0
100
AcDbCircle
 10
75.46059056024813
 20
96.50675647703986
 30
0.0
 40
1.0
100
AcDbArc
 50
271.6935061213149
 51
330.799964825539
  0
ARC
  5
1792
330
18
100
AcDbEntity
  8
0
100
AcDbCircle
 10
74.53940943975158
 20
96.50675647704035
 30
0.0
 40
1.0
100
AcDbArc
 50
209.2000351744353
 51
268.3064938786781
  0
ELLIPSE
  5
1793
330
18
100
AcDbEntity
  8
0
100
AcDbEllipse
 10
74.99999999999997
 20
96.0
 30
0.0
 11
-2.900000000000004
 21
0.0
 31
0.0
210
0.0
220
0.0
230
1.0
 40
0.1724137931034479
 41
1.400966115987156
 42
1.740626537602507
  0
ELLIPSE
  5
1794
330
18
100
AcDbEntity
  8
0
100
AcDbEllipse
 10
74.99999999999997
 20
95.5
 30
0.0
 11
-2.900000000000004
 21
0.0
 31
0.0
210
0.0
220
0.0
230
1.0
 40
0.1724137931034479
 41
1.405638493419228
 42
1.735954160170565
  0
ELLIPSE
  5
1795
330
18
100
AcDbEntity
  8
0
100
AcDbEllipse
 10
74.99999999999997
 20
99.0
 30
0.0
 11
-0.0000000000000008
 21
3.999999999999997
 31
0.0
210
0.0
220
0.0
230
1.0
 40
0.5000000000000004
 41
3.871440396257586
 42
4.712388980384689
  0
LINE
  5
1796
330
18
100
AcDbEntity
  8
0
100
AcDbLine
 10
77.89999999999998
 20
96.0
 30
0.0
 11
77.89999999999998
 21
95.5
 31
0.0
  0
LINE
  5
1797
330
18
100
AcDbEntity
  8
0
100
AcDbLine
 10
78.99999999999997
 20
95.5
 30
0.0
 11
78.99999999999997
 21
95.0
 31
0.0
  0
LINE
  5
1798
330
18
100
AcDbEntity
  8
0
100
AcDbLine
 10
77.89999999999998
 20
96.0
 30
0.0
 11
77.89999999999998
 21
96.80000000000001
 31
0.0
  0
LINE
  5
179B
330
18
100
AcDbEntity
  8
0
100
AcDbLine
 10
94.99999999999998
 20
90.5
 30
0.0
 11
94.99999999999998
 21
85.0
 31
0.0
  0
LINE
  5
179C
330
18
100
AcDbEntity
  8
0
100
AcDbLine
 10
84.99999999999998
 20
90.5
 30
0.0
 11
84.99999999999998
 21
85.0
 31
0.0
  0
LINE
  5
179D
330
18
100
AcDbEntity
  8
0
100
AcDbLine
 10
94.99999999999998
 20
90.5
 30
0.0
 11
84.99999999999998
 21
90.5
 31
0.0
  0
LINE
  5
17A3
330
18
100
AcDbEntity
  8
0
100
AcDbLine
 10
63.24999999999997
 20
95.50000000000002
 30
0.0
 11
54.74999999999997
 21
95.50000000000002
 31
0.0
  0
LINE
  5
17A4
330
18
100
AcDbEntity
  8
0
100
AcDbLine
 10
63.24999999999996
 20
95.50000000000002
 30
0.0
 11
63.24999999999997
 21
95.0
 31
0.0
  0
LINE
  5
17A5
330
18
100
AcDbEntity
  8
0
100
AcDbLine
 10
61.15
 20
98.00000000000002
 30
0.0
 11
58.34999999999999
 21
98.00000000000002
 31
0.0
  0
ARC
  5
17A7
330
18
100
AcDbEntity
  8
0
100
AcDbCircle
 10
61.15
 20
96.80000000000005
 30
0.0
 40
1.199999999999995
100
AcDbArc
 50
359.9999999999993
 51
90.00000000000033
  0
ARC
  5
17A9
330
18
100
AcDbEntity
  8
0
100
AcDbCircle
 10
58.34999999999997
 20
96.80000000000006
 30
0.0
 40
1.19999999999996
100
AcDbArc
 50
89.99999999999864
 51
180.0000000000013
  0
LINE
  5
17AA
330
18
100
AcDbEntity
  8
0
100
AcDbLine
 10
62.34999999999998
 20
96.0
 30
0.0
 11
57.14999999999998
 21
96.0
 31
0.0
  0
LINE
  5
17AB
330
18
100
AcDbEntity
  8
0
100
AcDbLine
 10
62.34999999999997
 20
96.80000000000005
 30
0.0
 11
62.34999999999998
 21
95.50000000000002
 31
0.0
  0
LINE
  5
17AC
330
18
100
AcDbEntity
  8
0
100
AcDbLine
 10
57.14999999999998
 20
96.80000000000006
 30
0.0
 11
57.14999999999998
 21
95.50000000000002
 31
0.0
  0
LINE
  5
17AD
330
18
100
AcDbEntity
  8
0
100
AcDbLine
 10
54.74999999999997
 20
99.0
 30
0.0
 11
51.24999999999999
 21
99.0
 31
0.0
  0
LINE
  5
17AE
330
18
100
AcDbEntity
  8
0
100
AcDbLine
 10
56.24999999999999
 20
95.0
 30
0.0
 11
51.24999999999999
 21
95.0
 31
0.0
  0
LINE
  5
17AF
330
18
100
AcDbEntity
  8
0
100
AcDbLine
 10
54.74999999999997
 20
99.0
 30
0.0
 11
54.74999999999997
 21
95.0
 31
0.0
  0
LINE
  5
17B0
330
18
100
AcDbEntity
  8
0
100
AcDbLine
 10
51.24999999999999
 20
99.0
 30
0.0
 11
51.24999999999999
 21
95.0
 31
0.0
  0
LINE
  5
17B2
330
18
100
AcDbEntity
  8
0
100
AcDbLine
 10
61.25
 20
93.8
 30
0.0
 11
61.25
 21
91.3
 31
0.0
  0
LINE
  5
17B3
330
18
100
AcDbEntity
  8
0
100
AcDbLine
 10
58.25
 20
93.8
 30
0.0
 11
58.25
 21
91.3
 31
0.0
  0
LINE
  5
17B4
330
18
100
AcDbEntity
  8
0
100
AcDbLine
 10
58.25
 20
91.3
 30
0.0
 11
61.25
 21
91.3
 31
0.0
  0
LINE
  5
17B5
330
18
100
AcDbEntity
  8
0
100
AcDbLine
 10
123.75
 20
93.8
 30
0.0
 11
123.75
 21
95.0
 31
0.0
  0
LINE
  5
17B6
330
18
100
AcDbEntity
  8
0
100
AcDbLine
 10
123.75
 20
93.8
 30
0.0
 11
115.75
 21
93.8
 31
0.0
  0
LINE
  5
17B7
330
18
100
AcDbEntity
  8
0
100
AcDbLine
 10
118.75
 20
93.8
 30
0.0
 11
118.75
 21
91.3
 31
0.0
  0
LINE
  5
17B8
330
18
100
AcDbEntity
  8
0
100
AcDbLine
 10
121.75
 20
93.8
 30
0.0
 11
121.75
 21
91.3
 31
0.0
  0
LINE
  5
17B9
330
18
100
AcDbEntity
  8
0
100
AcDbLine
 10
121.75
 20
91.3
 30
0.0
 11
118.75
 21
91.3
 31
0.0
  0
LINE
  5
17BA
330
18
100
AcDbEntity
  8
0
100
AcDbLine
 10
117.65
 20
96.0
 30
0.0
 11
122.85
 21
96.0
 31
0.0
  0
ARC
  5
17BB
330
18
100
AcDbEntity
  8
0
100
AcDbCircle
 10
118.8499999999999
 20
96.80000000000005
 30
0.0
 40
1.199999999999995
100
AcDbArc
 50
89.99999999999968
 51
180.0000000000007
  0
LINE
  5
17BC
330
18
100
AcDbEntity
  8
0
100
AcDbLine
 10
116.75
 20
95.50000000000002
 30
0.0
 11
125.25
 21
95.50000000000002
 31
0.0
  0
LINE
  5
17BD
330
18
100
AcDbEntity
  8
0
100
AcDbLine
 10
123.75
 20
95.0
 30
0.0
 11
115.75
 21
95.0
 31
0.0
  0
LINE
  5
17BE
330
18
100
AcDbEntity
  8
0
100
AcDbLine
 10
123.75
 20
95.0
 30
0.0
 11
128.75
 21
95.0
 31
0.0
  0
LINE
  5
17BF
330
18
100
AcDbEntity
  8
0
100
AcDbLine
 10
125.25
 20
99.0
 30
0.0
 11
128.75
 21
99.0
 31
0.0
  0
LINE
  5
17C0
330
18
100
AcDbEntity
  8
0
100
AcDbLine
 10
128.75
 20
99.0
 30
0.0
 11
128.75
 21
95.0
 31
0.0
  0
ARC
  5
17C1
330
18
100
AcDbEntity
  8
0
100
AcDbCircle
 10
121.65
 20
96.80000000000006
 30
0.0
 40
1.19999999999996
100
AcDbArc
 50
359.9999999999987
 51
90.00000000000133
  0
LINE
  5
17C2
330
18
100
AcDbEntity
  8
0
100
AcDbLine
 10
125.25
 20
99.0
 30
0.0
 11
125.25
 21
95.0
 31
0.0
  0
LINE
  5
17C3
330
18
100
AcDbEntity
  8
0
100
AcDbLine
 10
122.85
 20
96.80000000000006
 30
0.0
 11
122.85
 21
95.50000000000002
 31
0.0
  0
LINE
  5
17C4
330
18
100
AcDbEntity
  8
0
100
AcDbLine
 10
118.8499999999999
 20
98.00000000000002
 30
0.0
 11
121.6499999999999
 21
98.00000000000002
 31
0.0
  0
LINE
  5
17C5
330
18
100
AcDbEntity
  8
0
100
AcDbLine
 10
117.65
 20
96.80000000000005
 30
0.0
 11
117.65
 21
95.50000000000002
 31
0.0
  0
LINE
  5
17C6
330
18
100
AcDbEntity
  8
0
100
AcDbLine
 10
116.75
 20
95.50000000000002
 30
0.0
 11
116.75
 21
95.0
 31
0.0
  0
LINE
  5
17C7
330
18
100
AcDbEntity
  8
0
100
AcDbLine
 10
76.49999999999997
 20
93.8
 30
0.0
 11
76.49999999999997
 21
91.3
 31
0.0
  0
LINE
  5
17C8
330
18
100
AcDbEntity
  8
0
100
AcDbLine
 10
73.49999999999997
 20
93.8
 30
0.0
 11
73.49999999999997
 21
91.3
 31
0.0
  0
LINE
  5
17C9
330
18
100
AcDbEntity
  8
0
100
AcDbLine
 10
73.49999999999997
 20
91.3
 30
0.0
 11
76.49999999999997
 21
91.3
 31
0.0
  0
LINE
  5
17CA
330
18
100
AcDbEntity
  8
0
100
AcDbLine
 10
106.4999999999999
 20
93.79999999999999
 30
0.0
 11
106.4999999999999
 21
91.29999999999999
 31
0.0
  0
LINE
  5
17CB
330
18
100
AcDbEntity
  8
0
100
AcDbLine
 10
103.4999999999999
 20
93.79999999999999
 30
0.0
 11
103.4999999999999
 21
91.29999999999999
 31
0.0
  0
LINE
  5
17CC
330
18
100
AcDbEntity
  8
0
100
AcDbLine
 10
103.4999999999999
 20
91.29999999999999
 30
0.0
 11
106.4999999999999
 21
91.29999999999999
 31
0.0
  0
LINE
  5
17CD
330
18
100
AcDbEntity
  8
0
  6
WACOM_LSTYLE_M4
100
AcDbLine
 10
89.99999999999998
 20
110.0
 30
0.0
 11
89.99999999999998
 21
80.0
 31
0.0
  0
LINE
  5
17CE
330
18
100
AcDbEntity
  8
0
  6
WACOM_LSTYLE_M4
100
AcDbLine
 10
120.2499999999999
 20
100.0
 30
0.0
 11
120.2499999999999
 21
89.29999999999999
 31
0.0
  0
LINE
  5
17CF
330
18
100
AcDbEntity
  8
0
  6
WACOM_LSTYLE_M4
100
AcDbLine
 10
74.99999999999997
 20
100.0
 30
0.0
 11
74.99999999999997
 21
89.29999999999999
 31
0.0
  0
LINE
  5
17D0
330
18
100
AcDbEntity
  8
0
  6
WACOM_LSTYLE_M4
100
AcDbLine
 10
59.74999999999997
 20
100.0
 30
0.0
 11
59.74999999999997
 21
89.29999999999997
 31
0.0
  0
DIMENSION
  5
181F
330
18
100
AcDbEntity
  8
0
100
AcDbDimension
  2
*D8
 10
155.0
 20
84.99999999999998
 30
0.0
 11
152.0
 21
94.99999999999998
 31
0.0
 70
    32
 71
     5
 42
-1.0
  3
STANDARD
100
AcDbAlignedDimension
 13
115.75
 23
105.0
 33
0.0
 14
115.75
 24
85.0
 34
0.0
 50
90.0
100
AcDbRotatedDimension
1001
ACAD
1000
DSTYLE
1002
{
1070
    40
1040
1.0
1002
}
  0
DIMENSION
  5
182E
330
18
100
AcDbEntity
  8
0
100
AcDbDimension
  2
*D9
 10
145.0
 20
84.99999999999998
 30
0.0
 11
145.0
 21
100.7045454545454
 31
0.0
 70
   160
 71
     5
 42
-1.0
  3
STANDARD
100
AcDbAlignedDimension
 13
94.99999999999998
 23
90.5
 33
0.0
 14
115.75
 24
85.0
 34
0.0
 50
90.0
100
AcDbRotatedDimension
1001
ACAD
1000
DSTYLE
1002
{
1070
    40
1040
1.0
1002
}
  0
ENDSEC
  0
SECTION
  2
OBJECTS
  0
DICTIONARY
  5
C
330
0
100
AcDbDictionary
281
     1
  3
ACAD_COLOR
350
187F
  3
ACAD_GROUP
350
D
  3
ACAD_LAYOUT
350
1896
  3
ACAD_MATERIAL
350
184D
  3
ACAD_MLEADERSTYLE
350
1894
  3
ACAD_MLINESTYLE
350
1B
  3
ACAD_PLOTSETTINGS
350
1897
  3
ACAD_PLOTSTYLENAME
350
184B
  3
ACAD_SCALELIST
350
1882
  3
ACAD_TABLESTYLE
350
1880
  3
ACAD_VISUALSTYLE
350
1866
  3
ACDB_RECOMPOSE_DATA
350
18A9
  3
AcDbVariableDictionary
350
189F
  3
DRAWINGVARIABLESDICT
350
B53
  3
DWGPROPS
350
18AA
  0
DICTIONARY
  5
189D
330
E
100
AcDbDictionary
280
     1
281
     1
  3
ADSK_XREC_LAYER_RECONCILED
360
189E
  0
DICTIONARY
  5
187F
102
{ACAD_REACTORS
330
C
102
}
330
C
100
AcDbDictionary
281
     1
  0
DICTIONARY
  5
D
102
{ACAD_REACTORS
330
C
102
}
330
0
100
AcDbDictionary
281
     1
  0
DICTIONARY
  5
1896
102
{ACAD_REACTORS
330
C
102
}
330
C
100
AcDbDictionary
281
     1
  3
Model
350
1898
  3
レイアウト1
350
1899
  0
DICTIONARY
  5
184D
102
{ACAD_REACTORS
330
C
102
}
330
C
100
AcDbDictionary
281
     1
  3
ByBlock
350
1856
  3
ByLayer
350
184E
  3
Global
350
185E
  0
DICTIONARY
  5
1894
102
{ACAD_REACTORS
330
C
102
}
330
C
100
AcDbDictionary
281
     1
  3
Standard
350
1895
  0
DICTIONARY
  5
1B
102
{ACAD_REACTORS
330
C
102
}
330
0
100
AcDbDictionary
281
     1
  3
STANDARD
350
1C
  0
DICTIONARY
  5
1897
102
{ACAD_REACTORS
330
C
102
}
330
C
100
AcDbDictionary
281
     1
  0
ACDBDICTIONARYWDFLT
  5
184B
102
{ACAD_REACTORS
330
C
102
}
330
C
100
AcDbDictionary
281
     1
  3
Normal
350
184C
100
AcDbDictionaryWithDefault
340
184C
  0
DICTIONARY
  5
1882
102
{ACAD_REACTORS
330
C
102
}
330
C
100
AcDbDictionary
281
     1
  3
A0
350
1883
  3
A1
350
1884
  3
A2
350
1885
  3
A3
350
1886
  3
A4
350
1887
  3
A5
350
1888
  3
A6
350
1889
  3
A7
350
188A
  3
A8
350
188B
  3
A9
350
188C
  3
B0
350
188D
  3
B1
350
188E
  3
B2
350
188F
  3
B3
350
1890
  3
B4
350
1891
  3
B5
350
1892
  3
B6
350
1893
  0
DICTIONARY
  5
1880
102
{ACAD_REACTORS
330
C
102
}
330
C
100
AcDbDictionary
281
     1
  3
Standard
350
1881
  0
DICTIONARY
  5
1866
102
{ACAD_REACTORS
330
C
102
}
330
C
100
AcDbDictionary
281
     1
  3
2dWireframe
350
186C
  3
Basic
350
186B
  3
Brighten
350
1872
  3
ColorChange
350
1876
  3
Conceptual
350
186F
  3
Dim
350
1871
  3
EdgeColorOff
350
187E
  3
Facepattern
350
1875
  3
Flat
350
1867
  3
FlatWithEdges
350
1868
  3
Gouraud
350
1869
  3
GouraudWithEdges
350
186A
  3
Hidden
350
186E
  3
JitterOff
350
187C
  3
Linepattern
350
1874
  3
OverhangOff
350
187D
  3
Realistic
350
1870
  3
Shaded
350
187B
  3
Shaded with edges
350
187A
  3
Shades of Gray
350
1877
  3
Sketchy
350
1878
  3
Thicken
350
1873
  3
Wireframe
350
186D
  3
X-Ray
350
1879
  0
XRECORD
  5
18A9
102
{ACAD_REACTORS
330
C
102
}
330
C
100
AcDbXrecord
280
     1
 90
        1
330
1881
  0
DICTIONARY
  5
189F
102
{ACAD_REACTORS
330
C
102
}
330
C
100
AcDbDictionary
281
     1
  3
CANNOSCALE
350
18A2
  3
CMLEADERSTYLE
350
18A1
  3
CTABLESTYLE
350
18A0
  3
DIMASSOC
350
18A5
  3
INDEXCTL
350
18A4
  3
SORTENTS
350
18A3
  3
XCLIPFRAME
350
18A6
  0
DICTIONARY
  5
B53
102
{ACAD_REACTORS
330
C
102
}
330
C
100
AcDbDictionary
281
     1
1001
DRAWINGVARIABLESXDATA
1000
POLARMODE
1000
3
  0
XRECORD
  5
18AA
102
{ACAD_REACTORS
330
C
102
}
330
C
100
AcDbXrecord
280
     1
  1
DWGPROPS COOKIE
  2

  3

  4

  6

  7

  8
hkaihatsu
  9

300
=
301
=
302
=
303
=
304
=
305
=
306
=
307
=
308
=
309
=
 40
0.3996853009259259
 41
2452403.362619942
 42
2458766.485021135
  1

 90
        0
  0
XRECORD
  5
189E
102
{ACAD_REACTORS
330
189D
102
}
330
189D
100
AcDbXrecord
280
     1
290
     1
  0
LAYOUT
  5
1898
102
{ACAD_XDICTIONARY
360
18E0
102
}
102
{ACAD_REACTORS
330
1896
102
}
330
1896
100
AcDbPlotSettings
  1

  2
DWG To PDF.pc3
  4

  6

 40
0.0
 41
0.0
 42
0.0
 43
0.0
 44
0.0
 45
0.0
 46
0.0
 47
0.0
 48
0.0
 49
0.0
140
0.0
141
0.0
142
1.0
143
1.0
 70
  1712
 72
     0
 73
     0
 74
     0
  7

 75
     0
147
1.0
148
0.0
149
0.0
100
AcDbLayout
  1
Model
 70
     1
 71
     0
 10
0.0
 20
0.0
 11
12.0
 21
9.0
 12
0.0
 22
0.0
 32
0.0
 14
0.0
 24
0.0
 34
0.0
 15
0.0
 25
0.0
 35
0.0
146
0.0
 13
0.0
 23
0.0
 33
0.0
 16
1.0
 26
0.0
 36
0.0
 17
0.0
 27
1.0
 37
0.0
 76
     0
330
18
331
1849
  0
LAYOUT
  5
1899
102
{ACAD_XDICTIONARY
360
18E2
102
}
102
{ACAD_REACTORS
330
1896
102
}
330
1896
100
AcDbPlotSettings
  1

  2
DWG To PDF.pc3
  4

  6

 40
0.0
 41
0.0
 42
0.0
 43
0.0
 44
0.0
 45
0.0
 46
0.0
 47
0.0
 48
0.0
 49
0.0
140
0.0
141
0.0
142
1.0
143
1.0
 70
   688
 72
     0
 73
     0
 74
     5
  7

 75
    16
147
1.0
148
0.0
149
0.0
100
AcDbLayout
  1
レイアウト1
 70
     1
 71
     1
 10
0.0
 20
0.0
 11
420.0
 21
297.0
 12
0.0
 22
0.0
 32
0.0
 14
1.000000000000000E+20
 24
1.000000000000000E+20
 34
1.000000000000000E+20
 15
-1.000000000000000E+20
 25
-1.000000000000000E+20
 35
-1.000000000000000E+20
146
0.0
 13
0.0
 23
0.0
 33
0.0
 16
1.0
 26
0.0
 36
0.0
 17
0.0
 27
1.0
 37
0.0
 76
     0
330
15
  0
MATERIAL
  5
1856
102
{ACAD_XDICTIONARY
360
1857
102
}
102
{ACAD_REACTORS
330
184D
102
}
330
184D
100
AcDbMaterial
  1
ByBlock
 72
     0
 43
0.0208333333333333
 43
0.0
 43
0.0
 43
0.0
 43
0.0
 43
0.0208333333333333
 43
0.0
 43
0.0
 43
0.0
 43
0.0
 43
1.0
 43
0.0
 43
0.0
 43
0.0
 43
0.0
 43
1.0
 77
     0
 47
0.0208333333333333
 47
0.0
 47
0.0
 47
0.0
 47
0.0
 47
0.0208333333333333
 47
0.0
 47
0.0
 47
0.0
 47
0.0
 47
1.0
 47
0.0
 47
0.0
 47
0.0
 47
0.0
 47
1.0
171
     0
 49
0.0208333333333333
 49
0.0
 49
0.0
 49
0.0
 49
0.0
 49
0.0208333333333333
 49
0.0
 49
0.0
 49
0.0
 49
0.0
 49
1.0
 49
0.0
 49
0.0
 49
0.0
 49
0.0
 49
1.0
175
     0
142
0.0208333333333333
142
0.0
142
0.0
142
0.0
142
0.0
142
0.0208333333333333
142
0.0
142
0.0
142
0.0
142
0.0
142
1.0
142
0.0
142
0.0
142
0.0
142
0.0
142
1.0
179
     0
144
0.0208333333333333
144
0.0
144
0.0
144
0.0
144
0.0
144
0.0208333333333333
144
0.0
144
0.0
144
0.0
144
0.0
144
1.0
144
0.0
144
0.0
144
0.0
144
0.0
144
1.0
147
0.0208333333333333
147
0.0
147
0.0
147
0.0
147
0.0
147
0.0208333333333333
147
0.0
147
0.0
147
0.0
147
0.0
147
1.0
147
0.0
147
0.0
147
0.0
147
0.0
147
1.0
  0
MATERIAL
  5
184E
102
{ACAD_XDICTIONARY
360
184F
102
}
102
{ACAD_REACTORS
330
184D
102
}
330
184D
100
AcDbMaterial
  1
ByLayer
 72
     0
 43
0.0208333333333333
 43
0.0
 43
0.0
 43
0.0
 43
0.0
 43
0.0208333333333333
 43
0.0
 43
0.0
 43
0.0
 43
0.0
 43
1.0
 43
0.0
 43
0.0
 43
0.0
 43
0.0
 43
1.0
 77
     0
 47
0.0208333333333333
 47
0.0
 47
0.0
 47
0.0
 47
0.0
 47
0.0208333333333333
 47
0.0
 47
0.0
 47
0.0
 47
0.0
 47
1.0
 47
0.0
 47
0.0
 47
0.0
 47
0.0
 47
1.0
171
     0
 49
0.0208333333333333
 49
0.0
 49
0.0
 49
0.0
 49
0.0
 49
0.0208333333333333
 49
0.0
 49
0.0
 49
0.0
 49
0.0
 49
1.0
 49
0.0
 49
0.0
 49
0.0
 49
0.0
 49
1.0
175
     0
142
0.0208333333333333
142
0.0
142
0.0
142
0.0
142
0.0
142
0.0208333333333333
142
0.0
142
0.0
142
0.0
142
0.0
142
1.0
142
0.0
142
0.0
142
0.0
142
0.0
142
1.0
179
     0
144
0.0208333333333333
144
0.0
144
0.0
144
0.0
144
0.0
144
0.0208333333333333
144
0.0
144
0.0
144
0.0
144
0.0
144
1.0
144
0.0
144
0.0
144
0.0
144
0.0
144
1.0
147
0.0208333333333333
147
0.0
147
0.0
147
0.0
147
0.0
147
0.0208333333333333
147
0.0
147
0.0
147
0.0
147
0.0
147
1.0
147
0.0
147
0.0
147
0.0
147
0.0
147
1.0
  0
MATERIAL
  5
185E
102
{ACAD_XDICTIONARY
360
185F
102
}
102
{ACAD_REACTORS
330
184D
102
}
330
184D
100
AcDbMaterial
  1
Global
 72
     0
 43
0.0208333333333333
 43
0.0
 43
0.0
 43
0.0
 43
0.0
 43
0.0208333333333333
 43
0.0
 43
0.0
 43
0.0
 43
0.0
 43
1.0
 43
0.0
 43
0.0
 43
0.0
 43
0.0
 43
1.0
 77
     0
 47
0.0208333333333333
 47
0.0
 47
0.0
 47
0.0
 47
0.0
 47
0.0208333333333333
 47
0.0
 47
0.0
 47
0.0
 47
0.0
 47
1.0
 47
0.0
 47
0.0
 47
0.0
 47
0.0
 47
1.0
171
     0
 49
0.0208333333333333
 49
0.0
 49
0.0
 49
0.0
 49
0.0
 49
0.0208333333333333
 49
0.0
 49
0.0
 49
0.0
 49
0.0
 49
1.0
 49
0.0
 49
0.0
 49
0.0
 49
0.0
 49
1.0
175
     0
142
0.0208333333333333
142
0.0
142
0.0
142
0.0
142
0.0
142
0.0208333333333333
142
0.0
142
0.0
142
0.0
142
0.0
142
1.0
142
0.0
142
0.0
142
0.0
142
0.0
142
1.0
179
     0
144
0.0208333333333333
144
0.0
144
0.0
144
0.0
144
0.0
144
0.0208333333333333
144
0.0
144
0.0
144
0.0
144
0.0
144
1.0
144
0.0
144
0.0
144
0.0
144
0.0
144
1.0
147
0.0208333333333333
147
0.0
147
0.0
147
0.0
147
0.0
147
0.0208333333333333
147
0.0
147
0.0
147
0.0
147
0.0
147
1.0
147
0.0
147
0.0
147
0.0
147
0.0
147
1.0
  0
MLEADERSTYLE
  5
1895
102
{ACAD_REACTORS
330
1894
102
}
330
1894
100
AcDbMLeaderStyle
170
     2
171
     1
172
     0
 90
        2
 40
0.0
 41
0.0
173
     1
 91
-1056964608
340
12
 92
       -2
290
     1
 42
2.0
291
     1
 43
0.36
  3
Standard
 44
4.0
300

342
F
174
     1
178
     6
175
     1
176
     0
 93
-1056964608
 45
4.0
292
     0
297
     0
 46
4.0
 94
-1056964608
 47
1.0
 49
1.0
140
1.0
293
     1
141
0.0
294
     1
177
     0
142
1.0
295
     0
296
     0
143
0.125
1001
ACAD_MLEADERVER
1070
     2
  0
MLINESTYLE
  5
1C
102
{ACAD_REACTORS
330
1B
102
}
330
0
100
AcDbMlineStyle
  2
STANDARD
 70
     0
  3

 62
   256
 51
90.0
 52
90.0
 71
     2
 49
0.5
 62
   256
  6
BYLAYER
 49
-0.5
 62
   256
  6
BYLAYER
  0
ACDBPLACEHOLDER
  5
184C
102
{ACAD_REACTORS
330
184B
102
}
330
184B
  0
SCALE
  5
1883
102
{ACAD_REACTORS
330
1882
102
}
330
1882
100
AcDbScale
 70
     0
300
1:1
140
1.0
141
1.0
290
     1
  0
SCALE
  5
1884
102
{ACAD_REACTORS
330
1882
102
}
330
1882
100
AcDbScale
 70
     0
300
1:2
140
1.0
141
2.0
290
     0
  0
SCALE
  5
1885
102
{ACAD_REACTORS
330
1882
102
}
330
1882
100
AcDbScale
 70
     0
300
1:4
140
1.0
141
4.0
290
     0
  0
SCALE
  5
1886
102
{ACAD_REACTORS
330
1882
102
}
330
1882
100
AcDbScale
 70
     0
300
1:5
140
1.0
141
5.0
290
     0
  0
SCALE
  5
1887
102
{ACAD_REACTORS
330
1882
102
}
330
1882
100
AcDbScale
 70
     0
300
1:8
140
1.0
141
8.0
290
     0
  0
SCALE
  5
1888
102
{ACAD_REACTORS
330
1882
102
}
330
1882
100
AcDbScale
 70
     0
300
1:10
140
1.0
141
10.0
290
     0
  0
SCALE
  5
1889
102
{ACAD_REACTORS
330
1882
102
}
330
1882
100
AcDbScale
 70
     0
300
1:16
140
1.0
141
16.0
290
     0
  0
SCALE
  5
188A
102
{ACAD_REACTORS
330
1882
102
}
330
1882
100
AcDbScale
 70
     0
300
1:20
140
1.0
141
20.0
290
     0
  0
SCALE
  5
188B
102
{ACAD_REACTORS
330
1882
102
}
330
1882
100
AcDbScale
 70
     0
300
1:30
140
1.0
141
30.0
290
     0
  0
SCALE
  5
188C
102
{ACAD_REACTORS
330
1882
102
}
330
1882
100
AcDbScale
 70
     0
300
1:40
140
1.0
141
40.0
290
     0
  0
SCALE
  5
188D
102
{ACAD_REACTORS
330
1882
102
}
330
1882
100
AcDbScale
 70
     0
300
1:50
140
1.0
141
50.0
290
     0
  0
SCALE
  5
188E
102
{ACAD_REACTORS
330
1882
102
}
330
1882
100
AcDbScale
 70
     0
300
1:100
140
1.0
141
100.0
290
     0
  0
SCALE
  5
188F
102
{ACAD_REACTORS
330
1882
102
}
330
1882
100
AcDbScale
 70
     0
300
2:1
140
2.0
141
1.0
290
     0
  0
SCALE
  5
1890
102
{ACAD_REACTORS
330
1882
102
}
330
1882
100
AcDbScale
 70
     0
300
4:1
140
4.0
141
1.0
290
     0
  0
SCALE
  5
1891
102
{ACAD_REACTORS
330
1882
102
}
330
1882
100
AcDbScale
 70
     0
300
8:1
140
8.0
141
1.0
290
     0
  0
SCALE
  5
1892
102
{ACAD_REACTORS
330
1882
102
}
330
1882
100
AcDbScale
 70
     0
300
10:1
140
10.0
141
1.0
290
     0
  0
SCALE
  5
1893
102
{ACAD_REACTORS
330
1882
102
}
330
1882
100
AcDbScale
 70
     0
300
100:1
140
100.0
141
1.0
290
     0
  0
TABLESTYLE
  5
1881
102
{ACAD_XDICTIONARY
360
18A7
102
}
102
{ACAD_REACTORS
330
1880
102
}
330
1880
100
AcDbTableStyle
  3
Standard
 70
     0
 71
     0
 40
1.5
 41
1.5
280
     0
281
     0
  7
STANDARD
140
4.5
170
     2
 62
     0
 63
     7
283
     0
274
    -2
284
     1
 64
     0
275
    -2
285
     1
 65
     0
276
    -2
286
     1
 66
     0
277
    -2
287
     1
 67
     0
278
    -2
288
     1
 68
     0
279
    -2
289
     1
 69
     0
  7
STANDARD
140
6.0
170
     5
 62
     0
 63
     7
283
     0
274
    -2
284
     1
 64
     0
275
    -2
285
     1
 65
     0
276
    -2
286
     1
 66
     0
277
    -2
287
     1
 67
     0
278
    -2
288
     1
 68
     0
279
    -2
289
     1
 69
     0
  7
STANDARD
140
4.5
170
     5
 62
     0
 63
     7
283
     0
274
    -2
284
     1
 64
     0
275
    -2
285
     1
 65
     0
276
    -2
286
     1
 66
     0
277
    -2
287
     1
 67
     0
278
    -2
288
     1
 68
     0
279
    -2
289
     1
 69
     0
  0
VISUALSTYLE
  5
186C
102
{ACAD_XDICTIONARY
360
18B8
102
}
102
{ACAD_REACTORS
330
1866
102
}
330
1866
100
AcDbVisualStyle
  2
2dWireframe
 70
     4
 71
     0
 72
     2
 73
     0
 90
        0
 40
-0.6
 41
-30.0
 62
     5
 63
     7
 74
     1
 91
        4
 64
     7
 65
   257
 75
     1
175
     1
 42
1.0
 92
        0
 66
   257
 43
1.0
 76
     1
 77
     6
 78
     2
 67
     7
 79
     5
170
     0
171
     0
290
     0
174
     0
 93
        1
 44
0.0
173
     0
291
     0
 45
0.0
1001
ACAD
1000
AcDbSavedByObjectVersion
1070
     0
  0
VISUALSTYLE
  5
186B
102
{ACAD_XDICTIONARY
360
18B6
102
}
102
{ACAD_REACTORS
330
1866
102
}
330
1866
100
AcDbVisualStyle
  2
Basic
 70
     7
 71
     1
 72
     0
 73
     1
 90
        0
 40
-0.6
 41
-30.0
 62
     5
 63
     7
 74
     0
 91
        4
 64
     7
 65
   257
 75
     1
175
     1
 42
1.0
 92
        8
 66
     7
 43
1.0
 76
     1
 77
     6
 78
     2
 67
     7
 79
     5
170
     0
171
     0
290
     0
174
     0
 93
        1
 44
0.0
173
     0
291
     1
 45
0.0
1001
ACAD
1000
AcDbSavedByObjectVersion
1070
     0
  0
VISUALSTYLE
  5
1872
102
{ACAD_XDICTIONARY
360
18C4
102
}
102
{ACAD_REACTORS
330
1866
102
}
330
1866
100
AcDbVisualStyle
  2
Brighten
 70
    12
 71
     2
 72
     2
 73
     0
 90
        0
 40
-0.6
 41
-30.0
 62
     5
 63
     7
 74
     1
 91
        4
 64
     7
 65
   257
 75
     1
175
     1
 42
1.0
 92
        8
 66
     7
 43
1.0
 76
     1
 77
     6
 78
     2
 67
     7
 79
     5
170
     0
171
     0
290
     0
174
     0
 93
        1
 44
50.0
173
     0
291
     1
 45
0.0
1001
ACAD
1000
AcDbSavedByObjectVersion
1070
     0
  0
VISUALSTYLE
  5
1876
102
{ACAD_XDICTIONARY
360
18CC
102
}
102
{ACAD_REACTORS
330
1866
102
}
330
1866
100
AcDbVisualStyle
  2
ColorChange
 70
    16
 71
     2
 72
     2
 73
     3
 90
        0
 40
-0.6
 41
-30.0
 62
     5
 63
     8
 74
     1
 91
        4
 64
     7
 65
   257
 75
     1
175
     1
 42
1.0
 92
        8
 66
     8
 43
1.0
 76
     1
 77
     6
 78
     2
 67
     7
 79
     5
170
     0
171
     0
290
     0
174
     0
 93
        1
 44
0.0
173
     0
291
     1
 45
0.0
1001
ACAD
1000
AcDbSavedByObjectVersion
1070
     0
  0
VISUALSTYLE
  5
186F
102
{ACAD_XDICTIONARY
360
18BE
102
}
102
{ACAD_REACTORS
330
1866
102
}
330
1866
100
AcDbVisualStyle
  2
Conceptual
 70
     9
 71
     3
 72
     2
 73
     0
 90
        0
 40
-0.6
 41
-30.0
 62
     5
 63
     7
 74
     2
 91
        2
 64
     7
 65
   257
 75
     1
175
     1
 42
179.0
 92
        8
 66
     7
 43
1.0
 76
     1
 77
     6
 78
     2
 67
     7
 79
     3
170
     0
171
     0
290
     0
174
     0
 93
        1
 44
0.0
173
     0
291
     0
 45
0.0
1001
ACAD
1000
AcDbSavedByObjectVersion
1070
     0
  0
VISUALSTYLE
  5
1871
102
{ACAD_XDICTIONARY
360
18C2
102
}
102
{ACAD_REACTORS
330
1866
102
}
330
1866
100
AcDbVisualStyle
  2
Dim
 70
    11
 71
     2
 72
     2
 73
     0
 90
        0
 40
-0.6
 41
-30.0
 62
     5
 63
     7
 74
     1
 91
        4
 64
     7
 65
   257
 75
     1
175
     1
 42
1.0
 92
        8
 66
     7
 43
1.0
 76
     1
 77
     6
 78
     2
 67
     7
 79
     5
170
     0
171
     0
290
     0
174
     0
 93
        1
 44
-50.0
173
     0
291
     1
 45
0.0
1001
ACAD
1000
AcDbSavedByObjectVersion
1070
     0
  0
VISUALSTYLE
  5
187E
102
{ACAD_XDICTIONARY
360
18DC
102
}
102
{ACAD_REACTORS
330
1866
102
}
330
1866
100
AcDbVisualStyle
  2
EdgeColorOff
 70
    22
 71
     2
 72
     2
 73
     0
 90
        0
 40
-0.6
 41
-30.0
 62
     5
 63
     7
 74
     1
 91
        4
 64
     7
 65
   257
 75
     1
175
     1
 42
1.0
 92
        8
 66
     7
 43
1.0
 76
     1
 77
     6
 78
     2
 67
     7
 79
     5
170
     0
171
     0
290
     0
174
     0
 93
        1
 44
0.0
173
     0
291
     1
 45
0.0
1001
ACAD
1000
AcDbSavedByObjectVersion
1070
     0
  0
VISUALSTYLE
  5
1875
102
{ACAD_XDICTIONARY
360
18CA
102
}
102
{ACAD_REACTORS
330
1866
102
}
330
1866
100
AcDbVisualStyle
  2
Facepattern
 70
    15
 71
     2
 72
     2
 73
     0
 90
        0
 40
-0.6
 41
-30.0
 62
     5
 63
     7
 74
     1
 91
        4
 64
     7
 65
   257
 75
     1
175
     1
 42
1.0
 92
        8
 66
     7
 43
1.0
 76
     1
 77
     6
 78
     2
 67
     7
 79
     5
170
     0
171
     0
290
     0
174
     0
 93
        1
 44
0.0
173
     0
291
     1
 45
0.0
1001
ACAD
1000
AcDbSavedByObjectVersion
1070
     0
  0
VISUALSTYLE
  5
1867
102
{ACAD_XDICTIONARY
360
18AE
102
}
102
{ACAD_REACTORS
330
1866
102
}
330
1866
100
AcDbVisualStyle
  2
Flat
 70
     0
 71
     2
 72
     1
 73
     1
 90
        2
 40
-0.6
 41
30.0
 62
     5
 63
     7
 74
     0
 91
        0
 64
     7
 65
   257
 75
     1
175
     1
 42
1.0
 92
        8
 66
     7
 43
1.0
 76
     1
 77
     6
 78
     2
 67
     7
 79
     5
170
     0
171
     0
290
     0
174
     0
 93
       13
 44
0.0
173
     0
291
     1
 45
0.0
1001
ACAD
1000
AcDbSavedByObjectVersion
1070
     0
  0
VISUALSTYLE
  5
1868
102
{ACAD_XDICTIONARY
360
18B0
102
}
102
{ACAD_REACTORS
330
1866
102
}
330
1866
100
AcDbVisualStyle
  2
FlatWithEdges
 70
     1
 71
     2
 72
     1
 73
     1
 90
        2
 40
-0.6
 41
30.0
 62
     5
 63
     7
 74
     1
 91
        0
 64
     7
 65
   257
 75
     1
175
     1
 42
1.0
 92
        0
 66
   257
 43
1.0
 76
     1
 77
     6
 78
     2
 67
     7
 79
     5
170
     0
171
     0
290
     0
174
     0
 93
       13
 44
0.0
173
     0
291
     1
 45
0.0
1001
ACAD
1000
AcDbSavedByObjectVersion
1070
     0
  0
VISUALSTYLE
  5
1869
102
{ACAD_XDICTIONARY
360
18B2
102
}
102
{ACAD_REACTORS
330
1866
102
}
330
1866
100
AcDbVisualStyle
  2
Gouraud
 70
     2
 71
     2
 72
     2
 73
     1
 90
        2
 40
-0.6
 41
30.0
 62
     5
 63
     7
 74
     0
 91
        0
 64
     7
 65
   257
 75
     1
175
     1
 42
1.0
 92
        0
 66
     7
 43
1.0
 76
     1
 77
     6
 78
     2
 67
     7
 79
     5
170
     0
171
     0
290
     0
174
     0
 93
       13
 44
0.0
173
     0
291
     1
 45
0.0
1001
ACAD
1000
AcDbSavedByObjectVersion
1070
     0
  0
VISUALSTYLE
  5
186A
102
{ACAD_XDICTIONARY
360
18B4
102
}
102
{ACAD_REACTORS
330
1866
102
}
330
1866
100
AcDbVisualStyle
  2
GouraudWithEdges
 70
     3
 71
     2
 72
     2
 73
     1
 90
        2
 40
-0.6
 41
30.0
 62
     5
 63
     7
 74
     1
 91
        0
 64
     7
 65
   257
 75
     1
175
     1
 42
1.0
 92
        0
 66
   257
 43
1.0
 76
     1
 77
     6
 78
     2
 67
     7
 79
     5
170
     0
171
     0
290
     0
174
     0
 93
       13
 44
0.0
173
     0
291
     1
 45
0.0
1001
ACAD
1000
AcDbSavedByObjectVersion
1070
     0
  0
VISUALSTYLE
  5
186E
102
{ACAD_XDICTIONARY
360
18BC
102
}
102
{ACAD_REACTORS
330
1866
102
}
330
1866
100
AcDbVisualStyle
  2
Hidden
 70
     6
 71
     1
 72
     2
 73
     2
 90
        0
 40
-0.6
 41
-30.0
 62
     5
 63
     7
 74
     2
 91
        2
 64
     7
 65
   257
 75
     2
175
     1
 42
40.0
 92
        0
 66
   257
 43
1.0
 76
     1
 77
     6
 78
     2
 67
     7
 79
     3
170
     0
171
     0
290
     0
174
     0
 93
        1
 44
0.0
173
     0
291
     0
 45
0.0
1001
ACAD
1000
AcDbSavedByObjectVersion
1070
     0
  0
VISUALSTYLE
  5
187C
102
{ACAD_XDICTIONARY
360
18D8
102
}
102
{ACAD_REACTORS
330
1866
102
}
330
1866
100
AcDbVisualStyle
  2
JitterOff
 70
    20
 71
     2
 72
     2
 73
     0
 90
        0
 40
-0.6
 41
-30.0
 62
     5
 63
     7
 74
     1
 91
        4
 64
     7
 65
   257
 75
     1
175
     1
 42
1.0
 92
       10
 66
     7
 43
1.0
 76
     1
 77
     6
 78
     2
 67
     7
 79
     5
170
     0
171
     0
290
     0
174
     0
 93
        1
 44
0.0
173
     0
291
     1
 45
0.0
1001
ACAD
1000
AcDbSavedByObjectVersion
1070
     0
  0
VISUALSTYLE
  5
1874
102
{ACAD_XDICTIONARY
360
18C8
102
}
102
{ACAD_REACTORS
330
1866
102
}
330
1866
100
AcDbVisualStyle
  2
Linepattern
 70
    14
 71
     2
 72
     2
 73
     0
 90
        0
 40
-0.6
 41
-30.0
 62
     5
 63
     7
 74
     1
 91
        4
 64
     7
 65
   257
 75
     7
175
     7
 42
1.0
 92
        8
 66
     7
 43
1.0
 76
     1
 77
     6
 78
     2
 67
     7
 79
     5
170
     0
171
     0
290
     0
174
     0
 93
        1
 44
0.0
173
     0
291
     1
 45
0.0
1001
ACAD
1000
AcDbSavedByObjectVersion
1070
     0
  0
VISUALSTYLE
  5
187D
102
{ACAD_XDICTIONARY
360
18DA
102
}
102
{ACAD_REACTORS
330
1866
102
}
330
1866
100
AcDbVisualStyle
  2
OverhangOff
 70
    21
 71
     2
 72
     2
 73
     0
 90
        0
 40
-0.6
 41
-30.0
 62
     5
 63
     7
 74
     1
 91
        4
 64
     7
 65
   257
 75
     1
175
     1
 42
1.0
 92
        9
 66
     7
 43
1.0
 76
     1
 77
     6
 78
     2
 67
     7
 79
     5
170
     0
171
     0
290
     0
174
     0
 93
        1
 44
0.0
173
     0
291
     1
 45
0.0
1001
ACAD
1000
AcDbSavedByObjectVersion
1070
     0
  0
VISUALSTYLE
  5
1870
102
{ACAD_XDICTIONARY
360
18C0
102
}
102
{ACAD_REACTORS
330
1866
102
}
330
1866
100
AcDbVisualStyle
  2
Realistic
 70
     8
 71
     2
 72
     3
 73
     0
 90
        2
 40
-0.6
 41
30.0
 62
     5
 63
     7
 74
     0
 91
        0
 64
     7
 65
   257
 75
     1
175
     1
 42
1.0
 92
        8
 66
   257
 43
1.0
 76
     1
 77
     6
 78
     2
 67
     7
 79
     3
170
     0
171
     0
290
     0
174
     0
 93
       13
 44
0.0
173
     0
291
     0
 45
0.0
1001
ACAD
1000
AcDbSavedByObjectVersion
1070
     0
  0
VISUALSTYLE
  5
187B
102
{ACAD_XDICTIONARY
360
18D6
102
}
102
{ACAD_REACTORS
330
1866
102
}
330
1866
100
AcDbVisualStyle
  2
Shaded
 70
    27
 71
     2
 72
     2
 73
     1
 90
        2
 40
-0.6
 41
30.0
 62
     5
 63
     7
 74
     0
 91
        4
 64
     7
 65
   257
 75
     1
175
     1
 42
1.0
 92
        8
 66
   257
 43
1.0
 76
     1
 77
     6
 78
     2
 67
     8
 79
     3
170
     0
171
     0
290
     0
174
     0
 93
        5
 44
0.0
173
     0
291
     0
 45
0.0
1001
ACAD
1000
AcDbSavedByObjectVersion
1070
     0
  0
VISUALSTYLE
  5
187A
102
{ACAD_XDICTIONARY
360
18D4
102
}
102
{ACAD_REACTORS
330
1866
102
}
330
1866
100
AcDbVisualStyle
  2
Shaded with edges
 70
    26
 71
     2
 72
     2
 73
     1
 90
        2
 40
-0.6
 41
30.0
 62
     5
 63
     7
 74
     1
 91
       10
 64
     7
 65
   257
 75
     2
175
     1
 42
1.0
 92
        8
 66
   257
 43
1.0
 76
     1
 77
     6
 78
     2
 67
     7
 79
     3
170
     0
171
     0
290
     0
174
     0
 93
        5
 44
0.0
173
     0
291
     0
 45
0.0
1001
ACAD
1000
AcDbSavedByObjectVersion
1070
     0
  0
VISUALSTYLE
  5
1877
102
{ACAD_XDICTIONARY
360
18CE
102
}
102
{ACAD_REACTORS
330
1866
102
}
330
1866
100
AcDbVisualStyle
  2
Shades of Gray
 70
    23
 71
     2
 72
     2
 73
     3
 90
        0
 40
-0.6
 41
-30.0
 62
     5
 63
     7
 74
     2
 91
        2
 64
     7
 65
     7
 75
     1
175
     1
 42
40.0
 92
        8
 66
     7
 43
1.0
 76
     1
 77
     6
 78
     2
 67
     7
 79
     3
170
     0
171
     0
290
     0
174
     0
 93
        1
 44
0.0
173
     0
291
     0
 45
0.0
1001
ACAD
1000
AcDbSavedByObjectVersion
1070
     0
  0
VISUALSTYLE
  5
1878
102
{ACAD_XDICTIONARY
360
18D0
102
}
102
{ACAD_REACTORS
330
1866
102
}
330
1866
100
AcDbVisualStyle
  2
Sketchy
 70
    24
 71
     1
 72
     2
 73
     2
 90
        0
 40
-0.6
 41
-30.0
 62
     5
 63
     7
 74
     2
 91
        2
 64
     7
 65
     7
 75
     1
175
     1
 42
40.0
 92
       11
 66
     7
 43
1.0
 76
     1
 77
     6
 78
     2
 67
     7
 79
     6
170
     0
171
     0
290
     0
174
     0
 93
        1
 44
0.0
173
     0
291
     0
 45
0.0
1001
ACAD
1000
AcDbSavedByObjectVersion
1070
     0
  0
VISUALSTYLE
  5
1873
102
{ACAD_XDICTIONARY
360
18C6
102
}
102
{ACAD_REACTORS
330
1866
102
}
330
1866
100
AcDbVisualStyle
  2
Thicken
 70
    13
 71
     2
 72
     2
 73
     0
 90
        0
 40
-0.6
 41
-30.0
 62
     5
 63
     7
 74
     1
 91
        4
 64
     7
 65
   257
 75
     1
175
     1
 42
1.0
 92
       12
 66
     7
 43
1.0
 76
     1
 77
     6
 78
     2
 67
     7
 79
     5
170
     0
171
     0
290
     0
174
     0
 93
        1
 44
0.0
173
     0
291
     1
 45
0.0
1001
ACAD
1000
AcDbSavedByObjectVersion
1070
     0
  0
VISUALSTYLE
  5
186D
102
{ACAD_XDICTIONARY
360
18BA
102
}
102
{ACAD_REACTORS
330
1866
102
}
330
1866
100
AcDbVisualStyle
  2
Wireframe
 70
     5
 71
     0
 72
     2
 73
     0
 90
        0
 40
-0.6
 41
-30.0
 62
     5
 63
     7
 74
     1
 91
        4
 64
     7
 65
   257
 75
     1
175
     1
 42
1.0
 92
        0
 66
   257
 43
1.0
 76
     1
 77
     6
 78
     2
 67
     7
 79
     3
170
     0
171
     0
290
     0
174
     0
 93
        1
 44
0.0
173
     0
291
     0
 45
0.0
1001
ACAD
1000
AcDbSavedByObjectVersion
1070
     0
  0
VISUALSTYLE
  5
1879
102
{ACAD_XDICTIONARY
360
18D2
102
}
102
{ACAD_REACTORS
330
1866
102
}
330
1866
100
AcDbVisualStyle
  2
X-Ray
 70
    25
 71
     2
 72
     2
 73
     1
 90
        1
 40
0.5
 41
-30.0
 62
     5
 63
     7
 74
     1
 91
        0
 64
     7
 65
   257
 75
     1
175
     1
 42
1.0
 92
        8
 66
     7
 43
1.0
 76
     1
 77
     6
 78
     2
 67
     7
 79
     3
170
     0
171
     0
290
     0
174
     0
 93
       13
 44
0.0
173
     0
291
     0
 45
0.0
1001
ACAD
1000
AcDbSavedByObjectVersion
1070
     0
  0
DICTIONARYVAR
  5
18A2
102
{ACAD_REACTORS
330
189F
102
}
330
189F
100
DictionaryVariables
280
     0
  1
1:1
  0
DICTIONARYVAR
  5
18A1
102
{ACAD_REACTORS
330
189F
102
}
330
189F
100
DictionaryVariables
280
     0
  1
STANDARD
  0
DICTIONARYVAR
  5
18A0
102
{ACAD_REACTORS
330
189F
102
}
330
189F
100
DictionaryVariables
280
     0
  1
STANDARD
  0
DICTIONARYVAR
  5
18A5
102
{ACAD_REACTORS
330
189F
102
}
330
189F
100
DictionaryVariables
280
     0
  1
1
  0
DICTIONARYVAR
  5
18A4
102
{ACAD_REACTORS
330
189F
102
}
330
189F
100
DictionaryVariables
280
     0
  1
0
  0
DICTIONARYVAR
  5
18A3
102
{ACAD_REACTORS
330
189F
102
}
330
189F
100
DictionaryVariables
280
     0
  1
127
  0
DICTIONARYVAR
  5
18A6
102
{ACAD_REACTORS
330
189F
102
}
330
189F
100
DictionaryVariables
280
     0
  1
2
  0
DICTIONARY
  5
18E0
330
1898
100
AcDbDictionary
280
     1
281
     1
  3
ACAD_XREC_ROUNDTRIP
360
18E1
  0
DICTIONARY
  5
18E2
330
1899
100
AcDbDictionary
280
     1
281
     1
  3
ACAD_XREC_ROUNDTRIP
360
18E3
  0
DICTIONARY
  5
1857
330
1856
100
AcDbDictionary
280
     1
281
     1
  3
ACAD_XREC_ROUNDTRIP
360
18AC
  3
BUMPTILE
360
1859
  3
DIFFUSETILE
360
1858
  3
OPACITYTILE
360
185C
  3
REFLECTIONTILE
360
185B
  3
REFRACTIONTILE
360
185D
  3
SPECULARTILE
360
185A
  0
DICTIONARY
  5
184F
330
184E
100
AcDbDictionary
280
     1
281
     1
  3
ACAD_XREC_ROUNDTRIP
360
18AB
  3
BUMPTILE
360
1851
  3
DIFFUSETILE
360
1850
  3
OPACITYTILE
360
1854
  3
REFLECTIONTILE
360
1853
  3
REFRACTIONTILE
360
1855
  3
SPECULARTILE
360
1852
  0
DICTIONARY
  5
185F
330
185E
100
AcDbDictionary
280
     1
281
     1
  3
ACAD_XREC_ROUNDTRIP
360
18AD
  3
BUMPTILE
360
1861
  3
DIFFUSETILE
360
1860
  3
OPACITYTILE
360
1864
  3
REFLECTIONTILE
360
1863
  3
REFRACTIONTILE
360
1865
  3
SPECULARTILE
360
1862
  0
DICTIONARY
  5
18A7
330
1881
100
AcDbDictionary
280
     1
281
     1
  3
ACAD_ROUNDTRIP_2008_TABLESTYLE_CELLSTYLEMAP
360
18A8
  3
ACAD_XREC_ROUNDTRIP
360
18DE
  0
DICTIONARY
  5
18B8
330
186C
100
AcDbDictionary
280
     1
281
     1
  3
ACAD_XREC_ROUNDTRIP
360
18B9
  0
DICTIONARY
  5
18B6
330
186B
100
AcDbDictionary
280
     1
281
     1
  3
ACAD_XREC_ROUNDTRIP
360
18B7
  0
DICTIONARY
  5
18C4
330
1872
100
AcDbDictionary
280
     1
281
     1
  3
ACAD_XREC_ROUNDTRIP
360
18C5
  0
DICTIONARY
  5
18CC
330
1876
100
AcDbDictionary
280
     1
281
     1
  3
ACAD_XREC_ROUNDTRIP
360
18CD
  0
DICTIONARY
  5
18BE
330
186F
100
AcDbDictionary
280
     1
281
     1
  3
ACAD_XREC_ROUNDTRIP
360
18BF
  0
DICTIONARY
  5
18C2
330
1871
100
AcDbDictionary
280
     1
281
     1
  3
ACAD_XREC_ROUNDTRIP
360
18C3
  0
DICTIONARY
  5
18DC
330
187E
100
AcDbDictionary
280
     1
281
     1
  3
ACAD_XREC_ROUNDTRIP
360
18DD
  0
DICTIONARY
  5
18CA
330
1875
100
AcDbDictionary
280
     1
281
     1
  3
ACAD_XREC_ROUNDTRIP
360
18CB
  0
DICTIONARY
  5
18AE
330
1867
100
AcDbDictionary
280
     1
281
     1
  3
ACAD_XREC_ROUNDTRIP
360
18AF
  0
DICTIONARY
  5
18B0
330
1868
100
AcDbDictionary
280
     1
281
     1
  3
ACAD_XREC_ROUNDTRIP
360
18B1
  0
DICTIONARY
  5
18B2
330
1869
100
AcDbDictionary
280
     1
281
     1
  3
ACAD_XREC_ROUNDTRIP
360
18B3
  0
DICTIONARY
  5
18B4
330
186A
100
AcDbDictionary
280
     1
281
     1
  3
ACAD_XREC_ROUNDTRIP
360
18B5
  0
DICTIONARY
  5
18BC
330
186E
100
AcDbDictionary
280
     1
281
     1
  3
ACAD_XREC_ROUNDTRIP
360
18BD
  0
DICTIONARY
  5
18D8
330
187C
100
AcDbDictionary
280
     1
281
     1
  3
ACAD_XREC_ROUNDTRIP
360
18D9
  0
DICTIONARY
  5
18C8
330
1874
100
AcDbDictionary
280
     1
281
     1
  3
ACAD_XREC_ROUNDTRIP
360
18C9
  0
DICTIONARY
  5
18DA
330
187D
100
AcDbDictionary
280
     1
281
     1
  3
ACAD_XREC_ROUNDTRIP
360
18DB
  0
DICTIONARY
  5
18C0
330
1870
100
AcDbDictionary
280
     1
281
     1
  3
ACAD_XREC_ROUNDTRIP
360
18C1
  0
DICTIONARY
  5
18D6
330
187B
100
AcDbDictionary
280
     1
281
     1
  3
ACAD_XREC_ROUNDTRIP
360
18D7
  0
DICTIONARY
  5
18D4
330
187A
100
AcDbDictionary
280
     1
281
     1
  3
ACAD_XREC_ROUNDTRIP
360
18D5
  0
DICTIONARY
  5
18CE
330
1877
100
AcDbDictionary
280
     1
281
     1
  3
ACAD_XREC_ROUNDTRIP
360
18CF
  0
DICTIONARY
  5
18D0
330
1878
100
AcDbDictionary
280
     1
281
     1
  3
ACAD_XREC_ROUNDTRIP
360
18D1
  0
DICTIONARY
  5
18C6
330
1873
100
AcDbDictionary
280
     1
281
     1
  3
ACAD_XREC_ROUNDTRIP
360
18C7
  0
DICTIONARY
  5
18BA
330
186D
100
AcDbDictionary
280
     1
281
     1
  3
ACAD_XREC_ROUNDTRIP
360
18BB
  0
DICTIONARY
  5
18D2
330
1879
100
AcDbDictionary
280
     1
281
     1
  3
ACAD_XREC_ROUNDTRIP
360
18D3
  0
XRECORD
  5
18E1
102
{ACAD_REACTORS
330
18E0
102
}
330
18E0
100
AcDbXrecord
280
     1
102
SHADEPLOT
 70
     0
102
SHADEPLOTRESLEVEL
 70
     2
102
SHADEPLOTCUSTOMDPI
 70
   300
  0
XRECORD
  5
18E3
102
{ACAD_REACTORS
330
18E2
102
}
330
18E2
100
AcDbXrecord
280
     1
102
SHADEPLOT
 70
     0
102
SHADEPLOTRESLEVEL
 70
     2
102
SHADEPLOTCUSTOMDPI
 70
   300
  0
XRECORD
  5
18AC
102
{ACAD_REACTORS
330
1857
102
}
330
1857
100
AcDbXrecord
280
     1
102
MATERIAL
148
0.0
149
0.0
149
0.0
 93
        0
 94
      127
282
     0
 72
     0
 77
     0
171
     0
175
     0
179
     0
273
     0
  0
XRECORD
  5
1859
102
{ACAD_REACTORS
330
1857
102
}
330
1857
100
AcDbXrecord
280
     1
270
     1
271
     1
  0
XRECORD
  5
1858
102
{ACAD_REACTORS
330
1857
102
}
330
1857
100
AcDbXrecord
280
     1
270
     1
271
     1
  0
XRECORD
  5
185C
102
{ACAD_REACTORS
330
1857
102
}
330
1857
100
AcDbXrecord
280
     1
270
     1
271
     1
  0
XRECORD
  5
185B
102
{ACAD_REACTORS
330
1857
102
}
330
1857
100
AcDbXrecord
280
     1
270
     1
271
     1
  0
XRECORD
  5
185D
102
{ACAD_REACTORS
330
1857
102
}
330
1857
100
AcDbXrecord
280
     1
270
     1
271
     1
  0
XRECORD
  5
185A
102
{ACAD_REACTORS
330
1857
102
}
330
1857
100
AcDbXrecord
280
     1
270
     1
271
     1
  0
XRECORD
  5
18AB
102
{ACAD_REACTORS
330
184F
102
}
330
184F
100
AcDbXrecord
280
     1
102
MATERIAL
148
0.0
149
0.0
149
0.0
 93
        0
 94
      127
282
     0
 72
     0
 77
     0
171
     0
175
     0
179
     0
273
     0
  0
XRECORD
  5
1851
102
{ACAD_REACTORS
330
184F
102
}
330
184F
100
AcDbXrecord
280
     1
270
     1
271
     1
  0
XRECORD
  5
1850
102
{ACAD_REACTORS
330
184F
102
}
330
184F
100
AcDbXrecord
280
     1
270
     1
271
     1
  0
XRECORD
  5
1854
102
{ACAD_REACTORS
330
184F
102
}
330
184F
100
AcDbXrecord
280
     1
270
     1
271
     1
  0
XRECORD
  5
1853
102
{ACAD_REACTORS
330
184F
102
}
330
184F
100
AcDbXrecord
280
     1
270
     1
271
     1
  0
XRECORD
  5
1855
102
{ACAD_REACTORS
330
184F
102
}
330
184F
100
AcDbXrecord
280
     1
270
     1
271
     1
  0
XRECORD
  5
1852
102
{ACAD_REACTORS
330
184F
102
}
330
184F
100
AcDbXrecord
280
     1
270
     1
271
     1
  0
XRECORD
  5
18AD
102
{ACAD_REACTORS
330
185F
102
}
330
185F
100
AcDbXrecord
280
     1
102
MATERIAL
148
0.0
149
0.0
149
0.0
 93
        0
 94
      127
282
     0
 72
     0
 77
     0
171
     0
175
     0
179
     0
273
     0
  0
XRECORD
  5
1861
102
{ACAD_REACTORS
330
185F
102
}
330
185F
100
AcDbXrecord
280
     1
270
     1
271
     1
  0
XRECORD
  5
1860
102
{ACAD_REACTORS
330
185F
102
}
330
185F
100
AcDbXrecord
280
     1
270
     1
271
     1
  0
XRECORD
  5
1864
102
{ACAD_REACTORS
330
185F
102
}
330
185F
100
AcDbXrecord
280
     1
270
     1
271
     1
  0
XRECORD
  5
1863
102
{ACAD_REACTORS
330
185F
102
}
330
185F
100
AcDbXrecord
280
     1
270
     1
271
     1
  0
XRECORD
  5
1865
102
{ACAD_REACTORS
330
185F
102
}
330
185F
100
AcDbXrecord
280
     1
270
     1
271
     1
  0
XRECORD
  5
1862
102
{ACAD_REACTORS
330
185F
102
}
330
185F
100
AcDbXrecord
280
     1
270
     1
271
     1
  0
CELLSTYLEMAP
  5
18A8
102
{ACAD_REACTORS
330
18A7
102
}
330
18A7
100
AcDbCellStyleMap
 90
        3
300
CELLSTYLE
  1
TABLEFORMAT_BEGIN
 90
        5
170
     1
 91
        0
 92
    32768
 62
   257
 93
        1
300
CONTENTFORMAT
  1
CONTENTFORMAT_BEGIN
 90
        0
 91
        0
 92
      512
 93
        0
300

 40
0.0
140
1.0
 94
        5
 62
     0
340
F
144
6.0
309
CONTENTFORMAT_END
171
     1
301
MARGIN
  1
CELLMARGIN_BEGIN
 40
1.5
 40
1.5
 40
1.5
 40
1.5
 40
4.5
 40
4.5
309
CELLMARGIN_END
 94
        6
 95
        1
302
GRIDFORMAT
  1
GRIDFORMAT_BEGIN
 90
        0
 91
        1
 62
     0
 92
       -2
340
0
 93
        0
 40
1.125
309
GRIDFORMAT_END
 95
        2
302
GRIDFORMAT
  1
GRIDFORMAT_BEGIN
 90
        0
 91
        1
 62
     0
 92
       -2
340
0
 93
        0
 40
1.125
309
GRIDFORMAT_END
 95
        4
302
GRIDFORMAT
  1
GRIDFORMAT_BEGIN
 90
        0
 91
        1
 62
     0
 92
       -2
340
0
 93
        0
 40
1.125
309
GRIDFORMAT_END
 95
        8
302
GRIDFORMAT
  1
GRIDFORMAT_BEGIN
 90
        0
 91
        1
 62
     0
 92
       -2
340
0
 93
        0
 40
1.125
309
GRIDFORMAT_END
 95
       16
302
GRIDFORMAT
  1
GRIDFORMAT_BEGIN
 90
        0
 91
        1
 62
     0
 92
       -2
340
0
 93
        0
 40
1.125
309
GRIDFORMAT_END
 95
       32
302
GRIDFORMAT
  1
GRIDFORMAT_BEGIN
 90
        0
 91
        1
 62
     0
 92
       -2
340
0
 93
        0
 40
1.125
309
GRIDFORMAT_END
309
TABLEFORMAT_END
  1
CELLSTYLE_BEGIN
 90
        1
 91
        1
300
_TITLE
309
CELLSTYLE_END
300
CELLSTYLE
  1
TABLEFORMAT_BEGIN
 90
        5
170
     1
 91
        0
 92
        0
 62
   257
 93
        1
300
CONTENTFORMAT
  1
CONTENTFORMAT_BEGIN
 90
        0
 91
        0
 92
      512
 93
        0
300

 40
0.0
140
1.0
 94
        5
 62
     0
340
F
144
4.5
309
CONTENTFORMAT_END
171
     1
301
MARGIN
  1
CELLMARGIN_BEGIN
 40
1.5
 40
1.5
 40
1.5
 40
1.5
 40
4.5
 40
4.5
309
CELLMARGIN_END
 94
        6
 95
        1
302
GRIDFORMAT
  1
GRIDFORMAT_BEGIN
 90
        0
 91
        1
 62
     0
 92
       -2
340
0
 93
        0
 40
1.125
309
GRIDFORMAT_END
 95
        2
302
GRIDFORMAT
  1
GRIDFORMAT_BEGIN
 90
        0
 91
        1
 62
     0
 92
       -2
340
0
 93
        0
 40
1.125
309
GRIDFORMAT_END
 95
        4
302
GRIDFORMAT
  1
GRIDFORMAT_BEGIN
 90
        0
 91
        1
 62
     0
 92
       -2
340
0
 93
        0
 40
1.125
309
GRIDFORMAT_END
 95
        8
302
GRIDFORMAT
  1
GRIDFORMAT_BEGIN
 90
        0
 91
        1
 62
     0
 92
       -2
340
0
 93
        0
 40
1.125
309
GRIDFORMAT_END
 95
       16
302
GRIDFORMAT
  1
GRIDFORMAT_BEGIN
 90
        0
 91
        1
 62
     0
 92
       -2
340
0
 93
        0
 40
1.125
309
GRIDFORMAT_END
 95
       32
302
GRIDFORMAT
  1
GRIDFORMAT_BEGIN
 90
        0
 91
        1
 62
     0
 92
       -2
340
0
 93
        0
 40
1.125
309
GRIDFORMAT_END
309
TABLEFORMAT_END
  1
CELLSTYLE_BEGIN
 90
        2
 91
        1
300
_HEADER
309
CELLSTYLE_END
300
CELLSTYLE
  1
TABLEFORMAT_BEGIN
 90
        5
170
     1
 91
        0
 92
        0
 62
   257
 93
        1
300
CONTENTFORMAT
  1
CONTENTFORMAT_BEGIN
 90
        0
 91
        0
 92
      512
 93
        0
300

 40
0.0
140
1.0
 94
        2
 62
     0
340
F
144
4.5
309
CONTENTFORMAT_END
171
     1
301
MARGIN
  1
CELLMARGIN_BEGIN
 40
1.5
 40
1.5
 40
1.5
 40
1.5
 40
4.5
 40
4.5
309
CELLMARGIN_END
 94
        6
 95
        1
302
GRIDFORMAT
  1
GRIDFORMAT_BEGIN
 90
        0
 91
        1
 62
     0
 92
       -2
340
0
 93
        0
 40
1.125
309
GRIDFORMAT_END
 95
        2
302
GRIDFORMAT
  1
GRIDFORMAT_BEGIN
 90
        0
 91
        1
 62
     0
 92
       -2
340
0
 93
        0
 40
1.125
309
GRIDFORMAT_END
 95
        4
302
GRIDFORMAT
  1
GRIDFORMAT_BEGIN
 90
        0
 91
        1
 62
     0
 92
       -2
340
0
 93
        0
 40
1.125
309
GRIDFORMAT_END
 95
        8
302
GRIDFORMAT
  1
GRIDFORMAT_BEGIN
 90
        0
 91
        1
 62
     0
 92
       -2
340
0
 93
        0
 40
1.125
309
GRIDFORMAT_END
 95
       16
302
GRIDFORMAT
  1
GRIDFORMAT_BEGIN
 90
        0
 91
        1
 62
     0
 92
       -2
340
0
 93
        0
 40
1.125
309
GRIDFORMAT_END
 95
       32
302
GRIDFORMAT
  1
GRIDFORMAT_BEGIN
 90
        0
 91
        1
 62
     0
 92
       -2
340
0
 93
        0
 40
1.125
309
GRIDFORMAT_END
309
TABLEFORMAT_END
  1
CELLSTYLE_BEGIN
 90
        3
 91
        2
300
_DATA
309
CELLSTYLE_END
  0
XRECORD
  5
18DE
102
{ACAD_REACTORS
330
18A7
102
}
330
18A7
100
AcDbXrecord
280
     1
102
ACAD_ROUNDTRIP_PRE2007_TABLESTYLE
 90
      512
 91
        0
  1

 92
      512
 93
        0
  2

 94
      512
 95
        0
  3

  0
XRECORD
  5
18B9
102
{ACAD_REACTORS
330
18B8
102
}
330
18B8
100
AcDbXrecord
280
     1
102
RTVSPropertyOp0
 70
     1
102
RTVSPropertyOp1
 70
     1
102
RTVSPropertyOp2
 70
     1
102
RTVSPropertyOp3
 70
     1
102
RTVSPropertyOp4
 70
     1
102
RTVSPropertyOp5
 70
     1
102
RTVSPropertyOp6
 70
     1
102
RTVSPropertyOp7
 70
     1
102
RTVSPropertyOp8
 70
     1
102
RTVSPropertyOp9
 70
     1
102
RTVSPropertyOp10
 70
     1
102
RTVSPropertyOp11
 70
     1
102
RTVSPropertyOp12
 70
     1
102
RTVSPropertyOp13
 70
     1
102
RTVSPropertyOp14
 70
     1
102
RTVSPropertyOp15
 70
     1
102
RTVSPropertyOp16
 70
     1
102
RTVSPropertyOp17
 70
     1
102
RTVSPropertyOp18
 70
     1
102
RTVSPropertyOp19
 70
     1
102
RTVSPropertyOp20
 70
     1
102
RTVSPropertyOp21
 70
     1
102
RTVSPropertyOp22
 70
     1
102
RTVSPropertyOp23
 70
     1
102
RTVSPropertyOp24
 70
     1
102
RTVSPropertyOp25
 70
     1
102
RTVSPropertyOp26
 70
     1
102
RTVSPropertyOp27
 70
     1
102
RTVSPropertyOp28
 70
     1
102
RTVSPropertyOp29
 70
     1
102
RTVSPropertyOp30
 70
     1
102
RTVSPropertyOp31
 70
     1
102
RTVSPropertyOp32
 70
     1
  0
XRECORD
  5
18B7
102
{ACAD_REACTORS
330
18B6
102
}
330
18B6
100
AcDbXrecord
280
     1
102
RTVSPropertyOp0
 70
     1
102
RTVSPropertyOp1
 70
     1
102
RTVSPropertyOp2
 70
     1
102
RTVSPropertyOp3
 70
     1
102
RTVSPropertyOp4
 70
     1
102
RTVSPropertyOp5
 70
     1
102
RTVSPropertyOp6
 70
     1
102
RTVSPropertyOp7
 70
     1
102
RTVSPropertyOp8
 70
     1
102
RTVSPropertyOp9
 70
     1
102
RTVSPropertyOp10
 70
     1
102
RTVSPropertyOp11
 70
     1
102
RTVSPropertyOp12
 70
     1
102
RTVSPropertyOp13
 70
     1
102
RTVSPropertyOp14
 70
     1
102
RTVSPropertyOp15
 70
     1
102
RTVSPropertyOp16
 70
     1
102
RTVSPropertyOp17
 70
     1
102
RTVSPropertyOp18
 70
     1
102
RTVSPropertyOp19
 70
     1
102
RTVSPropertyOp20
 70
     1
102
RTVSPropertyOp21
 70
     1
102
RTVSPropertyOp22
 70
     1
102
RTVSPropertyOp23
 70
     1
102
RTVSPropertyOp24
 70
     1
102
RTVSPropertyOp25
 70
     1
102
RTVSPropertyOp26
 70
     1
102
RTVSPropertyOp27
 70
     1
102
RTVSPropertyOp28
 70
     1
102
RTVSPropertyOp29
 70
     1
102
RTVSPropertyOp30
 70
     1
102
RTVSPropertyOp31
 70
     1
102
RTVSPropertyOp32
 70
     1
  0
XRECORD
  5
18C5
102
{ACAD_REACTORS
330
18C4
102
}
330
18C4
100
AcDbXrecord
280
     1
102
RTVSPropertyOp0
 70
     1
102
RTVSPropertyOp1
 70
     1
102
RTVSPropertyOp2
 70
     1
102
RTVSPropertyOp3
 70
     1
102
RTVSPropertyOp4
 70
     1
102
RTVSPropertyOp5
 70
     1
102
RTVSPropertyOp6
 70
     1
102
RTVSPropertyOp7
 70
     1
102
RTVSPropertyOp8
 70
     1
102
RTVSPropertyOp9
 70
     1
102
RTVSPropertyOp10
 70
     1
102
RTVSPropertyOp11
 70
     1
102
RTVSPropertyOp12
 70
     1
102
RTVSPropertyOp13
 70
     1
102
RTVSPropertyOp14
 70
     1
102
RTVSPropertyOp15
 70
     1
102
RTVSPropertyOp16
 70
     1
102
RTVSPropertyOp17
 70
     1
102
RTVSPropertyOp18
 70
     1
102
RTVSPropertyOp19
 70
     1
102
RTVSPropertyOp20
 70
     1
102
RTVSPropertyOp21
 70
     1
102
RTVSPropertyOp22
 70
     1
102
RTVSPropertyOp23
 70
     1
102
RTVSPropertyOp24
 70
     1
102
RTVSPropertyOp25
 70
     1
102
RTVSPropertyOp26
 70
     1
102
RTVSPropertyOp27
 70
     1
102
RTVSPropertyOp28
 70
     1
102
RTVSPropertyOp29
 70
     1
102
RTVSPropertyOp30
 70
     1
102
RTVSPropertyOp31
 70
     1
102
RTVSPropertyOp32
 70
     1
  0
XRECORD
  5
18CD
102
{ACAD_REACTORS
330
18CC
102
}
330
18CC
100
AcDbXrecord
280
     1
102
RTVSPropertyOp0
 70
     1
102
RTVSPropertyOp1
 70
     1
102
RTVSPropertyOp2
 70
     1
102
RTVSPropertyOp3
 70
     1
102
RTVSPropertyOp4
 70
     1
102
RTVSPropertyOp5
 70
     1
102
RTVSPropertyOp6
 70
     1
102
RTVSPropertyOp7
 70
     1
102
RTVSPropertyOp8
 70
     1
102
RTVSPropertyOp9
 70
     1
102
RTVSPropertyOp10
 70
     1
102
RTVSPropertyOp11
 70
     1
102
RTVSPropertyOp12
 70
     1
102
RTVSPropertyOp13
 70
     1
102
RTVSPropertyOp14
 70
     1
102
RTVSPropertyOp15
 70
     1
102
RTVSPropertyOp16
 70
     1
102
RTVSPropertyOp17
 70
     1
102
RTVSPropertyOp18
 70
     1
102
RTVSPropertyOp19
 70
     1
102
RTVSPropertyOp20
 70
     1
102
RTVSPropertyOp21
 70
     1
102
RTVSPropertyOp22
 70
     1
102
RTVSPropertyOp23
 70
     1
102
RTVSPropertyOp24
 70
     1
102
RTVSPropertyOp25
 70
     1
102
RTVSPropertyOp26
 70
     1
102
RTVSPropertyOp27
 70
     1
102
RTVSPropertyOp28
 70
     1
102
RTVSPropertyOp29
 70
     1
102
RTVSPropertyOp30
 70
     1
102
RTVSPropertyOp31
 70
     1
102
RTVSPropertyOp32
 70
     1
  0
XRECORD
  5
18BF
102
{ACAD_REACTORS
330
18BE
102
}
330
18BE
100
AcDbXrecord
280
     1
102
RTVSPropertyOp0
 70
     1
102
RTVSPropertyOp1
 70
     1
102
RTVSPropertyOp2
 70
     1
102
RTVSPropertyOp3
 70
     1
102
RTVSPropertyOp4
 70
     1
102
RTVSPropertyOp5
 70
     1
102
RTVSPropertyOp6
 70
     1
102
RTVSPropertyOp7
 70
     1
102
RTVSPropertyOp8
 70
     1
102
RTVSPropertyOp9
 70
     1
102
RTVSPropertyOp10
 70
     1
102
RTVSPropertyOp11
 70
     1
102
RTVSPropertyOp12
 70
     1
102
RTVSPropertyOp13
 70
     1
102
RTVSPropertyOp14
 70
     1
102
RTVSPropertyOp15
 70
     1
102
RTVSPropertyOp16
 70
     1
102
RTVSPropertyOp17
 70
     1
102
RTVSPropertyOp18
 70
     1
102
RTVSPropertyOp19
 70
     1
102
RTVSPropertyOp20
 70
     1
102
RTVSPropertyOp21
 70
     1
102
RTVSPropertyOp22
 70
     1
102
RTVSPropertyOp23
 70
     1
102
RTVSPropertyOp24
 70
     1
102
RTVSPropertyOp25
 70
     1
102
RTVSPropertyOp26
 70
     1
102
RTVSPropertyOp27
 70
     1
102
RTVSPropertyOp28
 70
     1
102
RTVSPropertyOp29
 70
     1
102
RTVSPropertyOp30
 70
     1
102
RTVSPropertyOp31
 70
     1
102
RTVSPropertyOp32
 70
     1
  0
XRECORD
  5
18C3
102
{ACAD_REACTORS
330
18C2
102
}
330
18C2
100
AcDbXrecord
280
     1
102
RTVSPropertyOp0
 70
     1
102
RTVSPropertyOp1
 70
     1
102
RTVSPropertyOp2
 70
     1
102
RTVSPropertyOp3
 70
     1
102
RTVSPropertyOp4
 70
     1
102
RTVSPropertyOp5
 70
     1
102
RTVSPropertyOp6
 70
     1
102
RTVSPropertyOp7
 70
     1
102
RTVSPropertyOp8
 70
     1
102
RTVSPropertyOp9
 70
     1
102
RTVSPropertyOp10
 70
     1
102
RTVSPropertyOp11
 70
     1
102
RTVSPropertyOp12
 70
     1
102
RTVSPropertyOp13
 70
     1
102
RTVSPropertyOp14
 70
     1
102
RTVSPropertyOp15
 70
     1
102
RTVSPropertyOp16
 70
     1
102
RTVSPropertyOp17
 70
     1
102
RTVSPropertyOp18
 70
     1
102
RTVSPropertyOp19
 70
     1
102
RTVSPropertyOp20
 70
     1
102
RTVSPropertyOp21
 70
     1
102
RTVSPropertyOp22
 70
     1
102
RTVSPropertyOp23
 70
     1
102
RTVSPropertyOp24
 70
     1
102
RTVSPropertyOp25
 70
     1
102
RTVSPropertyOp26
 70
     1
102
RTVSPropertyOp27
 70
     1
102
RTVSPropertyOp28
 70
     1
102
RTVSPropertyOp29
 70
     1
102
RTVSPropertyOp30
 70
     1
102
RTVSPropertyOp31
 70
     1
102
RTVSPropertyOp32
 70
     1
  0
XRECORD
  5
18DD
102
{ACAD_REACTORS
330
18DC
102
}
330
18DC
100
AcDbXrecord
280
     1
102
RTVSPropertyOp0
 70
     0
102
RTVSPropertyOp1
 70
     0
102
RTVSPropertyOp2
 70
     0
102
RTVSPropertyOp3
 70
     0
102
RTVSPropertyOp4
 70
     0
102
RTVSPropertyOp5
 70
     0
102
RTVSPropertyOp6
 70
     0
102
RTVSPropertyOp7
 70
     0
102
RTVSPropertyOp8
 70
     0
102
RTVSPropertyOp9
 70
     0
102
RTVSPropertyOp10
 70
     0
102
RTVSPropertyOp11
 70
     0
102
RTVSPropertyOp12
 70
     0
102
RTVSPropertyOp13
 70
     0
102
RTVSPropertyOp14
 70
     2
102
RTVSPropertyOp15
 70
     0
102
RTVSPropertyOp16
 70
     0
102
RTVSPropertyOp17
 70
     0
102
RTVSPropertyOp18
 70
     0
102
RTVSPropertyOp19
 70
     0
102
RTVSPropertyOp20
 70
     0
102
RTVSPropertyOp21
 70
     0
102
RTVSPropertyOp22
 70
     0
102
RTVSPropertyOp23
 70
     0
102
RTVSPropertyOp24
 70
     0
102
RTVSPropertyOp25
 70
     0
102
RTVSPropertyOp26
 70
     0
102
RTVSPropertyOp27
 70
     0
102
RTVSPropertyOp28
 70
     0
102
RTVSPropertyOp29
 70
     0
102
RTVSPropertyOp30
 70
     0
102
RTVSPropertyOp31
 70
     0
102
RTVSPropertyOp32
 70
     0
  0
XRECORD
  5
18CB
102
{ACAD_REACTORS
330
18CA
102
}
330
18CA
100
AcDbXrecord
280
     1
102
RTVSPropertyOp0
 70
     1
102
RTVSPropertyOp1
 70
     1
102
RTVSPropertyOp2
 70
     1
102
RTVSPropertyOp3
 70
     1
102
RTVSPropertyOp4
 70
     1
102
RTVSPropertyOp5
 70
     1
102
RTVSPropertyOp6
 70
     1
102
RTVSPropertyOp7
 70
     1
102
RTVSPropertyOp8
 70
     1
102
RTVSPropertyOp9
 70
     1
102
RTVSPropertyOp10
 70
     1
102
RTVSPropertyOp11
 70
     1
102
RTVSPropertyOp12
 70
     1
102
RTVSPropertyOp13
 70
     1
102
RTVSPropertyOp14
 70
     1
102
RTVSPropertyOp15
 70
     1
102
RTVSPropertyOp16
 70
     1
102
RTVSPropertyOp17
 70
     1
102
RTVSPropertyOp18
 70
     1
102
RTVSPropertyOp19
 70
     1
102
RTVSPropertyOp20
 70
     1
102
RTVSPropertyOp21
 70
     1
102
RTVSPropertyOp22
 70
     1
102
RTVSPropertyOp23
 70
     1
102
RTVSPropertyOp24
 70
     1
102
RTVSPropertyOp25
 70
     1
102
RTVSPropertyOp26
 70
     1
102
RTVSPropertyOp27
 70
     1
102
RTVSPropertyOp28
 70
     1
102
RTVSPropertyOp29
 70
     1
102
RTVSPropertyOp30
 70
     1
102
RTVSPropertyOp31
 70
     1
102
RTVSPropertyOp32
 70
     1
  0
XRECORD
  5
18AF
102
{ACAD_REACTORS
330
18AE
102
}
330
18AE
100
AcDbXrecord
280
     1
102
RTVSPropertyOp0
 70
     1
102
RTVSPropertyOp1
 70
     1
102
RTVSPropertyOp2
 70
     1
102
RTVSPropertyOp3
 70
     1
102
RTVSPropertyOp4
 70
     1
102
RTVSPropertyOp5
 70
     1
102
RTVSPropertyOp6
 70
     1
102
RTVSPropertyOp7
 70
     1
102
RTVSPropertyOp8
 70
     1
102
RTVSPropertyOp9
 70
     1
102
RTVSPropertyOp10
 70
     1
102
RTVSPropertyOp11
 70
     1
102
RTVSPropertyOp12
 70
     1
102
RTVSPropertyOp13
 70
     1
102
RTVSPropertyOp14
 70
     1
102
RTVSPropertyOp15
 70
     1
102
RTVSPropertyOp16
 70
     1
102
RTVSPropertyOp17
 70
     1
102
RTVSPropertyOp18
 70
     1
102
RTVSPropertyOp19
 70
     1
102
RTVSPropertyOp20
 70
     1
102
RTVSPropertyOp21
 70
     1
102
RTVSPropertyOp22
 70
     1
102
RTVSPropertyOp23
 70
     1
102
RTVSPropertyOp24
 70
     1
102
RTVSPropertyOp25
 70
     1
102
RTVSPropertyOp26
 70
     1
102
RTVSPropertyOp27
 70
     1
102
RTVSPropertyOp28
 70
     1
102
RTVSPropertyOp29
 70
     1
102
RTVSPropertyOp30
 70
     1
102
RTVSPropertyOp31
 70
     1
102
RTVSPropertyOp32
 70
     1
  0
XRECORD
  5
18B1
102
{ACAD_REACTORS
330
18B0
102
}
330
18B0
100
AcDbXrecord
280
     1
102
RTVSPropertyOp0
 70
     1
102
RTVSPropertyOp1
 70
     1
102
RTVSPropertyOp2
 70
     1
102
RTVSPropertyOp3
 70
     1
102
RTVSPropertyOp4
 70
     1
102
RTVSPropertyOp5
 70
     1
102
RTVSPropertyOp6
 70
     1
102
RTVSPropertyOp7
 70
     1
102
RTVSPropertyOp8
 70
     1
102
RTVSPropertyOp9
 70
     1
102
RTVSPropertyOp10
 70
     1
102
RTVSPropertyOp11
 70
     1
102
RTVSPropertyOp12
 70
     1
102
RTVSPropertyOp13
 70
     1
102
RTVSPropertyOp14
 70
     1
102
RTVSPropertyOp15
 70
     1
102
RTVSPropertyOp16
 70
     1
102
RTVSPropertyOp17
 70
     1
102
RTVSPropertyOp18
 70
     1
102
RTVSPropertyOp19
 70
     1
102
RTVSPropertyOp20
 70
     1
102
RTVSPropertyOp21
 70
     1
102
RTVSPropertyOp22
 70
     1
102
RTVSPropertyOp23
 70
     1
102
RTVSPropertyOp24
 70
     1
102
RTVSPropertyOp25
 70
     1
102
RTVSPropertyOp26
 70
     1
102
RTVSPropertyOp27
 70
     1
102
RTVSPropertyOp28
 70
     1
102
RTVSPropertyOp29
 70
     1
102
RTVSPropertyOp30
 70
     1
102
RTVSPropertyOp31
 70
     1
102
RTVSPropertyOp32
 70
     1
  0
XRECORD
  5
18B3
102
{ACAD_REACTORS
330
18B2
102
}
330
18B2
100
AcDbXrecord
280
     1
102
RTVSPropertyOp0
 70
     1
102
RTVSPropertyOp1
 70
     1
102
RTVSPropertyOp2
 70
     1
102
RTVSPropertyOp3
 70
     1
102
RTVSPropertyOp4
 70
     1
102
RTVSPropertyOp5
 70
     1
102
RTVSPropertyOp6
 70
     1
102
RTVSPropertyOp7
 70
     1
102
RTVSPropertyOp8
 70
     1
102
RTVSPropertyOp9
 70
     1
102
RTVSPropertyOp10
 70
     1
102
RTVSPropertyOp11
 70
     1
102
RTVSPropertyOp12
 70
     1
102
RTVSPropertyOp13
 70
     1
102
RTVSPropertyOp14
 70
     1
102
RTVSPropertyOp15
 70
     1
102
RTVSPropertyOp16
 70
     1
102
RTVSPropertyOp17
 70
     1
102
RTVSPropertyOp18
 70
     1
102
RTVSPropertyOp19
 70
     1
102
RTVSPropertyOp20
 70
     1
102
RTVSPropertyOp21
 70
     1
102
RTVSPropertyOp22
 70
     1
102
RTVSPropertyOp23
 70
     1
102
RTVSPropertyOp24
 70
     1
102
RTVSPropertyOp25
 70
     1
102
RTVSPropertyOp26
 70
     1
102
RTVSPropertyOp27
 70
     1
102
RTVSPropertyOp28
 70
     1
102
RTVSPropertyOp29
 70
     1
102
RTVSPropertyOp30
 70
     1
102
RTVSPropertyOp31
 70
     1
102
RTVSPropertyOp32
 70
     1
  0
XRECORD
  5
18B5
102
{ACAD_REACTORS
330
18B4
102
}
330
18B4
100
AcDbXrecord
280
     1
102
RTVSPropertyOp0
 70
     1
102
RTVSPropertyOp1
 70
     1
102
RTVSPropertyOp2
 70
     1
102
RTVSPropertyOp3
 70
     1
102
RTVSPropertyOp4
 70
     1
102
RTVSPropertyOp5
 70
     1
102
RTVSPropertyOp6
 70
     1
102
RTVSPropertyOp7
 70
     1
102
RTVSPropertyOp8
 70
     1
102
RTVSPropertyOp9
 70
     1
102
RTVSPropertyOp10
 70
     1
102
RTVSPropertyOp11
 70
     1
102
RTVSPropertyOp12
 70
     1
102
RTVSPropertyOp13
 70
     1
102
RTVSPropertyOp14
 70
     1
102
RTVSPropertyOp15
 70
     1
102
RTVSPropertyOp16
 70
     1
102
RTVSPropertyOp17
 70
     1
102
RTVSPropertyOp18
 70
     1
102
RTVSPropertyOp19
 70
     1
102
RTVSPropertyOp20
 70
     1
102
RTVSPropertyOp21
 70
     1
102
RTVSPropertyOp22
 70
     1
102
RTVSPropertyOp23
 70
     1
102
RTVSPropertyOp24
 70
     1
102
RTVSPropertyOp25
 70
     1
102
RTVSPropertyOp26
 70
     1
102
RTVSPropertyOp27
 70
     1
102
RTVSPropertyOp28
 70
     1
102
RTVSPropertyOp29
 70
     1
102
RTVSPropertyOp30
 70
     1
102
RTVSPropertyOp31
 70
     1
102
RTVSPropertyOp32
 70
     1
  0
XRECORD
  5
18BD
102
{ACAD_REACTORS
330
18BC
102
}
330
18BC
100
AcDbXrecord
280
     1
102
RTVSPropertyOp0
 70
     1
102
RTVSPropertyOp1
 70
     1
102
RTVSPropertyOp2
 70
     1
102
RTVSPropertyOp3
 70
     1
102
RTVSPropertyOp4
 70
     1
102
RTVSPropertyOp5
 70
     1
102
RTVSPropertyOp6
 70
     1
102
RTVSPropertyOp7
 70
     1
102
RTVSPropertyOp8
 70
     1
102
RTVSPropertyOp9
 70
     1
102
RTVSPropertyOp10
 70
     1
102
RTVSPropertyOp11
 70
     1
102
RTVSPropertyOp12
 70
     1
102
RTVSPropertyOp13
 70
     1
102
RTVSPropertyOp14
 70
     1
102
RTVSPropertyOp15
 70
     1
102
RTVSPropertyOp16
 70
     1
102
RTVSPropertyOp17
 70
     1
102
RTVSPropertyOp18
 70
     1
102
RTVSPropertyOp19
 70
     1
102
RTVSPropertyOp20
 70
     1
102
RTVSPropertyOp21
 70
     1
102
RTVSPropertyOp22
 70
     1
102
RTVSPropertyOp23
 70
     1
102
RTVSPropertyOp24
 70
     1
102
RTVSPropertyOp25
 70
     1
102
RTVSPropertyOp26
 70
     1
102
RTVSPropertyOp27
 70
     1
102
RTVSPropertyOp28
 70
     1
102
RTVSPropertyOp29
 70
     1
102
RTVSPropertyOp30
 70
     1
102
RTVSPropertyOp31
 70
     1
102
RTVSPropertyOp32
 70
     1
  0
XRECORD
  5
18D9
102
{ACAD_REACTORS
330
18D8
102
}
330
18D8
100
AcDbXrecord
280
     1
102
RTVSPropertyOp0
 70
     0
102
RTVSPropertyOp1
 70
     0
102
RTVSPropertyOp2
 70
     0
102
RTVSPropertyOp3
 70
     0
102
RTVSPropertyOp4
 70
     0
102
RTVSPropertyOp5
 70
     0
102
RTVSPropertyOp6
 70
     0
102
RTVSPropertyOp7
 70
     0
102
RTVSPropertyOp8
 70
     0
102
RTVSPropertyOp9
 70
     0
102
RTVSPropertyOp10
 70
     0
102
RTVSPropertyOp11
 70
     0
102
RTVSPropertyOp12
 70
     0
102
RTVSPropertyOp13
 70
     0
102
RTVSPropertyOp14
 70
     2
102
RTVSPropertyOp15
 70
     0
102
RTVSPropertyOp16
 70
     0
102
RTVSPropertyOp17
 70
     0
102
RTVSPropertyOp18
 70
     0
102
RTVSPropertyOp19
 70
     0
102
RTVSPropertyOp20
 70
     0
102
RTVSPropertyOp21
 70
     0
102
RTVSPropertyOp22
 70
     0
102
RTVSPropertyOp23
 70
     0
102
RTVSPropertyOp24
 70
     0
102
RTVSPropertyOp25
 70
     0
102
RTVSPropertyOp26
 70
     0
102
RTVSPropertyOp27
 70
     0
102
RTVSPropertyOp28
 70
     0
102
RTVSPropertyOp29
 70
     0
102
RTVSPropertyOp30
 70
     0
102
RTVSPropertyOp31
 70
     0
102
RTVSPropertyOp32
 70
     0
  0
XRECORD
  5
18C9
102
{ACAD_REACTORS
330
18C8
102
}
330
18C8
100
AcDbXrecord
280
     1
102
RTVSPropertyOp0
 70
     1
102
RTVSPropertyOp1
 70
     1
102
RTVSPropertyOp2
 70
     1
102
RTVSPropertyOp3
 70
     1
102
RTVSPropertyOp4
 70
     1
102
RTVSPropertyOp5
 70
     1
102
RTVSPropertyOp6
 70
     1
102
RTVSPropertyOp7
 70
     1
102
RTVSPropertyOp8
 70
     1
102
RTVSPropertyOp9
 70
     1
102
RTVSPropertyOp10
 70
     1
102
RTVSPropertyOp11
 70
     1
102
RTVSPropertyOp12
 70
     1
102
RTVSPropertyOp13
 70
     1
102
RTVSPropertyOp14
 70
     1
102
RTVSPropertyOp15
 70
     1
102
RTVSPropertyOp16
 70
     1
102
RTVSPropertyOp17
 70
     1
102
RTVSPropertyOp18
 70
     1
102
RTVSPropertyOp19
 70
     1
102
RTVSPropertyOp20
 70
     1
102
RTVSPropertyOp21
 70
     1
102
RTVSPropertyOp22
 70
     1
102
RTVSPropertyOp23
 70
     1
102
RTVSPropertyOp24
 70
     1
102
RTVSPropertyOp25
 70
     1
102
RTVSPropertyOp26
 70
     1
102
RTVSPropertyOp27
 70
     1
102
RTVSPropertyOp28
 70
     1
102
RTVSPropertyOp29
 70
     1
102
RTVSPropertyOp30
 70
     1
102
RTVSPropertyOp31
 70
     1
102
RTVSPropertyOp32
 70
     1
  0
XRECORD
  5
18DB
102
{ACAD_REACTORS
330
18DA
102
}
330
18DA
100
AcDbXrecord
280
     1
102
RTVSPropertyOp0
 70
     0
102
RTVSPropertyOp1
 70
     0
102
RTVSPropertyOp2
 70
     0
102
RTVSPropertyOp3
 70
     0
102
RTVSPropertyOp4
 70
     0
102
RTVSPropertyOp5
 70
     0
102
RTVSPropertyOp6
 70
     0
102
RTVSPropertyOp7
 70
     0
102
RTVSPropertyOp8
 70
     0
102
RTVSPropertyOp9
 70
     0
102
RTVSPropertyOp10
 70
     0
102
RTVSPropertyOp11
 70
     0
102
RTVSPropertyOp12
 70
     0
102
RTVSPropertyOp13
 70
     0
102
RTVSPropertyOp14
 70
     2
102
RTVSPropertyOp15
 70
     0
102
RTVSPropertyOp16
 70
     0
102
RTVSPropertyOp17
 70
     0
102
RTVSPropertyOp18
 70
     0
102
RTVSPropertyOp19
 70
     0
102
RTVSPropertyOp20
 70
     0
102
RTVSPropertyOp21
 70
     0
102
RTVSPropertyOp22
 70
     0
102
RTVSPropertyOp23
 70
     0
102
RTVSPropertyOp24
 70
     0
102
RTVSPropertyOp25
 70
     0
102
RTVSPropertyOp26
 70
     0
102
RTVSPropertyOp27
 70
     0
102
RTVSPropertyOp28
 70
     0
102
RTVSPropertyOp29
 70
     0
102
RTVSPropertyOp30
 70
     0
102
RTVSPropertyOp31
 70
     0
102
RTVSPropertyOp32
 70
     0
  0
XRECORD
  5
18C1
102
{ACAD_REACTORS
330
18C0
102
}
330
18C0
100
AcDbXrecord
280
     1
102
RTVSPropertyOp0
 70
     1
102
RTVSPropertyOp1
 70
     1
102
RTVSPropertyOp2
 70
     1
102
RTVSPropertyOp3
 70
     1
102
RTVSPropertyOp4
 70
     1
102
RTVSPropertyOp5
 70
     1
102
RTVSPropertyOp6
 70
     1
102
RTVSPropertyOp7
 70
     1
102
RTVSPropertyOp8
 70
     1
102
RTVSPropertyOp9
 70
     1
102
RTVSPropertyOp10
 70
     1
102
RTVSPropertyOp11
 70
     1
102
RTVSPropertyOp12
 70
     1
102
RTVSPropertyOp13
 70
     1
102
RTVSPropertyOp14
 70
     1
102
RTVSPropertyOp15
 70
     1
102
RTVSPropertyOp16
 70
     1
102
RTVSPropertyOp17
 70
     1
102
RTVSPropertyOp18
 70
     1
102
RTVSPropertyOp19
 70
     1
102
RTVSPropertyOp20
 70
     1
102
RTVSPropertyOp21
 70
     1
102
RTVSPropertyOp22
 70
     1
102
RTVSPropertyOp23
 70
     1
102
RTVSPropertyOp24
 70
     1
102
RTVSPropertyOp25
 70
     1
102
RTVSPropertyOp26
 70
     1
102
RTVSPropertyOp27
 70
     1
102
RTVSPropertyOp28
 70
     1
102
RTVSPropertyOp29
 70
     1
102
RTVSPropertyOp30
 70
     1
102
RTVSPropertyOp31
 70
     1
102
RTVSPropertyOp32
 70
     1
  0
XRECORD
  5
18D7
102
{ACAD_REACTORS
330
18D6
102
}
330
18D6
100
AcDbXrecord
280
     1
102
RTVSPropertyOp0
 70
     1
102
RTVSPropertyOp1
 70
     1
102
RTVSPropertyOp2
 70
     1
102
RTVSPropertyOp3
 70
     1
102
RTVSPropertyOp4
 70
     1
102
RTVSPropertyOp5
 70
     1
102
RTVSPropertyOp6
 70
     1
102
RTVSPropertyOp7
 70
     1
102
RTVSPropertyOp8
 70
     1
102
RTVSPropertyOp9
 70
     1
102
RTVSPropertyOp10
 70
     1
102
RTVSPropertyOp11
 70
     1
102
RTVSPropertyOp12
 70
     1
102
RTVSPropertyOp13
 70
     1
102
RTVSPropertyOp14
 70
     1
102
RTVSPropertyOp15
 70
     1
102
RTVSPropertyOp16
 70
     1
102
RTVSPropertyOp17
 70
     1
102
RTVSPropertyOp18
 70
     1
102
RTVSPropertyOp19
 70
     1
102
RTVSPropertyOp20
 70
     1
102
RTVSPropertyOp21
 70
     1
102
RTVSPropertyOp22
 70
     1
102
RTVSPropertyOp23
 70
     1
102
RTVSPropertyOp24
 70
     1
102
RTVSPropertyOp25
 70
     1
102
RTVSPropertyOp26
 70
     1
102
RTVSPropertyOp27
 70
     1
102
RTVSPropertyOp28
 70
     1
102
RTVSPropertyOp29
 70
     1
102
RTVSPropertyOp30
 70
     1
102
RTVSPropertyOp31
 70
     1
102
RTVSPropertyOp32
 70
     1
  0
XRECORD
  5
18D5
102
{ACAD_REACTORS
330
18D4
102
}
330
18D4
100
AcDbXrecord
280
     1
102
RTVSPropertyOp0
 70
     1
102
RTVSPropertyOp1
 70
     1
102
RTVSPropertyOp2
 70
     1
102
RTVSPropertyOp3
 70
     1
102
RTVSPropertyOp4
 70
     1
102
RTVSPropertyOp5
 70
     1
102
RTVSPropertyOp6
 70
     1
102
RTVSPropertyOp7
 70
     1
102
RTVSPropertyOp8
 70
     1
102
RTVSPropertyOp9
 70
     1
102
RTVSPropertyOp10
 70
     1
102
RTVSPropertyOp11
 70
     1
102
RTVSPropertyOp12
 70
     1
102
RTVSPropertyOp13
 70
     1
102
RTVSPropertyOp14
 70
     1
102
RTVSPropertyOp15
 70
     1
102
RTVSPropertyOp16
 70
     1
102
RTVSPropertyOp17
 70
     1
102
RTVSPropertyOp18
 70
     1
102
RTVSPropertyOp19
 70
     1
102
RTVSPropertyOp20
 70
     1
102
RTVSPropertyOp21
 70
     1
102
RTVSPropertyOp22
 70
     1
102
RTVSPropertyOp23
 70
     1
102
RTVSPropertyOp24
 70
     1
102
RTVSPropertyOp25
 70
     1
102
RTVSPropertyOp26
 70
     1
102
RTVSPropertyOp27
 70
     1
102
RTVSPropertyOp28
 70
     1
102
RTVSPropertyOp29
 70
     1
102
RTVSPropertyOp30
 70
     1
102
RTVSPropertyOp31
 70
     1
102
RTVSPropertyOp32
 70
     1
  0
XRECORD
  5
18CF
102
{ACAD_REACTORS
330
18CE
102
}
330
18CE
100
AcDbXrecord
280
     1
102
RTVSPropertyOp0
 70
     1
102
RTVSPropertyOp1
 70
     1
102
RTVSPropertyOp2
 70
     1
102
RTVSPropertyOp3
 70
     1
102
RTVSPropertyOp4
 70
     1
102
RTVSPropertyOp5
 70
     1
102
RTVSPropertyOp6
 70
     1
102
RTVSPropertyOp7
 70
     1
102
RTVSPropertyOp8
 70
     1
102
RTVSPropertyOp9
 70
     1
102
RTVSPropertyOp10
 70
     1
102
RTVSPropertyOp11
 70
     1
102
RTVSPropertyOp12
 70
     1
102
RTVSPropertyOp13
 70
     1
102
RTVSPropertyOp14
 70
     1
102
RTVSPropertyOp15
 70
     1
102
RTVSPropertyOp16
 70
     1
102
RTVSPropertyOp17
 70
     1
102
RTVSPropertyOp18
 70
     1
102
RTVSPropertyOp19
 70
     1
102
RTVSPropertyOp20
 70
     1
102
RTVSPropertyOp21
 70
     1
102
RTVSPropertyOp22
 70
     1
102
RTVSPropertyOp23
 70
     1
102
RTVSPropertyOp24
 70
     1
102
RTVSPropertyOp25
 70
     1
102
RTVSPropertyOp26
 70
     1
102
RTVSPropertyOp27
 70
     1
102
RTVSPropertyOp28
 70
     1
102
RTVSPropertyOp29
 70
     1
102
RTVSPropertyOp30
 70
     1
102
RTVSPropertyOp31
 70
     1
102
RTVSPropertyOp32
 70
     1
  0
XRECORD
  5
18D1
102
{ACAD_REACTORS
330
18D0
102
}
330
18D0
100
AcDbXrecord
280
     1
102
RTVSPropertyOp0
 70
     1
102
RTVSPropertyOp1
 70
     1
102
RTVSPropertyOp2
 70
     1
102
RTVSPropertyOp3
 70
     1
102
RTVSPropertyOp4
 70
     1
102
RTVSPropertyOp5
 70
     1
102
RTVSPropertyOp6
 70
     1
102
RTVSPropertyOp7
 70
     1
102
RTVSPropertyOp8
 70
     1
102
RTVSPropertyOp9
 70
     1
102
RTVSPropertyOp10
 70
     1
102
RTVSPropertyOp11
 70
     1
102
RTVSPropertyOp12
 70
     1
102
RTVSPropertyOp13
 70
     1
102
RTVSPropertyOp14
 70
     1
102
RTVSPropertyOp15
 70
     1
102
RTVSPropertyOp16
 70
     1
102
RTVSPropertyOp17
 70
     1
102
RTVSPropertyOp18
 70
     1
102
RTVSPropertyOp19
 70
     1
102
RTVSPropertyOp20
 70
     1
102
RTVSPropertyOp21
 70
     1
102
RTVSPropertyOp22
 70
     1
102
RTVSPropertyOp23
 70
     1
102
RTVSPropertyOp24
 70
     1
102
RTVSPropertyOp25
 70
     1
102
RTVSPropertyOp26
 70
     1
102
RTVSPropertyOp27
 70
     1
102
RTVSPropertyOp28
 70
     1
102
RTVSPropertyOp29
 70
     1
102
RTVSPropertyOp30
 70
     1
102
RTVSPropertyOp31
 70
     1
102
RTVSPropertyOp32
 70
     1
  0
XRECORD
  5
18C7
102
{ACAD_REACTORS
330
18C6
102
}
330
18C6
100
AcDbXrecord
280
     1
102
RTVSPropertyOp0
 70
     1
102
RTVSPropertyOp1
 70
     1
102
RTVSPropertyOp2
 70
     1
102
RTVSPropertyOp3
 70
     1
102
RTVSPropertyOp4
 70
     1
102
RTVSPropertyOp5
 70
     1
102
RTVSPropertyOp6
 70
     1
102
RTVSPropertyOp7
 70
     1
102
RTVSPropertyOp8
 70
     1
102
RTVSPropertyOp9
 70
     1
102
RTVSPropertyOp10
 70
     1
102
RTVSPropertyOp11
 70
     1
102
RTVSPropertyOp12
 70
     1
102
RTVSPropertyOp13
 70
     1
102
RTVSPropertyOp14
 70
     1
102
RTVSPropertyOp15
 70
     1
102
RTVSPropertyOp16
 70
     1
102
RTVSPropertyOp17
 70
     1
102
RTVSPropertyOp18
 70
     1
102
RTVSPropertyOp19
 70
     1
102
RTVSPropertyOp20
 70
     1
102
RTVSPropertyOp21
 70
     1
102
RTVSPropertyOp22
 70
     1
102
RTVSPropertyOp23
 70
     1
102
RTVSPropertyOp24
 70
     1
102
RTVSPropertyOp25
 70
     1
102
RTVSPropertyOp26
 70
     1
102
RTVSPropertyOp27
 70
     1
102
RTVSPropertyOp28
 70
     1
102
RTVSPropertyOp29
 70
     1
102
RTVSPropertyOp30
 70
     1
102
RTVSPropertyOp31
 70
     1
102
RTVSPropertyOp32
 70
     1
  0
XRECORD
  5
18BB
102
{ACAD_REACTORS
330
18BA
102
}
330
18BA
100
AcDbXrecord
280
     1
102
RTVSPropertyOp0
 70
     1
102
RTVSPropertyOp1
 70
     1
102
RTVSPropertyOp2
 70
     1
102
RTVSPropertyOp3
 70
     1
102
RTVSPropertyOp4
 70
     1
102
RTVSPropertyOp5
 70
     1
102
RTVSPropertyOp6
 70
     1
102
RTVSPropertyOp7
 70
     1
102
RTVSPropertyOp8
 70
     1
102
RTVSPropertyOp9
 70
     1
102
RTVSPropertyOp10
 70
     1
102
RTVSPropertyOp11
 70
     1
102
RTVSPropertyOp12
 70
     1
102
RTVSPropertyOp13
 70
     1
102
RTVSPropertyOp14
 70
     1
102
RTVSPropertyOp15
 70
     1
102
RTVSPropertyOp16
 70
     1
102
RTVSPropertyOp17
 70
     1
102
RTVSPropertyOp18
 70
     1
102
RTVSPropertyOp19
 70
     1
102
RTVSPropertyOp20
 70
     1
102
RTVSPropertyOp21
 70
     1
102
RTVSPropertyOp22
 70
     1
102
RTVSPropertyOp23
 70
     1
102
RTVSPropertyOp24
 70
     1
102
RTVSPropertyOp25
 70
     1
102
RTVSPropertyOp26
 70
     1
102
RTVSPropertyOp27
 70
     1
102
RTVSPropertyOp28
 70
     1
102
RTVSPropertyOp29
 70
     1
102
RTVSPropertyOp30
 70
     1
102
RTVSPropertyOp31
 70
     1
102
RTVSPropertyOp32
 70
     1
  0
XRECORD
  5
18D3
102
{ACAD_REACTORS
330
18D2
102
}
330
18D2
100
AcDbXrecord
280
     1
102
RTVSPropertyOp0
 70
     1
102
RTVSPropertyOp1
 70
     1
102
RTVSPropertyOp2
 70
     1
102
RTVSPropertyOp3
 70
     1
102
RTVSPropertyOp4
 70
     1
102
RTVSPropertyOp5
 70
     1
102
RTVSPropertyOp6
 70
     1
102
RTVSPropertyOp7
 70
     1
102
RTVSPropertyOp8
 70
     1
102
RTVSPropertyOp9
 70
     1
102
RTVSPropertyOp10
 70
     1
102
RTVSPropertyOp11
 70
     1
102
RTVSPropertyOp12
 70
     1
102
RTVSPropertyOp13
 70
     1
102
RTVSPropertyOp14
 70
     1
102
RTVSPropertyOp15
 70
     1
102
RTVSPropertyOp16
 70
     1
102
RTVSPropertyOp17
 70
     1
102
RTVSPropertyOp18
 70
     1
102
RTVSPropertyOp19
 70
     1
102
RTVSPropertyOp20
 70
     1
102
RTVSPropertyOp21
 70
     1
102
RTVSPropertyOp22
 70
     1
102
RTVSPropertyOp23
 70
     1
102
RTVSPropertyOp24
 70
     1
102
RTVSPropertyOp25
 70
     1
102
RTVSPropertyOp26
 70
     1
102
RTVSPropertyOp27
 70
     1
102
RTVSPropertyOp28
 70
     1
102
RTVSPropertyOp29
 70
     1
102
RTVSPropertyOp30
 70
     1
102
RTVSPropertyOp31
 70
     1
102
RTVSPropertyOp32
 70
     1
  0
ENDSEC
  0
EOF
