  0
SECTION
  2
HEADER
  9
$ACADVER
  1
AC1021
  9
$ACADMAINTVER
 70
    25
  9
$DWGCODEPAGE
  3
ANSI_932
  9
$LASTSAVEDBY
  1
yamakinoriaki
  9
$INSBASE
 10
0.0
 20
0.0
 30
0.0
  9
$EXTMIN
 10
-20.0
 20
-98.33103715473057
 30
0.0
  9
$EXTMAX
 10
348.4470758474467
 20
93.43752817729938
 30
0.0
  9
$LIMMIN
 10
-20.0
 20
-98.33103715473057
  9
$LIMMAX
 10
348.4470758474467
 20
93.43752817729938
  9
$ORTHOMODE
 70
     0
  9
$REGENMODE
 70
     1
  9
$FILLMODE
 70
     1
  9
$QTEXTMODE
 70
     0
  9
$MIRRTEXT
 70
     1
  9
$LTSCALE
 40
0.5
  9
$ATTMODE
 70
     1
  9
$TEXTSIZE
 40
0.2
  9
$TRACEWID
 40
0.05
  9
$TEXTSTYLE
  7
Standard
  9
$CLAYER
  8
新しいレイヤ 1
  9
$CELTYPE
  6
ByLayer
  9
$CECOLOR
 62
   256
  9
$CELTSCALE
 40
1.0
  9
$DISPSILH
 70
     0
  9
$DIMSCALE
 40
1.0
  9
$DIMASZ
 40
0.18
  9
$DIMEXO
 40
0.0625
  9
$DIMDLI
 40
0.38
  9
$DIMRND
 40
0.0
  9
$DIMDLE
 40
0.0
  9
$DIMEXE
 40
0.18
  9
$DIMTP
 40
0.0
  9
$DIMTM
 40
0.0
  9
$DIMTXT
 40
0.18
  9
$DIMCEN
 40
0.09
  9
$DIMTSZ
 40
0.0
  9
$DIMTOL
 70
     0
  9
$DIMLIM
 70
     0
  9
$DIMTIH
 70
     1
  9
$DIMTOH
 70
     1
  9
$DIMSE1
 70
     0
  9
$DIMSE2
 70
     0
  9
$DIMTAD
 70
     0
  9
$DIMZIN
 70
     0
  9
$DIMBLK
  1

  9
$DIMASO
 70
     1
  9
$DIMSHO
 70
     1
  9
$DIMPOST
  1

  9
$DIMAPOST
  1

  9
$DIMALT
 70
     0
  9
$DIMALTD
 70
     2
  9
$DIMALTF
 40
25.4
  9
$DIMLFAC
 40
1.0
  9
$DIMTOFL
 70
     0
  9
$DIMTVP
 40
0.0
  9
$DIMTIX
 70
     0
  9
$DIMSOXD
 70
     0
  9
$DIMSAH
 70
     0
  9
$DIMBLK1
  1

  9
$DIMBLK2
  1

  9
$DIMSTYLE
  2
Standard
  9
$DIMCLRD
 70
     0
  9
$DIMCLRE
 70
     0
  9
$DIMCLRT
 70
     0
  9
$DIMTFAC
 40
1.0
  9
$DIMGAP
 40
0.09
  9
$DIMJUST
 70
     0
  9
$DIMSD1
 70
     0
  9
$DIMSD2
 70
     0
  9
$DIMTOLJ
 70
     1
  9
$DIMTZIN
 70
     0
  9
$DIMALTZ
 70
     0
  9
$DIMALTTZ
 70
     0
  9
$DIMUPT
 70
     0
  9
$DIMDEC
 70
     4
  9
$DIMTDEC
 70
     4
  9
$DIMALTU
 70
     2
  9
$DIMALTTD
 70
     2
  9
$DIMTXSTY
  7
Standard
  9
$DIMAUNIT
 70
     0
  9
$DIMADEC
 70
     0
  9
$DIMALTRND
 40
0.0
  9
$DIMAZIN
 70
     0
  9
$DIMDSEP
 70
    46
  9
$DIMATFIT
 70
     3
  9
$DIMFRAC
 70
     0
  9
$DIMLDRBLK
  1

  9
$DIMLUNIT
 70
     2
  9
$DIMLWD
 70
    -2
  9
$DIMLWE
 70
    -2
  9
$DIMTMOVE
 70
     0
  9
$DIMFXL
 40
1.0
  9
$DIMFXLON
 70
     0
  9
$DIMJOGANG
 40
0.7853981633974483
  9
$DIMTFILL
 70
     0
  9
$DIMTFILLCLR
 70
     0
  9
$DIMARCSYM
 70
     0
  9
$DIMLTYPE
  6

  9
$DIMLTEX1
  6

  9
$DIMLTEX2
  6

  9
$LUNITS
 70
     2
  9
$LUPREC
 70
     2
  9
$SKETCHINC
 40
0.1
  9
$FILLETRAD
 40
0.5
  9
$AUNITS
 70
     0
  9
$AUPREC
 70
     0
  9
$MENU
  1
.
  9
$ELEVATION
 40
0.0
  9
$PELEVATION
 40
0.0
  9
$THICKNESS
 40
0.0
  9
$LIMCHECK
 70
     0
  9
$CHAMFERA
 40
0.0
  9
$CHAMFERB
 40
0.0
  9
$CHAMFERC
 40
0.0
  9
$CHAMFERD
 40
0.0
  9
$SKPOLY
 70
     0
  9
$TDCREATE
 40
2460447.593319317
  9
$TDUCREATE
 40
2460447.218319317
  9
$TDUPDATE
 40
2460447.593320775
  9
$TDUUPDATE
 40
2460447.218320775
  9
$TDINDWG
 40
0.0000000116
  9
$TDUSRTIMER
 40
0.0000000116
  9
$USRTIMER
 70
     1
  9
$ANGBASE
 50
0.0
  9
$ANGDIR
 70
     0
  9
$PDMODE
 70
     0
  9
$PDSIZE
 40
0.0
  9
$PLINEWID
 40
0.0
  9
$SPLFRAME
 70
     0
  9
$SPLINETYPE
 70
     6
  9
$SPLINESEGS
 70
     8
  9
$HANDSEED
  5
3E4
  9
$SURFTAB1
 70
     6
  9
$SURFTAB2
 70
     6
  9
$SURFTYPE
 70
     6
  9
$SURFU
 70
     6
  9
$SURFV
 70
     6
  9
$UCSBASE
  2

  9
$UCSNAME
  2

  9
$UCSORG
 10
0.0
 20
0.0
 30
0.0
  9
$UCSXDIR
 10
1.0
 20
0.0
 30
0.0
  9
$UCSYDIR
 10
0.0
 20
1.0
 30
0.0
  9
$UCSORTHOREF
  2

  9
$UCSORTHOVIEW
 70
     0
  9
$UCSORGTOP
 10
0.0
 20
0.0
 30
0.0
  9
$UCSORGBOTTOM
 10
0.0
 20
0.0
 30
0.0
  9
$UCSORGLEFT
 10
0.0
 20
0.0
 30
0.0
  9
$UCSORGRIGHT
 10
0.0
 20
0.0
 30
0.0
  9
$UCSORGFRONT
 10
0.0
 20
0.0
 30
0.0
  9
$UCSORGBACK
 10
0.0
 20
0.0
 30
0.0
  9
$PUCSBASE
  2

  9
$PUCSNAME
  2

  9
$PUCSORG
 10
0.0
 20
0.0
 30
0.0
  9
$PUCSXDIR
 10
1.0
 20
0.0
 30
0.0
  9
$PUCSYDIR
 10
0.0
 20
1.0
 30
0.0
  9
$PUCSORTHOREF
  2

  9
$PUCSORTHOVIEW
 70
     0
  9
$PUCSORGTOP
 10
0.0
 20
0.0
 30
0.0
  9
$PUCSORGBOTTOM
 10
0.0
 20
0.0
 30
0.0
  9
$PUCSORGLEFT
 10
0.0
 20
0.0
 30
0.0
  9
$PUCSORGRIGHT
 10
0.0
 20
0.0
 30
0.0
  9
$PUCSORGFRONT
 10
0.0
 20
0.0
 30
0.0
  9
$PUCSORGBACK
 10
0.0
 20
0.0
 30
0.0
  9
$USERI1
 70
     0
  9
$USERI2
 70
     0
  9
$USERI3
 70
     0
  9
$USERI4
 70
     0
  9
$USERI5
 70
     0
  9
$USERR1
 40
0.0
  9
$USERR2
 40
0.0
  9
$USERR3
 40
0.0
  9
$USERR4
 40
0.0
  9
$USERR5
 40
0.0
  9
$WORLDVIEW
 70
     1
  9
$SHADEDGE
 70
     3
  9
$SHADEDIF
 70
    70
  9
$TILEMODE
 70
     1
  9
$MAXACTVP
 70
    64
  9
$PINSBASE
 10
0.0
 20
0.0
 30
0.0
  9
$PLIMCHECK
 70
     0
  9
$PEXTMIN
 10
-9.375
 20
-25.0
 30
0.0
  9
$PEXTMAX
 10
525.0
 20
371.25
 30
0.0
  9
$PLIMMIN
 10
-7.5
 20
-20.0
  9
$PLIMMAX
 10
420.0
 20
297.0
  9
$UNITMODE
 70
     0
  9
$VISRETAIN
 70
     1
  9
$PLINEGEN
 70
     0
  9
$PSLTSCALE
 70
     0
  9
$TREEDEPTH
 70
  3020
  9
$CMLSTYLE
  2
Standard
  9
$CMLJUST
 70
     0
  9
$CMLSCALE
 40
1.0
  9
$PROXYGRAPHICS
 70
     1
  9
$MEASUREMENT
 70
     1
  9
$CELWEIGHT
370
    -1
  9
$ENDCAPS
280
     0
  9
$JOINSTYLE
280
     0
  9
$LWDISPLAY
290
     1
  9
$INSUNITS
 70
     0
  9
$HYPERLINKBASE
  1

  9
$STYLESHEET
  1

  9
$XEDIT
290
     1
  9
$CEPSNTYPE
380
     0
  9
$PSTYLEMODE
290
     1
  9
$FINGERPRINTGUID
  2
{7bfe2927-de50-455c-be94-0c0f98f04c53}
  9
$VERSIONGUID
  2
{FAEB1C32-E019-11D5-929B-00C0DF256EC4}
  9
$EXTNAMES
290
     1
  9
$PSVPSCALE
 40
0.0
  9
$OLESTARTUP
290
     0
  9
$SORTENTS
280
   127
  9
$INDEXCTL
280
     0
  9
$HIDETEXT
280
     1
  9
$XCLIPFRAME
290
     0
  9
$HALOGAP
280
     0
  9
$OBSCOLOR
 70
   257
  9
$OBSLTYPE
280
     0
  9
$INTERSECTIONDISPLAY
280
     0
  9
$INTERSECTIONCOLOR
 70
   257
  9
$DIMASSOC
280
     2
  9
$PROJECTNAME
  1

  9
$CAMERADISPLAY
290
     0
  9
$LENSLENGTH
 40
50.0
  9
$CAMERAHEIGHT
 40
0.0
  9
$STEPSPERSEC
 40
2.0
  9
$STEPSIZE
 40
6.0
  9
$3DDWFPREC
 40
2.0
  9
$PSOLWIDTH
 40
0.25
  9
$PSOLHEIGHT
 40
4.0
  9
$LOFTANG1
 40
1.570796326794897
  9
$LOFTANG2
 40
1.570796326794897
  9
$LOFTMAG1
 40
0.0
  9
$LOFTMAG2
 40
0.0
  9
$LOFTPARAM
 70
     7
  9
$LOFTNORMALS
280
     1
  9
$LATITUDE
 40
37.795
  9
$LONGITUDE
 40
-122.394
  9
$NORTHDIRECTION
 40
0.0
  9
$TIMEZONE
 70
 -8000
  9
$LIGHTGLYPHDISPLAY
280
     1
  9
$TILEMODELIGHTSYNCH
280
     1
  9
$CMATERIAL
347
44
  9
$SOLIDHIST
280
     0
  9
$SHOWHIST
280
     1
  9
$DWFFRAME
280
     2
  9
$DGNFRAME
280
     2
  9
$REALWORLDSCALE
290
     1
  9
$INTERFERECOLOR
 62
   256
  9
$CSHADOW
280
     0
  9
$SHADOWPLANELOCATION
 40
0.0
  0
ENDSEC
  0
SECTION
  2
CLASSES
  0
CLASS
  1
ACDBDICTIONARYWDFLT
  2
AcDbDictionaryWithDefault
  3
ObjectDBX Classes
 90
        0
 91
        3
280
     0
281
     0
  0
CLASS
  1
VISUALSTYLE
  2
AcDbVisualStyle
  3
ObjectDBX Classes
 90
     4095
 91
        3
280
     0
281
     0
  0
CLASS
  1
MATERIAL
  2
AcDbMaterial
  3
ObjectDBX Classes
 90
     1153
 91
        3
280
     0
281
     0
  0
CLASS
  1
SCALE
  2
AcDbScale
  3
ObjectDBX Classes
 90
     1153
 91
        3
280
     0
281
     0
  0
CLASS
  1
TABLESTYLE
  2
AcDbTableStyle
  3
ObjectDBX Classes
 90
     4095
 91
        3
280
     0
281
     0
  0
CLASS
  1
MLEADERSTYLE
  2
AcDbMLeaderStyle
  3
ACDB_MLEADERSTYLE_CLASS
 90
     4095
 91
        3
280
     0
281
     0
  0
CLASS
  1
SUN
  2
AcDbSun
  3
SCENEOE
 90
     1153
 91
        3
280
     0
281
     0
  0
CLASS
  1
RASTERVARIABLES
  2
AcDbRasterVariables
  3
ISM
 90
        0
 91
        3
280
     0
281
     0
  0
CLASS
  1
DICTIONARYVAR
  2
AcDbDictionaryVar
  3
ObjectDBX Classes
 90
        0
 91
        3
280
     0
281
     0
  0
CLASS
  1
CELLSTYLEMAP
  2
AcDbCellStyleMap
  3
ObjectDBX Classes
 90
     1152
 91
        3
280
     0
281
     0
  0
ENDSEC
  0
SECTION
  2
TABLES
  0
TABLE
  2
VPORT
  5
8
330
0
100
AcDbSymbolTable
 70
     1
  0
VPORT
  5
29
330
8
100
AcDbSymbolTableRecord
100
AcDbViewportTableRecord
  2
*Active
 70
     0
 10
0.0
 20
0.0
 11
1.0
 21
1.0
 12
131.3788303389787
 22
-1.957403590972469
 13
0.0
 23
0.0
 14
0.5
 24
0.5
 15
0.5
 25
0.5
 16
0.0
 26
0.0
 36
1.0
 17
0.0
 27
0.0
 37
0.0
 40
161.0855948789051
 41
1.921311113787152
 42
50.0
 43
0.0
 44
0.0
 50
0.0
 51
0.0
 71
     0
 72
 20000
 73
     1
 74
     3
 75
     0
 76
     0
 77
     0
 78
     0
281
     0
 65
     1
110
0.0
120
0.0
130
0.0
111
1.0
121
0.0
131
0.0
112
0.0
122
1.0
132
0.0
 79
     0
146
0.0
348
2F
 60
     3
 61
     5
292
     1
282
     1
141
0.0
142
0.0
 63
   250
361
6D
  0
ENDTAB
  0
TABLE
  2
LTYPE
  5
5
330
0
100
AcDbSymbolTable
 70
     2
  0
LTYPE
  5
14
330
5
100
AcDbSymbolTableRecord
100
AcDbLinetypeTableRecord
  2
ByBlock
 70
     0
  3

 72
    65
 73
     0
 40
0.0
  0
LTYPE
  5
15
330
5
100
AcDbSymbolTableRecord
100
AcDbLinetypeTableRecord
  2
ByLayer
 70
     0
  3

 72
    65
 73
     0
 40
0.0
  0
LTYPE
  5
16
330
5
100
AcDbSymbolTableRecord
100
AcDbLinetypeTableRecord
  2
Continuous
 70
     0
  3
Solid line
 72
    65
 73
     0
 40
0.0
  0
LTYPE
  5
70
330
5
100
AcDbSymbolTableRecord
100
AcDbLinetypeTableRecord
  2
WACOM_LSTYLE_M4
 70
     0
  3

 72
    65
 73
     4
 40
10.0
 49
7.0
 74
     0
 49
-1.0
 74
     0
 49
1.0
 74
     0
 49
-1.0
 74
     0
  0
ENDTAB
  0
TABLE
  2
LAYER
  5
2
330
0
100
AcDbSymbolTable
 70
     6
  0
LAYER
  5
10
330
2
100
AcDbSymbolTableRecord
100
AcDbLayerTableRecord
  2
0
 70
     0
 62
     7
  6
Continuous
370
    -3
390
F
347
46
  0
LAYER
  5
71
330
2
100
AcDbSymbolTableRecord
100
AcDbLayerTableRecord
  2
新しいレイヤ 1
 70
     0
 62
     7
  6
Continuous
370
    13
390
F
347
46
  0
LAYER
  5
72
330
2
100
AcDbSymbolTableRecord
100
AcDbLayerTableRecord
  2
実線（中）
 70
     0
 62
     7
  6
Continuous
370
    13
390
F
347
46
  0
LAYER
  5
73
330
2
100
AcDbSymbolTableRecord
100
AcDbLayerTableRecord
  2
寸法線
 70
     0
 62
     2
  6
Continuous
370
    13
390
F
347
46
  0
LAYER
  5
74
330
2
100
AcDbSymbolTableRecord
100
AcDbLayerTableRecord
  2
一点鎖線
 70
     0
 62
     3
  6
WACOM_LSTYLE_M4
370
    13
390
F
347
46
  0
LAYER
  5
75
330
2
100
AcDbSymbolTableRecord
100
AcDbLayerTableRecord
  2
rcviewportframe
 70
     0
 62
    -7
  6
Continuous
370
    -3
390
F
347
46
  0
ENDTAB
  0
TABLE
  2
STYLE
  5
3
330
0
100
AcDbSymbolTable
 70
     6
  0
STYLE
  5
11
330
3
100
AcDbSymbolTableRecord
100
AcDbTextStyleTableRecord
  2
Standard
 70
     0
 40
0.0
 41
1.0
 50
0.0
 71
     0
 42
0.2
  3
txt.shx
  4
extfont2
  0
STYLE
  5
76
330
3
100
AcDbSymbolTableRecord
100
AcDbTextStyleTableRecord
  2
MS PGothic
 70
     0
 40
0.0
 41
1.0
 50
0.0
 71
     0
 42
0.2
  3
MS PGothic.ttf
  4

1001
ACAD
1000
ＭＳ Ｐゴシック
1071
    32818
  0
STYLE
  5
77
330
3
100
AcDbSymbolTableRecord
100
AcDbTextStyleTableRecord
  2
VERTICAL
 70
     4
 40
0.0
 41
1.0
 50
0.0
 71
     0
 42
0.2
  3
txt.shx
  4
extfont2
  0
STYLE
  5
78
330
3
100
AcDbSymbolTableRecord
100
AcDbTextStyleTableRecord
  2
VERTICAL MS PGothic
 70
     0
 40
0.0
 41
1.0
 50
0.0
 71
     0
 42
0.2
  3
MS PGothic.ttf
  4

1001
ACAD
1000
@ＭＳ Ｐゴシック
1071
    32818
  0
STYLE
  5
192
330
3
100
AcDbSymbolTableRecord
100
AcDbTextStyleTableRecord
  2
MS Gothic
 70
     0
 40
0.0
 41
1.0
 50
0.0
 71
     0
 42
0.2
  3
MS Gothic.ttf
  4
extfont2
1001
ACAD
1000
ＭＳ ゴシック
1071
    32817
  0
STYLE
  5
328
330
3
100
AcDbSymbolTableRecord
100
AcDbTextStyleTableRecord
  2
MS PGothic B
 70
     0
 40
0.0
 41
1.0
 50
0.0
 71
     0
 42
0.2
  3
MS PGothic.ttf
  4
extfont2
1001
ACAD
1000
ＭＳ Ｐゴシック
1071
 33587250
  0
ENDTAB
  0
TABLE
  2
VIEW
  5
6
330
0
100
AcDbSymbolTable
 70
     0
  0
ENDTAB
  0
TABLE
  2
UCS
  5
7
330
0
100
AcDbSymbolTable
 70
     0
  0
ENDTAB
  0
TABLE
  2
APPID
  5
9
330
0
100
AcDbSymbolTable
 70
     3
  0
APPID
  5
12
330
9
100
AcDbSymbolTableRecord
100
AcDbRegAppTableRecord
  2
ACAD
 70
     0
  0
APPID
  5
6E
330
9
100
AcDbSymbolTableRecord
100
AcDbRegAppTableRecord
  2
RootPro CAD
 70
     0
  0
APPID
  5
3DC
330
9
100
AcDbSymbolTableRecord
100
AcDbRegAppTableRecord
  2
ACAD_MLEADERVER
 70
     0
  0
ENDTAB
  0
TABLE
  2
DIMSTYLE
  5
A
330
0
100
AcDbSymbolTable
 70
     1
100
AcDbDimStyleTable
  0
DIMSTYLE
105
27
102
{ACAD_REACTORS
330
7A
330
85
330
95
330
BF
330
C9
330
F1
330
17F
330
1BA
330
1C6
330
1D0
330
31C
330
32A
330
345
102
}
330
A
100
AcDbSymbolTableRecord
100
AcDbDimStyleTableRecord
  2
Standard
 70
     0
178
     0
340
11
  0
ENDTAB
  0
TABLE
  2
BLOCK_RECORD
  5
1
330
0
100
AcDbSymbolTable
 70
    14
  0
BLOCK_RECORD
  5
1F
330
1
100
AcDbSymbolTableRecord
100
AcDbBlockTableRecord
  2
*Model_Space
340
22
 70
     0
280
     1
281
     0
  0
BLOCK_RECORD
  5
1B
330
1
100
AcDbSymbolTableRecord
100
AcDbBlockTableRecord
  2
*Paper_Space
340
1E
 70
     0
280
     1
281
     0
  0
BLOCK_RECORD
  5
7B
330
1
100
AcDbSymbolTableRecord
100
AcDbBlockTableRecord
  2
*D1
340
0
 70
     0
280
     1
281
     0
  0
BLOCK_RECORD
  5
86
330
1
100
AcDbSymbolTableRecord
100
AcDbBlockTableRecord
  2
*D2
340
0
 70
     0
280
     1
281
     0
  0
BLOCK_RECORD
  5
96
330
1
100
AcDbSymbolTableRecord
100
AcDbBlockTableRecord
  2
*D3
340
0
 70
     0
280
     1
281
     0
  0
BLOCK_RECORD
  5
C0
330
1
100
AcDbSymbolTableRecord
100
AcDbBlockTableRecord
  2
*D4
340
0
 70
     0
280
     1
281
     0
  0
BLOCK_RECORD
  5
CA
330
1
100
AcDbSymbolTableRecord
100
AcDbBlockTableRecord
  2
*D5
340
0
 70
     0
280
     1
281
     0
  0
BLOCK_RECORD
  5
F2
330
1
100
AcDbSymbolTableRecord
100
AcDbBlockTableRecord
  2
*D6
340
0
 70
     0
280
     1
281
     0
  0
BLOCK_RECORD
  5
180
330
1
100
AcDbSymbolTableRecord
100
AcDbBlockTableRecord
  2
*D7
340
0
 70
     0
280
     1
281
     0
  0
BLOCK_RECORD
  5
1B4
330
1
100
AcDbSymbolTableRecord
100
AcDbBlockTableRecord
  2
_Open30
340
0
 70
     0
280
     1
281
     0
  0
BLOCK_RECORD
  5
1BB
330
1
100
AcDbSymbolTableRecord
100
AcDbBlockTableRecord
  2
*D9
340
0
 70
     0
280
     1
281
     0
  0
BLOCK_RECORD
  5
1C7
330
1
100
AcDbSymbolTableRecord
100
AcDbBlockTableRecord
  2
*D10
340
0
 70
     0
280
     1
281
     0
  0
BLOCK_RECORD
  5
1D1
330
1
100
AcDbSymbolTableRecord
100
AcDbBlockTableRecord
  2
*D11
340
0
 70
     0
280
     1
281
     0
  0
BLOCK_RECORD
  5
31D
330
1
100
AcDbSymbolTableRecord
100
AcDbBlockTableRecord
  2
*D12
340
0
 70
     0
280
     1
281
     0
  0
BLOCK_RECORD
  5
32B
330
1
100
AcDbSymbolTableRecord
100
AcDbBlockTableRecord
  2
*D13
340
0
 70
     0
280
     1
281
     0
  0
BLOCK_RECORD
  5
346
330
1
100
AcDbSymbolTableRecord
100
AcDbBlockTableRecord
  2
*D14
340
0
 70
     0
280
     1
281
     0
  0
ENDTAB
  0
ENDSEC
  0
SECTION
  2
BLOCKS
  0
BLOCK
  5
20
330
1F
100
AcDbEntity
  8
0
100
AcDbBlockBegin
  2
*Model_Space
 70
     0
 10
0.0
 20
0.0
 30
0.0
  3
*Model_Space
  1

  0
ENDBLK
  5
21
330
1F
100
AcDbEntity
  8
0
100
AcDbBlockEnd
  0
BLOCK
  5
1C
330
1B
100
AcDbEntity
 67
     1
  8
0
100
AcDbBlockBegin
  2
*Paper_Space
 70
     0
 10
0.0
 20
0.0
 30
0.0
  3
*Paper_Space
  1

  0
ENDBLK
  5
1D
330
1B
100
AcDbEntity
 67
     1
  8
0
100
AcDbBlockEnd
  0
BLOCK
  5
83
330
7B
100
AcDbEntity
  8
0
100
AcDbBlockBegin
  2
*D1
 70
     1
 10
0.0
 20
0.0
 30
0.0
  3
*D1
  1

  0
MTEXT
  5
7C
330
7B
100
AcDbEntity
  8
実線（中）
 62
     7
100
AcDbMText
 10
18.96142358259722
 20
-62.07983832460302
 30
0.0
 40
4.499999980872532
 41
10.44376406001792
 46
0.0
 71
     7
 72
     1
  1
{\fＭＳ Ｐゴシック|b0|i0;6.5}
  7
MS PGothic
 73
     1
 44
1.0
  0
LINE
  5
7D
330
7B
100
AcDbEntity
  8
実線（中）
  6
Continuous
 62
     7
100
AcDbLine
 10
44.99000000000001
 20
-41.00000000000001
 30
0.0
 11
44.99000000000001
 21
-65.99999999999997
 31
0.0
  0
LINE
  5
7E
330
7B
100
AcDbEntity
  8
実線（中）
  6
Continuous
 62
     7
100
AcDbLine
 10
38.49000000000001
 20
-11.07999999999997
 30
0.0
 11
38.49
 21
-65.99999999999997
 31
0.0
  0
HATCH
  5
7F
330
7B
100
AcDbEntity
  8
実線（中）
  6
Continuous
 62
     7
370
    35
100
AcDbHatch
 10
0.0
 20
0.0
 30
0.0
210
0.0
220
0.0
230
1.0
  2
SOLID
 70
     1
 71
     1
 91
        1
 92
        7
 72
     0
 73
     1
 93
        3
 10
39.99000000000001
 20
-65.8333333333333
 10
44.99000000000001
 20
-64.99999999999997
 10
39.99000000000001
 20
-64.16666666666664
 97
        0
 75
     0
 76
     1
 47
0.0
 98
        1
 10
39.99000000000001
 20
-65.8333333333333
  0
HATCH
  5
80
330
7B
100
AcDbEntity
  8
実線（中）
  6
Continuous
 62
     7
370
    35
100
AcDbHatch
 10
0.0
 20
0.0
 30
0.0
210
0.0
220
0.0
230
1.0
  2
SOLID
 70
     1
 71
     1
 91
        1
 92
        7
 72
     0
 73
     1
 93
        3
 10
43.49000000000001
 20
-64.16666666666664
 10
38.49000000000001
 20
-64.99999999999997
 10
43.49000000000001
 20
-65.8333333333333
 97
        0
 75
     0
 76
     1
 47
0.0
 98
        1
 10
43.49000000000001
 20
-64.16666666666664
  0
LINE
  5
81
330
7B
100
AcDbEntity
  8
実線（中）
  6
Continuous
 62
     7
370
    35
100
AcDbLine
 10
44.99000000000001
 20
-64.99999999999997
 30
0.0
 11
38.49
 21
-64.99999999999997
 31
0.0
  0
LINE
  5
82
330
7B
100
AcDbEntity
  8
実線（中）
  6
Continuous
 62
     7
370
    35
100
AcDbLine
 10
38.49
 20
-64.99999999999997
 30
0.0
 11
18.96142358259722
 21
-64.99999999999997
 31
0.0
  0
ENDBLK
  5
84
330
7B
100
AcDbEntity
  8
0
100
AcDbBlockEnd
  0
BLOCK
  5
8D
330
86
100
AcDbEntity
  8
0
100
AcDbBlockBegin
  2
*D2
 70
     1
 10
0.0
 20
0.0
 30
0.0
  3
*D2
  1

  0
MTEXT
  5
87
330
86
100
AcDbEntity
  8
実線（中）
 62
     7
100
AcDbMText
 10
22.07954545454547
 20
-3.272727251052828
 30
0.0
 40
4.499999353441142
 41
8.77685950413223
 46
0.0
 71
     7
 72
     1
  1
{\fＭＳ Ｐゴシック|b0|i0;84}
  7
MS PGothic
 11
6.123233995736766E-17
 21
1.0
 31
0.0
 73
     1
 44
1.0
  0
LINE
  5
88
330
86
100
AcDbEntity
  8
実線（中）
  6
Continuous
 62
     7
100
AcDbLine
 10
11.70000000000005
 20
42.00000000000007
 30
0.0
 11
26.00000000000001
 21
42.00000000000007
 31
0.0
  0
LINE
  5
89
330
86
100
AcDbEntity
  8
実線（中）
  6
Continuous
 62
     7
100
AcDbLine
 10
11.70000000000005
 20
-41.99999999999999
 30
0.0
 11
26.0
 21
-41.99999999999999
 31
0.0
  0
HATCH
  5
8A
330
86
100
AcDbEntity
  8
実線（中）
  6
Continuous
 62
     7
370
    35
100
AcDbHatch
 10
0.0
 20
0.0
 30
0.0
210
0.0
220
0.0
230
1.0
  2
SOLID
 70
     1
 71
     1
 91
        1
 92
        7
 72
     0
 73
     1
 93
        3
 10
25.83333333333335
 20
37.00000000000007
 10
25.00000000000001
 20
42.00000000000007
 10
24.16666666666668
 20
37.00000000000007
 97
        0
 75
     0
 76
     1
 47
0.0
 98
        1
 10
25.83333333333335
 20
37.00000000000007
  0
HATCH
  5
8B
330
86
100
AcDbEntity
  8
実線（中）
  6
Continuous
 62
     7
370
    35
100
AcDbHatch
 10
0.0
 20
0.0
 30
0.0
210
0.0
220
0.0
230
1.0
  2
SOLID
 70
     1
 71
     1
 91
        1
 92
        7
 72
     0
 73
     1
 93
        3
 10
24.16666666666668
 20
-36.99999999999999
 10
25.00000000000001
 20
-41.99999999999999
 10
25.83333333333335
 20
-36.99999999999999
 97
        0
 75
     0
 76
     1
 47
0.0
 98
        1
 10
24.16666666666668
 20
-36.99999999999999
  0
LINE
  5
8C
330
86
100
AcDbEntity
  8
実線（中）
  6
Continuous
 62
     7
370
    35
100
AcDbLine
 10
25.00000000000001
 20
42.00000000000007
 30
0.0
 11
25.0
 21
-41.99999999999999
 31
0.0
  0
ENDBLK
  5
8E
330
86
100
AcDbEntity
  8
0
100
AcDbBlockEnd
  0
BLOCK
  5
9D
330
96
100
AcDbEntity
  8
0
100
AcDbBlockBegin
  2
*D3
 70
     1
 10
0.0
 20
0.0
 30
0.0
  3
*D3
  1

  0
MTEXT
  5
97
330
96
100
AcDbEntity
  8
実線（中）
 62
     7
100
AcDbMText
 10
-3.271905183792141
 20
-62.07977665537618
 30
0.0
 40
4.499999671991898
 41
8.54942248199026
 46
0.0
 71
     7
 72
     1
  1
{\fＭＳ Ｐゴシック|b0|i0;22}
  7
MS PGothic
 73
     1
 44
1.0
  0
LINE
  5
98
330
96
100
AcDbEntity
  8
実線（中）
  6
Continuous
 62
     7
100
AcDbLine
 10
-11.0
 20
-42.69999999999997
 30
0.0
 11
-11.00000000000003
 21
-65.99999999999999
 31
0.0
  0
LINE
  5
99
330
96
100
AcDbEntity
  8
実線（中）
  6
Continuous
 62
     7
100
AcDbLine
 10
11.0
 20
-42.69999999999997
 30
0.0
 11
10.99999999999997
 21
-65.99999999999999
 31
0.0
  0
HATCH
  5
9A
330
96
100
AcDbEntity
  8
実線（中）
  6
Continuous
 62
     7
370
    35
100
AcDbHatch
 10
0.0
 20
0.0
 30
0.0
210
0.0
220
0.0
230
1.0
  2
SOLID
 70
     1
 71
     1
 91
        1
 92
        7
 72
     0
 73
     1
 93
        3
 10
-6.000000000000028
 20
-64.16666666666666
 10
-11.00000000000003
 20
-64.99999999999999
 10
-6.000000000000028
 20
-65.83333333333331
 97
        0
 75
     0
 76
     1
 47
0.0
 98
        1
 10
-6.000000000000028
 20
-64.16666666666666
  0
HATCH
  5
9B
330
96
100
AcDbEntity
  8
実線（中）
  6
Continuous
 62
     7
370
    35
100
AcDbHatch
 10
0.0
 20
0.0
 30
0.0
210
0.0
220
0.0
230
1.0
  2
SOLID
 70
     1
 71
     1
 91
        1
 92
        7
 72
     0
 73
     1
 93
        3
 10
5.999999999999975
 20
-65.83333333333331
 10
10.99999999999998
 20
-64.99999999999999
 10
5.999999999999975
 20
-64.16666666666666
 97
        0
 75
     0
 76
     1
 47
0.0
 98
        1
 10
5.999999999999975
 20
-65.83333333333331
  0
LINE
  5
9C
330
96
100
AcDbEntity
  8
実線（中）
  6
Continuous
 62
     7
370
    35
100
AcDbLine
 10
-11.00000000000003
 20
-64.99999999999999
 30
0.0
 11
10.99999999999998
 21
-64.99999999999999
 31
0.0
  0
ENDBLK
  5
9E
330
96
100
AcDbEntity
  8
0
100
AcDbBlockEnd
  0
BLOCK
  5
C7
330
C0
100
AcDbEntity
  8
0
100
AcDbBlockBegin
  2
*D4
 70
     1
 10
0.0
 20
0.0
 30
0.0
  3
*D4
  1

  0
MTEXT
  5
C1
330
C0
100
AcDbEntity
  8
実線（中）
 62
     7
100
AcDbMText
 10
90.08001636505128
 20
-62.07937809652755
 30
0.0
 40
4.500000167396711
 41
12.94685549850465
 46
0.0
 71
     7
 72
     1
  1
{\fＭＳ Ｐゴシック|b0|i0;100}
  7
MS PGothic
 73
     1
 44
1.0
  0
LINE
  5
C2
330
C0
100
AcDbEntity
  8
実線（中）
  6
Continuous
 62
     7
100
AcDbLine
 10
44.99000000000001
 20
-41.00000000000001
 30
0.0
 11
44.99000000000001
 21
-65.99999999999997
 31
0.0
  0
LINE
  5
C3
330
C0
100
AcDbEntity
  8
実線（中）
  6
Continuous
 62
     7
100
AcDbLine
 10
144.99
 20
-40.99999999999996
 30
0.0
 11
144.99
 21
-65.99999999999997
 31
0.0
  0
HATCH
  5
C4
330
C0
100
AcDbEntity
  8
実線（中）
  6
Continuous
 62
     7
370
    35
100
AcDbHatch
 10
0.0
 20
0.0
 30
0.0
210
0.0
220
0.0
230
1.0
  2
SOLID
 70
     1
 71
     1
 91
        1
 92
        7
 72
     0
 73
     1
 93
        3
 10
49.99
 20
-64.16666666666664
 10
44.99
 20
-64.99999999999997
 10
49.99
 20
-65.8333333333333
 97
        0
 75
     0
 76
     1
 47
0.0
 98
        1
 10
49.99
 20
-64.16666666666664
  0
HATCH
  5
C5
330
C0
100
AcDbEntity
  8
実線（中）
  6
Continuous
 62
     7
370
    35
100
AcDbHatch
 10
0.0
 20
0.0
 30
0.0
210
0.0
220
0.0
230
1.0
  2
SOLID
 70
     1
 71
     1
 91
        1
 92
        7
 72
     0
 73
     1
 93
        3
 10
139.99
 20
-65.8333333333333
 10
144.99
 20
-64.99999999999997
 10
139.99
 20
-64.16666666666664
 97
        0
 75
     0
 76
     1
 47
0.0
 98
        1
 10
139.99
 20
-65.8333333333333
  0
LINE
  5
C6
330
C0
100
AcDbEntity
  8
実線（中）
  6
Continuous
 62
     7
370
    35
100
AcDbLine
 10
44.99000000000001
 20
-64.99999999999997
 30
0.0
 11
144.99
 21
-64.99999999999997
 31
0.0
  0
ENDBLK
  5
C8
330
C0
100
AcDbEntity
  8
0
100
AcDbBlockEnd
  0
BLOCK
  5
D1
330
CA
100
AcDbEntity
  8
0
100
AcDbBlockBegin
  2
*D5
 70
     1
 10
0.0
 20
0.0
 30
0.0
  3
*D5
  1

  0
MTEXT
  5
CB
330
CA
100
AcDbEntity
  8
実線（中）
 62
     7
100
AcDbMText
 10
76.71836875915528
 20
-52.07985372231978
 30
0.0
 40
4.499996598325404
 41
8.547990546419292
 46
0.0
 71
     7
 72
     1
  1
{\fＭＳ Ｐゴシック|b0|i0;70}
  7
MS PGothic
 73
     1
 44
1.0
  0
LINE
  5
CC
330
CA
100
AcDbEntity
  8
実線（中）
  6
Continuous
 62
     7
100
AcDbLine
 10
44.99000000000001
 20
-41.00000000000001
 30
0.0
 11
44.99000000000001
 21
-55.99999999999999
 31
0.0
  0
LINE
  5
CD
330
CA
100
AcDbEntity
  8
実線（中）
  6
Continuous
 62
     7
100
AcDbLine
 10
114.99
 20
-43.00000000000001
 30
0.0
 11
114.99
 21
-55.99999999999999
 31
0.0
  0
HATCH
  5
CE
330
CA
100
AcDbEntity
  8
実線（中）
  6
Continuous
 62
     7
370
    35
100
AcDbHatch
 10
0.0
 20
0.0
 30
0.0
210
0.0
220
0.0
230
1.0
  2
SOLID
 70
     1
 71
     1
 91
        1
 92
        7
 72
     0
 73
     1
 93
        3
 10
49.99
 20
-54.16666666666666
 10
44.99
 20
-54.99999999999999
 10
49.99
 20
-55.83333333333333
 97
        0
 75
     0
 76
     1
 47
0.0
 98
        1
 10
49.99
 20
-54.16666666666666
  0
HATCH
  5
CF
330
CA
100
AcDbEntity
  8
実線（中）
  6
Continuous
 62
     7
370
    35
100
AcDbHatch
 10
0.0
 20
0.0
 30
0.0
210
0.0
220
0.0
230
1.0
  2
SOLID
 70
     1
 71
     1
 91
        1
 92
        7
 72
     0
 73
     1
 93
        3
 10
109.99
 20
-55.83333333333332
 10
114.99
 20
-54.99999999999999
 10
109.99
 20
-54.16666666666665
 97
        0
 75
     0
 76
     1
 47
0.0
 98
        1
 10
109.99
 20
-55.83333333333332
  0
LINE
  5
D0
330
CA
100
AcDbEntity
  8
実線（中）
  6
Continuous
 62
     7
370
    35
100
AcDbLine
 10
44.99000000000001
 20
-54.99999999999999
 30
0.0
 11
114.99
 21
-54.99999999999999
 31
0.0
  0
ENDBLK
  5
D2
330
CA
100
AcDbEntity
  8
0
100
AcDbBlockEnd
  0
BLOCK
  5
F9
330
F2
100
AcDbEntity
  8
0
100
AcDbBlockBegin
  2
*D6
 70
     1
 10
0.0
 20
0.0
 30
0.0
  3
*D6
  1

  0
MTEXT
  5
F3
330
F2
100
AcDbEntity
  8
実線（中）
 62
     7
100
AcDbMText
 10
126.7176575565338
 20
-52.0796536682025
 30
0.0
 40
4.500002160117347
 41
8.70043323724682
 46
0.0
 71
     7
 72
     1
  1
{\fＭＳ Ｐゴシック|b0|i0;30}
  7
MS PGothic
 73
     1
 44
1.0
  0
LINE
  5
F4
330
F2
100
AcDbEntity
  8
実線（中）
  6
Continuous
 62
     7
100
AcDbLine
 10
144.99
 20
-40.99999999999996
 30
0.0
 11
144.99
 21
-55.99999999999999
 31
0.0
  0
LINE
  5
F5
330
F2
100
AcDbEntity
  8
実線（中）
  6
Continuous
 62
     7
100
AcDbLine
 10
114.99
 20
-43.00000000000001
 30
0.0
 11
114.99
 21
-55.99999999999999
 31
0.0
  0
HATCH
  5
F6
330
F2
100
AcDbEntity
  8
実線（中）
  6
Continuous
 62
     7
370
    35
100
AcDbHatch
 10
0.0
 20
0.0
 30
0.0
210
0.0
220
0.0
230
1.0
  2
SOLID
 70
     1
 71
     1
 91
        1
 92
        7
 72
     0
 73
     1
 93
        3
 10
139.99
 20
-55.83333333333332
 10
144.99
 20
-54.99999999999999
 10
139.99
 20
-54.16666666666665
 97
        0
 75
     0
 76
     1
 47
0.0
 98
        1
 10
139.99
 20
-55.83333333333332
  0
HATCH
  5
F7
330
F2
100
AcDbEntity
  8
実線（中）
  6
Continuous
 62
     7
370
    35
100
AcDbHatch
 10
0.0
 20
0.0
 30
0.0
210
0.0
220
0.0
230
1.0
  2
SOLID
 70
     1
 71
     1
 91
        1
 92
        7
 72
     0
 73
     1
 93
        3
 10
119.99
 20
-54.16666666666665
 10
114.99
 20
-54.99999999999999
 10
119.99
 20
-55.83333333333332
 97
        0
 75
     0
 76
     1
 47
0.0
 98
        1
 10
119.99
 20
-54.16666666666665
  0
LINE
  5
F8
330
F2
100
AcDbEntity
  8
実線（中）
  6
Continuous
 62
     7
370
    35
100
AcDbLine
 10
144.99
 20
-54.99999999999999
 30
0.0
 11
114.99
 21
-54.99999999999999
 31
0.0
  0
ENDBLK
  5
FA
330
F2
100
AcDbEntity
  8
0
100
AcDbBlockEnd
  0
BLOCK
  5
188
330
180
100
AcDbEntity
  8
0
100
AcDbBlockBegin
  2
*D7
 70
     1
 10
0.0
 20
0.0
 30
0.0
  3
*D7
  1

  0
MTEXT
  5
181
330
180
100
AcDbEntity
  8
実線（中）
 62
     7
100
AcDbMText
 10
162.2734066400528
 20
-62.07955686084984
 30
0.0
 40
4.499991979567799
 41
4.127996863093706
 46
0.0
 71
     7
 72
     1
  1
{\fＭＳ Ｐゴシック|b0|i0;4}
  7
MS PGothic
 73
     1
 44
1.0
  0
LINE
  5
182
330
180
100
AcDbEntity
  8
実線（中）
  6
Continuous
 62
     7
100
AcDbLine
 10
144.99
 20
-40.99999999999996
 30
0.0
 11
144.99
 21
-65.99999999999999
 31
0.0
  0
LINE
  5
183
330
180
100
AcDbEntity
  8
実線（中）
  6
Continuous
 62
     7
100
AcDbLine
 10
150.49
 20
-16.49999999999996
 30
0.0
 11
150.49
 21
-65.99999999999999
 31
0.0
  0
HATCH
  5
184
330
180
100
AcDbEntity
  8
実線（中）
  6
Continuous
 62
     7
370
    35
100
AcDbHatch
 10
0.0
 20
0.0
 30
0.0
210
0.0
220
0.0
230
1.0
  2
SOLID
 70
     1
 71
     1
 91
        1
 92
        7
 72
     0
 73
     1
 93
        3
 10
149.99
 20
-64.16666666666664
 10
144.99
 20
-64.99999999999997
 10
149.99
 20
-65.8333333333333
 97
        0
 75
     0
 76
     1
 47
0.0
 98
        1
 10
149.99
 20
-64.16666666666664
  0
HATCH
  5
185
330
180
100
AcDbEntity
  8
実線（中）
  6
Continuous
 62
     7
370
    35
100
AcDbHatch
 10
0.0
 20
0.0
 30
0.0
210
0.0
220
0.0
230
1.0
  2
SOLID
 70
     1
 71
     1
 91
        1
 92
        7
 72
     0
 73
     1
 93
        3
 10
145.49
 20
-65.83333333333331
 10
150.49
 20
-64.99999999999999
 10
145.49
 20
-64.16666666666666
 97
        0
 75
     0
 76
     1
 47
0.0
 98
        1
 10
145.49
 20
-65.83333333333331
  0
LINE
  5
186
330
180
100
AcDbEntity
  8
実線（中）
  6
Continuous
 62
     7
370
    35
100
AcDbLine
 10
144.99
 20
-64.99999999999999
 30
0.0
 11
150.49
 21
-64.99999999999999
 31
0.0
  0
LINE
  5
187
330
180
100
AcDbEntity
  8
実線（中）
  6
Continuous
 62
     7
370
    35
100
AcDbLine
 10
150.49
 20
-64.99999999999999
 30
0.0
 11
165.5460933599472
 21
-64.99999999999999
 31
0.0
  0
ENDBLK
  5
189
330
180
100
AcDbEntity
  8
0
100
AcDbBlockEnd
  0
BLOCK
  5
1B5
330
1B4
100
AcDbEntity
  8
0
100
AcDbBlockBegin
  2
_Open30
 70
     0
 10
0.0
 20
0.0
 30
0.0
  3
_Open30
  1

  0
LINE
  5
1B7
330
1B4
100
AcDbEntity
  8
0
  6
ByBlock
 62
     0
370
    -2
100
AcDbLine
 10
-1.0
 20
0.267949
 30
0.0
 11
0.0
 21
0.0
 31
0.0
  0
LINE
  5
1B8
330
1B4
100
AcDbEntity
  8
0
  6
ByBlock
 62
     0
370
    -2
100
AcDbLine
 10
0.0
 20
0.0
 30
0.0
 11
-1.0
 21
-0.267949
 31
0.0
  0
LINE
  5
1B9
330
1B4
100
AcDbEntity
  8
0
  6
ByBlock
 62
     0
370
    -2
100
AcDbLine
 10
0.0
 20
0.0
 30
0.0
 11
-1.0
 21
0.0
 31
0.0
  0
ENDBLK
  5
1B6
330
1B4
100
AcDbEntity
  8
0
100
AcDbBlockEnd
  0
BLOCK
  5
1C2
330
1BB
100
AcDbEntity
  8
0
100
AcDbBlockBegin
  2
*D9
 70
     1
 10
0.0
 20
0.0
 30
0.0
  3
*D9
  1

  0
MTEXT
  5
1BC
330
1BB
100
AcDbEntity
  8
寸法線
 62
     7
100
AcDbMText
 10
267.6484318689481
 20
-1.785791386823917
 30
0.0
 40
4.499999539144134
 41
8.396980306616996
 46
0.0
 71
     7
 72
     1
  1
{\fＭＳ Ｐゴシック|b0|i0;72}
  7
MS PGothic
 11
6.123233995736766E-17
 21
1.0
 31
0.0
 73
     1
 44
1.0
  0
LINE
  5
1BD
330
1BB
100
AcDbEntity
  8
寸法線
  6
Continuous
 62
     7
100
AcDbLine
 10
247.5684494419096
 20
37.48538232876743
 30
0.0
 11
271.5684494419096
 21
37.48538232876743
 31
0.0
  0
LINE
  5
1BE
330
1BB
100
AcDbEntity
  8
寸法線
  6
Continuous
 62
     7
100
AcDbLine
 10
246.9584494419096
 20
-34.51461767123259
 30
0.0
 11
271.5684494419096
 21
-34.51461767123259
 31
0.0
  0
LWPOLYLINE
  5
1BF
330
1BB
100
AcDbEntity
  8
寸法線
  6
Continuous
 62
     7
370
    35
100
AcDbPolyline
 90
        3
 70
     0
 43
0.0
 10
271.372297019203
 20
34.48538232876743
 10
270.5684494419096
 20
37.48538232876743
 10
269.7646018646162
 20
34.48538232876743
  0
LWPOLYLINE
  5
1C0
330
1BB
100
AcDbEntity
  8
寸法線
  6
Continuous
 62
     7
370
    35
100
AcDbPolyline
 90
        3
 70
     0
 43
0.0
 10
269.7646018646162
 20
-31.5146176712326
 10
270.5684494419096
 20
-34.5146176712326
 10
271.372297019203
 20
-31.5146176712326
  0
LINE
  5
1C1
330
1BB
100
AcDbEntity
  8
寸法線
  6
Continuous
 62
     7
370
    35
100
AcDbLine
 10
270.5684494419096
 20
37.48538232876743
 30
0.0
 11
270.5684494419096
 21
-34.51461767123259
 31
0.0
  0
ENDBLK
  5
1C3
330
1BB
100
AcDbEntity
  8
0
100
AcDbBlockEnd
  0
BLOCK
  5
1CE
330
1C7
100
AcDbEntity
  8
0
100
AcDbBlockBegin
  2
*D10
 70
     1
 10
0.0
 20
0.0
 30
0.0
  3
*D10
  1

  0
MTEXT
  5
1C8
330
1C7
100
AcDbEntity
  8
寸法線
 62
     7
100
AcDbMText
 10
232.2952219886778
 20
-50.5940224480239
 30
0.0
 40
4.500002843146413
 41
8.035513505134766
 46
0.0
 71
     7
 72
     1
  1
{\fＭＳ Ｐゴシック|b0|i0;15}
  7
MS PGothic
 73
     1
 44
1.0
  0
LINE
  5
1C9
330
1C7
100
AcDbEntity
  8
寸法線
  6
Continuous
 62
     7
100
AcDbLine
 10
228.0684494419096
 20
24.98538232876743
 30
0.0
 11
228.0684494419096
 21
-54.51461767123257
 31
0.0
  0
LINE
  5
1CA
330
1C7
100
AcDbEntity
  8
寸法線
  6
Continuous
 62
     7
100
AcDbLine
 10
243.0684494419096
 20
-34.01461767123259
 30
0.0
 11
243.0684494419096
 21
-54.51461767123257
 31
0.0
  0
LWPOLYLINE
  5
1CB
330
1C7
100
AcDbEntity
  8
寸法線
  6
Continuous
 62
     7
370
    35
100
AcDbPolyline
 90
        3
 70
     0
 43
0.0
 10
231.0684494419096
 20
-52.7107700939392
 10
228.0684494419096
 20
-53.51461767123257
 10
231.0684494419096
 20
-54.31846524852594
  0
LWPOLYLINE
  5
1CC
330
1C7
100
AcDbEntity
  8
寸法線
  6
Continuous
 62
     7
370
    35
100
AcDbPolyline
 90
        3
 70
     0
 43
0.0
 10
240.0684494419096
 20
-54.31846524852594
 10
243.0684494419096
 20
-53.51461767123257
 10
240.0684494419096
 20
-52.7107700939392
  0
LINE
  5
1CD
330
1C7
100
AcDbEntity
  8
寸法線
  6
Continuous
 62
     7
370
    35
100
AcDbLine
 10
228.0684494419096
 20
-53.51461767123257
 30
0.0
 11
243.0684494419096
 21
-53.51461767123257
 31
0.0
  0
ENDBLK
  5
1CF
330
1C7
100
AcDbEntity
  8
0
100
AcDbBlockEnd
  0
BLOCK
  5
1D8
330
1D1
100
AcDbEntity
  8
0
100
AcDbBlockBegin
  2
*D11
 70
     1
 10
0.0
 20
0.0
 30
0.0
  3
*D11
  1

  0
MTEXT
  5
1D2
330
1D1
100
AcDbEntity
  8
寸法線
 62
     7
100
AcDbMText
 10
232.2965442581174
 20
-60.5943943266088
 30
0.0
 40
4.499993467403955
 41
8.54942248199026
 46
0.0
 71
     7
 72
     1
  1
{\fＭＳ Ｐゴシック|b0|i0;23}
  7
MS PGothic
 73
     1
 44
1.0
  0
LINE
  5
1D3
330
1D1
100
AcDbEntity
  8
寸法線
  6
Continuous
 62
     7
100
AcDbLine
 10
224.5684494419096
 20
-35.51461767123259
 30
0.0
 11
224.5684494419096
 21
-64.51461767123257
 31
0.0
  0
LINE
  5
1D4
330
1D1
100
AcDbEntity
  8
寸法線
  6
Continuous
 62
     7
100
AcDbLine
 10
246.5684494419096
 20
-34.92461767123255
 30
0.0
 11
246.5684494419096
 21
-64.51461767123257
 31
0.0
  0
LWPOLYLINE
  5
1D5
330
1D1
100
AcDbEntity
  8
寸法線
  6
Continuous
 62
     7
370
    35
100
AcDbPolyline
 90
        3
 70
     0
 43
0.0
 10
227.5684494419096
 20
-62.7107700939392
 10
224.5684494419096
 20
-63.51461767123257
 10
227.5684494419096
 20
-64.31846524852594
  0
LWPOLYLINE
  5
1D6
330
1D1
100
AcDbEntity
  8
寸法線
  6
Continuous
 62
     7
370
    35
100
AcDbPolyline
 90
        3
 70
     0
 43
0.0
 10
243.5684494419096
 20
-64.31846524852594
 10
246.5684494419096
 20
-63.51461767123257
 10
243.5684494419096
 20
-62.7107700939392
  0
LINE
  5
1D7
330
1D1
100
AcDbEntity
  8
寸法線
  6
Continuous
 62
     7
370
    35
100
AcDbLine
 10
224.5684494419096
 20
-63.51461767123257
 30
0.0
 11
246.5684494419096
 21
-63.51461767123257
 31
0.0
  0
ENDBLK
  5
1D9
330
1D1
100
AcDbEntity
  8
0
100
AcDbBlockEnd
  0
BLOCK
  5
324
330
31D
100
AcDbEntity
  8
0
100
AcDbBlockBegin
  2
*D12
 70
     1
 10
0.0
 20
0.0
 30
0.0
  3
*D12
  1

  0
MTEXT
  5
31E
330
31D
100
AcDbEntity
  8
寸法線
 62
     7
100
AcDbMText
 10
257.6481110016757
 20
-1.786931981306338
 30
0.0
 40
4.499996186723546
 41
8.514380528154147
 46
0.0
 71
     7
 72
     1
  1
{\fＭＳ Ｐゴシック|b0|i0;59}
  7
MS PGothic
 11
6.123233995736766E-17
 21
1.0
 31
0.0
 73
     1
 44
1.0
  0
LINE
  5
31F
330
31D
100
AcDbEntity
  8
寸法線
  6
Continuous
 62
     7
100
AcDbLine
 10
247.5684494419096
 20
30.98538232876743
 30
0.0
 11
261.5684494419096
 21
30.98538232876743
 31
0.0
  0
LINE
  5
320
330
31D
100
AcDbEntity
  8
寸法線
  6
Continuous
 62
     7
100
AcDbLine
 10
249.0684494419096
 20
-28.01461767123259
 30
0.0
 11
261.5684494419096
 21
-28.01461767123259
 31
0.0
  0
LWPOLYLINE
  5
321
330
31D
100
AcDbEntity
  8
寸法線
  6
Continuous
 62
     7
370
    35
100
AcDbPolyline
 90
        3
 70
     0
 43
0.0
 10
261.372297019203
 20
27.98538232876743
 10
260.5684494419096
 20
30.98538232876743
 10
259.7646018646162
 20
27.98538232876743
  0
LWPOLYLINE
  5
322
330
31D
100
AcDbEntity
  8
寸法線
  6
Continuous
 62
     7
370
    35
100
AcDbPolyline
 90
        3
 70
     0
 43
0.0
 10
259.7646018646162
 20
-25.0146176712326
 10
260.5684494419096
 20
-28.0146176712326
 10
261.372297019203
 20
-25.0146176712326
  0
LINE
  5
323
330
31D
100
AcDbEntity
  8
寸法線
  6
Continuous
 62
     7
370
    35
100
AcDbLine
 10
260.5684494419096
 20
30.98538232876743
 30
0.0
 11
260.5684494419096
 21
-28.01461767123259
 31
0.0
  0
ENDBLK
  5
325
330
31D
100
AcDbEntity
  8
0
100
AcDbBlockEnd
  0
BLOCK
  5
333
330
32B
100
AcDbEntity
  8
0
100
AcDbBlockBegin
  2
*D13
 70
     1
 10
0.0
 20
0.0
 30
0.0
  3
*D13
  1

  0
MTEXT
  5
32C
330
32B
100
AcDbEntity
  8
実線（中）
100
AcDbMText
 10
255.3146068358116
 20
59.61144267266565
 30
0.0
 40
4.499956054687499
 41
3.71900826446281
 46
0.0
 71
     7
 72
     1
  1
{\fＭＳ Ｐゴシック|b0|i0;6}
  7
MS PGothic
 73
     1
 44
1.0
  0
LINE
  5
32D
330
32B
100
AcDbEntity
  8
実線（中）
  6
Continuous
100
AcDbLine
 10
239.724861463735
 20
38.48538232876743
 30
0.0
 11
239.724861463735
 21
57.69098812721111
 31
0.0
  0
LINE
  5
32E
330
32B
100
AcDbEntity
  8
実線（中）
  6
Continuous
100
AcDbLine
 10
245.724861463735
 20
38.48538232876746
 30
0.0
 11
245.724861463735
 21
57.69098812721111
 31
0.0
  0
LWPOLYLINE
  5
32F
330
32B
100
AcDbEntity
  8
実線（中）
  6
Continuous
370
    35
100
AcDbPolyline
 90
        3
 70
     0
 43
0.0
 10
242.724861463735
 20
57.49483570450448
 10
239.724861463735
 20
56.69098812721111
 10
242.724861463735
 20
55.88714054991775
  0
LWPOLYLINE
  5
330
330
32B
100
AcDbEntity
  8
実線（中）
  6
Continuous
370
    35
100
AcDbPolyline
 90
        3
 70
     0
 43
0.0
 10
242.724861463735
 20
55.88714054991775
 10
245.724861463735
 20
56.69098812721111
 10
242.724861463735
 20
57.49483570450448
  0
LINE
  5
331
330
32B
100
AcDbEntity
  8
実線（中）
  6
Continuous
370
    35
100
AcDbLine
 10
239.724861463735
 20
56.69098812721111
 30
0.0
 11
245.724861463735
 21
56.69098812721111
 31
0.0
  0
LINE
  5
332
330
32B
100
AcDbEntity
  8
実線（中）
  6
Continuous
370
    35
100
AcDbLine
 10
245.724861463735
 20
56.69098812721111
 30
0.0
 11
258.5873340868645
 21
56.69098812721111
 31
0.0
  0
ENDBLK
  5
334
330
32B
100
AcDbEntity
  8
0
100
AcDbBlockEnd
  0
BLOCK
  5
34D
330
346
100
AcDbEntity
  8
0
100
AcDbBlockBegin
  2
*D14
 70
     1
 10
0.0
 20
0.0
 30
0.0
  3
*D14
  1

  0
MTEXT
  5
347
330
346
100
AcDbEntity
  8
寸法線
 62
     7
100
AcDbMText
 10
224.1298831372422
 20
40.17793986901287
 30
0.0
 40
4.499996035015537
 41
6.731098028894712
 46
0.0
 71
     7
 72
     1
  1
{\fＭＳ Ｐゴシック|b0|i0;11}
  7
MS PGothic
 11
6.123233995736766E-17
 21
1.0
 31
0.0
 73
     1
 44
1.0
  0
LINE
  5
348
330
346
100
AcDbEntity
  8
寸法線
  6
Continuous
 62
     7
100
AcDbLine
 10
230.9731987168471
 20
48.99463911281337
 30
0.0
 11
226.0503166976174
 21
48.99463911281338
 31
0.0
  0
LINE
  5
349
330
346
100
AcDbEntity
  8
寸法線
  6
Continuous
 62
     7
100
AcDbLine
 10
230.9731987168471
 20
37.99463911281337
 30
0.0
 11
226.0503166976174
 21
37.99463911281338
 31
0.0
  0
LWPOLYLINE
  5
34A
330
346
100
AcDbEntity
  8
寸法線
  6
Continuous
 62
     7
370
    35
100
AcDbPolyline
 90
        3
 70
     0
 43
0.0
 10
227.8541642749108
 20
45.99463911281339
 10
227.0503166976174
 20
48.99463911281339
 10
226.2464691203241
 20
45.99463911281339
  0
LWPOLYLINE
  5
34B
330
346
100
AcDbEntity
  8
寸法線
  6
Continuous
 62
     7
370
    35
100
AcDbPolyline
 90
        3
 70
     0
 43
0.0
 10
226.246469120324
 20
40.99463911281339
 10
227.0503166976174
 20
37.99463911281339
 10
227.8541642749108
 20
40.99463911281339
  0
LINE
  5
34C
330
346
100
AcDbEntity
  8
寸法線
  6
Continuous
 62
     7
370
    35
100
AcDbLine
 10
227.0503166976174
 20
48.99463911281338
 30
0.0
 11
227.0503166976174
 21
37.99463911281338
 31
0.0
  0
ENDBLK
  5
34E
330
346
100
AcDbEntity
  8
0
100
AcDbBlockEnd
  0
ENDSEC
  0
SECTION
  2
ENTITIES
  0
TEXT
  5
79
330
1F
100
AcDbEntity
  8
実線（中）
 62
     7
370
    35
100
AcDbText
 10
234.8578182207274
 20
-77.64210307201839
 30
0.0
 40
4.999996964189622
  1
単位：ｍｍ
  7
MS PGothic
 11
234.8578182207274
 21
-78.66482972378445
 31
0.0
100
AcDbText
 73
     1
  0
DIMENSION
  5
7A
330
1F
100
AcDbEntity
  8
実線（中）
  6
Continuous
 62
     7
370
    35
100
AcDbDimension
  2
*D1
 10
38.49
 20
-64.99999999999997
 30
0.0
 11
22.89767045454546
 21
-59.72831416130063
 31
0.0
 70
    32
 71
     5
 42
-1.0
 73
     0
 74
     1
 75
     1
  3
Standard
100
AcDbAlignedDimension
 13
44.99000000000001
 23
-40.00000000000001
 33
0.0
 14
38.49000000000001
 24
-10.07999999999997
 34
0.0
100
AcDbRotatedDimension
1001
ACAD
1000
DSTYLE
1002
{
1070
    41
1040
5.0
1070
   289
1070
     1
1070
   271
1070
     2
1070
    44
1040
1.0
1070
    42
1040
1.0
1070
   147
1040
2.0
1070
   372
1070
     0
1070
    77
1070
     1
1070
   272
1070
     2
1070
    73
1070
     0
1070
   174
1070
     1
1070
   172
1070
     1
1070
    74
1070
     0
1070
   340
1005
76
1070
   140
1040
4.499999980872532
1070
   284
1070
     8
1070
    78
1070
     8
1070
   345
1005
16
1070
   346
1005
14
1002
}
  0
DIMENSION
  5
85
330
1F
100
AcDbEntity
  8
実線（中）
  6
Continuous
 62
     7
370
    35
100
AcDbDimension
  2
*D2
 10
25.0
 20
-41.99999999999999
 30
0.0
 11
19.72727274894715
 21
0.0000000000000297
 31
0.0
 70
    32
 71
     5
 42
-1.0
 73
     0
 74
     0
 75
     0
  3
Standard
100
AcDbAlignedDimension
 13
10.70000000000005
 23
42.00000000000007
 33
0.0
 14
10.70000000000005
 24
-41.99999999999999
 34
0.0
 50
90.0
100
AcDbRotatedDimension
1001
ACAD
1000
DSTYLE
1002
{
1070
    41
1040
5.0
1070
   289
1070
     1
1070
   271
1070
     2
1070
    44
1040
1.0
1070
    42
1040
1.0
1070
   147
1040
2.0
1070
   372
1070
     0
1070
    77
1070
     1
1070
   272
1070
     2
1070
    73
1070
     0
1070
   174
1070
     1
1070
   172
1070
     1
1070
    74
1070
     0
1070
   340
1005
76
1070
   140
1040
4.499999353441142
1070
   284
1070
     8
1070
    78
1070
     8
1070
   345
1005
16
1070
   346
1005
14
1002
}
  0
LINE
  5
8F
330
1F
100
AcDbEntity
  8
実線（中）
 62
     7
370
    35
100
AcDbLine
 10
9.810000000000002
 20
-38.71999999999996
 30
0.0
 11
9.810000000000002
 21
-11.51999999999997
 31
0.0
  0
LINE
  5
90
330
1F
100
AcDbEntity
  8
実線（中）
 62
     7
370
    35
100
AcDbLine
 10
-9.589999999999975
 20
-38.71999999999996
 30
0.0
 11
-9.589999999999975
 21
-11.51999999999997
 31
0.0
  0
LINE
  5
91
330
1F
100
AcDbEntity
  8
実線（中）
 62
     7
370
    35
100
AcDbLine
 10
11.0
 20
-41.69999999999997
 30
0.0
 11
11.0
 21
41.7
 31
0.0
  0
LINE
  5
92
330
1F
100
AcDbEntity
  8
実線（中）
 62
     7
370
    35
100
AcDbLine
 10
-11.0
 20
-41.69999999999997
 30
0.0
 11
-11.0
 21
41.7
 31
0.0
  0
LINE
  5
93
330
1F
100
AcDbEntity
  8
実線（中）
 62
     7
370
    35
100
AcDbLine
 10
-10.69999999999999
 20
-41.99999999999996
 30
0.0
 11
10.70000000000005
 21
-41.99999999999996
 31
0.0
  0
LINE
  5
94
330
1F
100
AcDbEntity
  8
実線（中）
 62
     7
370
    35
100
AcDbLine
 10
-9.389999999999986
 20
-38.91999999999994
 30
0.0
 11
9.610000000000014
 21
-38.91999999999994
 31
0.0
  0
DIMENSION
  5
95
330
1F
100
AcDbEntity
  8
実線（中）
  6
Continuous
 62
     7
370
    35
100
AcDbDimension
  2
*D3
 10
10.99999999999998
 20
-64.99999999999999
 30
0.0
 11
-0.0000000000000263
 21
-59.72809481620787
 31
0.0
 70
    32
 71
     5
 42
-1.0
 73
     0
 74
     0
 75
     0
  3
Standard
100
AcDbAlignedDimension
 13
-11.0
 23
-41.69999999999997
 33
0.0
 14
11.0
 24
-41.69999999999997
 34
0.0
100
AcDbRotatedDimension
1001
ACAD
1000
DSTYLE
1002
{
1070
    41
1040
5.0
1070
   289
1070
     1
1070
   271
1070
     2
1070
    44
1040
1.0
1070
    42
1040
1.0
1070
   147
1040
2.0
1070
   372
1070
     0
1070
    77
1070
     1
1070
   272
1070
     2
1070
    73
1070
     0
1070
   174
1070
     1
1070
   172
1070
     1
1070
    74
1070
     0
1070
   340
1005
76
1070
   140
1040
4.499999671991898
1070
   284
1070
     8
1070
    78
1070
     8
1070
   345
1005
16
1070
   346
1005
14
1002
}
  0
ARC
  5
9F
330
1F
100
AcDbEntity
  8
実線（中）
 62
     7
370
    35
100
AcDbCircle
 10
-10.69999999999999
 20
-41.69999999999997
 30
0.0
 40
0.3
100
AcDbArc
 50
180.0
 51
270.0
  0
ARC
  5
A0
330
1F
100
AcDbEntity
  8
実線（中）
 62
     7
370
    35
100
AcDbCircle
 10
-9.389999999999986
 20
-38.71999999999996
 30
0.0
 40
0.2
100
AcDbArc
 50
180.0
 51
270.0
  0
ARC
  5
A1
330
1F
100
AcDbEntity
  8
実線（中）
 62
     7
370
    35
100
AcDbCircle
 10
10.70000000000005
 20
-41.69999999999997
 30
0.0
 40
0.3
100
AcDbArc
 50
270.0
 51
0.0
  0
ARC
  5
A2
330
1F
100
AcDbEntity
  8
実線（中）
 62
     7
370
    35
100
AcDbCircle
 10
9.610000000000014
 20
-38.71999999999996
 30
0.0
 40
0.2
100
AcDbArc
 50
270.0
 51
0.0
  0
ARC
  5
A3
330
1F
100
AcDbEntity
  8
実線（中）
 62
     7
370
    35
100
AcDbCircle
 10
9.610000000000014
 20
-38.71999999999996
 30
0.0
 40
0.2
100
AcDbArc
 50
270.0
 51
0.0
  0
LINE
  5
A4
330
1F
100
AcDbEntity
  8
実線（中）
 62
     7
370
    35
100
AcDbLine
 10
-9.699999999999989
 20
-1.700000000000031
 30
0.0
 11
-9.699999999999989
 21
38.89999999999999
 31
0.0
  0
LINE
  5
A5
330
1F
100
AcDbEntity
  8
実線（中）
 62
     7
370
    35
100
AcDbLine
 10
9.689999999999998
 20
-1.700000000000031
 30
0.0
 11
9.689999999999998
 21
38.89999999999999
 31
0.0
  0
LINE
  5
A6
330
1F
100
AcDbEntity
  8
実線（中）
 62
     7
370
    35
100
AcDbLine
 10
-9.5
 20
-1.899999999999963
 30
0.0
 11
9.490000000000009
 21
-1.899999999999963
 31
0.0
  0
LINE
  5
A7
330
1F
100
AcDbEntity
  8
実線（中）
 62
     7
370
    35
100
AcDbLine
 10
-9.389999999999986
 20
-11.31999999999998
 30
0.0
 11
9.610000000000014
 21
-11.31999999999998
 31
0.0
  0
ARC
  5
A8
330
1F
100
AcDbEntity
  8
実線（中）
 62
     7
370
    35
100
AcDbCircle
 10
-9.389999999999986
 20
-11.51999999999997
 30
0.0
 40
0.2
100
AcDbArc
 50
90.0
 51
180.0
  0
ARC
  5
A9
330
1F
100
AcDbEntity
  8
実線（中）
 62
     7
370
    35
100
AcDbCircle
 10
-9.5
 20
-1.700000000000031
 30
0.0
 40
0.2
100
AcDbArc
 50
180.0
 51
270.0
  0
CIRCLE
  5
AA
330
1F
100
AcDbEntity
  8
実線（中）
 62
     7
370
    35
100
AcDbCircle
 10
0.0
 20
-6.499999999999986
 30
0.0
 40
4.0
  0
CIRCLE
  5
AB
330
1F
100
AcDbEntity
  8
実線（中）
 62
     7
370
    35
100
AcDbCircle
 10
0.0
 20
-6.499999999999986
 30
0.0
 40
3.5
  0
ARC
  5
AC
330
1F
100
AcDbEntity
  8
実線（中）
 62
     7
370
    35
100
AcDbCircle
 10
9.610000000000014
 20
-11.51999999999997
 30
0.0
 40
0.2
100
AcDbArc
 50
0.0
 51
90.0
  0
ARC
  5
AD
330
1F
100
AcDbEntity
  8
実線（中）
 62
     7
370
    35
100
AcDbCircle
 10
9.490000000000009
 20
-1.700000000000031
 30
0.0
 40
0.2
100
AcDbArc
 50
270.0
 51
0.0
  0
LINE
  5
AE
330
1F
100
AcDbEntity
  8
実線（中）
 62
     7
370
    35
100
AcDbLine
 10
-10.69999999999999
 20
42.00000000000007
 30
0.0
 11
10.70000000000005
 21
42.00000000000007
 31
0.0
  0
LINE
  5
AF
330
1F
100
AcDbEntity
  8
実線（中）
 62
     7
370
    35
100
AcDbLine
 10
-9.5
 20
39.10000000000004
 30
0.0
 11
9.490000000000009
 21
39.10000000000004
 31
0.0
  0
ARC
  5
B0
330
1F
100
AcDbEntity
  8
実線（中）
 62
     7
370
    35
100
AcDbCircle
 10
-10.69999999999999
 20
41.7
 30
0.0
 40
0.3
100
AcDbArc
 50
90.0
 51
180.0
  0
ARC
  5
B1
330
1F
100
AcDbEntity
  8
実線（中）
 62
     7
370
    35
100
AcDbCircle
 10
-9.5
 20
38.89999999999999
 30
0.0
 40
0.2
100
AcDbArc
 50
90.0
 51
180.0
  0
ARC
  5
B2
330
1F
100
AcDbEntity
  8
実線（中）
 62
     7
370
    35
100
AcDbCircle
 10
10.70000000000005
 20
41.7
 30
0.0
 40
0.3
100
AcDbArc
 50
0.0
 51
90.0
  0
ARC
  5
B3
330
1F
100
AcDbEntity
  8
実線（中）
 62
     7
370
    35
100
AcDbCircle
 10
9.490000000000009
 20
38.89999999999999
 30
0.0
 40
0.2
100
AcDbArc
 50
0.0
 51
90.0
  0
LINE
  5
B4
330
1F
100
AcDbEntity
  8
実線（中）
 62
     7
370
    35
100
AcDbLine
 10
144.99
 20
-35.99999999999996
 30
0.0
 11
144.99
 21
-17.99999999999996
 31
0.0
  0
LINE
  5
B5
330
1F
100
AcDbEntity
  8
実線（中）
 62
     7
370
    35
100
AcDbLine
 10
138.99
 20
-35.99999999999996
 30
0.0
 11
138.99
 21
-24.99999999999996
 31
0.0
  0
LINE
  5
B6
330
1F
100
AcDbEntity
  8
実線（中）
 62
     7
370
    35
100
AcDbLine
 10
116.99
 20
-24.99999999999996
 30
0.0
 11
118.99
 21
-26.99999999999996
 31
0.0
  0
LINE
  5
B7
330
1F
100
AcDbEntity
  8
実線（中）
 62
     7
370
    35
100
AcDbLine
 10
104.99
 20
-37.10000000000004
 30
0.0
 11
104.99
 21
-3.000000000000043
 31
0.0
  0
LINE
  5
B8
330
1F
100
AcDbEntity
  8
実線（中）
 62
     7
370
    35
100
AcDbLine
 10
104.99
 20
-37.00000000000001
 30
0.0
 11
104.99
 21
-2.999999999999929
 31
0.0
  0
LINE
  5
B9
330
1F
100
AcDbEntity
  8
実線（中）
 62
     7
370
    35
100
AcDbLine
 10
54.99000000000001
 20
-37.10000000000004
 30
0.0
 11
54.99000000000001
 21
-3.000000000000043
 31
0.0
  0
LINE
  5
BA
330
1F
100
AcDbEntity
  8
実線（中）
 62
     7
370
    35
100
AcDbLine
 10
54.99000000000001
 20
-37.00000000000001
 30
0.0
 11
54.99000000000001
 21
-2.999999999999929
 31
0.0
  0
LINE
  5
BB
330
1F
100
AcDbEntity
  8
実線（中）
 62
     7
370
    35
100
AcDbLine
 10
114.99
 20
-42.00000000000001
 30
0.0
 11
114.99
 21
42.00000000000007
 31
0.0
  0
LINE
  5
BC
330
1F
100
AcDbEntity
  8
実線（中）
 62
     7
370
    35
100
AcDbLine
 10
44.99000000000001
 20
-40.00000000000001
 30
0.0
 11
44.99000000000001
 21
40.00000000000007
 31
0.0
  0
LINE
  5
BD
330
1F
100
AcDbEntity
  8
実線（中）
 62
     7
370
    35
100
AcDbLine
 10
54.99000000000001
 20
-37.10000000000004
 30
0.0
 11
104.99
 21
-37.10000000000004
 31
0.0
  0
LINE
  5
BE
330
1F
100
AcDbEntity
  8
実線（中）
 62
     7
370
    35
100
AcDbLine
 10
114.99
 20
-42.00000000000001
 30
0.0
 11
46.99000000000001
 21
-42.00000000000001
 31
0.0
  0
DIMENSION
  5
BF
330
1F
100
AcDbEntity
  8
実線（中）
  6
Continuous
 62
     7
370
    35
100
AcDbDimension
  2
*D4
 10
144.99
 20
-64.99999999999997
 30
0.0
 11
94.99000000000001
 21
-59.72667765617368
 31
0.0
 70
    32
 71
     5
 42
-1.0
 73
     0
 74
     0
 75
     0
  3
Standard
100
AcDbAlignedDimension
 13
44.99000000000001
 23
-40.00000000000001
 33
0.0
 14
144.99
 24
-39.99999999999996
 34
0.0
100
AcDbRotatedDimension
1001
ACAD
1000
DSTYLE
1002
{
1070
    41
1040
5.0
1070
   289
1070
     1
1070
   271
1070
     2
1070
    44
1040
1.0
1070
    42
1040
1.0
1070
   147
1040
2.0
1070
   372
1070
     0
1070
    77
1070
     1
1070
   272
1070
     2
1070
    73
1070
     0
1070
   174
1070
     1
1070
   172
1070
     1
1070
    74
1070
     0
1070
   340
1005
76
1070
   140
1040
4.500000167396711
1070
   284
1070
     8
1070
    78
1070
     8
1070
   345
1005
16
1070
   346
1005
14
1002
}
  0
DIMENSION
  5
C9
330
1F
100
AcDbEntity
  8
実線（中）
  6
Continuous
 62
     7
370
    35
100
AcDbDimension
  2
*D5
 10
114.99
 20
-54.99999999999999
 30
0.0
 11
79.99000000000001
 21
-49.72836875915527
 31
0.0
 70
    32
 71
     5
 42
-1.0
 73
     0
 74
     0
 75
     0
  3
Standard
100
AcDbAlignedDimension
 13
44.99000000000001
 23
-40.00000000000001
 33
0.0
 14
114.99
 24
-42.00000000000001
 34
0.0
100
AcDbRotatedDimension
1001
ACAD
1000
DSTYLE
1002
{
1070
    41
1040
5.0
1070
   289
1070
     1
1070
   271
1070
     2
1070
    44
1040
1.0
1070
    42
1040
1.0
1070
   147
1040
2.0
1070
   372
1070
     0
1070
    77
1070
     1
1070
   272
1070
     2
1070
    73
1070
     0
1070
   174
1070
     1
1070
   172
1070
     1
1070
    74
1070
     0
1070
   340
1005
76
1070
   140
1040
4.499996598325404
1070
   284
1070
     8
1070
    78
1070
     8
1070
   345
1005
16
1070
   346
1005
14
1002
}
  0
ARC
  5
D3
330
1F
100
AcDbEntity
  8
実線（中）
 62
     7
370
    35
100
AcDbCircle
 10
46.99000000000001
 20
-40.00000000000001
 30
0.0
 40
2.0
100
AcDbArc
 50
180.0
 51
270.0
  0
LINE
  5
D4
330
1F
100
AcDbEntity
  8
実線（中）
 62
     7
370
    35
100
AcDbLine
 10
56.56399999999996
 20
-42.00000000000001
 30
0.0
 11
56.56399999999996
 21
-40.00000000000001
 31
0.0
  0
LINE
  5
D5
330
1F
100
AcDbEntity
  8
実線（中）
 62
     7
370
    35
100
AcDbLine
 10
54.56399999999996
 20
-42.00000000000001
 30
0.0
 11
54.56399999999996
 21
-40.00000000000001
 31
0.0
  0
LINE
  5
D6
330
1F
100
AcDbEntity
  8
実線（中）
 62
     7
370
    35
100
AcDbLine
 10
56.56399999999996
 20
-40.00000000000001
 30
0.0
 11
54.56399999999996
 21
-40.00000000000001
 31
0.0
  0
LINE
  5
D7
330
1F
100
AcDbEntity
  8
実線（中）
 62
     7
370
    35
100
AcDbLine
 10
60.56399999999996
 20
-42.00000000000001
 30
0.0
 11
60.56399999999996
 21
-40.00000000000001
 31
0.0
  0
LINE
  5
D8
330
1F
100
AcDbEntity
  8
実線（中）
 62
     7
370
    35
100
AcDbLine
 10
58.56399999999996
 20
-42.00000000000001
 30
0.0
 11
58.56399999999996
 21
-40.00000000000001
 31
0.0
  0
LINE
  5
D9
330
1F
100
AcDbEntity
  8
実線（中）
 62
     7
370
    35
100
AcDbLine
 10
60.56399999999996
 20
-40.00000000000001
 30
0.0
 11
58.56399999999996
 21
-40.00000000000001
 31
0.0
  0
LINE
  5
DA
330
1F
100
AcDbEntity
  8
実線（中）
 62
     7
370
    35
100
AcDbLine
 10
64.564
 20
-40.00000000000001
 30
0.0
 11
62.56399999999996
 21
-40.00000000000001
 31
0.0
  0
LINE
  5
DB
330
1F
100
AcDbEntity
  8
実線（中）
 62
     7
370
    35
100
AcDbLine
 10
62.56399999999996
 20
-42.00000000000001
 30
0.0
 11
62.56399999999996
 21
-40.00000000000001
 31
0.0
  0
LINE
  5
DC
330
1F
100
AcDbEntity
  8
実線（中）
 62
     7
370
    35
100
AcDbLine
 10
64.564
 20
-42.00000000000001
 30
0.0
 11
64.564
 21
-40.00000000000001
 31
0.0
  0
LINE
  5
DD
330
1F
100
AcDbEntity
  8
実線（中）
 62
     7
370
    35
100
AcDbLine
 10
68.564
 20
-42.00000000000001
 30
0.0
 11
68.564
 21
-40.00000000000001
 31
0.0
  0
LINE
  5
DE
330
1F
100
AcDbEntity
  8
実線（中）
 62
     7
370
    35
100
AcDbLine
 10
66.564
 20
-42.00000000000001
 30
0.0
 11
66.564
 21
-40.00000000000001
 31
0.0
  0
LINE
  5
DF
330
1F
100
AcDbEntity
  8
実線（中）
 62
     7
370
    35
100
AcDbLine
 10
68.564
 20
-40.00000000000001
 30
0.0
 11
66.564
 21
-40.00000000000001
 31
0.0
  0
LINE
  5
E0
330
1F
100
AcDbEntity
  8
実線（中）
 62
     7
370
    35
100
AcDbLine
 10
72.564
 20
-40.00000000000001
 30
0.0
 11
70.564
 21
-40.00000000000001
 31
0.0
  0
LINE
  5
E1
330
1F
100
AcDbEntity
  8
実線（中）
 62
     7
370
    35
100
AcDbLine
 10
70.564
 20
-42.00000000000001
 30
0.0
 11
70.564
 21
-40.00000000000001
 31
0.0
  0
LINE
  5
E2
330
1F
100
AcDbEntity
  8
実線（中）
 62
     7
370
    35
100
AcDbLine
 10
72.564
 20
-42.00000000000001
 30
0.0
 11
72.564
 21
-40.00000000000001
 31
0.0
  0
LINE
  5
E3
330
1F
100
AcDbEntity
  8
実線（中）
 62
     7
370
    35
100
AcDbLine
 10
76.564
 20
-42.00000000000001
 30
0.0
 11
76.564
 21
-39.00000000000001
 31
0.0
  0
LINE
  5
E4
330
1F
100
AcDbEntity
  8
実線（中）
 62
     7
370
    35
100
AcDbLine
 10
74.564
 20
-42.00000000000001
 30
0.0
 11
74.564
 21
-39.00000000000001
 31
0.0
  0
LINE
  5
E5
330
1F
100
AcDbEntity
  8
実線（中）
 62
     7
370
    35
100
AcDbLine
 10
76.564
 20
-40.00000000000001
 30
0.0
 11
74.564
 21
-40.00000000000001
 31
0.0
  0
LINE
  5
E6
330
1F
100
AcDbEntity
  8
実線（中）
 62
     7
370
    35
100
AcDbLine
 10
76.564
 20
-39.00000000000001
 30
0.0
 11
74.564
 21
-39.00000000000001
 31
0.0
  0
LINE
  5
E7
330
1F
100
AcDbEntity
  8
実線（中）
 62
     7
370
    35
100
AcDbLine
 10
80.564
 20
-40.00000000000001
 30
0.0
 11
78.564
 21
-40.00000000000001
 31
0.0
  0
LINE
  5
E8
330
1F
100
AcDbEntity
  8
実線（中）
 62
     7
370
    35
100
AcDbLine
 10
78.564
 20
-42.00000000000001
 30
0.0
 11
78.564
 21
-40.00000000000001
 31
0.0
  0
LINE
  5
E9
330
1F
100
AcDbEntity
  8
実線（中）
 62
     7
370
    35
100
AcDbLine
 10
80.564
 20
-42.00000000000001
 30
0.0
 11
80.564
 21
-40.00000000000001
 31
0.0
  0
LINE
  5
EA
330
1F
100
AcDbEntity
  8
実線（中）
 62
     7
370
    35
100
AcDbLine
 10
82.564
 20
-42.00000000000001
 30
0.0
 11
82.564
 21
-40.00000000000001
 31
0.0
  0
LINE
  5
EB
330
1F
100
AcDbEntity
  8
実線（中）
 62
     7
370
    35
100
AcDbLine
 10
84.564
 20
-42.00000000000001
 30
0.0
 11
84.564
 21
-40.00000000000001
 31
0.0
  0
LINE
  5
EC
330
1F
100
AcDbEntity
  8
実線（中）
 62
     7
370
    35
100
AcDbLine
 10
84.564
 20
-40.00000000000001
 30
0.0
 11
82.564
 21
-40.00000000000001
 31
0.0
  0
LINE
  5
ED
330
1F
100
AcDbEntity
  8
実線（中）
 62
     7
370
    35
100
AcDbLine
 10
88.564
 20
-40.00000000000001
 30
0.0
 11
86.564
 21
-40.00000000000001
 31
0.0
  0
LINE
  5
EE
330
1F
100
AcDbEntity
  8
実線（中）
 62
     7
370
    35
100
AcDbLine
 10
86.564
 20
-42.00000000000001
 30
0.0
 11
86.564
 21
-40.00000000000001
 31
0.0
  0
LINE
  5
EF
330
1F
100
AcDbEntity
  8
実線（中）
 62
     7
370
    35
100
AcDbLine
 10
88.564
 20
-42.00000000000001
 30
0.0
 11
88.564
 21
-40.00000000000001
 31
0.0
  0
LINE
  5
F0
330
1F
100
AcDbEntity
  8
実線（中）
 62
     7
370
    35
100
AcDbLine
 10
118.99
 20
-26.99999999999996
 30
0.0
 11
128.49
 21
-26.99999999999996
 31
0.0
  0
DIMENSION
  5
F1
330
1F
100
AcDbEntity
  8
実線（中）
  6
Continuous
 62
     7
370
    35
100
AcDbDimension
  2
*D6
 10
114.99
 20
-54.99999999999999
 30
0.0
 11
129.99
 21
-49.72765755653381
 31
0.0
 70
    32
 71
     5
 42
-1.0
 73
     0
 74
     0
 75
     0
  3
Standard
100
AcDbAlignedDimension
 13
144.99
 23
-39.99999999999996
 33
0.0
 14
114.99
 24
-42.00000000000001
 34
0.0
100
AcDbRotatedDimension
1001
ACAD
1000
DSTYLE
1002
{
1070
    41
1040
5.0
1070
   289
1070
     1
1070
   271
1070
     2
1070
    44
1040
1.0
1070
    42
1040
1.0
1070
   147
1040
2.0
1070
   372
1070
     0
1070
    77
1070
     1
1070
   272
1070
     2
1070
    73
1070
     0
1070
   174
1070
     1
1070
   172
1070
     1
1070
    74
1070
     0
1070
   340
1005
76
1070
   140
1040
4.500002160117347
1070
   284
1070
     8
1070
    78
1070
     8
1070
   345
1005
16
1070
   346
1005
14
1002
}
  0
LINE
  5
FB
330
1F
100
AcDbEntity
  8
実線（中）
 62
     7
370
    35
100
AcDbLine
 10
92.564
 20
-42.00000000000001
 30
0.0
 11
92.564
 21
-40.00000000000001
 31
0.0
  0
LINE
  5
FC
330
1F
100
AcDbEntity
  8
実線（中）
 62
     7
370
    35
100
AcDbLine
 10
90.564
 20
-42.00000000000001
 30
0.0
 11
90.564
 21
-40.00000000000001
 31
0.0
  0
LINE
  5
FD
330
1F
100
AcDbEntity
  8
実線（中）
 62
     7
370
    35
100
AcDbLine
 10
92.564
 20
-40.00000000000001
 30
0.0
 11
90.564
 21
-40.00000000000001
 31
0.0
  0
LINE
  5
FE
330
1F
100
AcDbEntity
  8
実線（中）
 62
     7
370
    35
100
AcDbLine
 10
96.564
 20
-40.00000000000001
 30
0.0
 11
94.564
 21
-40.00000000000001
 31
0.0
  0
LINE
  5
FF
330
1F
100
AcDbEntity
  8
実線（中）
 62
     7
370
    35
100
AcDbLine
 10
94.564
 20
-42.00000000000001
 30
0.0
 11
94.564
 21
-40.00000000000001
 31
0.0
  0
LINE
  5
100
330
1F
100
AcDbEntity
  8
実線（中）
 62
     7
370
    35
100
AcDbLine
 10
96.564
 20
-42.00000000000001
 30
0.0
 11
96.564
 21
-40.00000000000001
 31
0.0
  0
LINE
  5
101
330
1F
100
AcDbEntity
  8
実線（中）
 62
     7
370
    35
100
AcDbLine
 10
100.564
 20
-42.00000000000001
 30
0.0
 11
100.564
 21
-40.00000000000001
 31
0.0
  0
LINE
  5
102
330
1F
100
AcDbEntity
  8
実線（中）
 62
     7
370
    35
100
AcDbLine
 10
98.564
 20
-42.00000000000001
 30
0.0
 11
98.564
 21
-40.00000000000001
 31
0.0
  0
LINE
  5
103
330
1F
100
AcDbEntity
  8
実線（中）
 62
     7
370
    35
100
AcDbLine
 10
100.564
 20
-40.00000000000001
 30
0.0
 11
98.564
 21
-40.00000000000001
 31
0.0
  0
LINE
  5
104
330
1F
100
AcDbEntity
  8
実線（中）
 62
     7
370
    35
100
AcDbLine
 10
104.564
 20
-40.00000000000001
 30
0.0
 11
102.564
 21
-40.00000000000001
 31
0.0
  0
LINE
  5
105
330
1F
100
AcDbEntity
  8
実線（中）
 62
     7
370
    35
100
AcDbLine
 10
102.564
 20
-42.00000000000001
 30
0.0
 11
102.564
 21
-40.00000000000001
 31
0.0
  0
LINE
  5
106
330
1F
100
AcDbEntity
  8
実線（中）
 62
     7
370
    35
100
AcDbLine
 10
104.564
 20
-42.00000000000001
 30
0.0
 11
104.564
 21
-40.00000000000001
 31
0.0
  0
LINE
  5
107
330
1F
100
AcDbEntity
  8
実線（中）
 62
     7
370
    35
100
AcDbLine
 10
130.49
 20
-35.99999999999996
 30
0.0
 11
144.99
 21
-35.99999999999996
 31
0.0
  0
LINE
  5
108
330
1F
100
AcDbEntity
  8
実線（中）
 62
     7
370
    35
100
AcDbLine
 10
128.49
 20
-33.99999999999996
 30
0.0
 11
128.49
 21
-26.99999999999996
 31
0.0
  0
LINE
  5
109
330
1F
100
AcDbEntity
  8
実線（中）
 62
     7
370
    35
100
AcDbLine
 10
128.49
 20
-33.99999999999996
 30
0.0
 11
130.49
 21
-35.99999999999996
 31
0.0
  0
LINE
  5
10A
330
1F
100
AcDbEntity
  8
実線（中）
 62
     7
370
    35
100
AcDbLine
 10
144.99
 20
-39.99999999999996
 30
0.0
 11
144.99
 21
-35.99999999999996
 31
0.0
  0
LINE
  5
10B
330
1F
100
AcDbEntity
  8
実線（中）
 62
     7
370
    35
100
AcDbLine
 10
141.49
 20
-39.99999999999996
 30
0.0
 11
141.49
 21
-35.99999999999996
 31
0.0
  0
LINE
  5
10C
330
1F
100
AcDbEntity
  8
実線（中）
 62
     7
370
    35
100
AcDbLine
 10
141.49
 20
-38.58999999999999
 30
0.0
 11
144.99
 21
-38.58999999999999
 31
0.0
  0
LINE
  5
10D
330
1F
100
AcDbEntity
  8
実線（中）
 62
     7
370
    35
100
AcDbLine
 10
141.49
 20
-39.99999999999996
 30
0.0
 11
144.99
 21
-39.99999999999996
 31
0.0
  0
LINE
  5
10E
330
1F
100
AcDbEntity
  8
実線（中）
 62
     7
370
    35
100
AcDbLine
 10
114.99
 20
42.00000000000007
 30
0.0
 11
46.99000000000001
 21
42.00000000000007
 31
0.0
  0
LINE
  5
10F
330
1F
100
AcDbEntity
  8
実線（中）
 62
     7
370
    35
100
AcDbLine
 10
54.99000000000001
 20
-3.000000000000043
 30
0.0
 11
104.99
 21
-3.000000000000043
 31
0.0
  0
LINE
  5
110
330
1F
100
AcDbEntity
  8
実線（中）
 62
     7
370
    35
100
AcDbLine
 10
54.99000000000001
 20
-1.500000000000043
 30
0.0
 11
104.99
 21
-1.500000000000043
 31
0.0
  0
LINE
  5
111
330
1F
100
AcDbEntity
  8
実線（中）
 62
     7
370
    35
100
AcDbLine
 10
54.99000000000001
 20
36.99999999999996
 30
0.0
 11
104.99
 21
36.99999999999996
 31
0.0
  0
LINE
  5
112
330
1F
100
AcDbEntity
  8
実線（中）
 62
     7
370
    35
100
AcDbLine
 10
104.99
 20
37.00000000000007
 30
0.0
 11
54.99000000000001
 21
37.00000000000007
 31
0.0
  0
LINE
  5
113
330
1F
100
AcDbEntity
  8
実線（中）
 62
     7
370
    35
100
AcDbLine
 10
104.99
 20
-1.499999999999929
 30
0.0
 11
54.99000000000001
 21
-1.499999999999929
 31
0.0
  0
LINE
  5
114
330
1F
100
AcDbEntity
  8
実線（中）
 62
     7
370
    35
100
AcDbLine
 10
104.99
 20
-2.999999999999929
 30
0.0
 11
54.99000000000001
 21
-2.999999999999929
 31
0.0
  0
LINE
  5
115
330
1F
100
AcDbEntity
  8
実線（中）
 62
     7
370
    35
100
AcDbLine
 10
54.99000000000001
 20
-1.500000000000043
 30
0.0
 11
54.99000000000001
 21
36.99999999999996
 31
0.0
  0
LINE
  5
116
330
1F
100
AcDbEntity
  8
実線（中）
 62
     7
370
    35
100
AcDbLine
 10
54.99000000000001
 20
-1.499999999999929
 30
0.0
 11
54.99000000000001
 21
37.00000000000007
 31
0.0
  0
LINE
  5
117
330
1F
100
AcDbEntity
  8
実線（中）
 62
     7
370
    35
100
AcDbLine
 10
39.18999999999994
 20
-4.499999999999986
 30
0.0
 11
43.78999999999996
 21
-4.499999999999986
 31
0.0
  0
LINE
  5
118
330
1F
100
AcDbEntity
  8
実線（中）
 62
     7
370
    35
100
AcDbLine
 10
39.18999999999994
 20
-3.499999999999986
 30
0.0
 11
43.78999999999996
 21
-3.499999999999986
 31
0.0
  0
LINE
  5
119
330
1F
100
AcDbEntity
  8
実線（中）
 62
     7
370
    35
100
AcDbLine
 10
39.18999999999994
 20
-2.499999999999986
 30
0.0
 11
43.78999999999996
 21
-2.499999999999986
 31
0.0
  0
LINE
  5
11A
330
1F
100
AcDbEntity
  8
実線（中）
 62
     7
370
    35
100
AcDbLine
 10
39.18999999999994
 20
-5.499999999999986
 30
0.0
 11
43.78999999999996
 21
-5.499999999999986
 31
0.0
  0
LINE
  5
11B
330
1F
100
AcDbEntity
  8
実線（中）
 62
     7
370
    35
100
AcDbLine
 10
39.18999999999994
 20
-7.499999999999986
 30
0.0
 11
43.78999999999996
 21
-7.499999999999986
 31
0.0
  0
LINE
  5
11C
330
1F
100
AcDbEntity
  8
実線（中）
 62
     7
370
    35
100
AcDbLine
 10
39.18999999999994
 20
-6.499999999999986
 30
0.0
 11
43.78999999999996
 21
-6.499999999999986
 31
0.0
  0
LINE
  5
11D
330
1F
100
AcDbEntity
  8
実線（中）
 62
     7
370
    35
100
AcDbLine
 10
39.18999999999994
 20
-10.49999999999999
 30
0.0
 11
43.78999999999996
 21
-10.49999999999999
 31
0.0
  0
LINE
  5
11E
330
1F
100
AcDbEntity
  8
実線（中）
 62
     7
370
    35
100
AcDbLine
 10
39.18999999999994
 20
-9.499999999999986
 30
0.0
 11
43.78999999999996
 21
-9.499999999999986
 31
0.0
  0
LINE
  5
11F
330
1F
100
AcDbEntity
  8
実線（中）
 62
     7
370
    35
100
AcDbLine
 10
39.18999999999994
 20
-8.499999999999986
 30
0.0
 11
43.78999999999996
 21
-8.499999999999986
 31
0.0
  0
LINE
  5
120
330
1F
100
AcDbEntity
  8
実線（中）
 62
     7
370
    35
100
AcDbLine
 10
38.49000000000001
 20
-9.879999999999981
 30
0.0
 11
38.49000000000001
 21
-2.989999999999995
 31
0.0
  0
LINE
  5
121
330
1F
100
AcDbEntity
  8
実線（中）
 62
     7
370
    35
100
AcDbLine
 10
39.18999999999994
 20
-10.49999999999999
 30
0.0
 11
39.18999999999994
 21
-2.499999999999986
 31
0.0
  0
LINE
  5
122
330
1F
100
AcDbEntity
  8
実線（中）
 62
     7
370
    35
100
AcDbLine
 10
38.49000000000001
 20
-9.879999999999981
 30
0.0
 11
39.18999999999994
 21
-10.49999999999999
 31
0.0
  0
LINE
  5
123
330
1F
100
AcDbEntity
  8
実線（中）
 62
     7
370
    35
100
AcDbLine
 10
38.49000000000001
 20
-2.989999999999995
 30
0.0
 11
39.18999999999994
 21
-2.499999999999986
 31
0.0
  0
LINE
  5
124
330
1F
100
AcDbEntity
  8
実線（中）
 62
     7
370
    35
100
AcDbLine
 10
44.49000000000001
 20
-9.939999999999984
 30
0.0
 11
44.49000000000001
 21
-3.07999999999997
 31
0.0
  0
LINE
  5
125
330
1F
100
AcDbEntity
  8
実線（中）
 62
     7
370
    35
100
AcDbLine
 10
43.78999999999996
 20
-10.49999999999999
 30
0.0
 11
43.78999999999996
 21
-2.499999999999986
 31
0.0
  0
LINE
  5
126
330
1F
100
AcDbEntity
  8
実線（中）
 62
     7
370
    35
100
AcDbLine
 10
43.78999999999996
 20
-10.49999999999999
 30
0.0
 11
44.49000000000001
 21
-9.939999999999984
 31
0.0
  0
LINE
  5
127
330
1F
100
AcDbEntity
  8
実線（中）
 62
     7
370
    35
100
AcDbLine
 10
43.78999999999996
 20
-2.499999999999986
 30
0.0
 11
44.49000000000001
 21
-3.07999999999997
 31
0.0
  0
ARC
  5
128
330
1F
100
AcDbEntity
  8
実線（中）
 62
     7
370
    35
100
AcDbCircle
 10
46.99000000000001
 20
40.00000000000007
 30
0.0
 40
2.0
100
AcDbArc
 50
90.0
 51
180.0
  0
LINE
  5
129
330
1F
100
AcDbEntity
  8
実線（中）
 62
     7
370
    35
100
AcDbLine
 10
56.56399999999996
 20
40.00000000000007
 30
0.0
 11
56.56399999999996
 21
42.00000000000007
 31
0.0
  0
LINE
  5
12A
330
1F
100
AcDbEntity
  8
実線（中）
 62
     7
370
    35
100
AcDbLine
 10
54.56399999999996
 20
40.00000000000007
 30
0.0
 11
54.56399999999996
 21
42.00000000000007
 31
0.0
  0
LINE
  5
12B
330
1F
100
AcDbEntity
  8
実線（中）
 62
     7
370
    35
100
AcDbLine
 10
56.56399999999996
 20
40.00000000000007
 30
0.0
 11
54.56399999999996
 21
40.00000000000007
 31
0.0
  0
LINE
  5
12C
330
1F
100
AcDbEntity
  8
実線（中）
 62
     7
370
    35
100
AcDbLine
 10
60.56399999999996
 20
40.00000000000007
 30
0.0
 11
60.56399999999996
 21
42.00000000000007
 31
0.0
  0
LINE
  5
12D
330
1F
100
AcDbEntity
  8
実線（中）
 62
     7
370
    35
100
AcDbLine
 10
58.56399999999996
 20
40.00000000000007
 30
0.0
 11
58.56399999999996
 21
42.00000000000007
 31
0.0
  0
LINE
  5
12E
330
1F
100
AcDbEntity
  8
実線（中）
 62
     7
370
    35
100
AcDbLine
 10
60.56399999999996
 20
40.00000000000007
 30
0.0
 11
58.56399999999996
 21
40.00000000000007
 31
0.0
  0
LINE
  5
12F
330
1F
100
AcDbEntity
  8
実線（中）
 62
     7
370
    35
100
AcDbLine
 10
64.564
 20
40.00000000000007
 30
0.0
 11
62.56399999999996
 21
40.00000000000007
 31
0.0
  0
LINE
  5
130
330
1F
100
AcDbEntity
  8
実線（中）
 62
     7
370
    35
100
AcDbLine
 10
62.56399999999996
 20
40.00000000000007
 30
0.0
 11
62.56399999999996
 21
42.00000000000007
 31
0.0
  0
LINE
  5
131
330
1F
100
AcDbEntity
  8
実線（中）
 62
     7
370
    35
100
AcDbLine
 10
64.564
 20
40.00000000000007
 30
0.0
 11
64.564
 21
42.00000000000007
 31
0.0
  0
LINE
  5
132
330
1F
100
AcDbEntity
  8
実線（中）
 62
     7
370
    35
100
AcDbLine
 10
68.564
 20
40.00000000000007
 30
0.0
 11
68.564
 21
42.00000000000007
 31
0.0
  0
LINE
  5
133
330
1F
100
AcDbEntity
  8
実線（中）
 62
     7
370
    35
100
AcDbLine
 10
66.564
 20
40.00000000000007
 30
0.0
 11
66.564
 21
42.00000000000007
 31
0.0
  0
LINE
  5
134
330
1F
100
AcDbEntity
  8
実線（中）
 62
     7
370
    35
100
AcDbLine
 10
68.564
 20
40.00000000000007
 30
0.0
 11
66.564
 21
40.00000000000007
 31
0.0
  0
LINE
  5
135
330
1F
100
AcDbEntity
  8
実線（中）
 62
     7
370
    35
100
AcDbLine
 10
72.564
 20
40.00000000000007
 30
0.0
 11
70.564
 21
40.00000000000007
 31
0.0
  0
LINE
  5
136
330
1F
100
AcDbEntity
  8
実線（中）
 62
     7
370
    35
100
AcDbLine
 10
70.564
 20
40.00000000000007
 30
0.0
 11
70.564
 21
42.00000000000007
 31
0.0
  0
LINE
  5
137
330
1F
100
AcDbEntity
  8
実線（中）
 62
     7
370
    35
100
AcDbLine
 10
72.564
 20
40.00000000000007
 30
0.0
 11
72.564
 21
42.00000000000007
 31
0.0
  0
LINE
  5
138
330
1F
100
AcDbEntity
  8
実線（中）
 62
     7
370
    35
100
AcDbLine
 10
76.564
 20
39.00000000000007
 30
0.0
 11
76.564
 21
42.00000000000007
 31
0.0
  0
LINE
  5
139
330
1F
100
AcDbEntity
  8
実線（中）
 62
     7
370
    35
100
AcDbLine
 10
74.564
 20
39.00000000000007
 30
0.0
 11
74.564
 21
42.00000000000007
 31
0.0
  0
LINE
  5
13A
330
1F
100
AcDbEntity
  8
実線（中）
 62
     7
370
    35
100
AcDbLine
 10
76.564
 20
39.00000000000007
 30
0.0
 11
74.564
 21
39.00000000000007
 31
0.0
  0
LINE
  5
13B
330
1F
100
AcDbEntity
  8
実線（中）
 62
     7
370
    35
100
AcDbLine
 10
76.564
 20
40.00000000000007
 30
0.0
 11
74.564
 21
40.00000000000007
 31
0.0
  0
LINE
  5
13C
330
1F
100
AcDbEntity
  8
実線（中）
 62
     7
370
    35
100
AcDbLine
 10
80.564
 20
40.00000000000007
 30
0.0
 11
78.564
 21
40.00000000000007
 31
0.0
  0
LINE
  5
13D
330
1F
100
AcDbEntity
  8
実線（中）
 62
     7
370
    35
100
AcDbLine
 10
78.564
 20
40.00000000000007
 30
0.0
 11
78.564
 21
42.00000000000007
 31
0.0
  0
LINE
  5
13E
330
1F
100
AcDbEntity
  8
実線（中）
 62
     7
370
    35
100
AcDbLine
 10
80.564
 20
40.00000000000007
 30
0.0
 11
80.564
 21
42.00000000000007
 31
0.0
  0
LINE
  5
13F
330
1F
100
AcDbEntity
  8
実線（中）
 62
     7
370
    35
100
AcDbLine
 10
82.564
 20
40.00000000000007
 30
0.0
 11
82.564
 21
42.00000000000007
 31
0.0
  0
LINE
  5
140
330
1F
100
AcDbEntity
  8
実線（中）
 62
     7
370
    35
100
AcDbLine
 10
84.564
 20
40.00000000000007
 30
0.0
 11
84.564
 21
42.00000000000007
 31
0.0
  0
LINE
  5
141
330
1F
100
AcDbEntity
  8
実線（中）
 62
     7
370
    35
100
AcDbLine
 10
84.564
 20
40.00000000000007
 30
0.0
 11
82.564
 21
40.00000000000007
 31
0.0
  0
LINE
  5
142
330
1F
100
AcDbEntity
  8
実線（中）
 62
     7
370
    35
100
AcDbLine
 10
88.564
 20
40.00000000000007
 30
0.0
 11
86.564
 21
40.00000000000007
 31
0.0
  0
LINE
  5
143
330
1F
100
AcDbEntity
  8
実線（中）
 62
     7
370
    35
100
AcDbLine
 10
86.564
 20
40.00000000000007
 30
0.0
 11
86.564
 21
42.00000000000007
 31
0.0
  0
LINE
  5
144
330
1F
100
AcDbEntity
  8
実線（中）
 62
     7
370
    35
100
AcDbLine
 10
88.564
 20
40.00000000000007
 30
0.0
 11
88.564
 21
42.00000000000007
 31
0.0
  0
LINE
  5
145
330
1F
100
AcDbEntity
  8
実線（中）
 62
     7
370
    35
100
AcDbLine
 10
144.99
 20
18.00000000000007
 30
0.0
 11
144.99
 21
36.00000000000007
 31
0.0
  0
LINE
  5
146
330
1F
100
AcDbEntity
  8
実線（中）
 62
     7
370
    35
100
AcDbLine
 10
104.99
 20
-1.500000000000043
 30
0.0
 11
104.99
 21
36.99999999999996
 31
0.0
  0
LINE
  5
147
330
1F
100
AcDbEntity
  8
実線（中）
 62
     7
370
    35
100
AcDbLine
 10
104.99
 20
-1.499999999999929
 30
0.0
 11
104.99
 21
37.00000000000007
 31
0.0
  0
LINE
  5
148
330
1F
100
AcDbEntity
  8
実線（中）
 62
     7
370
    35
100
AcDbLine
 10
116.99
 20
-24.99999999999996
 30
0.0
 11
116.99
 21
25.00000000000007
 31
0.0
  0
LINE
  5
149
330
1F
100
AcDbEntity
  8
実線（中）
 62
     7
370
    35
100
AcDbLine
 10
118.99
 20
-24.99999999999996
 30
0.0
 11
138.99
 21
-24.99999999999996
 31
0.0
  0
LINE
  5
14A
330
1F
100
AcDbEntity
  8
実線（中）
 62
     7
370
    35
100
AcDbLine
 10
114.99
 20
-17.99999999999996
 30
0.0
 11
114.99
 21
18.00000000000007
 31
0.0
  0
LINE
  5
14B
330
1F
100
AcDbEntity
  8
実線（中）
 62
     7
370
    35
100
AcDbLine
 10
116.99
 20
-22.99999999999996
 30
0.0
 11
118.99
 21
-24.99999999999996
 31
0.0
  0
LINE
  5
14C
330
1F
100
AcDbEntity
  8
実線（中）
 62
     7
370
    35
100
AcDbLine
 10
114.99
 20
-17.99999999999996
 30
0.0
 11
116.99
 21
-17.99999999999996
 31
0.0
  0
LINE
  5
14D
330
1F
100
AcDbEntity
  8
実線（中）
 62
     7
370
    35
100
AcDbLine
 10
114.99
 20
18.00000000000007
 30
0.0
 11
116.99
 21
18.00000000000007
 31
0.0
  0
LINE
  5
14E
330
1F
100
AcDbEntity
  8
実線（中）
 62
     7
370
    35
100
AcDbLine
 10
141.49
 20
-17.99999999999996
 30
0.0
 11
141.49
 21
18.00000000000007
 31
0.0
  0
LINE
  5
14F
330
1F
100
AcDbEntity
  8
実線（中）
 62
     7
370
    35
100
AcDbLine
 10
148.49
 20
12.50000000000007
 30
0.0
 11
148.49
 21
-12.49999999999996
 31
0.0
  0
LINE
  5
150
330
1F
100
AcDbEntity
  8
実線（中）
 62
     7
370
    35
100
AcDbLine
 10
150.49
 20
15.50000000000007
 30
0.0
 11
150.49
 21
-15.49999999999996
 31
0.0
  0
ARC
  5
151
330
1F
100
AcDbEntity
  8
実線（中）
 62
     7
370
    35
100
AcDbCircle
 10
143.49
 20
-14.49999999999996
 30
0.0
 40
0.5
100
AcDbArc
 50
90.0
 51
180.0
  0
LINE
  5
152
330
1F
100
AcDbEntity
  8
実線（中）
 62
     7
370
    35
100
AcDbLine
 10
143.49
 20
-13.99999999999996
 30
0.0
 11
148.49
 21
-13.99999999999996
 31
0.0
  0
LINE
  5
153
330
1F
100
AcDbEntity
  8
実線（中）
 62
     7
370
    35
100
AcDbLine
 10
142.99
 20
-15.49999999999996
 30
0.0
 11
143.99
 21
-15.49999999999996
 31
0.0
  0
LINE
  5
154
330
1F
100
AcDbEntity
  8
実線（中）
 62
     7
370
    35
100
AcDbLine
 10
141.49
 20
-17.99999999999996
 30
0.0
 11
144.99
 21
-17.99999999999996
 31
0.0
  0
LINE
  5
155
330
1F
100
AcDbEntity
  8
実線（中）
 62
     7
370
    35
100
AcDbLine
 10
142.99
 20
-17.99999999999996
 30
0.0
 11
142.99
 21
-15.49999999999996
 31
0.0
  0
LINE
  5
156
330
1F
100
AcDbEntity
  8
実線（中）
 62
     7
370
    35
100
AcDbLine
 10
142.99
 20
-14.49999999999996
 30
0.0
 11
142.99
 21
-15.49999999999996
 31
0.0
  0
LINE
  5
157
330
1F
100
AcDbEntity
  8
実線（中）
 62
     7
370
    35
100
AcDbLine
 10
143.99
 20
-15.49999999999996
 30
0.0
 11
144.99
 21
-17.99999999999996
 31
0.0
  0
ARC
  5
158
330
1F
100
AcDbEntity
  8
実線（中）
 62
     7
370
    35
100
AcDbCircle
 10
150.24
 20
-13.74999999999996
 30
0.0
 40
1.767766952966369
100
AcDbArc
 50
188.1301023541564
 51
278.130102354156
  0
LINE
  5
159
330
1F
100
AcDbEntity
  8
実線（中）
 62
     7
370
    35
100
AcDbLine
 10
142.49
 20
-12.49999999999996
 30
0.0
 11
148.49
 21
-12.49999999999996
 31
0.0
  0
ARC
  5
15A
330
1F
100
AcDbEntity
  8
実線（中）
 62
     7
370
    35
100
AcDbCircle
 10
142.49
 20
-13.49999999999996
 30
0.0
 40
1.0
100
AcDbArc
 50
90.0
 51
180.0
  0
LINE
  5
15B
330
1F
100
AcDbEntity
  8
実線（中）
 62
     7
370
    35
100
AcDbLine
 10
143.49
 20
14.00000000000007
 30
0.0
 11
148.49
 21
14.00000000000007
 31
0.0
  0
LINE
  5
15C
330
1F
100
AcDbEntity
  8
実線（中）
 62
     7
370
    35
100
AcDbLine
 10
142.49
 20
12.50000000000007
 30
0.0
 11
148.49
 21
12.50000000000007
 31
0.0
  0
LINE
  5
15D
330
1F
100
AcDbEntity
  8
実線（中）
 62
     7
370
    35
100
AcDbLine
 10
142.99
 20
15.50000000000007
 30
0.0
 11
142.99
 21
14.50000000000007
 31
0.0
  0
ARC
  5
15E
330
1F
100
AcDbEntity
  8
実線（中）
 62
     7
370
    35
100
AcDbCircle
 10
143.49
 20
14.50000000000007
 30
0.0
 40
0.5
100
AcDbArc
 50
180.0
 51
270.0
  0
ARC
  5
15F
330
1F
100
AcDbEntity
  8
実線（中）
 62
     7
370
    35
100
AcDbCircle
 10
142.49
 20
13.50000000000007
 30
0.0
 40
1.0
100
AcDbArc
 50
180.0
 51
270.0
  0
LINE
  5
160
330
1F
100
AcDbEntity
  8
実線（中）
 62
     7
370
    35
100
AcDbLine
 10
142.99
 20
15.50000000000007
 30
0.0
 11
143.99
 21
15.50000000000007
 31
0.0
  0
LINE
  5
161
330
1F
100
AcDbEntity
  8
実線（中）
 62
     7
370
    35
100
AcDbLine
 10
141.49
 20
18.00000000000007
 30
0.0
 11
144.99
 21
18.00000000000007
 31
0.0
  0
LINE
  5
162
330
1F
100
AcDbEntity
  8
実線（中）
 62
     7
370
    35
100
AcDbLine
 10
142.99
 20
15.50000000000007
 30
0.0
 11
142.99
 21
18.00000000000007
 31
0.0
  0
LINE
  5
163
330
1F
100
AcDbEntity
  8
実線（中）
 62
     7
370
    35
100
AcDbLine
 10
143.99
 20
15.50000000000007
 30
0.0
 11
144.99
 21
18.00000000000007
 31
0.0
  0
ARC
  5
164
330
1F
100
AcDbEntity
  8
実線（中）
 62
     7
370
    35
100
AcDbCircle
 10
150.24
 20
13.75000000000007
 30
0.0
 40
1.767766952966369
100
AcDbArc
 50
81.86989764584395
 51
171.8698976458436
  0
LINE
  5
165
330
1F
100
AcDbEntity
  8
実線（中）
 62
     7
370
    35
100
AcDbLine
 10
118.99
 20
27.00000000000007
 30
0.0
 11
128.49
 21
27.00000000000007
 31
0.0
  0
LINE
  5
166
330
1F
100
AcDbEntity
  8
実線（中）
 62
     7
370
    35
100
AcDbLine
 10
92.564
 20
40.00000000000007
 30
0.0
 11
92.564
 21
42.00000000000007
 31
0.0
  0
LINE
  5
167
330
1F
100
AcDbEntity
  8
実線（中）
 62
     7
370
    35
100
AcDbLine
 10
90.564
 20
40.00000000000007
 30
0.0
 11
90.564
 21
42.00000000000007
 31
0.0
  0
LINE
  5
168
330
1F
100
AcDbEntity
  8
実線（中）
 62
     7
370
    35
100
AcDbLine
 10
92.564
 20
40.00000000000007
 30
0.0
 11
90.564
 21
40.00000000000007
 31
0.0
  0
LINE
  5
169
330
1F
100
AcDbEntity
  8
実線（中）
 62
     7
370
    35
100
AcDbLine
 10
96.564
 20
40.00000000000007
 30
0.0
 11
94.564
 21
40.00000000000007
 31
0.0
  0
LINE
  5
16A
330
1F
100
AcDbEntity
  8
実線（中）
 62
     7
370
    35
100
AcDbLine
 10
94.564
 20
40.00000000000007
 30
0.0
 11
94.564
 21
42.00000000000007
 31
0.0
  0
LINE
  5
16B
330
1F
100
AcDbEntity
  8
実線（中）
 62
     7
370
    35
100
AcDbLine
 10
96.564
 20
40.00000000000007
 30
0.0
 11
96.564
 21
42.00000000000007
 31
0.0
  0
LINE
  5
16C
330
1F
100
AcDbEntity
  8
実線（中）
 62
     7
370
    35
100
AcDbLine
 10
100.564
 20
40.00000000000007
 30
0.0
 11
100.564
 21
42.00000000000007
 31
0.0
  0
LINE
  5
16D
330
1F
100
AcDbEntity
  8
実線（中）
 62
     7
370
    35
100
AcDbLine
 10
98.564
 20
40.00000000000007
 30
0.0
 11
98.564
 21
42.00000000000007
 31
0.0
  0
LINE
  5
16E
330
1F
100
AcDbEntity
  8
実線（中）
 62
     7
370
    35
100
AcDbLine
 10
100.564
 20
40.00000000000007
 30
0.0
 11
98.564
 21
40.00000000000007
 31
0.0
  0
LINE
  5
16F
330
1F
100
AcDbEntity
  8
実線（中）
 62
     7
370
    35
100
AcDbLine
 10
104.564
 20
40.00000000000007
 30
0.0
 11
102.564
 21
40.00000000000007
 31
0.0
  0
LINE
  5
170
330
1F
100
AcDbEntity
  8
実線（中）
 62
     7
370
    35
100
AcDbLine
 10
102.564
 20
40.00000000000007
 30
0.0
 11
102.564
 21
42.00000000000007
 31
0.0
  0
LINE
  5
171
330
1F
100
AcDbEntity
  8
実線（中）
 62
     7
370
    35
100
AcDbLine
 10
104.564
 20
40.00000000000007
 30
0.0
 11
104.564
 21
42.00000000000007
 31
0.0
  0
LINE
  5
172
330
1F
100
AcDbEntity
  8
実線（中）
 62
     7
370
    35
100
AcDbLine
 10
116.99
 20
25.00000000000007
 30
0.0
 11
118.99
 21
27.00000000000007
 31
0.0
  0
LINE
  5
173
330
1F
100
AcDbEntity
  8
実線（中）
 62
     7
370
    35
100
AcDbLine
 10
130.49
 20
36.00000000000007
 30
0.0
 11
144.99
 21
36.00000000000007
 31
0.0
  0
LINE
  5
174
330
1F
100
AcDbEntity
  8
実線（中）
 62
     7
370
    35
100
AcDbLine
 10
128.49
 20
27.00000000000007
 30
0.0
 11
128.49
 21
34.00000000000007
 31
0.0
  0
LINE
  5
175
330
1F
100
AcDbEntity
  8
実線（中）
 62
     7
370
    35
100
AcDbLine
 10
128.49
 20
34.00000000000007
 30
0.0
 11
130.49
 21
36.00000000000007
 31
0.0
  0
LINE
  5
176
330
1F
100
AcDbEntity
  8
実線（中）
 62
     7
370
    35
100
AcDbLine
 10
155.49
 20
0.0000000000000568
 30
0.0
 11
39.99000000000001
 21
0.0
 31
0.0
  0
LINE
  5
177
330
1F
100
AcDbEntity
  8
実線（中）
 62
     7
370
    35
100
AcDbLine
 10
16.0
 20
0.0000000000000142
 30
0.0
 11
-16.0
 21
-0.0000000000000142
 31
0.0
  0
LINE
  5
178
330
1F
100
AcDbEntity
  8
実線（中）
 62
     7
370
    35
100
AcDbLine
 10
0.0
 20
-46.99999999999999
 30
0.0
 11
0.0
 21
47.00000000000001
 31
0.0
  0
HATCH
  5
179
330
1F
100
AcDbEntity
  8
実線（中）
  6
Continuous
 62
     7
370
    35
100
AcDbHatch
 10
0.0
 20
0.0
 30
0.0
210
0.0
220
0.0
230
1.0
  2
SOLID
 70
     1
 71
     1
 91
        1
 92
        7
 72
     0
 73
     1
 93
        3
 10
150.3798812860167
 20
20.56777251988245
 10
150.49
 20
15.50000000000006
 10
152.0294355472749
 20
20.32955304766719
 97
        0
 75
     0
 76
     1
 47
0.0
 98
        1
 10
150.3798812860167
 20
20.56777251988245
  0
LWPOLYLINE
  5
17A
330
1F
100
AcDbEntity
  8
実線（中）
  6
Continuous
 62
     7
370
    35
100
AcDbPolyline
 90
        3
 70
     0
 43
0.0
 10
150.49
 20
15.50000000000007
 10
153.5314424389081
 20
36.56051318482811
 10
158.5314424389081
 20
36.56051318482811
  0
LINE
  5
17B
330
1F
100
AcDbEntity
  8
実線（中）
 62
     7
370
    35
100
AcDbLine
 10
158.5314424389081
 20
36.56051318482811
 30
0.0
 11
190.440533347999
 21
36.56051318482811
 31
0.0
  0
TEXT
  5
17C
330
1F
100
AcDbEntity
  8
実線（中）
 62
     7
370
    35
100
AcDbText
 10
164.2534865804612
 20
55.70602996712189
 30
0.0
 40
4.499999385881389
  1
DINレール
  7
MS PGothic
 11
164.2534865804612
 21
54.78557554728251
 31
0.0
100
AcDbText
 73
     1
  0
TEXT
  5
17D
330
1F
100
AcDbEntity
  8
実線（中）
 62
     7
370
    35
100
AcDbText
 10
160.1347936331059
 20
47.46444405507111
 30
0.0
 40
4.499999608748999
  1
取付の場合
  7
MS PGothic
 11
160.1347936331059
 21
46.54398958964517
 31
0.0
100
AcDbText
 73
     1
  0
TEXT
  5
17E
330
1F
100
AcDbEntity
  8
実線（中）
 62
     7
370
    35
100
AcDbText
 10
165.9890280335061
 20
39.17174427151159
 30
0.0
 40
4.499997977004842
  1
(35mm幅)
  7
MS PGothic
 11
165.9890280335061
 21
38.25129013985151
 31
0.0
100
AcDbText
 73
     1
  0
DIMENSION
  5
17F
330
1F
100
AcDbEntity
  8
実線（中）
  6
Continuous
 62
     7
370
    35
100
AcDbDimension
  2
*D7
 10
150.49
 20
-64.99999999999999
 30
0.0
 11
163.90975
 21
-59.72731328010559
 31
0.0
 70
    32
  1
4
 71
     5
 42
-1.0
 73
     0
 74
     1
 75
     1
  3
Standard
100
AcDbAlignedDimension
 13
144.99
 23
-39.99999999999996
 33
0.0
 14
150.49
 24
-15.49999999999996
 34
0.0
100
AcDbRotatedDimension
1001
ACAD
1000
DSTYLE
1002
{
1070
    41
1040
5.0
1070
   289
1070
     1
1070
   271
1070
     2
1070
    44
1040
1.0
1070
    42
1040
1.0
1070
   147
1040
2.0
1070
   372
1070
     0
1070
    77
1070
     1
1070
   272
1070
     2
1070
   146
1040
0.5
1070
    73
1070
     0
1070
   174
1070
     1
1070
   172
1070
     1
1070
    74
1070
     0
1070
   283
1070
     0
1070
   340
1005
76
1070
   140
1040
4.499991979567799
1070
   284
1070
     3
1070
    78
1070
     8
1070
   345
1005
16
1070
   346
1005
14
1002
}
  0
ARC
  5
18A
330
1F
100
AcDbEntity
  8
実線（中）
370
    35
100
AcDbCircle
 10
-3.946895503356572
 20
31.50000000000007
 30
0.0
 40
1.75
100
AcDbArc
 50
90.0
 51
270.0
  0
ARC
  5
18B
330
1F
100
AcDbEntity
  8
実線（中）
370
    35
100
AcDbCircle
 10
-1.646895503356575
 20
31.50000000000007
 30
0.0
 40
1.75
100
AcDbArc
 50
270.0
 51
90.0
  0
LINE
  5
18C
330
1F
100
AcDbEntity
  8
実線（中）
370
    35
100
AcDbLine
 10
-1.646895503356575
 20
33.25000000000007
 30
0.0
 11
-3.946895503356572
 21
33.25000000000007
 31
0.0
  0
LINE
  5
18D
330
1F
100
AcDbEntity
  8
実線（中）
370
    35
100
AcDbLine
 10
-1.646895503356575
 20
29.75000000000007
 30
0.0
 11
-3.946895503356572
 21
29.75000000000007
 31
0.0
  0
ARC
  5
18E
330
1F
100
AcDbEntity
  8
実線（中）
370
    35
100
AcDbCircle
 10
-3.946895503356572
 20
24.00000000000007
 30
0.0
 40
1.75
100
AcDbArc
 50
90.0
 51
270.0
  0
ARC
  5
18F
330
1F
100
AcDbEntity
  8
実線（中）
370
    35
100
AcDbCircle
 10
-1.646895503356575
 20
24.00000000000007
 30
0.0
 40
1.75
100
AcDbArc
 50
270.0
 51
90.0
  0
LINE
  5
190
330
1F
100
AcDbEntity
  8
実線（中）
370
    35
100
AcDbLine
 10
-1.646895503356575
 20
25.75000000000007
 30
0.0
 11
-3.946895503356572
 21
25.75000000000007
 31
0.0
  0
LINE
  5
191
330
1F
100
AcDbEntity
  8
実線（中）
370
    35
100
AcDbLine
 10
-1.646895503356575
 20
22.25000000000007
 30
0.0
 11
-3.946895503356572
 21
22.25000000000007
 31
0.0
  0
TEXT
  5
193
330
1F
100
AcDbEntity
  8
実線（中）
370
    35
100
AcDbText
 10
0.9448476442302649
 20
31.9992167209491
 30
0.0
 40
2.499999683636886
  1
SPAN
  7
MS Gothic
 11
0.9448476442302649
 21
31.54236577213393
 31
0.0
100
AcDbText
 73
     1
  0
TEXT
  5
194
330
1F
100
AcDbEntity
  8
実線（中）
370
    35
100
AcDbText
 10
0.8952587358896409
 20
24.49930492955422
 30
0.0
 40
2.499999975946933
  1
ZERO
  7
MS Gothic
 11
0.8952587358896409
 21
24.0424539273222
 31
0.0
100
AcDbText
 73
     1
  0
TEXT
  5
195
330
1F
100
AcDbEntity
  8
実線（中）
370
    35
100
AcDbText
 10
-9.34154284173524
 20
26.74935345317463
 30
0.0
 40
2.000000184677203
  1
OUT1
  7
MS Gothic
 11
-9.34154284173524
 21
26.38387261412466
 31
0.0
100
AcDbText
 73
     1
  0
LINE
  5
196
330
1F
100
AcDbEntity
  8
実線（中）
370
    35
100
AcDbLine
 10
-7.503104496643402
 20
24.00000000000007
 30
0.0
 11
-6.503104496643402
 21
24.00000000000007
 31
0.0
  0
LINE
  5
197
330
1F
100
AcDbEntity
  8
実線（中）
370
    35
100
AcDbLine
 10
-7.503104496643402
 20
31.50000000000007
 30
0.0
 11
-6.503104496643402
 21
31.50000000000007
 31
0.0
  0
LINE
  5
198
330
1F
100
AcDbEntity
  8
実線（中）
370
    35
100
AcDbLine
 10
-7.503104496643402
 20
31.50000000000007
 30
0.0
 11
-7.503104496643402
 21
29.80000000000008
 31
0.0
  0
LINE
  5
199
330
1F
100
AcDbEntity
  8
実線（中）
370
    35
100
AcDbLine
 10
-7.503104496643402
 20
25.70000000000006
 30
0.0
 11
-7.503104496643402
 21
24.00000000000007
 31
0.0
  0
CIRCLE
  5
19A
330
1F
100
AcDbEntity
  8
実線（中）
370
    35
100
AcDbCircle
 10
-2.796895503356581
 20
31.50000000000007
 30
0.0
 40
0.89
  0
CIRCLE
  5
19B
330
1F
100
AcDbEntity
  8
実線（中）
370
    35
100
AcDbCircle
 10
-2.796895503356581
 20
24.00000000000007
 30
0.0
 40
0.89
  0
TEXT
  5
19C
330
1F
100
AcDbEntity
  8
実線（中）
370
    35
100
AcDbText
 10
64.35542609728648
 20
22.40756184823175
 30
0.0
 40
4.50000084818517
  1
定格ラベル
  7
MS PGothic
 11
64.35542609728648
 21
21.48710712928478
 31
0.0
100
AcDbText
 73
     1
  0
TEXT
  5
19D
330
1F
100
AcDbEntity
  8
実線（中）
370
    35
100
AcDbText
 10
64.38099427910467
 20
-17.60523999460683
 30
0.0
 40
4.50000023178068
  1
端子ラベル
  7
MS PGothic
 11
64.38099427910467
 21
-18.52569458747107
 31
0.0
100
AcDbText
 73
     1
  0
LINE
  5
19E
330
1F
100
AcDbEntity
  8
実線（中）
370
    35
100
AcDbLine
 10
-8.589999999999975
 20
-15.31999999999998
 30
0.0
 11
8.81000000000003
 21
-15.31999999999998
 31
0.0
  0
LINE
  5
19F
330
1F
100
AcDbEntity
  8
実線（中）
370
    35
100
AcDbLine
 10
-8.589999999999975
 20
-15.31999999999998
 30
0.0
 11
-8.589999999999975
 21
-24.91999999999997
 31
0.0
  0
LINE
  5
1A0
330
1F
100
AcDbEntity
  8
実線（中）
370
    35
100
AcDbLine
 10
-8.589999999999975
 20
-24.91999999999997
 30
0.0
 11
8.81000000000003
 21
-24.91999999999997
 31
0.0
  0
LINE
  5
1A1
330
1F
100
AcDbEntity
  8
実線（中）
370
    35
100
AcDbLine
 10
8.81000000000003
 20
-24.91999999999997
 30
0.0
 11
8.81000000000003
 21
-15.31999999999998
 31
0.0
  0
LINE
  5
1A2
330
1F
100
AcDbEntity
  8
実線（中）
370
    35
100
AcDbLine
 10
-8.589999999999975
 20
-28.91999999999997
 30
0.0
 11
8.810000000000016
 21
-28.91999999999997
 31
0.0
  0
LINE
  5
1A3
330
1F
100
AcDbEntity
  8
実線（中）
370
    35
100
AcDbLine
 10
8.810000000000016
 20
-28.91999999999997
 30
0.0
 11
8.810000000000016
 21
-35.41999999999997
 31
0.0
  0
LINE
  5
1A4
330
1F
100
AcDbEntity
  8
実線（中）
370
    35
100
AcDbLine
 10
8.810000000000016
 20
-35.41999999999997
 30
0.0
 11
-8.589999999999982
 21
-35.41999999999997
 31
0.0
  0
LINE
  5
1A5
330
1F
100
AcDbEntity
  8
実線（中）
370
    35
100
AcDbLine
 10
-8.589999999999982
 20
-35.41999999999997
 30
0.0
 11
-8.589999999999982
 21
-28.91999999999997
 31
0.0
  0
LINE
  5
1A6
330
1F
100
AcDbEntity
  8
実線（中）
370
    35
100
AcDbLine
 10
-8.589999999999975
 20
-20.11999999999998
 30
0.0
 11
8.81000000000003
 21
-20.11999999999999
 31
0.0
  0
TEXT
  5
1A7
330
1F
100
AcDbEntity
  8
実線（中）
370
    35
100
AcDbText
 10
-5.820974115293218
 20
-14.57010483961116
 30
0.0
 40
2.499999610934916
  1
MODEL
  7
MS PGothic
 11
-5.820974115293218
 21
-15.0814683963933
 31
0.0
100
AcDbText
 73
     1
  0
TEXT
  5
1A8
330
1F
100
AcDbEntity
  8
実線（中）
370
    35
100
AcDbText
 10
-6.67254345379515
 20
-28.17041292594671
 30
0.0
 40
2.499999697359201
  1
TAG NO.
  7
MS PGothic
 11
-6.67254345379515
 21
-28.68177650040654
 31
0.0
100
AcDbText
 73
     1
  0
TEXT
  5
1A9
330
1F
100
AcDbEntity
  8
実線（中）
370
    35
100
AcDbText
 10
-4.327914217831662
 20
-18.97045648652067
 30
0.0
 40
2.499999901948923
  1
WSP-
  7
MS PGothic
 11
-4.327914217831662
 21
-19.48182010282841
 31
0.0
100
AcDbText
 73
     1
  0
LINE
  5
1AA
330
1F
100
AcDbEntity
  8
実線（中）
370
    35
100
AcDbLine
 10
-3.686895503356581
 20
31.50000000000007
 30
0.0
 11
-1.90689550335658
 21
31.50000000000007
 31
0.0
  0
LINE
  5
1AB
330
1F
100
AcDbEntity
  8
実線（中）
370
    35
100
AcDbLine
 10
-3.686895503356581
 20
24.00000000000007
 30
0.0
 11
-1.90689550335658
 21
24.00000000000007
 31
0.0
  0
TEXT
  5
1AC
330
1F
100
AcDbEntity
  8
寸法線
 62
     7
370
    35
100
AcDbText
 10
196.2644369997438
 20
26.97928269640585
 30
0.0
 40
4.500003313509691
  1
2-長穴
  7
MS PGothic
 11
196.2644369997438
 21
26.05882747318796
 31
0.0
100
AcDbText
 73
     1
  0
TEXT
  5
1AD
330
1F
100
AcDbEntity
  8
寸法線
 62
     7
370
    35
100
AcDbText
 10
191.6644854554146
 20
18.94237404754156
 30
0.0
 40
4.499999717396374
  1
φ4.2×5
  7
MS PGothic
 11
191.6644854554146
 21
18.0219195598923
 31
0.0
100
AcDbText
 73
     1
  0
LINE
  5
1AE
330
1F
100
AcDbEntity
  8
一点鎖線
 62
     7
370
    35
100
AcDbLine
 10
243.0684494419096
 20
-33.01461767123259
 30
0.0
 11
243.0684494419096
 21
-23.01461767123259
 31
0.0
  0
LINE
  5
1AF
330
1F
100
AcDbEntity
  8
実線（中）
 62
     7
370
    35
100
AcDbLine
 10
239.5684494419096
 20
-34.51461767123259
 30
0.0
 11
239.5684494419096
 21
-12.51461767123257
 31
0.0
  0
LINE
  5
1B0
330
1F
100
AcDbEntity
  8
実線（中）
 62
     7
370
    35
100
AcDbLine
 10
238.5684494419096
 20
-34.51461767123259
 30
0.0
 11
238.5684494419096
 21
-14.51461767123257
 31
0.0
  0
LINE
  5
1B1
330
1F
100
AcDbEntity
  8
実線（中）
 62
     7
370
    35
100
AcDbLine
 10
232.5684494419096
 20
-34.51461767123259
 30
0.0
 11
232.5684494419096
 21
-14.51461767123257
 31
0.0
  0
LINE
  5
1B2
330
1F
100
AcDbEntity
  8
実線（中）
 62
     7
370
    35
100
AcDbLine
 10
225.5684494419096
 20
-34.51461767123259
 30
0.0
 11
225.5684494419096
 21
-14.51461767123257
 31
0.0
  0
LINE
  5
1B3
330
1F
100
AcDbEntity
  8
実線（中）
 62
     7
370
    35
100
AcDbLine
 10
231.5684494419096
 20
-34.51461767123259
 30
0.0
 11
231.5684494419096
 21
-12.51461767123257
 31
0.0
  0
DIMENSION
  5
1BA
330
1F
100
AcDbEntity
  8
寸法線
  6
Continuous
 62
     7
370
    35
100
AcDbDimension
  2
*D9
 10
270.5684494419096
 20
-34.51461767123259
 30
0.0
 11
265.2972757263182
 21
1.485382328767486
 31
0.0
 70
    32
 71
     5
 42
-1.0
 73
     0
 74
     0
 75
     0
  3
Standard
100
AcDbAlignedDimension
 13
246.5684494419096
 23
37.48538232876743
 33
0.0
 14
245.9584494419096
 24
-34.51461767123259
 34
0.0
 50
90.0
100
AcDbRotatedDimension
1001
ACAD
1000
DSTYLE
1002
{
1070
    41
1040
3.0
1070
   289
1070
     1
1070
   342
1005
1B4
1070
   271
1070
     2
1070
    44
1040
1.0
1070
    42
1040
1.0
1070
   147
1040
2.0
1070
   372
1070
     0
1070
    77
1070
     1
1070
   272
1070
     2
1070
    73
1070
     0
1070
   174
1070
     1
1070
   172
1070
     1
1070
    74
1070
     0
1070
   340
1005
76
1070
   140
1040
4.499999539144134
1070
   284
1070
     8
1070
    78
1070
     8
1070
   345
1005
16
1070
   346
1005
14
1002
}
  0
LINE
  5
1C4
330
1F
100
AcDbEntity
  8
実線（中）
 62
     7
370
    35
100
AcDbLine
 10
246.5684494419096
 20
-33.92461767123255
 30
0.0
 11
246.5684494419096
 21
37.48538232876743
 31
0.0
  0
LINE
  5
1C5
330
1F
100
AcDbEntity
  8
実線（中）
 62
     7
370
    35
100
AcDbLine
 10
224.5684494419096
 20
-34.51461767123259
 30
0.0
 11
224.5684494419096
 21
36.88538232876743
 31
0.0
  0
DIMENSION
  5
1C6
330
1F
100
AcDbEntity
  8
寸法線
  6
Continuous
 62
     7
370
    35
100
AcDbDimension
  2
*D10
 10
243.0684494419096
 20
-53.51461767123257
 30
0.0
 11
235.5684494419096
 21
-48.24139021800079
 31
0.0
 70
    32
 71
     5
 42
-1.0
 73
     0
 74
     0
 75
     0
  3
Standard
100
AcDbAlignedDimension
 13
228.0684494419096
 23
25.98538232876743
 33
0.0
 14
243.0684494419096
 24
-33.01461767123259
 34
0.0
100
AcDbRotatedDimension
1001
ACAD
1000
DSTYLE
1002
{
1070
    41
1040
3.0
1070
   289
1070
     1
1070
   342
1005
1B4
1070
   271
1070
     2
1070
    44
1040
1.0
1070
    42
1040
1.0
1070
   147
1040
2.0
1070
   372
1070
     0
1070
    77
1070
     1
1070
   272
1070
     2
1070
    73
1070
     0
1070
   174
1070
     1
1070
   172
1070
     1
1070
    74
1070
     0
1070
   340
1005
76
1070
   140
1040
4.500002843146413
1070
   284
1070
     8
1070
    78
1070
     8
1070
   345
1005
16
1070
   346
1005
14
1002
}
  0
DIMENSION
  5
1D0
330
1F
100
AcDbEntity
  8
寸法線
  6
Continuous
 62
     7
370
    35
100
AcDbDimension
  2
*D11
 10
246.5684494419096
 20
-63.51461767123257
 30
0.0
 11
235.5684494419096
 21
-58.24271248744049
 31
0.0
 70
    32
  1
23
 71
     5
 42
-1.0
 73
     0
 74
     0
 75
     0
  3
Standard
100
AcDbAlignedDimension
 13
224.5684494419096
 23
-34.51461767123259
 33
0.0
 14
246.5684494419096
 24
-33.92461767123255
 34
0.0
100
AcDbRotatedDimension
1001
ACAD
1000
DSTYLE
1002
{
1070
    41
1040
3.0
1070
   289
1070
     1
1070
   342
1005
1B4
1070
   271
1070
     2
1070
    44
1040
1.0
1070
    42
1040
1.0
1070
   147
1040
2.0
1070
   372
1070
     0
1070
    77
1070
     1
1070
   272
1070
     2
1070
   146
1040
0.5
1070
    73
1070
     0
1070
   174
1070
     1
1070
   172
1070
     1
1070
    74
1070
     0
1070
   283
1070
     0
1070
   340
1005
76
1070
   140
1040
4.499993467403955
1070
   284
1070
     3
1070
    78
1070
     8
1070
   345
1005
16
1070
   346
1005
14
1002
}
  0
LINE
  5
1DA
330
1F
100
AcDbEntity
  8
実線（中）
370
    35
100
AcDbLine
 10
237.0615844419096
 20
-28.09926367123258
 30
0.0
 11
238.0266174419096
 21
-28.09926367123258
 31
0.0
  0
LINE
  5
1DB
330
1F
100
AcDbEntity
  8
実線（中）
370
    35
100
AcDbLine
 10
237.0615844419096
 20
-28.93259667123259
 30
0.0
 11
238.0266174419096
 21
-28.93259667123259
 31
0.0
  0
LINE
  5
1DC
330
1F
100
AcDbEntity
  8
実線（中）
 62
     7
370
    35
100
AcDbLine
 10
231.5646494419096
 20
-25.51461767123259
 30
0.0
 11
238.5684494419096
 21
-25.51461767123259
 31
0.0
  0
LINE
  5
1DD
330
1F
100
AcDbEntity
  8
実線（中）
 62
     7
370
    35
100
AcDbLine
 10
232.5684494419096
 20
-31.51461767123259
 30
0.0
 11
238.5684494419096
 21
-31.51461767123259
 31
0.0
  0
LINE
  5
1DE
330
1F
100
AcDbEntity
  8
実線（中）
 62
     7
370
    35
100
AcDbLine
 10
232.5684494419096
 20
-32.51461767123259
 30
0.0
 11
238.5684494419096
 21
-32.51461767123259
 31
0.0
  0
LINE
  5
1DF
330
1F
100
AcDbEntity
  8
実線（中）
 62
     7
370
    35
100
AcDbLine
 10
224.5684494419096
 20
-34.51461767123259
 30
0.0
 11
245.9584494419096
 21
-34.51461767123259
 31
0.0
  0
CIRCLE
  5
1E0
330
1F
100
AcDbEntity
  8
実線（中）
370
    35
100
AcDbCircle
 10
235.5615844419096
 20
-28.51593067123257
 30
0.0
 40
2.5
  0
LINE
  5
1E1
330
1F
100
AcDbEntity
  8
実線（中）
 62
     7
370
    35
100
AcDbLine
 10
236.4071494419096
 20
-36.51461767123259
 30
0.0
 11
236.4071494419096
 21
-34.51461767123259
 31
0.0
  0
LINE
  5
1E2
330
1F
100
AcDbEntity
  8
実線（中）
 62
     7
370
    35
100
AcDbLine
 10
226.4071494419096
 20
-36.51461767123259
 30
0.0
 11
226.4071494419096
 21
-34.51461767123259
 31
0.0
  0
ARC
  5
1E3
330
1F
100
AcDbEntity
  8
実線（中）
 62
     7
370
    35
100
AcDbCircle
 10
231.4071494419096
 20
-35.00561767123257
 30
0.0
 40
2.509
100
AcDbArc
 50
184.7788150000002
 51
355.2211849999998
  0
LINE
  5
1E4
330
1F
100
AcDbEntity
  8
実線（中）
 62
     7
370
    35
100
AcDbLine
 10
228.9365494419096
 20
-38.51461767123259
 30
0.0
 11
233.9071494419096
 21
-38.51461767123259
 31
0.0
  0
LINE
  5
1E5
330
1F
100
AcDbEntity
  8
実線（中）
 62
     7
370
    35
100
AcDbLine
 10
226.4129494419096
 20
-36.53771767123258
 30
0.0
 11
228.9365494419096
 21
-38.51461767123259
 31
0.0
  0
LINE
  5
1E6
330
1F
100
AcDbEntity
  8
実線（中）
 62
     7
370
    35
100
AcDbLine
 10
233.9071494419096
 20
-38.50431767123256
 30
0.0
 11
236.4071494419096
 21
-36.49501767123256
 31
0.0
  0
LINE
  5
1E7
330
1F
100
AcDbEntity
  8
実線（中）
370
    35
100
AcDbLine
 10
230.0615844419096
 20
-28.09926367123258
 30
0.0
 11
229.7282514419096
 21
-28.09926367123258
 31
0.0
  0
LINE
  5
1E8
330
1F
100
AcDbEntity
  8
実線（中）
370
    35
100
AcDbLine
 10
230.0615844419096
 20
-28.93259667123259
 30
0.0
 11
229.7282514419096
 21
-28.93259667123259
 31
0.0
  0
LINE
  5
1E9
330
1F
100
AcDbEntity
  8
実線（中）
 62
     7
370
    35
100
AcDbLine
 10
225.5684494419096
 20
-25.51461767123259
 30
0.0
 11
231.5684494419096
 21
-25.51461767123259
 31
0.0
  0
LINE
  5
1EA
330
1F
100
AcDbEntity
  8
実線（中）
 62
     7
370
    35
100
AcDbLine
 10
225.5684494419096
 20
-31.51461767123259
 30
0.0
 11
231.5684494419096
 21
-31.51461767123259
 31
0.0
  0
LINE
  5
1EB
330
1F
100
AcDbEntity
  8
実線（中）
 62
     7
370
    35
100
AcDbLine
 10
225.5684494419096
 20
-32.51461767123259
 30
0.0
 11
231.5684494419096
 21
-32.51461767123259
 31
0.0
  0
CIRCLE
  5
1EC
330
1F
100
AcDbEntity
  8
実線（中）
370
    35
100
AcDbCircle
 10
228.5615844419096
 20
-28.51593067123257
 30
0.0
 40
2.5
  0
LINE
  5
1ED
330
1F
100
AcDbEntity
  8
実線（中）
370
    35
100
AcDbLine
 10
228.1449174419096
 20
-30.01593067123257
 30
0.0
 11
228.1449174419096
 21
-29.68259667123259
 31
0.0
  0
LINE
  5
1EE
330
1F
100
AcDbEntity
  8
実線（中）
370
    35
100
AcDbLine
 10
228.9782514419096
 20
-30.01593067123257
 30
0.0
 11
228.9782514419096
 21
-29.68259667123259
 31
0.0
  0
ARC
  5
1EF
330
1F
100
AcDbEntity
  8
実線（中）
370
    35
100
AcDbCircle
 10
228.3115844419096
 20
-30.01593067123257
 30
0.0
 40
0.166667
100
AcDbArc
 50
180.0
 51
270.0
  0
ARC
  5
1F0
330
1F
100
AcDbEntity
  8
実線（中）
370
    35
100
AcDbCircle
 10
228.8115844419096
 20
-30.01593067123257
 30
0.0
 40
0.166667
100
AcDbArc
 50
270.0
 51
0.0
  0
LINE
  5
1F1
330
1F
100
AcDbEntity
  8
実線（中）
370
    35
100
AcDbLine
 10
228.8115844419096
 20
-30.18259667123259
 30
0.0
 11
228.3115844419096
 21
-30.18259667123259
 31
0.0
  0
LINE
  5
1F2
330
1F
100
AcDbEntity
  8
実線（中）
 62
     7
370
    35
100
AcDbLine
 10
227.9071494419096
 20
-35.21461767123257
 30
0.0
 11
228.9071494419096
 21
-35.21461767123257
 31
0.0
  0
LINE
  5
1F3
330
1F
100
AcDbEntity
  8
実線（中）
 62
     7
370
    35
100
AcDbLine
 10
227.9071494419096
 20
-35.21461767123257
 30
0.0
 11
227.9071494419096
 21
-34.51461767123259
 31
0.0
  0
LINE
  5
1F4
330
1F
100
AcDbEntity
  8
実線（中）
370
    35
100
AcDbLine
 10
228.1449174419096
 20
-27.01593067123257
 30
0.0
 11
228.1449174419096
 21
-27.34926367123258
 31
0.0
  0
LINE
  5
1F5
330
1F
100
AcDbEntity
  8
実線（中）
370
    35
100
AcDbLine
 10
228.9782514419096
 20
-27.01593067123257
 30
0.0
 11
228.9782514419096
 21
-27.34926367123258
 31
0.0
  0
LINE
  5
1F6
330
1F
100
AcDbEntity
  8
実線（中）
370
    35
100
AcDbLine
 10
228.8115844419096
 20
-26.84926367123258
 30
0.0
 11
228.3115844419096
 21
-26.84926367123258
 31
0.0
  0
ARC
  5
1F7
330
1F
100
AcDbEntity
  8
実線（中）
370
    35
100
AcDbCircle
 10
228.3115844419096
 20
-27.01593067123257
 30
0.0
 40
0.166667
100
AcDbArc
 50
90.0
 51
180.0
  0
ARC
  5
1F8
330
1F
100
AcDbEntity
  8
実線（中）
370
    35
100
AcDbCircle
 10
228.8115844419096
 20
-27.01593067123257
 30
0.0
 40
0.166667
100
AcDbArc
 50
0.0
 51
90.0
  0
ARC
  5
1F9
330
1F
100
AcDbEntity
  8
実線（中）
370
    35
100
AcDbCircle
 10
227.3949174419096
 20
-27.34926367123258
 30
0.0
 40
0.75
100
AcDbArc
 50
270.0
 51
0.0
  0
LINE
  5
1FA
330
1F
100
AcDbEntity
  8
実線（中）
370
    35
100
AcDbLine
 10
227.0615844419096
 20
-28.09926367123258
 30
0.0
 11
226.0965514419096
 21
-28.09926367123258
 31
0.0
  0
LINE
  5
1FB
330
1F
100
AcDbEntity
  8
実線（中）
370
    35
100
AcDbLine
 10
227.0615844419096
 20
-28.93259667123259
 30
0.0
 11
226.0965514419096
 21
-28.93259667123259
 31
0.0
  0
LINE
  5
1FC
330
1F
100
AcDbEntity
  8
実線（中）
370
    35
100
AcDbLine
 10
226.8949174419096
 20
-28.76593067123257
 30
0.0
 11
226.8949174419096
 21
-28.26593067123257
 31
0.0
  0
ARC
  5
1FD
330
1F
100
AcDbEntity
  8
実線（中）
370
    35
100
AcDbCircle
 10
227.0615844419096
 20
-28.26593067123257
 30
0.0
 40
0.166667
100
AcDbArc
 50
90.0
 51
180.0
  0
ARC
  5
1FE
330
1F
100
AcDbEntity
  8
実線（中）
370
    35
100
AcDbCircle
 10
227.0615844419096
 20
-28.76593067123257
 30
0.0
 40
0.166667
100
AcDbArc
 50
180.0
 51
270.0
  0
LINE
  5
1FF
330
1F
100
AcDbEntity
  8
実線（中）
370
    35
100
AcDbLine
 10
227.0615844419096
 20
-28.93259667123259
 30
0.0
 11
227.3949174419096
 21
-28.93259667123259
 31
0.0
  0
LINE
  5
200
330
1F
100
AcDbEntity
  8
実線（中）
370
    35
100
AcDbLine
 10
227.0615844419096
 20
-28.09926367123258
 30
0.0
 11
227.3949174419096
 21
-28.09926367123258
 31
0.0
  0
ARC
  5
201
330
1F
100
AcDbEntity
  8
実線（中）
370
    35
100
AcDbCircle
 10
229.7282514419096
 20
-27.34926367123258
 30
0.0
 40
0.75
100
AcDbArc
 50
180.0
 51
270.0
  0
ARC
  5
202
330
1F
100
AcDbEntity
  8
実線（中）
370
    35
100
AcDbCircle
 10
229.7282514419096
 20
-29.68259667123259
 30
0.0
 40
0.75
100
AcDbArc
 50
90.0
 51
180.0
  0
ARC
  5
203
330
1F
100
AcDbEntity
  8
実線（中）
370
    35
100
AcDbCircle
 10
227.3949174419096
 20
-29.68259667123259
 30
0.0
 40
0.75
100
AcDbArc
 50
0.0
 51
90.0
  0
LINE
  5
204
330
1F
100
AcDbEntity
  8
実線（中）
370
    35
100
AcDbLine
 10
235.9782514419096
 20
-30.01593067123257
 30
0.0
 11
235.9782514419096
 21
-29.68259667123259
 31
0.0
  0
LINE
  5
205
330
1F
100
AcDbEntity
  8
実線（中）
370
    35
100
AcDbLine
 10
235.1449174419096
 20
-30.01593067123257
 30
0.0
 11
235.1449174419096
 21
-29.68259667123259
 31
0.0
  0
ARC
  5
206
330
1F
100
AcDbEntity
  8
実線（中）
370
    35
100
AcDbCircle
 10
235.8115844419096
 20
-30.01593067123257
 30
0.0
 40
0.166667
100
AcDbArc
 50
270.0
 51
0.0
  0
ARC
  5
207
330
1F
100
AcDbEntity
  8
実線（中）
370
    35
100
AcDbCircle
 10
235.3115844419096
 20
-30.01593067123257
 30
0.0
 40
0.166667
100
AcDbArc
 50
180.0
 51
270.0
  0
LINE
  5
208
330
1F
100
AcDbEntity
  8
実線（中）
370
    35
100
AcDbLine
 10
235.8115844419096
 20
-30.18259667123259
 30
0.0
 11
235.3115844419096
 21
-30.18259667123259
 31
0.0
  0
LINE
  5
209
330
1F
100
AcDbEntity
  8
実線（中）
 62
     7
370
    35
100
AcDbLine
 10
234.9071494419096
 20
-35.21461767123257
 30
0.0
 11
234.9071494419096
 21
-34.51461767123259
 31
0.0
  0
LINE
  5
20A
330
1F
100
AcDbEntity
  8
実線（中）
 62
     7
370
    35
100
AcDbLine
 10
233.9071494419096
 20
-35.21461767123257
 30
0.0
 11
234.9071494419096
 21
-35.21461767123257
 31
0.0
  0
LINE
  5
20B
330
1F
100
AcDbEntity
  8
実線（中）
370
    35
100
AcDbLine
 10
234.0615844419096
 20
-28.93259667123259
 30
0.0
 11
233.0965514419096
 21
-28.93259667123259
 31
0.0
  0
LINE
  5
20C
330
1F
100
AcDbEntity
  8
実線（中）
370
    35
100
AcDbLine
 10
234.0615844419096
 20
-28.09926367123258
 30
0.0
 11
233.0965514419096
 21
-28.09926367123258
 31
0.0
  0
LINE
  5
20D
330
1F
100
AcDbEntity
  8
実線（中）
370
    35
100
AcDbLine
 10
230.0615844419096
 20
-28.93259667123259
 30
0.0
 11
231.0266174419096
 21
-28.93259667123259
 31
0.0
  0
LINE
  5
20E
330
1F
100
AcDbEntity
  8
実線（中）
370
    35
100
AcDbLine
 10
230.0615844419096
 20
-28.09926367123258
 30
0.0
 11
231.0266174419096
 21
-28.09926367123258
 31
0.0
  0
LINE
  5
20F
330
1F
100
AcDbEntity
  8
実線（中）
370
    35
100
AcDbLine
 10
230.2282514419096
 20
-28.76593067123257
 30
0.0
 11
230.2282514419096
 21
-28.26593067123257
 31
0.0
  0
ARC
  5
210
330
1F
100
AcDbEntity
  8
実線（中）
370
    35
100
AcDbCircle
 10
230.0615844419096
 20
-28.76593067123257
 30
0.0
 40
0.166667
100
AcDbArc
 50
270.0
 51
0.0
  0
ARC
  5
211
330
1F
100
AcDbEntity
  8
実線（中）
370
    35
100
AcDbCircle
 10
230.0615844419096
 20
-28.26593067123257
 30
0.0
 40
0.166667
100
AcDbArc
 50
0.0
 51
90.0
  0
ARC
  5
212
330
1F
100
AcDbEntity
  8
実線（中）
370
    35
100
AcDbCircle
 10
237.0615844419096
 20
-28.26593067123257
 30
0.0
 40
0.166667
100
AcDbArc
 50
0.0
 51
90.0
  0
ARC
  5
213
330
1F
100
AcDbEntity
  8
実線（中）
370
    35
100
AcDbCircle
 10
237.0615844419096
 20
-28.76593067123257
 30
0.0
 40
0.166667
100
AcDbArc
 50
270.0
 51
0.0
  0
LINE
  5
214
330
1F
100
AcDbEntity
  8
実線（中）
370
    35
100
AcDbLine
 10
237.2282514419096
 20
-28.76593067123257
 30
0.0
 11
237.2282514419096
 21
-28.26593067123257
 31
0.0
  0
LINE
  5
215
330
1F
100
AcDbEntity
  8
実線（中）
370
    35
100
AcDbLine
 10
237.0615844419096
 20
-28.93259667123259
 30
0.0
 11
236.7282514419096
 21
-28.93259667123259
 31
0.0
  0
LINE
  5
216
330
1F
100
AcDbEntity
  8
実線（中）
370
    35
100
AcDbLine
 10
237.0615844419096
 20
-28.09926367123258
 30
0.0
 11
236.7282514419096
 21
-28.09926367123258
 31
0.0
  0
ARC
  5
217
330
1F
100
AcDbEntity
  8
実線（中）
370
    35
100
AcDbCircle
 10
235.8115844419096
 20
-27.01593067123257
 30
0.0
 40
0.166667
100
AcDbArc
 50
0.0
 51
90.0
  0
LINE
  5
218
330
1F
100
AcDbEntity
  8
実線（中）
370
    35
100
AcDbLine
 10
235.9782514419096
 20
-27.01593067123257
 30
0.0
 11
235.9782514419096
 21
-27.34926367123258
 31
0.0
  0
ARC
  5
219
330
1F
100
AcDbEntity
  8
実線（中）
370
    35
100
AcDbCircle
 10
236.7282514419096
 20
-27.34926367123258
 30
0.0
 40
0.75
100
AcDbArc
 50
180.0
 51
270.0
  0
ARC
  5
21A
330
1F
100
AcDbEntity
  8
実線（中）
370
    35
100
AcDbCircle
 10
234.3949174419096
 20
-27.34926367123258
 30
0.0
 40
0.75
100
AcDbArc
 50
270.0
 51
0.0
  0
ARC
  5
21B
330
1F
100
AcDbEntity
  8
実線（中）
370
    35
100
AcDbCircle
 10
234.0615844419096
 20
-28.76593067123257
 30
0.0
 40
0.166667
100
AcDbArc
 50
180.0
 51
270.0
  0
ARC
  5
21C
330
1F
100
AcDbEntity
  8
実線（中）
370
    35
100
AcDbCircle
 10
234.0615844419096
 20
-28.26593067123257
 30
0.0
 40
0.166667
100
AcDbArc
 50
90.0
 51
180.0
  0
LINE
  5
21D
330
1F
100
AcDbEntity
  8
実線（中）
370
    35
100
AcDbLine
 10
233.8949174419096
 20
-28.76593067123257
 30
0.0
 11
233.8949174419096
 21
-28.26593067123257
 31
0.0
  0
LINE
  5
21E
330
1F
100
AcDbEntity
  8
実線（中）
370
    35
100
AcDbLine
 10
234.0615844419096
 20
-28.09926367123258
 30
0.0
 11
234.3949174419096
 21
-28.09926367123258
 31
0.0
  0
LINE
  5
21F
330
1F
100
AcDbEntity
  8
実線（中）
370
    35
100
AcDbLine
 10
234.0615844419096
 20
-28.93259667123259
 30
0.0
 11
234.3949174419096
 21
-28.93259667123259
 31
0.0
  0
ARC
  5
220
330
1F
100
AcDbEntity
  8
実線（中）
370
    35
100
AcDbCircle
 10
235.3115844419096
 20
-27.01593067123257
 30
0.0
 40
0.166667
100
AcDbArc
 50
90.0
 51
180.0
  0
LINE
  5
221
330
1F
100
AcDbEntity
  8
実線（中）
370
    35
100
AcDbLine
 10
235.1449174419096
 20
-27.01593067123257
 30
0.0
 11
235.1449174419096
 21
-27.34926367123258
 31
0.0
  0
LINE
  5
222
330
1F
100
AcDbEntity
  8
実線（中）
370
    35
100
AcDbLine
 10
235.8115844419096
 20
-26.84926367123258
 30
0.0
 11
235.3115844419096
 21
-26.84926367123258
 31
0.0
  0
ARC
  5
223
330
1F
100
AcDbEntity
  8
実線（中）
370
    35
100
AcDbCircle
 10
236.7282514419096
 20
-29.68259667123259
 30
0.0
 40
0.75
100
AcDbArc
 50
90.0
 51
180.0
  0
ARC
  5
224
330
1F
100
AcDbEntity
  8
実線（中）
370
    35
100
AcDbCircle
 10
234.3949174419096
 20
-29.68259667123259
 30
0.0
 40
0.75
100
AcDbArc
 50
0.0
 51
90.0
  0
LINE
  5
225
330
1F
100
AcDbEntity
  8
一点鎖線
 62
     7
370
    35
100
AcDbLine
 10
238.0684494419096
 20
-28.01461767123259
 30
0.0
 11
248.0684494419096
 21
-28.01461767123259
 31
0.0
  0
LINE
  5
226
330
1F
100
AcDbEntity
  8
実線（中）
 62
     7
370
    35
100
AcDbLine
 10
245.9584494419096
 20
-34.51461767123259
 30
0.0
 11
246.5684494419096
 21
-33.92461767123255
 31
0.0
  0
ARC
  5
227
330
1F
100
AcDbEntity
  8
実線（中）
 62
     7
370
    35
100
AcDbCircle
 10
243.0684494419096
 20
-28.81461767123257
 30
0.0
 40
2.1
100
AcDbArc
 50
180.0
 51
0.0
  0
ARC
  5
228
330
1F
100
AcDbEntity
  8
実線（中）
 62
     7
370
    35
100
AcDbCircle
 10
243.0684494419096
 20
-27.21461767123257
 30
0.0
 40
2.1
100
AcDbArc
 50
0.0
 51
180.0
  0
LINE
  5
229
330
1F
100
AcDbEntity
  8
実線（中）
 62
     7
370
    35
100
AcDbLine
 10
240.9684494419096
 20
-28.81461767123257
 30
0.0
 11
240.9684494419096
 21
-27.21461767123257
 31
0.0
  0
LINE
  5
22A
330
1F
100
AcDbEntity
  8
実線（中）
 62
     7
370
    35
100
AcDbLine
 10
245.1684494419096
 20
-28.81461767123257
 30
0.0
 11
245.1684494419096
 21
-27.21461767123257
 31
0.0
  0
LWPOLYLINE
  5
22B
330
1F
100
AcDbEntity
  8
寸法線
  6
Continuous
 62
     7
370
    35
100
AcDbPolyline
 90
        3
 70
     0
 43
0.0
 10
226.6660111445583
 20
30.46230230054135
 10
226.9394414419096
 20
33.55607132876742
 10
225.155759344126
 20
31.01350390555777
  0
LWPOLYLINE
  5
22C
330
1F
100
AcDbEntity
  8
寸法線
  6
Continuous
 62
     7
370
    35
100
AcDbPolyline
 90
        3
 70
     0
 43
0.0
 10
226.9394414419096
 20
33.55607132876742
 10
220.5684494419096
 20
16.10002248752167
 10
217.5684494419096
 20
16.10002248752167
  0
LINE
  5
22D
330
1F
100
AcDbEntity
  8
寸法線
 62
     7
370
    35
100
AcDbLine
 10
217.5684494419096
 20
16.10002248752167
 30
0.0
 11
194.9940309099601
 21
16.10002248752168
 31
0.0
  0
CIRCLE
  5
22E
330
1F
100
AcDbEntity
  8
実線（中）
370
    35
100
AcDbCircle
 10
242.5615844419096
 20
22.48406932876742
 30
0.0
 40
2.5
  0
LINE
  5
22F
330
1F
100
AcDbEntity
  8
実線（中）
370
    35
100
AcDbLine
 10
240.8949174419096
 20
22.23406932876742
 30
0.0
 11
240.8949174419096
 21
22.73406932876742
 31
0.0
  0
LINE
  5
230
330
1F
100
AcDbEntity
  8
実線（中）
370
    35
100
AcDbLine
 10
244.2282514419096
 20
22.23406932876742
 30
0.0
 11
244.2282514419096
 21
22.73406932876742
 31
0.0
  0
LINE
  5
231
330
1F
100
AcDbEntity
  8
実線（中）
 62
     7
370
    35
100
AcDbLine
 10
245.5684494419096
 20
17.48538232876743
 30
0.0
 11
245.5684494419096
 21
37.48538232876743
 31
0.0
  0
LINE
  5
232
330
1F
100
AcDbEntity
  8
実線（中）
 62
     7
370
    35
100
AcDbLine
 10
238.5684494419096
 20
17.48538232876743
 30
0.0
 11
238.5684494419096
 21
37.48538232876743
 31
0.0
  0
LINE
  5
233
330
1F
100
AcDbEntity
  8
実線（中）
370
    35
100
AcDbLine
 10
230.2282514419096
 20
22.23406932876742
 30
0.0
 11
230.2282514419096
 21
22.73406932876742
 31
0.0
  0
LINE
  5
234
330
1F
100
AcDbEntity
  8
実線（中）
 62
     7
370
    35
100
AcDbLine
 10
225.5684494419096
 20
17.48538232876743
 30
0.0
 11
225.5684494419096
 21
26.48538232876743
 31
0.0
  0
LINE
  5
235
330
1F
100
AcDbEntity
  8
実線（中）
370
    35
100
AcDbLine
 10
226.8949174419096
 20
22.23406932876742
 30
0.0
 11
226.8949174419096
 21
22.73406932876742
 31
0.0
  0
CIRCLE
  5
236
330
1F
100
AcDbEntity
  8
実線（中）
370
    35
100
AcDbCircle
 10
228.5615844419096
 20
22.48406932876742
 30
0.0
 40
2.5
  0
LINE
  5
237
330
1F
100
AcDbEntity
  8
実線（中）
 62
     7
370
    35
100
AcDbLine
 10
232.5684494419096
 20
17.48538232876743
 30
0.0
 11
232.5684494419096
 21
37.48538232876743
 31
0.0
  0
LINE
  5
238
330
1F
100
AcDbEntity
  8
実線（中）
 62
     7
370
    35
100
AcDbLine
 10
239.5684494419096
 20
15.50258232876743
 30
0.0
 11
239.5684494419096
 21
37.48538232876743
 31
0.0
  0
LINE
  5
239
330
1F
100
AcDbEntity
  8
実線（中）
 62
     7
370
    35
100
AcDbLine
 10
231.5684494419096
 20
15.50258232876743
 30
0.0
 11
231.5684494419096
 21
37.48538232876743
 31
0.0
  0
LINE
  5
23A
330
1F
100
AcDbEntity
  8
実線（中）
 62
     7
370
    35
100
AcDbLine
 10
225.3684494419096
 20
-12.51461767123257
 30
0.0
 11
225.3684494419096
 21
15.48538232876743
 31
0.0
  0
LINE
  5
23B
330
1F
100
AcDbEntity
  8
実線（中）
 62
     7
370
    35
100
AcDbLine
 10
245.7684494419096
 20
-12.51461767123257
 30
0.0
 11
245.7684494419096
 21
15.48538232876743
 31
0.0
  0
LINE
  5
23C
330
1F
100
AcDbEntity
  8
実線（中）
 62
     7
370
    35
100
AcDbLine
 10
233.0684494419096
 20
-13.84861767123257
 30
0.0
 11
238.0684494419096
 21
-13.84861767123257
 31
0.0
  0
LINE
  5
23D
330
1F
100
AcDbEntity
  8
実線（中）
 62
     7
370
    35
100
AcDbLine
 10
233.0684494419096
 20
-13.18261767123258
 30
0.0
 11
238.0684494419096
 21
-13.18261767123258
 31
0.0
  0
LINE
  5
23E
330
1F
100
AcDbEntity
  8
実線（中）
 62
     7
370
    35
100
AcDbLine
 10
231.6288494419096
 20
-23.51461767123259
 30
0.0
 11
239.6452494419096
 21
-23.51461767123259
 31
0.0
  0
LINE
  5
23F
330
1F
100
AcDbEntity
  8
実線（中）
 62
     7
370
    35
100
AcDbLine
 10
225.4080494419096
 20
-12.51461767123257
 30
0.0
 11
245.7684494419096
 21
-12.51461767123257
 31
0.0
  0
LINE
  5
240
330
1F
100
AcDbEntity
  8
実線（中）
 62
     7
370
    35
100
AcDbLine
 10
225.5684494419096
 20
-14.51461767123257
 30
0.0
 11
245.5684494419096
 21
-14.51461767123257
 31
0.0
  0
LINE
  5
241
330
1F
100
AcDbEntity
  8
実線（中）
 62
     7
370
    35
100
AcDbLine
 10
225.5684494419096
 20
-16.51461767123257
 30
0.0
 11
231.5684494419096
 21
-16.51461767123257
 31
0.0
  0
LINE
  5
242
330
1F
100
AcDbEntity
  8
実線（中）
370
    35
100
AcDbLine
 10
230.0615844419096
 20
-19.93259667123257
 30
0.0
 11
229.7282514419096
 21
-19.93259667123257
 31
0.0
  0
LINE
  5
243
330
1F
100
AcDbEntity
  8
実線（中）
370
    35
100
AcDbLine
 10
230.0615844419096
 20
-19.09926367123258
 30
0.0
 11
229.7282514419096
 21
-19.09926367123258
 31
0.0
  0
LINE
  5
244
330
1F
100
AcDbEntity
  8
実線（中）
 62
     7
370
    35
100
AcDbLine
 10
224.5743494419096
 20
-23.51461767123259
 30
0.0
 11
231.5684494419096
 21
-23.51461767123259
 31
0.0
  0
LINE
  5
245
330
1F
100
AcDbEntity
  8
実線（中）
 62
     7
370
    35
100
AcDbLine
 10
225.5684494419096
 20
-22.51461767123259
 30
0.0
 11
231.5684494419096
 21
-22.51461767123259
 31
0.0
  0
CIRCLE
  5
246
330
1F
100
AcDbEntity
  8
実線（中）
370
    35
100
AcDbCircle
 10
228.5615844419096
 20
-19.51593067123257
 30
0.0
 40
2.5
  0
LINE
  5
247
330
1F
100
AcDbEntity
  8
実線（中）
370
    35
100
AcDbLine
 10
228.9782514419096
 20
-18.01593067123257
 30
0.0
 11
228.9782514419096
 21
-18.34926367123258
 31
0.0
  0
LINE
  5
248
330
1F
100
AcDbEntity
  8
実線（中）
370
    35
100
AcDbLine
 10
228.1449174419096
 20
-18.01593067123257
 30
0.0
 11
228.1449174419096
 21
-18.34926367123258
 31
0.0
  0
ARC
  5
249
330
1F
100
AcDbEntity
  8
実線（中）
370
    35
100
AcDbCircle
 10
227.3949174419096
 20
-18.34926367123258
 30
0.0
 40
0.75
100
AcDbArc
 50
270.0
 51
0.0
  0
LINE
  5
24A
330
1F
100
AcDbEntity
  8
実線（中）
370
    35
100
AcDbLine
 10
228.9782514419096
 20
-21.01593067123257
 30
0.0
 11
228.9782514419096
 21
-20.68259667123257
 31
0.0
  0
LINE
  5
24B
330
1F
100
AcDbEntity
  8
実線（中）
370
    35
100
AcDbLine
 10
228.1449174419096
 20
-21.01593067123257
 30
0.0
 11
228.1449174419096
 21
-20.68259667123257
 31
0.0
  0
ARC
  5
24C
330
1F
100
AcDbEntity
  8
実線（中）
370
    35
100
AcDbCircle
 10
227.3949174419096
 20
-20.68259667123257
 30
0.0
 40
0.75
100
AcDbArc
 50
0.0
 51
90.0
  0
LINE
  5
24D
330
1F
100
AcDbEntity
  8
実線（中）
370
    35
100
AcDbLine
 10
228.8115844419096
 20
-21.18259667123257
 30
0.0
 11
228.3115844419096
 21
-21.18259667123257
 31
0.0
  0
ARC
  5
24E
330
1F
100
AcDbEntity
  8
実線（中）
370
    35
100
AcDbCircle
 10
228.8115844419096
 20
-21.01593067123257
 30
0.0
 40
0.166667
100
AcDbArc
 50
270.0
 51
0.0
  0
ARC
  5
24F
330
1F
100
AcDbEntity
  8
実線（中）
370
    35
100
AcDbCircle
 10
228.3115844419096
 20
-21.01593067123257
 30
0.0
 40
0.166667
100
AcDbArc
 50
180.0
 51
270.0
  0
ARC
  5
250
330
1F
100
AcDbEntity
  8
実線（中）
370
    35
100
AcDbCircle
 10
227.0615844419096
 20
-19.76593067123257
 30
0.0
 40
0.166667
100
AcDbArc
 50
180.0
 51
270.0
  0
ARC
  5
251
330
1F
100
AcDbEntity
  8
実線（中）
370
    35
100
AcDbCircle
 10
227.0615844419096
 20
-19.26593067123257
 30
0.0
 40
0.166667
100
AcDbArc
 50
90.0
 51
180.0
  0
LINE
  5
252
330
1F
100
AcDbEntity
  8
実線（中）
370
    35
100
AcDbLine
 10
226.8949174419096
 20
-19.76593067123257
 30
0.0
 11
226.8949174419096
 21
-19.26593067123257
 31
0.0
  0
LINE
  5
253
330
1F
100
AcDbEntity
  8
実線（中）
370
    35
100
AcDbLine
 10
227.0615844419096
 20
-19.93259667123257
 30
0.0
 11
226.0965514419096
 21
-19.93259667123257
 31
0.0
  0
LINE
  5
254
330
1F
100
AcDbEntity
  8
実線（中）
370
    35
100
AcDbLine
 10
227.0615844419096
 20
-19.09926367123258
 30
0.0
 11
226.0965514419096
 21
-19.09926367123258
 31
0.0
  0
LINE
  5
255
330
1F
100
AcDbEntity
  8
実線（中）
370
    35
100
AcDbLine
 10
227.0615844419096
 20
-19.09926367123258
 30
0.0
 11
227.3949174419096
 21
-19.09926367123258
 31
0.0
  0
LINE
  5
256
330
1F
100
AcDbEntity
  8
実線（中）
370
    35
100
AcDbLine
 10
227.0615844419096
 20
-19.93259667123257
 30
0.0
 11
227.3949174419096
 21
-19.93259667123257
 31
0.0
  0
ARC
  5
257
330
1F
100
AcDbEntity
  8
実線（中）
370
    35
100
AcDbCircle
 10
229.7282514419096
 20
-18.34926367123258
 30
0.0
 40
0.75
100
AcDbArc
 50
180.0
 51
270.0
  0
ARC
  5
258
330
1F
100
AcDbEntity
  8
実線（中）
370
    35
100
AcDbCircle
 10
229.7282514419096
 20
-20.68259667123257
 30
0.0
 40
0.75
100
AcDbArc
 50
90.0
 51
180.0
  0
ARC
  5
259
330
1F
100
AcDbEntity
  8
実線（中）
370
    35
100
AcDbCircle
 10
228.8115844419096
 20
-18.01593067123257
 30
0.0
 40
0.166667
100
AcDbArc
 50
0.0
 51
90.0
  0
ARC
  5
25A
330
1F
100
AcDbEntity
  8
実線（中）
370
    35
100
AcDbCircle
 10
228.3115844419096
 20
-18.01593067123257
 30
0.0
 40
0.166667
100
AcDbArc
 50
90.0
 51
180.0
  0
LINE
  5
25B
330
1F
100
AcDbEntity
  8
実線（中）
370
    35
100
AcDbLine
 10
228.8115844419096
 20
-17.84926367123258
 30
0.0
 11
228.3115844419096
 21
-17.84926367123258
 31
0.0
  0
ARC
  5
25C
330
1F
100
AcDbEntity
  8
実線（中）
370
    35
100
AcDbCircle
 10
230.0615844419096
 20
-19.26593067123257
 30
0.0
 40
0.166667
100
AcDbArc
 50
0.0
 51
90.0
  0
ARC
  5
25D
330
1F
100
AcDbEntity
  8
実線（中）
370
    35
100
AcDbCircle
 10
230.0615844419096
 20
-19.76593067123257
 30
0.0
 40
0.166667
100
AcDbArc
 50
270.0
 51
0.0
  0
LINE
  5
25E
330
1F
100
AcDbEntity
  8
実線（中）
370
    35
100
AcDbLine
 10
230.2282514419096
 20
-19.76593067123257
 30
0.0
 11
230.2282514419096
 21
-19.26593067123257
 31
0.0
  0
LINE
  5
25F
330
1F
100
AcDbEntity
  8
実線（中）
370
    35
100
AcDbLine
 10
230.0615844419096
 20
-19.09926367123258
 30
0.0
 11
231.0266174419096
 21
-19.09926367123258
 31
0.0
  0
LINE
  5
260
330
1F
100
AcDbEntity
  8
実線（中）
370
    35
100
AcDbLine
 10
230.0615844419096
 20
-19.93259667123257
 30
0.0
 11
231.0266174419096
 21
-19.93259667123257
 31
0.0
  0
LINE
  5
261
330
1F
100
AcDbEntity
  8
実線（中）
 62
     7
370
    35
100
AcDbLine
 10
233.0684494419096
 20
-13.84861767123257
 30
0.0
 11
233.0684494419096
 21
-13.18261767123258
 31
0.0
  0
LINE
  5
262
330
1F
100
AcDbEntity
  8
実線（中）
 62
     7
370
    35
100
AcDbLine
 10
227.3184494419096
 20
-4.964617671232574
 30
0.0
 11
230.8184494419096
 21
-4.964617671232574
 31
0.0
  0
LINE
  5
263
330
1F
100
AcDbEntity
  8
実線（中）
 62
     7
370
    35
100
AcDbLine
 10
227.3184494419096
 20
-6.064617671232568
 30
0.0
 11
230.8184494419096
 21
-6.064617671232568
 31
0.0
  0
LINE
  5
264
330
1F
100
AcDbEntity
  8
実線（中）
 62
     7
370
    35
100
AcDbLine
 10
227.3184494419096
 20
-4.514617671232571
 30
0.0
 11
230.8184494419096
 21
-4.514617671232571
 31
0.0
  0
LINE
  5
265
330
1F
100
AcDbEntity
  8
実線（中）
 62
     7
370
    35
100
AcDbLine
 10
227.3184494419096
 20
-6.514617671232571
 30
0.0
 11
230.8184494419096
 21
-6.514617671232571
 31
0.0
  0
LINE
  5
266
330
1F
100
AcDbEntity
  8
実線（中）
 62
     7
370
    35
100
AcDbLine
 10
227.3184494419096
 20
-6.514617671232571
 30
0.0
 11
227.3184494419096
 21
-4.514617671232571
 31
0.0
  0
CIRCLE
  5
267
330
1F
100
AcDbEntity
  8
実線（中）
 62
     7
370
    35
100
AcDbCircle
 10
235.5684494419096
 20
-5.014617671232571
 30
0.0
 40
2.0
  0
CIRCLE
  5
268
330
1F
100
AcDbEntity
  8
実線（中）
 62
     7
370
    35
100
AcDbCircle
 10
235.5684494419096
 20
-5.014617671232571
 30
0.0
 40
1.75
  0
LINE
  5
269
330
1F
100
AcDbEntity
  8
実線（中）
 62
     7
370
    35
100
AcDbLine
 10
230.8184494419096
 20
-6.514617671232571
 30
0.0
 11
230.8184494419096
 21
-4.514617671232571
 31
0.0
  0
LINE
  5
26A
330
1F
100
AcDbEntity
  8
実線（中）
 62
     7
370
    35
100
AcDbLine
 10
239.5684494419096
 20
-23.51461767123259
 30
0.0
 11
246.5684494419096
 21
-23.51461767123259
 31
0.0
  0
CIRCLE
  5
26B
330
1F
100
AcDbEntity
  8
実線（中）
370
    35
100
AcDbCircle
 10
242.5615844419096
 20
-19.51593067123257
 30
0.0
 40
2.5
  0
LINE
  5
26C
330
1F
100
AcDbEntity
  8
実線（中）
 62
     7
370
    35
100
AcDbLine
 10
245.5684494419096
 20
-23.51461767123259
 30
0.0
 11
245.5684494419096
 21
-14.51461767123257
 31
0.0
  0
LINE
  5
26D
330
1F
100
AcDbEntity
  8
実線（中）
370
    35
100
AcDbLine
 10
242.1449174419096
 20
-18.01593067123257
 30
0.0
 11
242.1449174419096
 21
-18.34926367123258
 31
0.0
  0
LINE
  5
26E
330
1F
100
AcDbEntity
  8
実線（中）
370
    35
100
AcDbLine
 10
242.9782514419096
 20
-18.01593067123257
 30
0.0
 11
242.9782514419096
 21
-18.34926367123258
 31
0.0
  0
ARC
  5
26F
330
1F
100
AcDbEntity
  8
実線（中）
370
    35
100
AcDbCircle
 10
241.3949174419096
 20
-18.34926367123258
 30
0.0
 40
0.75
100
AcDbArc
 50
270.0
 51
0.0
  0
ARC
  5
270
330
1F
100
AcDbEntity
  8
実線（中）
370
    35
100
AcDbCircle
 10
241.3949174419096
 20
-20.68259667123257
 30
0.0
 40
0.75
100
AcDbArc
 50
0.0
 51
90.0
  0
LINE
  5
271
330
1F
100
AcDbEntity
  8
実線（中）
 62
     7
370
    35
100
AcDbLine
 10
239.5684494419096
 20
-22.51461767123259
 30
0.0
 11
245.5684494419096
 21
-22.51461767123259
 31
0.0
  0
LINE
  5
272
330
1F
100
AcDbEntity
  8
実線（中）
370
    35
100
AcDbLine
 10
241.0615844419096
 20
-19.09926367123258
 30
0.0
 11
240.0965514419096
 21
-19.09926367123258
 31
0.0
  0
LINE
  5
273
330
1F
100
AcDbEntity
  8
実線（中）
370
    35
100
AcDbLine
 10
241.0615844419096
 20
-19.93259667123257
 30
0.0
 11
240.0965514419096
 21
-19.93259667123257
 31
0.0
  0
LINE
  5
274
330
1F
100
AcDbEntity
  8
実線（中）
370
    35
100
AcDbLine
 10
241.0615844419096
 20
-19.93259667123257
 30
0.0
 11
241.3949174419096
 21
-19.93259667123257
 31
0.0
  0
LINE
  5
275
330
1F
100
AcDbEntity
  8
実線（中）
370
    35
100
AcDbLine
 10
241.0615844419096
 20
-19.09926367123258
 30
0.0
 11
241.3949174419096
 21
-19.09926367123258
 31
0.0
  0
LINE
  5
276
330
1F
100
AcDbEntity
  8
実線（中）
370
    35
100
AcDbLine
 10
240.8949174419096
 20
-19.76593067123257
 30
0.0
 11
240.8949174419096
 21
-19.26593067123257
 31
0.0
  0
ARC
  5
277
330
1F
100
AcDbEntity
  8
実線（中）
370
    35
100
AcDbCircle
 10
241.0615844419096
 20
-19.26593067123257
 30
0.0
 40
0.166667
100
AcDbArc
 50
90.0
 51
180.0
  0
ARC
  5
278
330
1F
100
AcDbEntity
  8
実線（中）
370
    35
100
AcDbCircle
 10
241.0615844419096
 20
-19.76593067123257
 30
0.0
 40
0.166667
100
AcDbArc
 50
180.0
 51
270.0
  0
ARC
  5
279
330
1F
100
AcDbEntity
  8
実線（中）
370
    35
100
AcDbCircle
 10
243.7282514419096
 20
-18.34926367123258
 30
0.0
 40
0.75
100
AcDbArc
 50
180.0
 51
270.0
  0
LINE
  5
27A
330
1F
100
AcDbEntity
  8
実線（中）
370
    35
100
AcDbLine
 10
244.0615844419096
 20
-19.93259667123257
 30
0.0
 11
245.0266174419096
 21
-19.93259667123257
 31
0.0
  0
LINE
  5
27B
330
1F
100
AcDbEntity
  8
実線（中）
370
    35
100
AcDbLine
 10
244.0615844419096
 20
-19.09926367123258
 30
0.0
 11
245.0266174419096
 21
-19.09926367123258
 31
0.0
  0
LINE
  5
27C
330
1F
100
AcDbEntity
  8
実線（中）
370
    35
100
AcDbLine
 10
244.0615844419096
 20
-19.09926367123258
 30
0.0
 11
243.7282514419096
 21
-19.09926367123258
 31
0.0
  0
LINE
  5
27D
330
1F
100
AcDbEntity
  8
実線（中）
370
    35
100
AcDbLine
 10
244.0615844419096
 20
-19.93259667123257
 30
0.0
 11
243.7282514419096
 21
-19.93259667123257
 31
0.0
  0
LINE
  5
27E
330
1F
100
AcDbEntity
  8
実線（中）
370
    35
100
AcDbLine
 10
244.2282514419096
 20
-19.76593067123257
 30
0.0
 11
244.2282514419096
 21
-19.26593067123257
 31
0.0
  0
ARC
  5
27F
330
1F
100
AcDbEntity
  8
実線（中）
370
    35
100
AcDbCircle
 10
244.0615844419096
 20
-19.76593067123257
 30
0.0
 40
0.166667
100
AcDbArc
 50
270.0
 51
0.0
  0
ARC
  5
280
330
1F
100
AcDbEntity
  8
実線（中）
370
    35
100
AcDbCircle
 10
244.0615844419096
 20
-19.26593067123257
 30
0.0
 40
0.166667
100
AcDbArc
 50
0.0
 51
90.0
  0
ARC
  5
281
330
1F
100
AcDbEntity
  8
実線（中）
370
    35
100
AcDbCircle
 10
242.3115844419096
 20
-21.01593067123257
 30
0.0
 40
0.166667
100
AcDbArc
 50
180.0
 51
270.0
  0
ARC
  5
282
330
1F
100
AcDbEntity
  8
実線（中）
370
    35
100
AcDbCircle
 10
242.8115844419096
 20
-21.01593067123257
 30
0.0
 40
0.166667
100
AcDbArc
 50
270.0
 51
0.0
  0
LINE
  5
283
330
1F
100
AcDbEntity
  8
実線（中）
370
    35
100
AcDbLine
 10
242.8115844419096
 20
-21.18259667123257
 30
0.0
 11
242.3115844419096
 21
-21.18259667123257
 31
0.0
  0
LINE
  5
284
330
1F
100
AcDbEntity
  8
実線（中）
370
    35
100
AcDbLine
 10
242.1449174419096
 20
-21.01593067123257
 30
0.0
 11
242.1449174419096
 21
-20.68259667123257
 31
0.0
  0
LINE
  5
285
330
1F
100
AcDbEntity
  8
実線（中）
370
    35
100
AcDbLine
 10
242.9782514419096
 20
-21.01593067123257
 30
0.0
 11
242.9782514419096
 21
-20.68259667123257
 31
0.0
  0
ARC
  5
286
330
1F
100
AcDbEntity
  8
実線（中）
370
    35
100
AcDbCircle
 10
243.7282514419096
 20
-20.68259667123257
 30
0.0
 40
0.75
100
AcDbArc
 50
90.0
 51
180.0
  0
LINE
  5
287
330
1F
100
AcDbEntity
  8
実線（中）
 62
     7
370
    35
100
AcDbLine
 10
239.5684494419096
 20
-16.51461767123257
 30
0.0
 11
245.5684494419096
 21
-16.51461767123257
 31
0.0
  0
LINE
  5
288
330
1F
100
AcDbEntity
  8
実線（中）
 62
     7
370
    35
100
AcDbLine
 10
238.0684494419096
 20
-13.84861767123257
 30
0.0
 11
238.0684494419096
 21
-13.18261767123258
 31
0.0
  0
LINE
  5
289
330
1F
100
AcDbEntity
  8
実線（中）
370
    35
100
AcDbLine
 10
242.8115844419096
 20
-17.84926367123258
 30
0.0
 11
242.3115844419096
 21
-17.84926367123258
 31
0.0
  0
ARC
  5
28A
330
1F
100
AcDbEntity
  8
実線（中）
370
    35
100
AcDbCircle
 10
242.3115844419096
 20
-18.01593067123257
 30
0.0
 40
0.166667
100
AcDbArc
 50
90.0
 51
180.0
  0
ARC
  5
28B
330
1F
100
AcDbEntity
  8
実線（中）
370
    35
100
AcDbCircle
 10
242.8115844419096
 20
-18.01593067123257
 30
0.0
 40
0.166667
100
AcDbArc
 50
0.0
 51
90.0
  0
LINE
  5
28C
330
1F
100
AcDbEntity
  8
実線（中）
 62
     7
370
    35
100
AcDbLine
 10
240.3184494419096
 20
-4.514617671232571
 30
0.0
 11
243.8184494419096
 21
-4.514617671232571
 31
0.0
  0
LINE
  5
28D
330
1F
100
AcDbEntity
  8
実線（中）
 62
     7
370
    35
100
AcDbLine
 10
240.3184494419096
 20
-4.964617671232574
 30
0.0
 11
243.8184494419096
 21
-4.964617671232574
 31
0.0
  0
LINE
  5
28E
330
1F
100
AcDbEntity
  8
実線（中）
 62
     7
370
    35
100
AcDbLine
 10
240.3184494419096
 20
-6.064617671232568
 30
0.0
 11
243.8184494419096
 21
-6.064617671232568
 31
0.0
  0
LINE
  5
28F
330
1F
100
AcDbEntity
  8
実線（中）
 62
     7
370
    35
100
AcDbLine
 10
240.3184494419096
 20
-6.514617671232571
 30
0.0
 11
243.8184494419096
 21
-6.514617671232571
 31
0.0
  0
LINE
  5
290
330
1F
100
AcDbEntity
  8
実線（中）
 62
     7
370
    35
100
AcDbLine
 10
240.3184494419096
 20
-6.514617671232571
 30
0.0
 11
240.3184494419096
 21
-4.514617671232571
 31
0.0
  0
LINE
  5
291
330
1F
100
AcDbEntity
  8
実線（中）
 62
     7
370
    35
100
AcDbLine
 10
243.8184494419096
 20
-6.514617671232571
 30
0.0
 11
243.8184494419096
 21
-4.514617671232571
 31
0.0
  0
LINE
  5
292
330
1F
100
AcDbEntity
  8
実線（中）
 62
     7
370
    35
100
AcDbLine
 10
233.0684494419096
 20
16.81938232876743
 30
0.0
 11
238.0684494419096
 21
16.81938232876743
 31
0.0
  0
LINE
  5
293
330
1F
100
AcDbEntity
  8
実線（中）
 62
     7
370
    35
100
AcDbLine
 10
224.5684494419096
 20
17.48538232876743
 30
0.0
 11
246.5684494419096
 21
17.48538232876743
 31
0.0
  0
LINE
  5
294
330
1F
100
AcDbEntity
  8
実線（中）
 62
     7
370
    35
100
AcDbLine
 10
233.0684494419096
 20
16.15338232876744
 30
0.0
 11
238.0684494419096
 21
16.15338232876744
 31
0.0
  0
LINE
  5
295
330
1F
100
AcDbEntity
  8
実線（中）
 62
     7
370
    35
100
AcDbLine
 10
225.3684494419096
 20
15.48538232876743
 30
0.0
 11
246.5684494419096
 21
15.48538232876743
 31
0.0
  0
LINE
  5
296
330
1F
100
AcDbEntity
  8
実線（中）
 62
     7
370
    35
100
AcDbLine
 10
230.8184494419096
 20
9.985382328767429
 30
0.0
 11
230.8184494419096
 21
11.98538232876743
 31
0.0
  0
LINE
  5
297
330
1F
100
AcDbEntity
  8
実線（中）
 62
     7
370
    35
100
AcDbLine
 10
227.3184494419096
 20
9.985382328767429
 30
0.0
 11
227.3184494419096
 21
11.98538232876743
 31
0.0
  0
LINE
  5
298
330
1F
100
AcDbEntity
  8
実線（中）
 62
     7
370
    35
100
AcDbLine
 10
227.3184494419096
 20
5.985382328767429
 30
0.0
 11
230.8184494419096
 21
5.985382328767429
 31
0.0
  0
LINE
  5
299
330
1F
100
AcDbEntity
  8
実線（中）
 62
     7
370
    35
100
AcDbLine
 10
227.3184494419096
 20
6.435382328767432
 30
0.0
 11
230.8184494419096
 21
6.435382328767432
 31
0.0
  0
LINE
  5
29A
330
1F
100
AcDbEntity
  8
実線（中）
 62
     7
370
    35
100
AcDbLine
 10
227.3184494419096
 20
9.985382328767429
 30
0.0
 11
230.8184494419096
 21
9.985382328767429
 31
0.0
  0
LINE
  5
29B
330
1F
100
AcDbEntity
  8
実線（中）
 62
     7
370
    35
100
AcDbLine
 10
227.3184494419096
 20
10.43538232876743
 30
0.0
 11
230.8184494419096
 21
10.43538232876743
 31
0.0
  0
LINE
  5
29C
330
1F
100
AcDbEntity
  8
実線（中）
 62
     7
370
    35
100
AcDbLine
 10
227.3184494419096
 20
7.535382328767426
 30
0.0
 11
230.8184494419096
 21
7.535382328767426
 31
0.0
  0
LINE
  5
29D
330
1F
100
AcDbEntity
  8
実線（中）
 62
     7
370
    35
100
AcDbLine
 10
227.3184494419096
 20
7.985382328767429
 30
0.0
 11
230.8184494419096
 21
7.985382328767429
 31
0.0
  0
LINE
  5
29E
330
1F
100
AcDbEntity
  8
実線（中）
 62
     7
370
    35
100
AcDbLine
 10
227.3184494419096
 20
-0.5146176712325712
 30
0.0
 11
230.8184494419096
 21
-0.5146176712325712
 31
0.0
  0
LINE
  5
29F
330
1F
100
AcDbEntity
  8
実線（中）
 62
     7
370
    35
100
AcDbLine
 10
227.3184494419096
 20
1.035382328767426
 30
0.0
 11
230.8184494419096
 21
1.035382328767426
 31
0.0
  0
LINE
  5
2A0
330
1F
100
AcDbEntity
  8
実線（中）
 62
     7
370
    35
100
AcDbLine
 10
227.3184494419096
 20
-0.0646176712325683
 30
0.0
 11
230.8184494419096
 21
-0.0646176712325683
 31
0.0
  0
LINE
  5
2A1
330
1F
100
AcDbEntity
  8
実線（中）
 62
     7
370
    35
100
AcDbLine
 10
227.3184494419096
 20
1.485382328767429
 30
0.0
 11
230.8184494419096
 21
1.485382328767429
 31
0.0
  0
LINE
  5
2A2
330
1F
100
AcDbEntity
  8
実線（中）
 62
     7
370
    35
100
AcDbLine
 10
227.3184494419096
 20
-0.5146176712325712
 30
0.0
 11
227.3184494419096
 21
1.485382328767429
 31
0.0
  0
LINE
  5
2A3
330
1F
100
AcDbEntity
  8
実線（中）
 62
     7
370
    35
100
AcDbLine
 10
227.3184494419096
 20
5.985382328767429
 30
0.0
 11
227.3184494419096
 21
7.985382328767429
 31
0.0
  0
LINE
  5
2A4
330
1F
100
AcDbEntity
  8
実線（中）
 62
     7
370
    35
100
AcDbLine
 10
230.8184494419096
 20
-0.5146176712325712
 30
0.0
 11
230.8184494419096
 21
1.485382328767429
 31
0.0
  0
LINE
  5
2A5
330
1F
100
AcDbEntity
  8
実線（中）
 62
     7
370
    35
100
AcDbLine
 10
230.8184494419096
 20
5.985382328767429
 30
0.0
 11
230.8184494419096
 21
7.985382328767429
 31
0.0
  0
LINE
  5
2A6
330
1F
100
AcDbEntity
  8
実線（中）
370
    35
100
AcDbLine
 10
230.0615844419096
 20
22.06740332876743
 30
0.0
 11
229.7282514419096
 21
22.06740332876743
 31
0.0
  0
LINE
  5
2A7
330
1F
100
AcDbEntity
  8
実線（中）
 62
     7
370
    35
100
AcDbLine
 10
225.5684494419096
 20
19.48538232876743
 30
0.0
 11
231.5684494419096
 21
19.48538232876743
 31
0.0
  0
LINE
  5
2A8
330
1F
100
AcDbEntity
  8
実線（中）
 62
     7
370
    35
100
AcDbLine
 10
227.3184494419096
 20
11.98538232876743
 30
0.0
 11
230.8184494419096
 21
11.98538232876743
 31
0.0
  0
LINE
  5
2A9
330
1F
100
AcDbEntity
  8
実線（中）
 62
     7
370
    35
100
AcDbLine
 10
227.3184494419096
 20
11.53538232876743
 30
0.0
 11
230.8184494419096
 21
11.53538232876743
 31
0.0
  0
ARC
  5
2AA
330
1F
100
AcDbEntity
  8
実線（中）
370
    35
100
AcDbCircle
 10
227.3949174419096
 20
21.31740332876743
 30
0.0
 40
0.75
100
AcDbArc
 50
0.0
 51
90.0
  0
ARC
  5
2AB
330
1F
100
AcDbEntity
  8
実線（中）
370
    35
100
AcDbCircle
 10
227.0615844419096
 20
22.23406932876742
 30
0.0
 40
0.166667
100
AcDbArc
 50
180.0
 51
270.0
  0
ARC
  5
2AC
330
1F
100
AcDbEntity
  8
実線（中）
370
    35
100
AcDbCircle
 10
228.3115844419096
 20
20.98406932876742
 30
0.0
 40
0.166667
100
AcDbArc
 50
180.0
 51
270.0
  0
ARC
  5
2AD
330
1F
100
AcDbEntity
  8
実線（中）
370
    35
100
AcDbCircle
 10
228.8115844419096
 20
20.98406932876742
 30
0.0
 40
0.166667
100
AcDbArc
 50
270.0
 51
0.0
  0
LINE
  5
2AE
330
1F
100
AcDbEntity
  8
実線（中）
370
    35
100
AcDbLine
 10
228.8115844419096
 20
20.81740332876743
 30
0.0
 11
228.3115844419096
 21
20.81740332876743
 31
0.0
  0
LINE
  5
2AF
330
1F
100
AcDbEntity
  8
実線（中）
370
    35
100
AcDbLine
 10
228.1449174419096
 20
20.98406932876742
 30
0.0
 11
228.1449174419096
 21
21.31740332876743
 31
0.0
  0
LINE
  5
2B0
330
1F
100
AcDbEntity
  8
実線（中）
370
    35
100
AcDbLine
 10
228.9782514419096
 20
20.98406932876742
 30
0.0
 11
228.9782514419096
 21
21.31740332876743
 31
0.0
  0
LINE
  5
2B1
330
1F
100
AcDbEntity
  8
実線（中）
370
    35
100
AcDbLine
 10
227.0615844419096
 20
22.06740332876743
 30
0.0
 11
226.0965514419096
 21
22.06740332876743
 31
0.0
  0
LINE
  5
2B2
330
1F
100
AcDbEntity
  8
実線（中）
370
    35
100
AcDbLine
 10
227.0615844419096
 20
22.06740332876743
 30
0.0
 11
227.3949174419096
 21
22.06740332876743
 31
0.0
  0
ARC
  5
2B3
330
1F
100
AcDbEntity
  8
実線（中）
370
    35
100
AcDbCircle
 10
229.7282514419096
 20
21.31740332876743
 30
0.0
 40
0.75
100
AcDbArc
 50
90.0
 51
180.0
  0
LINE
  5
2B4
330
1F
100
AcDbEntity
  8
実線（中）
 62
     7
370
    35
100
AcDbLine
 10
233.0684494419096
 20
16.15338232876744
 30
0.0
 11
233.0684494419096
 21
16.81938232876743
 31
0.0
  0
ARC
  5
2B5
330
1F
100
AcDbEntity
  8
実線（中）
370
    35
100
AcDbCircle
 10
230.0615844419096
 20
22.23406932876742
 30
0.0
 40
0.166667
100
AcDbArc
 50
270.0
 51
0.0
  0
LINE
  5
2B6
330
1F
100
AcDbEntity
  8
実線（中）
370
    35
100
AcDbLine
 10
230.0615844419096
 20
22.06740332876743
 30
0.0
 11
231.0266174419096
 21
22.06740332876743
 31
0.0
  0
LINE
  5
2B7
330
1F
100
AcDbEntity
  8
実線（中）
 62
     7
370
    35
100
AcDbLine
 10
240.3184494419096
 20
9.985382328767429
 30
0.0
 11
240.3184494419096
 21
11.98538232876743
 31
0.0
  0
LINE
  5
2B8
330
1F
100
AcDbEntity
  8
実線（中）
 62
     7
370
    35
100
AcDbLine
 10
243.8184494419096
 20
9.985382328767429
 30
0.0
 11
243.8184494419096
 21
11.98538232876743
 31
0.0
  0
LINE
  5
2B9
330
1F
100
AcDbEntity
  8
実線（中）
 62
     7
370
    35
100
AcDbLine
 10
240.3184494419096
 20
1.485382328767429
 30
0.0
 11
243.8184494419096
 21
1.485382328767429
 31
0.0
  0
LINE
  5
2BA
330
1F
100
AcDbEntity
  8
実線（中）
 62
     7
370
    35
100
AcDbLine
 10
240.3184494419096
 20
1.035382328767426
 30
0.0
 11
243.8184494419096
 21
1.035382328767426
 31
0.0
  0
LINE
  5
2BB
330
1F
100
AcDbEntity
  8
実線（中）
 62
     7
370
    35
100
AcDbLine
 10
240.3184494419096
 20
-0.5146176712325712
 30
0.0
 11
243.8184494419096
 21
-0.5146176712325712
 31
0.0
  0
LINE
  5
2BC
330
1F
100
AcDbEntity
  8
実線（中）
 62
     7
370
    35
100
AcDbLine
 10
240.3184494419096
 20
-0.0646176712325683
 30
0.0
 11
243.8184494419096
 21
-0.0646176712325683
 31
0.0
  0
LINE
  5
2BD
330
1F
100
AcDbEntity
  8
実線（中）
 62
     7
370
    35
100
AcDbLine
 10
240.3184494419096
 20
-0.5146176712325712
 30
0.0
 11
240.3184494419096
 21
1.485382328767429
 31
0.0
  0
LINE
  5
2BE
330
1F
100
AcDbEntity
  8
実線（中）
 62
     7
370
    35
100
AcDbLine
 10
243.8184494419096
 20
-0.5146176712325712
 30
0.0
 11
243.8184494419096
 21
1.485382328767429
 31
0.0
  0
LINE
  5
2BF
330
1F
100
AcDbEntity
  8
実線（中）
 62
     7
370
    35
100
AcDbLine
 10
240.3184494419096
 20
9.985382328767429
 30
0.0
 11
243.8184494419096
 21
9.985382328767429
 31
0.0
  0
LINE
  5
2C0
330
1F
100
AcDbEntity
  8
実線（中）
 62
     7
370
    35
100
AcDbLine
 10
240.3184494419096
 20
10.43538232876743
 30
0.0
 11
243.8184494419096
 21
10.43538232876743
 31
0.0
  0
LINE
  5
2C1
330
1F
100
AcDbEntity
  8
実線（中）
 62
     7
370
    35
100
AcDbLine
 10
240.3184494419096
 20
7.535382328767426
 30
0.0
 11
243.8184494419096
 21
7.535382328767426
 31
0.0
  0
LINE
  5
2C2
330
1F
100
AcDbEntity
  8
実線（中）
 62
     7
370
    35
100
AcDbLine
 10
240.3184494419096
 20
7.985382328767429
 30
0.0
 11
243.8184494419096
 21
7.985382328767429
 31
0.0
  0
LINE
  5
2C3
330
1F
100
AcDbEntity
  8
実線（中）
 62
     7
370
    35
100
AcDbLine
 10
240.3184494419096
 20
5.985382328767429
 30
0.0
 11
243.8184494419096
 21
5.985382328767429
 31
0.0
  0
LINE
  5
2C4
330
1F
100
AcDbEntity
  8
実線（中）
 62
     7
370
    35
100
AcDbLine
 10
240.3184494419096
 20
6.435382328767432
 30
0.0
 11
243.8184494419096
 21
6.435382328767432
 31
0.0
  0
LINE
  5
2C5
330
1F
100
AcDbEntity
  8
実線（中）
 62
     7
370
    35
100
AcDbLine
 10
240.3184494419096
 20
5.985382328767429
 30
0.0
 11
240.3184494419096
 21
7.985382328767429
 31
0.0
  0
LINE
  5
2C6
330
1F
100
AcDbEntity
  8
実線（中）
 62
     7
370
    35
100
AcDbLine
 10
243.8184494419096
 20
5.985382328767429
 30
0.0
 11
243.8184494419096
 21
7.985382328767429
 31
0.0
  0
LINE
  5
2C7
330
1F
100
AcDbEntity
  8
実線（中）
 62
     7
370
    35
100
AcDbLine
 10
238.0684494419096
 20
16.15338232876744
 30
0.0
 11
238.0684494419096
 21
16.81938232876743
 31
0.0
  0
LINE
  5
2C8
330
1F
100
AcDbEntity
  8
実線（中）
 62
     7
370
    35
100
AcDbLine
 10
240.3184494419096
 20
11.98538232876743
 30
0.0
 11
243.8184494419096
 21
11.98538232876743
 31
0.0
  0
LINE
  5
2C9
330
1F
100
AcDbEntity
  8
実線（中）
 62
     7
370
    35
100
AcDbLine
 10
240.3184494419096
 20
11.53538232876743
 30
0.0
 11
243.8184494419096
 21
11.53538232876743
 31
0.0
  0
LINE
  5
2CA
330
1F
100
AcDbEntity
  8
実線（中）
 62
     7
370
    35
100
AcDbLine
 10
239.5684494419096
 20
19.48538232876743
 30
0.0
 11
245.5684494419096
 21
19.48538232876743
 31
0.0
  0
ARC
  5
2CB
330
1F
100
AcDbEntity
  8
実線（中）
370
    35
100
AcDbCircle
 10
241.0615844419096
 20
22.23406932876742
 30
0.0
 40
0.166667
100
AcDbArc
 50
180.0
 51
270.0
  0
LINE
  5
2CC
330
1F
100
AcDbEntity
  8
実線（中）
370
    35
100
AcDbLine
 10
241.0615844419096
 20
22.06740332876743
 30
0.0
 11
241.3949174419096
 21
22.06740332876743
 31
0.0
  0
LINE
  5
2CD
330
1F
100
AcDbEntity
  8
実線（中）
370
    35
100
AcDbLine
 10
241.0615844419096
 20
22.06740332876743
 30
0.0
 11
240.0965514419096
 21
22.06740332876743
 31
0.0
  0
ARC
  5
2CE
330
1F
100
AcDbEntity
  8
実線（中）
370
    35
100
AcDbCircle
 10
244.0615844419096
 20
22.23406932876742
 30
0.0
 40
0.166667
100
AcDbArc
 50
270.0
 51
0.0
  0
LINE
  5
2CF
330
1F
100
AcDbEntity
  8
実線（中）
370
    35
100
AcDbLine
 10
244.0615844419096
 20
22.06740332876743
 30
0.0
 11
243.7282514419096
 21
22.06740332876743
 31
0.0
  0
LINE
  5
2D0
330
1F
100
AcDbEntity
  8
実線（中）
370
    35
100
AcDbLine
 10
244.0615844419096
 20
22.06740332876743
 30
0.0
 11
245.0266174419096
 21
22.06740332876743
 31
0.0
  0
LINE
  5
2D1
330
1F
100
AcDbEntity
  8
実線（中）
370
    35
100
AcDbLine
 10
237.0615844419096
 20
31.06740332876743
 30
0.0
 11
238.0266174419096
 21
31.06740332876743
 31
0.0
  0
LINE
  5
2D2
330
1F
100
AcDbEntity
  8
実線（中）
370
    35
100
AcDbLine
 10
237.0615844419096
 20
31.90073632876744
 30
0.0
 11
238.0266174419096
 21
31.90073632876744
 31
0.0
  0
CIRCLE
  5
2D3
330
1F
100
AcDbEntity
  8
実線（中）
370
    35
100
AcDbCircle
 10
235.5615844419096
 20
31.48406932876742
 30
0.0
 40
2.5
  0
LINE
  5
2D4
330
1F
100
AcDbEntity
  8
実線（中）
 62
     7
370
    35
100
AcDbLine
 10
231.6288494419096
 20
28.48538232876743
 30
0.0
 11
238.5684494419096
 21
28.48538232876743
 31
0.0
  0
LINE
  5
2D5
330
1F
100
AcDbEntity
  8
実線（中）
 62
     7
370
    35
100
AcDbLine
 10
232.5684494419096
 20
26.48538232876743
 30
0.0
 11
238.5684494419096
 21
26.48538232876743
 31
0.0
  0
LINE
  5
2D6
330
1F
100
AcDbEntity
  8
実線（中）
 62
     7
370
    35
100
AcDbLine
 10
232.5684494419096
 20
35.48538232876743
 30
0.0
 11
238.5684494419096
 21
35.48538232876743
 31
0.0
  0
LINE
  5
2D7
330
1F
100
AcDbEntity
  8
実線（中）
 62
     7
370
    35
100
AcDbLine
 10
232.5684494419096
 20
34.48538232876743
 30
0.0
 11
238.5684494419096
 21
34.48538232876743
 31
0.0
  0
LINE
  5
2D8
330
1F
100
AcDbEntity
  8
一点鎖線
 62
     7
370
    35
100
AcDbLine
 10
228.0684494419096
 20
25.98538232876743
 30
0.0
 11
228.0684494419096
 21
35.98538232876743
 31
0.0
  0
LINE
  5
2D9
330
1F
100
AcDbEntity
  8
一点鎖線
 62
     7
370
    35
100
AcDbLine
 10
223.0684494419096
 20
30.98538232876743
 30
0.0
 11
233.0684494419096
 21
30.98538232876743
 31
0.0
  0
ARC
  5
2DA
330
1F
100
AcDbEntity
  8
実線（中）
 62
     7
370
    35
100
AcDbCircle
 10
228.0684494419096
 20
31.78538232876744
 30
0.0
 40
2.1
100
AcDbArc
 50
0.0
 51
180.0
  0
LINE
  5
2DB
330
1F
100
AcDbEntity
  8
実線（中）
370
    35
100
AcDbLine
 10
230.0615844419096
 20
22.90073632876744
 30
0.0
 11
229.7282514419096
 21
22.90073632876744
 31
0.0
  0
LINE
  5
2DC
330
1F
100
AcDbEntity
  8
実線（中）
 62
     7
370
    35
100
AcDbLine
 10
224.5684494419096
 20
26.48538232876743
 30
0.0
 11
231.5684494419096
 21
26.48538232876743
 31
0.0
  0
LINE
  5
2DD
330
1F
100
AcDbEntity
  8
実線（中）
 62
     7
370
    35
100
AcDbLine
 10
225.5684494419096
 20
25.48538232876743
 30
0.0
 11
231.5684494419096
 21
25.48538232876743
 31
0.0
  0
ARC
  5
2DE
330
1F
100
AcDbEntity
  8
実線（中）
 62
     7
370
    35
100
AcDbCircle
 10
228.0684494419096
 20
30.18538232876742
 30
0.0
 40
2.1
100
AcDbArc
 50
180.0
 51
0.0
  0
LINE
  5
2DF
330
1F
100
AcDbEntity
  8
実線（中）
370
    35
100
AcDbLine
 10
228.1449174419096
 20
23.98406932876742
 30
0.0
 11
228.1449174419096
 21
23.65073632876744
 31
0.0
  0
LINE
  5
2E0
330
1F
100
AcDbEntity
  8
実線（中）
370
    35
100
AcDbLine
 10
228.9782514419096
 20
23.98406932876742
 30
0.0
 11
228.9782514419096
 21
23.65073632876744
 31
0.0
  0
LINE
  5
2E1
330
1F
100
AcDbEntity
  8
実線（中）
370
    35
100
AcDbLine
 10
228.8115844419096
 20
24.15073632876744
 30
0.0
 11
228.3115844419096
 21
24.15073632876744
 31
0.0
  0
ARC
  5
2E2
330
1F
100
AcDbEntity
  8
実線（中）
370
    35
100
AcDbCircle
 10
228.3115844419096
 20
23.98406932876742
 30
0.0
 40
0.166667
100
AcDbArc
 50
90.0
 51
180.0
  0
ARC
  5
2E3
330
1F
100
AcDbEntity
  8
実線（中）
370
    35
100
AcDbCircle
 10
228.8115844419096
 20
23.98406932876742
 30
0.0
 40
0.166667
100
AcDbArc
 50
0.0
 51
90.0
  0
ARC
  5
2E4
330
1F
100
AcDbEntity
  8
実線（中）
370
    35
100
AcDbCircle
 10
227.3949174419096
 20
23.65073632876744
 30
0.0
 40
0.75
100
AcDbArc
 50
270.0
 51
0.0
  0
LINE
  5
2E5
330
1F
100
AcDbEntity
  8
実線（中）
370
    35
100
AcDbLine
 10
227.0615844419096
 20
22.90073632876744
 30
0.0
 11
226.0965514419096
 21
22.90073632876744
 31
0.0
  0
ARC
  5
2E6
330
1F
100
AcDbEntity
  8
実線（中）
370
    35
100
AcDbCircle
 10
227.0615844419096
 20
22.73406932876742
 30
0.0
 40
0.166667
100
AcDbArc
 50
90.0
 51
180.0
  0
LINE
  5
2E7
330
1F
100
AcDbEntity
  8
実線（中）
370
    35
100
AcDbLine
 10
227.0615844419096
 20
22.90073632876744
 30
0.0
 11
227.3949174419096
 21
22.90073632876744
 31
0.0
  0
ARC
  5
2E8
330
1F
100
AcDbEntity
  8
実線（中）
370
    35
100
AcDbCircle
 10
229.7282514419096
 20
23.65073632876744
 30
0.0
 40
0.75
100
AcDbArc
 50
180.0
 51
270.0
  0
LINE
  5
2E9
330
1F
100
AcDbEntity
  8
実線（中）
 62
     7
370
    35
100
AcDbLine
 10
225.9684494419096
 20
30.18538232876742
 30
0.0
 11
225.9684494419096
 21
31.78538232876744
 31
0.0
  0
LINE
  5
2EA
330
1F
100
AcDbEntity
  8
実線（中）
370
    35
100
AcDbLine
 10
230.0615844419096
 20
22.90073632876744
 30
0.0
 11
231.0266174419096
 21
22.90073632876744
 31
0.0
  0
ARC
  5
2EB
330
1F
100
AcDbEntity
  8
実線（中）
370
    35
100
AcDbCircle
 10
230.0615844419096
 20
22.73406932876742
 30
0.0
 40
0.166667
100
AcDbArc
 50
0.0
 51
90.0
  0
LINE
  5
2EC
330
1F
100
AcDbEntity
  8
実線（中）
370
    35
100
AcDbLine
 10
234.0615844419096
 20
31.06740332876743
 30
0.0
 11
233.0965514419096
 21
31.06740332876743
 31
0.0
  0
LINE
  5
2ED
330
1F
100
AcDbEntity
  8
実線（中）
370
    35
100
AcDbLine
 10
234.0615844419096
 20
31.90073632876744
 30
0.0
 11
233.0965514419096
 21
31.90073632876744
 31
0.0
  0
LINE
  5
2EE
330
1F
100
AcDbEntity
  8
実線（中）
 62
     7
370
    35
100
AcDbLine
 10
230.1684494419096
 20
30.18538232876742
 30
0.0
 11
230.1684494419096
 21
31.78538232876744
 31
0.0
  0
ARC
  5
2EF
330
1F
100
AcDbEntity
  8
実線（中）
370
    35
100
AcDbCircle
 10
236.7282514419096
 20
30.31740332876743
 30
0.0
 40
0.75
100
AcDbArc
 50
90.0
 51
180.0
  0
ARC
  5
2F0
330
1F
100
AcDbEntity
  8
実線（中）
370
    35
100
AcDbCircle
 10
237.0615844419096
 20
31.23406932876742
 30
0.0
 40
0.166667
100
AcDbArc
 50
270.0
 51
0.0
  0
LINE
  5
2F1
330
1F
100
AcDbEntity
  8
実線（中）
370
    35
100
AcDbLine
 10
235.9782514419096
 20
29.98406932876742
 30
0.0
 11
235.9782514419096
 21
30.31740332876743
 31
0.0
  0
ARC
  5
2F2
330
1F
100
AcDbEntity
  8
実線（中）
370
    35
100
AcDbCircle
 10
235.8115844419096
 20
29.98406932876742
 30
0.0
 40
0.166667
100
AcDbArc
 50
270.0
 51
0.0
  0
LINE
  5
2F3
330
1F
100
AcDbEntity
  8
実線（中）
370
    35
100
AcDbLine
 10
237.0615844419096
 20
31.06740332876743
 30
0.0
 11
236.7282514419096
 21
31.06740332876743
 31
0.0
  0
ARC
  5
2F4
330
1F
100
AcDbEntity
  8
実線（中）
370
    35
100
AcDbCircle
 10
235.8115844419096
 20
32.98406932876742
 30
0.0
 40
0.166667
100
AcDbArc
 50
0.0
 51
90.0
  0
LINE
  5
2F5
330
1F
100
AcDbEntity
  8
実線（中）
370
    35
100
AcDbLine
 10
235.9782514419096
 20
32.98406932876742
 30
0.0
 11
235.9782514419096
 21
32.65073632876744
 31
0.0
  0
ARC
  5
2F6
330
1F
100
AcDbEntity
  8
実線（中）
370
    35
100
AcDbCircle
 10
237.0615844419096
 20
31.73406932876742
 30
0.0
 40
0.166667
100
AcDbArc
 50
0.0
 51
90.0
  0
LINE
  5
2F7
330
1F
100
AcDbEntity
  8
実線（中）
370
    35
100
AcDbLine
 10
237.2282514419096
 20
31.23406932876742
 30
0.0
 11
237.2282514419096
 21
31.73406932876742
 31
0.0
  0
LINE
  5
2F8
330
1F
100
AcDbEntity
  8
実線（中）
370
    35
100
AcDbLine
 10
237.0615844419096
 20
31.90073632876744
 30
0.0
 11
236.7282514419096
 21
31.90073632876744
 31
0.0
  0
ARC
  5
2F9
330
1F
100
AcDbEntity
  8
実線（中）
370
    35
100
AcDbCircle
 10
236.7282514419096
 20
32.65073632876744
 30
0.0
 40
0.75
100
AcDbArc
 50
180.0
 51
270.0
  0
LINE
  5
2FA
330
1F
100
AcDbEntity
  8
実線（中）
370
    35
100
AcDbLine
 10
235.1449174419096
 20
29.98406932876742
 30
0.0
 11
235.1449174419096
 21
30.31740332876743
 31
0.0
  0
ARC
  5
2FB
330
1F
100
AcDbEntity
  8
実線（中）
370
    35
100
AcDbCircle
 10
235.3115844419096
 20
29.98406932876742
 30
0.0
 40
0.166667
100
AcDbArc
 50
180.0
 51
270.0
  0
ARC
  5
2FC
330
1F
100
AcDbEntity
  8
実線（中）
370
    35
100
AcDbCircle
 10
235.3115844419096
 20
32.98406932876742
 30
0.0
 40
0.166667
100
AcDbArc
 50
90.0
 51
180.0
  0
LINE
  5
2FD
330
1F
100
AcDbEntity
  8
実線（中）
370
    35
100
AcDbLine
 10
235.1449174419096
 20
32.98406932876742
 30
0.0
 11
235.1449174419096
 21
32.65073632876744
 31
0.0
  0
ARC
  5
2FE
330
1F
100
AcDbEntity
  8
実線（中）
370
    35
100
AcDbCircle
 10
234.0615844419096
 20
31.23406932876742
 30
0.0
 40
0.166667
100
AcDbArc
 50
180.0
 51
270.0
  0
LINE
  5
2FF
330
1F
100
AcDbEntity
  8
実線（中）
370
    35
100
AcDbLine
 10
234.0615844419096
 20
31.06740332876743
 30
0.0
 11
234.3949174419096
 21
31.06740332876743
 31
0.0
  0
ARC
  5
300
330
1F
100
AcDbEntity
  8
実線（中）
370
    35
100
AcDbCircle
 10
234.0615844419096
 20
31.73406932876742
 30
0.0
 40
0.166667
100
AcDbArc
 50
90.0
 51
180.0
  0
LINE
  5
301
330
1F
100
AcDbEntity
  8
実線（中）
370
    35
100
AcDbLine
 10
233.8949174419096
 20
31.23406932876742
 30
0.0
 11
233.8949174419096
 21
31.73406932876742
 31
0.0
  0
LINE
  5
302
330
1F
100
AcDbEntity
  8
実線（中）
370
    35
100
AcDbLine
 10
234.0615844419096
 20
31.90073632876744
 30
0.0
 11
234.3949174419096
 21
31.90073632876744
 31
0.0
  0
ARC
  5
303
330
1F
100
AcDbEntity
  8
実線（中）
370
    35
100
AcDbCircle
 10
234.3949174419096
 20
30.31740332876743
 30
0.0
 40
0.75
100
AcDbArc
 50
0.0
 51
90.0
  0
ARC
  5
304
330
1F
100
AcDbEntity
  8
実線（中）
370
    35
100
AcDbCircle
 10
234.3949174419096
 20
32.65073632876744
 30
0.0
 40
0.75
100
AcDbArc
 50
270.0
 51
0.0
  0
LINE
  5
305
330
1F
100
AcDbEntity
  8
実線（中）
370
    35
100
AcDbLine
 10
235.8115844419096
 20
29.81740332876743
 30
0.0
 11
235.3115844419096
 21
29.81740332876743
 31
0.0
  0
LINE
  5
306
330
1F
100
AcDbEntity
  8
実線（中）
370
    35
100
AcDbLine
 10
235.8115844419096
 20
33.15073632876744
 30
0.0
 11
235.3115844419096
 21
33.15073632876744
 31
0.0
  0
LINE
  5
307
330
1F
100
AcDbEntity
  8
実線（中）
 62
     7
370
    35
100
AcDbLine
 10
224.5684494419096
 20
36.88538232876743
 30
0.0
 11
225.1084494419096
 21
37.48538232876743
 31
0.0
  0
ARC
  5
308
330
1F
100
AcDbEntity
  8
実線（中）
370
    35
100
AcDbCircle
 10
241.0615844419096
 20
22.73406932876742
 30
0.0
 40
0.166667
100
AcDbArc
 50
90.0
 51
180.0
  0
LINE
  5
309
330
1F
100
AcDbEntity
  8
実線（中）
370
    35
100
AcDbLine
 10
241.0615844419096
 20
22.90073632876744
 30
0.0
 11
241.3949174419096
 21
22.90073632876744
 31
0.0
  0
LINE
  5
30A
330
1F
100
AcDbEntity
  8
実線（中）
370
    35
100
AcDbLine
 10
241.0615844419096
 20
22.90073632876744
 30
0.0
 11
240.0965514419096
 21
22.90073632876744
 31
0.0
  0
ARC
  5
30B
330
1F
100
AcDbEntity
  8
実線（中）
370
    35
100
AcDbCircle
 10
244.0615844419096
 20
22.73406932876742
 30
0.0
 40
0.166667
100
AcDbArc
 50
0.0
 51
90.0
  0
LINE
  5
30C
330
1F
100
AcDbEntity
  8
実線（中）
370
    35
100
AcDbLine
 10
244.0615844419096
 20
22.90073632876744
 30
0.0
 11
243.7282514419096
 21
22.90073632876744
 31
0.0
  0
LINE
  5
30D
330
1F
100
AcDbEntity
  8
実線（中）
370
    35
100
AcDbLine
 10
244.0615844419096
 20
22.90073632876744
 30
0.0
 11
245.0266174419096
 21
22.90073632876744
 31
0.0
  0
LINE
  5
30E
330
1F
100
AcDbEntity
  8
実線（中）
370
    35
100
AcDbLine
 10
244.0615844419096
 20
31.90073632876744
 30
0.0
 11
245.0266174419096
 21
31.90073632876744
 31
0.0
  0
LINE
  5
30F
330
1F
100
AcDbEntity
  8
実線（中）
370
    35
100
AcDbLine
 10
244.0615844419096
 20
31.06740332876743
 30
0.0
 11
245.0266174419096
 21
31.06740332876743
 31
0.0
  0
LINE
  5
310
330
1F
100
AcDbEntity
  8
実線（中）
370
    35
100
AcDbLine
 10
241.0615844419096
 20
31.90073632876744
 30
0.0
 11
240.0965514419096
 21
31.90073632876744
 31
0.0
  0
LINE
  5
311
330
1F
100
AcDbEntity
  8
実線（中）
370
    35
100
AcDbLine
 10
241.0615844419096
 20
31.06740332876743
 30
0.0
 11
240.0965514419096
 21
31.06740332876743
 31
0.0
  0
LINE
  5
312
330
1F
100
AcDbEntity
  8
実線（中）
370
    35
100
AcDbLine
 10
241.0615844419096
 20
31.90073632876744
 30
0.0
 11
241.3949174419096
 21
31.90073632876744
 31
0.0
  0
LINE
  5
313
330
1F
100
AcDbEntity
  8
実線（中）
370
    35
100
AcDbLine
 10
240.8949174419096
 20
31.23406932876742
 30
0.0
 11
240.8949174419096
 21
31.73406932876742
 31
0.0
  0
ARC
  5
314
330
1F
100
AcDbEntity
  8
実線（中）
370
    35
100
AcDbCircle
 10
241.0615844419096
 20
31.73406932876742
 30
0.0
 40
0.166667
100
AcDbArc
 50
90.0
 51
180.0
  0
LINE
  5
315
330
1F
100
AcDbEntity
  8
実線（中）
370
    35
100
AcDbLine
 10
241.0615844419096
 20
31.06740332876743
 30
0.0
 11
241.3949174419096
 21
31.06740332876743
 31
0.0
  0
ARC
  5
316
330
1F
100
AcDbEntity
  8
実線（中）
370
    35
100
AcDbCircle
 10
241.0615844419096
 20
31.23406932876742
 30
0.0
 40
0.166667
100
AcDbArc
 50
180.0
 51
270.0
  0
LINE
  5
317
330
1F
100
AcDbEntity
  8
実線（中）
370
    35
100
AcDbLine
 10
244.0615844419096
 20
31.90073632876744
 30
0.0
 11
243.7282514419096
 21
31.90073632876744
 31
0.0
  0
LINE
  5
318
330
1F
100
AcDbEntity
  8
実線（中）
370
    35
100
AcDbLine
 10
244.2282514419096
 20
31.23406932876742
 30
0.0
 11
244.2282514419096
 21
31.73406932876742
 31
0.0
  0
ARC
  5
319
330
1F
100
AcDbEntity
  8
実線（中）
370
    35
100
AcDbCircle
 10
244.0615844419096
 20
31.73406932876742
 30
0.0
 40
0.166667
100
AcDbArc
 50
0.0
 51
90.0
  0
LINE
  5
31A
330
1F
100
AcDbEntity
  8
実線（中）
370
    35
100
AcDbLine
 10
244.0615844419096
 20
31.06740332876743
 30
0.0
 11
243.7282514419096
 21
31.06740332876743
 31
0.0
  0
ARC
  5
31B
330
1F
100
AcDbEntity
  8
実線（中）
370
    35
100
AcDbCircle
 10
244.0615844419096
 20
31.23406932876742
 30
0.0
 40
0.166667
100
AcDbArc
 50
270.0
 51
0.0
  0
DIMENSION
  5
31C
330
1F
100
AcDbEntity
  8
寸法線
  6
Continuous
 62
     7
370
    35
100
AcDbDimension
  2
*D12
 10
260.5684494419096
 20
-28.01461767123259
 30
0.0
 11
255.2961351318357
 21
1.485382328767486
 31
0.0
 70
    32
 71
     5
 42
-1.0
 73
     0
 74
     0
 75
     0
  3
Standard
100
AcDbAlignedDimension
 13
246.5684494419096
 23
30.98538232876743
 33
0.0
 14
248.0684494419096
 24
-28.01461767123259
 34
0.0
 50
90.0
100
AcDbRotatedDimension
1001
ACAD
1000
DSTYLE
1002
{
1070
    41
1040
3.0
1070
   289
1070
     1
1070
   342
1005
1B4
1070
   271
1070
     2
1070
    44
1040
1.0
1070
    42
1040
1.0
1070
   147
1040
2.0
1070
   372
1070
     0
1070
    77
1070
     1
1070
   272
1070
     2
1070
    73
1070
     0
1070
   174
1070
     1
1070
   172
1070
     1
1070
    74
1070
     0
1070
   340
1005
76
1070
   140
1040
4.499996186723546
1070
   284
1070
     8
1070
    78
1070
     8
1070
   345
1005
16
1070
   346
1005
14
1002
}
  0
LINE
  5
326
330
1F
100
AcDbEntity
  8
一点鎖線
 62
     7
370
    35
100
AcDbLine
 10
219.5684494419096
 20
1.485382328767429
 30
0.0
 11
251.5684494419096
 21
1.485382328767429
 31
0.0
  0
LINE
  5
327
330
1F
100
AcDbEntity
  8
一点鎖線
 62
     7
370
    35
100
AcDbLine
 10
235.5684494419096
 20
-39.51461767123259
 30
0.0
 11
235.5684494419096
 21
42.48538232876743
 31
0.0
  0
TEXT
  5
329
330
1F
100
AcDbEntity
  8
実線（中）
 62
     7
370
    35
100
AcDbText
 10
234.3107130713886
 20
68.60564340758759
 30
0.0
 40
4.999998678716324
  1
ソケット部
  7
MS PGothic B
 11
234.3107130713886
 21
67.59210504229728
 31
0.0
100
AcDbText
 73
     1
  0
DIMENSION
  5
32A
330
1F
100
AcDbEntity
  8
実線（中）
  6
Continuous
370
    35
100
AcDbDimension
  2
*D13
 10
245.724861463735
 20
56.69098812721111
 30
0.0
 11
256.950970461338
 21
61.96371537826397
 31
0.0
 70
    32
 71
     5
 42
-1.0
 73
     0
 74
     1
 75
     1
  3
Standard
100
AcDbAlignedDimension
 13
239.724861463735
 23
37.48538232876743
 33
0.0
 14
245.724861463735
 24
37.48538232876746
 34
0.0
100
AcDbRotatedDimension
1001
ACAD
1000
DSTYLE
1002
{
1070
    41
1040
3.0
1070
   289
1070
     1
1070
   342
1005
1B4
1070
   271
1070
     2
1070
    44
1040
1.0
1070
    42
1040
1.0
1070
   147
1040
2.0
1070
   372
1070
     0
1070
    77
1070
     1
1070
   272
1070
     2
1070
    73
1070
     0
1070
   174
1070
     1
1070
   172
1070
     1
1070
    74
1070
     0
1070
   340
1005
76
1070
   140
1040
4.499956054687499
1070
   284
1070
     8
1070
    78
1070
     8
1070
   345
1005
16
1070
   346
1005
14
1002
}
  0
TEXT
  5
335
330
1F
100
AcDbEntity
  8
実線（中）
 62
     7
370
    35
100
AcDbText
 10
200.7115734070213
 20
-22.56149980038497
 30
0.0
 40
4.499997681458117
  1
8-M3
  7
MS PGothic
 11
200.7115734070213
 21
-23.48195387159231
 31
0.0
100
AcDbText
 73
     1
  0
TEXT
  5
336
330
1F
100
AcDbEntity
  8
実線（中）
 62
     7
370
    35
100
AcDbText
 10
203.4449421703075
 20
-30.95659601267828
 30
0.0
 40
4.500003531851003
  1
ネジ
  7
MS PGothic
 11
203.4449421703075
 21
-31.8770512805569
 31
0.0
100
AcDbText
 73
     1
  0
HATCH
  5
337
330
1F
100
AcDbEntity
  8
実線（中）
  6
Continuous
 62
     7
370
    35
100
AcDbHatch
 10
0.0
 20
0.0
 30
0.0
210
0.0
220
0.0
230
1.0
  2
SOLID
 70
     1
 71
     1
 91
        1
 92
        7
 72
     0
 73
     1
 93
        3
 10
225.6285330390624
 20
-23.99790443614927
 10
226.2145916675842
 20
-18.96292879287353
 10
224.0272468103526
 20
-23.53567052185704
 97
        0
 75
     0
 76
     1
 47
0.0
 98
        1
 10
225.6285330390624
 20
-23.99790443614927
  0
LWPOLYLINE
  5
338
330
1F
100
AcDbEntity
  8
実線（中）
  6
Continuous
 62
     7
370
    35
100
AcDbPolyline
 90
        3
 70
     0
 43
0.0
 10
226.2145916675842
 20
-18.96292879287353
 10
222.0539517989182
 20
-33.3763569692061
 10
217.0539517989182
 20
-33.37635696920607
  0
LINE
  5
339
330
1F
100
AcDbEntity
  8
実線（中）
 62
     7
370
    35
100
AcDbLine
 10
217.0539517989182
 20
-33.37635696920607
 30
0.0
 11
203.0183915888394
 21
-33.37635696920604
 31
0.0
  0
LINE
  5
33A
330
1F
100
AcDbEntity
  8
実線（中）
 62
     7
370
    35
100
AcDbLine
 10
121.2629988839483
 20
27.00233895270283
 30
0.0
 11
121.2629988839483
 21
47.51463911281338
 31
0.0
  0
LINE
  5
33B
330
1F
100
AcDbEntity
  8
実線（中）
 62
     7
370
    35
100
AcDbLine
 10
122.8629988839483
 20
27.00233895270283
 30
0.0
 11
122.8629988839483
 21
47.51463911281338
 31
0.0
  0
LINE
  5
33C
330
1F
100
AcDbEntity
  8
実線（中）
 62
     7
370
    35
100
AcDbLine
 10
133.7629988839483
 20
47.51463911281338
 30
0.0
 11
133.7629988839483
 21
36.51463911281338
 31
0.0
  0
LINE
  5
33D
330
1F
100
AcDbEntity
  8
実線（中）
 62
     7
370
    35
100
AcDbLine
 10
139.2629988839483
 20
36.51463911281338
 30
0.0
 11
139.2629988839483
 21
47.51463911281338
 31
0.0
  0
LINE
  5
33E
330
1F
100
AcDbEntity
  8
実線（中）
 62
     7
370
    35
100
AcDbLine
 10
139.2629988839483
 20
36.51463911281338
 30
0.0
 11
133.7629988839483
 21
36.51463911281338
 31
0.0
  0
LINE
  5
33F
330
1F
100
AcDbEntity
  8
実線（中）
 62
     7
370
    35
100
AcDbLine
 10
139.2629988839483
 20
47.51463911281338
 30
0.0
 11
133.7629988839483
 21
47.51463911281338
 31
0.0
  0
TEXT
  5
340
330
1F
100
AcDbEntity
  8
寸法線
 62
     7
370
    35
100
AcDbText
 10
195.9472558009612
 20
65.31989351773093
 30
0.0
 40
4.500001171875001
  1
冷接点補償
  7
MS PGothic
 11
195.9472558009612
 21
64.39943873257468
 31
0.0
100
AcDbText
 73
     1
  0
TEXT
  5
341
330
1F
100
AcDbEntity
  8
寸法線
 62
     7
370
    35
100
AcDbText
 10
210.5740142728881
 20
57.35908687831665
 30
0.0
 40
4.500000804931608
  1
センサ
  7
MS PGothic
 11
210.5740142728881
 21
56.438632168217
 31
0.0
100
AcDbText
 73
     1
  0
LWPOLYLINE
  5
342
330
1F
100
AcDbEntity
  8
寸法線
  6
Continuous
 62
     7
370
    35
100
AcDbPolyline
 90
        3
 70
     0
 43
0.0
 10
233.9736271344116
 20
46.75115755177035
 10
235.2852343012937
 20
43.93586759027366
 10
235.5569941557364
 20
47.02978379939015
  0
LWPOLYLINE
  5
343
330
1F
100
AcDbEntity
  8
寸法線
  6
Continuous
 62
     7
370
    35
100
AcDbPolyline
 90
        3
 70
     0
 43
0.0
 10
235.2852343012937
 20
43.93586759027366
 10
233.342177334036
 20
54.9778004619732
 10
230.342177334036
 20
54.9778004619732
  0
LINE
  5
344
330
1F
100
AcDbEntity
  8
寸法線
 62
     7
370
    35
100
AcDbLine
 10
230.342177334036
 20
54.9778004619732
 30
0.0
 11
198.3819500613088
 21
54.97780046197322
 31
0.0
  0
DIMENSION
  5
345
330
1F
100
AcDbEntity
  8
寸法線
  6
Continuous
 62
     7
370
    35
100
AcDbDimension
  2
*D14
 10
227.0503166976174
 20
37.99463911281338
 30
0.0
 11
221.7776640715798
 21
43.45059249505046
 31
0.0
 70
    32
 71
     5
 42
-1.0
 73
     0
 74
     0
 75
     0
  3
Standard
100
AcDbAlignedDimension
 13
231.9731987168471
 23
48.99463911281337
 33
0.0
 14
231.9731987168471
 24
37.99463911281337
 34
0.0
 50
90.0
100
AcDbRotatedDimension
1001
ACAD
1000
DSTYLE
1002
{
1070
    41
1040
3.0
1070
   289
1070
     1
1070
   342
1005
1B4
1070
   271
1070
     2
1070
    44
1040
1.0
1070
    42
1040
1.0
1070
   147
1040
2.0
1070
   372
1070
     0
1070
    77
1070
     1
1070
   272
1070
     2
1070
    73
1070
     0
1070
   174
1070
     1
1070
   172
1070
     1
1070
    74
1070
     0
1070
   340
1005
76
1070
   140
1040
4.499996035015537
1070
   284
1070
     8
1070
    78
1070
     8
1070
   345
1005
16
1070
   346
1005
14
1002
}
  0
LINE
  5
34F
330
1F
100
AcDbEntity
  8
実線（中）
 62
     7
370
    35
100
AcDbLine
 10
241.7729987168471
 20
28.48233911281339
 30
0.0
 11
241.7729987168471
 21
49.91243911281343
 31
0.0
  0
LINE
  5
350
330
1F
100
AcDbEntity
  8
実線（中）
 62
     7
370
    35
100
AcDbLine
 10
243.3729987168471
 20
28.48233911281339
 30
0.0
 11
243.3729987168471
 21
49.43213911281337
 31
0.0
  0
LINE
  5
351
330
1F
100
AcDbEntity
  8
実線（中）
 62
     7
370
    35
100
AcDbLine
 10
243.3729987168471
 20
34.48233911281339
 30
0.0
 11
245.5729987168471
 21
34.48233911281339
 31
0.0
  0
LINE
  5
352
330
1F
100
AcDbEntity
  8
実線（中）
 62
     7
370
    35
100
AcDbLine
 10
243.3729987168471
 20
35.48233911281339
 30
0.0
 11
245.5729987168471
 21
35.48233911281339
 31
0.0
  0
LINE
  5
353
330
1F
100
AcDbEntity
  8
実線（中）
 62
     7
370
    35
100
AcDbLine
 10
243.3874987168471
 20
25.48233911281339
 30
0.0
 11
245.5729987168471
 21
25.48233911281339
 31
0.0
  0
LINE
  5
354
330
1F
100
AcDbEntity
  8
実線（中）
 62
     7
370
    35
100
AcDbLine
 10
243.3592688331
 20
26.48233911281339
 30
0.0
 11
245.5729987168471
 21
26.48233911281339
 31
0.0
  0
LINE
  5
355
330
1F
100
AcDbEntity
  8
実線（中）
 62
     7
370
    35
100
AcDbLine
 10
238.4953987168471
 20
28.48233911281339
 30
0.0
 11
241.7729987168471
 21
28.48233911281339
 31
0.0
  0
LINE
  5
356
330
1F
100
AcDbEntity
  8
実線（中）
 62
     7
370
    35
100
AcDbLine
 10
239.5729987168471
 20
26.48233911281339
 30
0.0
 11
241.772998807591
 21
26.48233911281339
 31
0.0
  0
LINE
  5
357
330
1F
100
AcDbEntity
  8
実線（中）
 62
     7
370
    35
100
AcDbLine
 10
239.5729987168471
 20
25.48233911281339
 30
0.0
 11
241.7864987168471
 21
25.48233911281339
 31
0.0
  0
LINE
  5
358
330
1F
100
AcDbEntity
  8
実線（中）
 62
     7
370
    35
100
AcDbLine
 10
241.7729987168471
 20
28.48233911281339
 30
0.0
 11
243.3729987168471
 21
28.48233911281339
 31
0.0
  0
LINE
  5
359
330
1F
100
AcDbEntity
  8
実線（中）
 62
     7
370
    35
100
AcDbLine
 10
241.7729987168471
 20
26.98233911281339
 30
0.0
 11
243.373298716847
 21
26.98233911281339
 31
0.0
  0
LINE
  5
35A
330
1F
100
AcDbEntity
  8
実線（中）
 62
     7
370
    35
100
AcDbLine
 10
241.773006243219
 20
27.9823319393747
 30
0.0
 11
243.373298716847
 21
27.98233911281339
 31
0.0
  0
LINE
  5
35B
330
1F
100
AcDbEntity
  8
実線（中）
 62
     7
370
    35
100
AcDbLine
 10
241.7729987168471
 20
26.48233911281339
 30
0.0
 11
243.3592688392616
 21
26.48233913188692
 31
0.0
  0
ARC
  5
35C
330
1F
100
AcDbEntity
  8
実線（中）
 62
     7
370
    35
100
AcDbCircle
 10
243.3187411130046
 20
26.73365328614402
 30
0.0
 40
0.2545609960805721
100
AcDbArc
 50
279.1608327730605
 51
77.62631523295794
  0
ARC
  5
35D
330
1F
100
AcDbEntity
  8
実線（中）
 62
     7
370
    35
100
AcDbCircle
 10
242.8548987168471
 20
27.48233911281339
 30
0.0
 40
0.7202000000000001
100
AcDbArc
 50
316.0350821396971
 51
43.96491786029969
  0
ARC
  5
35E
330
1F
100
AcDbEntity
  8
実線（中）
 62
     7
370
    35
100
AcDbCircle
 10
243.3170987168471
 20
28.23233911281339
 30
0.0
 40
0.2562
100
AcDbArc
 50
282.6694760352133
 51
77.3305239647838
  0
ARC
  5
35F
330
1F
100
AcDbEntity
  8
実線（中）
 62
     7
370
    35
100
AcDbCircle
 10
241.8280987168471
 20
26.73233911281339
 30
0.0
 40
0.2560000000000234
100
AcDbArc
 50
102.4292769661248
 51
257.5707230338753
  0
ARC
  5
360
330
1F
100
AcDbEntity
  8
実線（中）
 62
     7
370
    35
100
AcDbCircle
 10
242.2975987168471
 20
27.48233911281339
 30
0.0
 40
0.7247
100
AcDbArc
 50
136.3753713047949
 51
223.6246286952083
  0
ARC
  5
361
330
1F
100
AcDbEntity
  8
実線（中）
 62
     7
370
    35
100
AcDbCircle
 10
241.8290987168471
 20
28.23233911281339
 30
0.0
 40
0.2562
100
AcDbArc
 50
102.6476583216918
 51
257.3523416783081
  0
ARC
  5
362
330
1F
100
AcDbEntity
  8
実線（中）
 62
     7
370
    35
100
AcDbCircle
 10
240.1108604381667
 20
25.94539673429112
 30
0.0
 40
1.746714289677924
100
AcDbArc
 50
304.2610499739044
 51
17.9026956649891
  0
LINE
  5
363
330
1F
100
AcDbEntity
  8
実線（中）
 62
     7
370
    35
100
AcDbLine
 10
239.5729987168471
 20
34.48233911281339
 30
0.0
 11
241.7729987168471
 21
34.48233911281339
 31
0.0
  0
LINE
  5
364
330
1F
100
AcDbEntity
  8
実線（中）
 62
     7
370
    35
100
AcDbLine
 10
239.5729987168471
 20
35.48233911281339
 30
0.0
 11
241.7729987168471
 21
35.48233911281339
 31
0.0
  0
LINE
  5
365
330
1F
100
AcDbEntity
  8
実線（中）
 62
     7
370
    35
100
AcDbLine
 10
243.3729987168471
 20
28.48233911281339
 30
0.0
 11
245.5729987168471
 21
28.48233911281339
 31
0.0
  0
LINE
  5
366
330
1F
100
AcDbEntity
  8
実線（中）
 62
     7
370
    35
100
AcDbLine
 10
238.073198716847
 20
37.48233895270276
 30
0.0
 11
246.5729987168471
 21
37.48233895270282
 31
0.0
  0
LINE
  5
367
330
1F
100
AcDbEntity
  8
実線（中）
 62
     7
370
    35
100
AcDbLine
 10
225.112998716847
 20
37.48233895270276
 30
0.0
 11
233.0729987168471
 21
37.48233895270282
 31
0.0
  0
LINE
  5
368
330
1F
100
AcDbEntity
  8
実線（中）
 62
     7
370
    35
100
AcDbLine
 10
239.1731987168471
 20
37.99463911281337
 30
0.0
 11
239.1731987168471
 21
48.99463911281337
 31
0.0
  0
LINE
  5
369
330
1F
100
AcDbEntity
  8
実線（中）
 62
     7
370
    35
100
AcDbLine
 10
231.9731987168471
 20
37.99463911281337
 30
0.0
 11
231.9731987168471
 21
48.99463911281337
 31
0.0
  0
LINE
  5
36A
330
1F
100
AcDbEntity
  8
実線（中）
 62
     7
370
    35
100
AcDbLine
 10
231.9731987168471
 20
37.99463911281337
 30
0.0
 11
231.9731987168471
 21
48.99463911281337
 31
0.0
  0
CIRCLE
  5
36B
330
1F
100
AcDbEntity
  8
実線（中）
 62
     7
370
    35
100
AcDbCircle
 10
235.5731987168471
 20
38.49463911281337
 30
0.0
 40
0.5
  0
LINE
  5
36C
330
1F
100
AcDbEntity
  8
実線（中）
 62
     7
370
    35
100
AcDbLine
 10
231.9731987168471
 20
37.99463911281337
 30
0.0
 11
239.1731987168471
 21
37.99463911281337
 31
0.0
  0
LINE
  5
36D
330
1F
100
AcDbEntity
  8
実線（中）
 62
     7
370
    35
100
AcDbLine
 10
235.0731987168471
 20
37.99463911281337
 30
0.0
 11
235.0731987168471
 21
38.49463911281337
 31
0.0
  0
LINE
  5
36E
330
1F
100
AcDbEntity
  8
実線（中）
 62
     7
370
    35
100
AcDbLine
 10
233.0731987168471
 20
37.49463911281337
 30
0.0
 11
233.0731987168471
 21
37.98233895270282
 31
0.0
  0
LINE
  5
36F
330
1F
100
AcDbEntity
  8
実線（中）
 62
     7
370
    35
100
AcDbLine
 10
232.6473987168471
 20
36.21723911281343
 30
0.0
 11
233.0731987168471
 21
37.49463911281337
 31
0.0
  0
LINE
  5
370
330
1F
100
AcDbEntity
  8
実線（中）
 62
     7
370
    35
100
AcDbLine
 10
238.0731987168471
 20
37.49463911281337
 30
0.0
 11
238.0731987168471
 21
37.98233895270282
 31
0.0
  0
LINE
  5
371
330
1F
100
AcDbEntity
  8
実線（中）
 62
     7
370
    35
100
AcDbLine
 10
238.0731987168471
 20
37.49463911281337
 30
0.0
 11
238.5731987168471
 21
35.99463911281337
 31
0.0
  0
LINE
  5
372
330
1F
100
AcDbEntity
  8
実線（中）
 62
     7
370
    35
100
AcDbLine
 10
236.0731987168471
 20
37.99463911281337
 30
0.0
 11
236.0731987168471
 21
38.49463911281337
 31
0.0
  0
CIRCLE
  5
373
330
1F
100
AcDbEntity
  8
実線（中）
 62
     7
370
    35
100
AcDbCircle
 10
235.5731987168471
 20
48.49463911281337
 30
0.0
 40
0.5
  0
LINE
  5
374
330
1F
100
AcDbEntity
  8
実線（中）
 62
     7
370
    35
100
AcDbLine
 10
231.9731987168471
 20
48.99463911281337
 30
0.0
 11
239.1731987168471
 21
48.99463911281337
 31
0.0
  0
LINE
  5
375
330
1F
100
AcDbEntity
  8
実線（中）
 62
     7
370
    35
100
AcDbLine
 10
235.0731987168471
 20
48.49463911281337
 30
0.0
 11
235.0731987168471
 21
48.99463911281337
 31
0.0
  0
ARC
  5
376
330
1F
100
AcDbEntity
  8
実線（中）
 62
     7
370
    35
100
AcDbCircle
 10
239.8730987168471
 20
49.91243911281343
 30
0.0
 40
3.4999
100
AcDbArc
 50
0.0
 51
180.0
  0
ARC
  5
377
330
1F
100
AcDbEntity
  8
実線（中）
 62
     7
370
    35
100
AcDbCircle
 10
239.8730987168471
 20
49.91243911281343
 30
0.0
 40
1.8999
100
AcDbArc
 50
0.0
 51
180.0
  0
LINE
  5
378
330
1F
100
AcDbEntity
  8
実線（中）
 62
     7
370
    35
100
AcDbLine
 10
237.9731987168471
 20
48.99463911281337
 30
0.0
 11
237.9731987168471
 21
49.91243911281343
 31
0.0
  0
POINT
  5
379
330
1F
100
AcDbEntity
  8
実線（中）
 62
     7
370
    35
100
AcDbPoint
 10
237.9731987168471
 20
48.99463911281337
 30
0.0
  0
ARC
  5
37A
330
1F
100
AcDbEntity
  8
実線（中）
 62
     7
370
    35
100
AcDbCircle
 10
241.9731987168471
 20
51.70923911281339
 30
0.0
 40
4.0
100
AcDbArc
 50
222.7386990811215
 51
225.5732830496978
  0
LINE
  5
37B
330
1F
100
AcDbEntity
  8
実線（中）
 62
     7
370
    35
100
AcDbLine
 10
236.0731987168471
 20
48.49463911281337
 30
0.0
 11
236.0731987168471
 21
48.99463911281337
 31
0.0
  0
LINE
  5
37C
330
1F
100
AcDbEntity
  8
実線（中）
 62
     7
370
    35
100
AcDbLine
 10
236.3731987168471
 20
48.99463911281337
 30
0.0
 11
236.3731987168471
 21
49.91243911281343
 31
0.0
  0
LINE
  5
37D
330
1F
100
AcDbEntity
  8
実線（中）
 62
     7
370
    35
100
AcDbLine
 10
243.3729987168471
 20
48.78163911281341
 30
0.0
 11
243.3729987168471
 21
49.91243911281343
 31
0.0
  0
ARC
  5
37E
330
1F
100
AcDbEntity
  8
実線（中）
370
    35
100
AcDbCircle
 10
243.7328004468229
 20
30.31435966460923
 30
0.0
 40
0.75
100
AcDbArc
 50
90.0
 51
118.6681376691073
  0
ARC
  5
37F
330
1F
100
AcDbEntity
  8
実線（中）
370
    35
100
AcDbCircle
 10
242.5661337801562
 20
31.48102633127586
 30
0.0
 40
2.5
100
AcDbArc
 50
108.4969410007298
 51
251.5030589992702
  0
ARC
  5
380
330
1F
100
AcDbEntity
  8
実線（中）
370
    35
100
AcDbCircle
 10
241.3994671134895
 20
32.64769299794254
 30
0.0
 40
0.75
100
AcDbArc
 50
270.0
 51
299.8705531946925
  0
ARC
  5
381
330
1F
100
AcDbEntity
  8
実線（中）
370
    35
100
AcDbCircle
 10
243.7328004468229
 20
23.6476929979426
 30
0.0
 40
0.75
100
AcDbArc
 50
180.0
 51
270.0
  0
ARC
  5
382
330
1F
100
AcDbEntity
  8
実線（中）
370
    35
100
AcDbCircle
 10
243.7328004468229
 20
21.31435966460923
 30
0.0
 40
0.75
100
AcDbArc
 50
90.0
 51
180.0
  0
ARC
  5
383
330
1F
100
AcDbEntity
  8
実線（中）
370
    35
100
AcDbCircle
 10
241.3994671134895
 20
21.31435966460923
 30
0.0
 40
0.75
100
AcDbArc
 50
0.0
 51
90.0
  0
ARC
  5
384
330
1F
100
AcDbEntity
  8
実線（中）
370
    35
100
AcDbCircle
 10
242.3161337801563
 20
20.98102633127586
 30
0.0
 40
0.1666666666666667
100
AcDbArc
 50
180.0
 51
270.0
  0
ARC
  5
385
330
1F
100
AcDbEntity
  8
実線（中）
370
    35
100
AcDbCircle
 10
242.8161337801562
 20
20.98102633127586
 30
0.0
 40
0.1666666666666667
100
AcDbArc
 50
270.0
 51
0.0
  0
LINE
  5
386
330
1F
100
AcDbEntity
  8
実線（中）
370
    35
100
AcDbLine
 10
242.8161337801562
 20
20.81435966460923
 30
0.0
 11
242.3161337801563
 21
20.81435966460923
 31
0.0
  0
LINE
  5
387
330
1F
100
AcDbEntity
  8
実線（中）
370
    35
100
AcDbLine
 10
242.1494671134895
 20
20.98102633127586
 30
0.0
 11
242.1494671134895
 21
21.31435966460917
 31
0.0
  0
LINE
  5
388
330
1F
100
AcDbEntity
  8
実線（中）
370
    35
100
AcDbLine
 10
242.9828004468229
 20
20.98102633127586
 30
0.0
 11
242.9828004468229
 21
21.31435966460923
 31
0.0
  0
LINE
  5
389
330
1F
100
AcDbEntity
  8
実線（中）
370
    35
100
AcDbLine
 10
242.1494671134895
 20
23.98102633127591
 30
0.0
 11
242.1494671134895
 21
23.64769299794254
 31
0.0
  0
LINE
  5
38A
330
1F
100
AcDbEntity
  8
実線（中）
370
    35
100
AcDbLine
 10
242.9828004468229
 20
23.98102633127586
 30
0.0
 11
242.9828004468229
 21
23.64769299794254
 31
0.0
  0
LINE
  5
38B
330
1F
100
AcDbEntity
  8
実線（中）
370
    35
100
AcDbLine
 10
242.8161337801562
 20
24.14769299794254
 30
0.0
 11
242.3161337801563
 21
24.14769299794254
 31
0.0
  0
ARC
  5
38C
330
1F
100
AcDbEntity
  8
実線（中）
370
    35
100
AcDbCircle
 10
242.3161337801563
 20
23.98102633127591
 30
0.0
 40
0.1666666666666667
100
AcDbArc
 50
90.0
 51
180.0
  0
ARC
  5
38D
330
1F
100
AcDbEntity
  8
実線（中）
370
    35
100
AcDbCircle
 10
242.8161337801562
 20
23.98102633127591
 30
0.0
 40
0.1666666666666667
100
AcDbArc
 50
0.0
 51
90.0
  0
ARC
  5
38E
330
1F
100
AcDbEntity
  8
実線（中）
370
    35
100
AcDbCircle
 10
241.3994671134895
 20
23.64769299794254
 30
0.0
 40
0.75
100
AcDbArc
 50
270.0
 51
0.0
  0
ARC
  5
38F
330
1F
100
AcDbEntity
  8
実線（中）
 62
     7
370
    35
100
AcDbCircle
 10
245.0214071221458
 20
25.94539673429112
 30
0.0
 40
1.746714289677924
100
AcDbArc
 50
162.0973043350109
 51
235.7389500260956
  0
ARC
  5
390
330
1F
100
AcDbEntity
  8
実線（中）
370
    35
100
AcDbCircle
 10
243.7328004468229
 20
32.6476929979426
 30
0.0
 40
0.75
100
AcDbArc
 50
241.3318623308927
 51
270.0
  0
ARC
  5
391
330
1F
100
AcDbEntity
  8
実線（中）
370
    35
100
AcDbCircle
 10
241.3994671134895
 20
30.31435966460923
 30
0.0
 40
0.75
100
AcDbArc
 50
60.12944680530744
 51
90.0
  0
ARC
  5
392
330
1F
100
AcDbEntity
  8
実線（中）
370
    35
100
AcDbCircle
 10
242.5661337801562
 20
31.48102633127586
 30
0.0
 40
2.5
100
AcDbArc
 50
288.829071340747
 51
71.17092865925298
  0
LINE
  5
393
330
1F
100
AcDbEntity
  8
実線（中）
 62
     7
370
    35
100
AcDbLine
 10
121.2629988839483
 20
47.51463911281338
 30
0.0
 11
121.2629988839483
 21
48.43243911281344
 31
0.0
  0
LINE
  5
394
330
1F
100
AcDbEntity
  8
実線（中）
 62
     7
370
    35
100
AcDbLine
 10
122.8629988839483
 20
47.51463911281338
 30
0.0
 11
122.8629988839483
 21
48.43243911281344
 31
0.0
  0
ARC
  5
395
330
1F
100
AcDbEntity
  8
実線（中）
 62
     7
370
    35
100
AcDbCircle
 10
132.8615378609383
 20
48.43243911281344
 30
0.0
 40
3.4999
100
AcDbArc
 50
0.0
 51
90.0
  0
ARC
  5
396
330
1F
100
AcDbEntity
  8
実線（中）
 62
     7
370
    35
100
AcDbCircle
 10
132.8615378609383
 20
48.43243911281344
 30
0.0
 40
1.8999
100
AcDbArc
 50
0.0
 51
90.0
  0
LINE
  5
397
330
1F
100
AcDbEntity
  8
実線（中）
370
    35
100
AcDbLine
 10
134.7614378609383
 20
48.43243911281344
 30
0.0
 11
134.7614378609383
 21
47.51463911281338
 31
0.0
  0
LINE
  5
398
330
1F
100
AcDbEntity
  8
実線（中）
370
    35
100
AcDbLine
 10
136.3614378609383
 20
48.43243911281344
 30
0.0
 11
136.3614378609383
 21
47.51463911281338
 31
0.0
  0
LINE
  5
399
330
1F
100
AcDbEntity
  8
実線（中）
370
    35
100
AcDbLine
 10
124.7628988839483
 20
51.93233911281341
 30
0.0
 11
132.8615378609383
 21
51.93233911281341
 31
0.0
  0
LINE
  5
39A
330
1F
100
AcDbEntity
  8
実線（中）
370
    35
100
AcDbLine
 10
124.7628988839483
 20
50.33233911281344
 30
0.0
 11
132.8615378609383
 21
50.33233911281344
 31
0.0
  0
ARC
  5
39B
330
1F
100
AcDbEntity
  8
実線（中）
 62
     7
370
    35
100
AcDbCircle
 10
124.7628988839483
 20
48.43243911281344
 30
0.0
 40
3.4999
100
AcDbArc
 50
90.0
 51
180.0
  0
ARC
  5
39C
330
1F
100
AcDbEntity
  8
実線（中）
 62
     7
370
    35
100
AcDbCircle
 10
124.7628988839483
 20
48.43243911281344
 30
0.0
 40
1.8999
100
AcDbArc
 50
90.0
 51
180.0
  0
VIEWPORT
  5
39D
330
1B
100
AcDbEntity
 67
     1
  8
0
100
AcDbViewport
 10
0.0
 20
0.0
 30
0.0
 40
300.6528138915164
 41
160.3952280437098
 68
     1
 69
     1
 12
127.7842247209548
 22
-1.957403590972461
 13
0.0
 23
0.0
 14
10.0
 24
10.0
 15
10.0
 25
10.0
 16
0.0
 26
0.0
 36
1.0
 17
0.0
 27
0.0
 37
0.0
 42
50.0
 43
0.0
 44
0.0
 45
160.3952280437098
 50
0.0
 51
0.0
 72
   100
 90
   557152
  1

281
     0
 71
     1
 74
     0
110
0.0
120
0.0
130
0.0
111
1.0
121
0.0
131
0.0
112
0.0
122
1.0
132
0.0
 79
     0
146
0.0
170
     0
 61
     5
348
2F
292
     1
282
     1
141
0.0
142
0.0
 63
   256
361
39E
  0
VIEWPORT
  5
39F
330
1B
100
AcDbEntity
 67
     1
  8
新しいレイヤ 1
100
AcDbViewport
 10
127.7842247209548
 20
-1.957403590972461
 30
0.0
 40
294.7576606779572
 41
157.2502235722645
 68
     2
 69
     2
 12
127.7842247209548
 22
-1.957403590972469
 13
0.0
 23
0.0
 14
10.0
 24
10.0
 15
10.0
 25
10.0
 16
0.0
 26
0.0
 36
1.0
 17
0.0
 27
0.0
 37
0.0
 42
50.0
 43
0.0
 44
0.0
 45
157.2502235722645
 50
0.0
 51
0.0
 72
   100
 90
   622688
340
3A0
  1

281
     0
 71
     1
 74
     0
110
0.0
120
0.0
130
0.0
111
1.0
121
0.0
131
0.0
112
0.0
122
1.0
132
0.0
 79
     0
146
0.0
170
     0
 61
     5
348
2F
292
     1
282
     1
141
0.0
142
0.0
 63
   256
361
3A6
  0
POLYLINE
  5
3A0
102
{ACAD_REACTORS
330
39F
102
}
330
1B
100
AcDbEntity
 67
     1
  8
rcviewportframe
100
AcDb2dPolyline
 66
     1
 10
0.0
 20
0.0
 30
0.0
 70
     1
  0
VERTEX
  5
3A1
330
3A0
100
AcDbEntity
 67
     1
  8
rcviewportframe
100
AcDbVertex
100
AcDb2dVertex
 10
-19.59460561802385
 20
-80.58251537710473
 30
0.0
  0
VERTEX
  5
3A2
330
3A0
100
AcDbEntity
 67
     1
  8
rcviewportframe
100
AcDbVertex
100
AcDb2dVertex
 10
275.1630550599334
 20
-80.58251537710473
 30
0.0
  0
VERTEX
  5
3A3
330
3A0
100
AcDbEntity
 67
     1
  8
rcviewportframe
100
AcDbVertex
100
AcDb2dVertex
 10
275.1630550599334
 20
76.6677081951598
 30
0.0
  0
VERTEX
  5
3A4
330
3A0
100
AcDbEntity
 67
     1
  8
rcviewportframe
100
AcDbVertex
100
AcDb2dVertex
 10
-19.59460561802385
 20
76.6677081951598
 30
0.0
  0
SEQEND
  5
3A5
330
3A0
100
AcDbEntity
 67
     1
  8
rcviewportframe
  0
ENDSEC
  0
SECTION
  2
OBJECTS
  0
DICTIONARY
  5
C
330
0
100
AcDbDictionary
281
     1
  3
ACAD_DETAILVIEWSTYLE
350
3E2
  3
ACAD_GROUP
350
D
  3
ACAD_IMAGE_VARS
350
6F
  3
ACAD_LAYOUT
350
1A
  3
ACAD_MATERIAL
350
43
  3
ACAD_MLEADERSTYLE
350
6B
  3
ACAD_MLINESTYLE
350
17
  3
ACAD_PLOTSETTINGS
350
19
  3
ACAD_PLOTSTYLENAME
350
E
  3
ACAD_SCALELIST
350
47
  3
ACAD_SECTIONVIEWSTYLE
350
3E3
  3
ACAD_TABLESTYLE
350
69
  3
ACAD_VISUALSTYLE
350
2A
  3
ACDB_RECOMPOSE_DATA
350
3DF
  3
AcDbVariableDictionary
350
3A7
  0
SUN
  5
6D
330
29
100
AcDbSun
 90
        1
290
     0
 63
     7
421
 16777215
 40
1.0
291
     1
 91
  2455826
 92
 54000000
292
     0
 70
     2
 71
   256
280
     1
  0
SUN
  5
39E
330
39D
100
AcDbSun
 90
        1
290
     0
 63
     7
421
 16777215
 40
1.0
291
     1
 91
  2455826
 92
 54000000
292
     0
 70
     2
 71
   256
280
     1
  0
SUN
  5
3A6
330
39F
100
AcDbSun
 90
        1
290
     0
 63
     7
421
 16777215
 40
1.0
291
     1
 91
  2455826
 92
 54000000
292
     0
 70
     2
 71
   256
280
     1
  0
DICTIONARY
  5
3E2
102
{ACAD_REACTORS
330
C
102
}
330
C
100
AcDbDictionary
281
     1
  0
DICTIONARY
  5
D
102
{ACAD_REACTORS
330
C
102
}
330
C
100
AcDbDictionary
281
     1
  0
RASTERVARIABLES
  5
6F
102
{ACAD_REACTORS
330
C
102
}
330
C
100
AcDbRasterVariables
 90
        0
 70
     0
 71
     1
 72
     0
  0
DICTIONARY
  5
1A
102
{ACAD_REACTORS
330
C
102
}
330
C
100
AcDbDictionary
281
     1
  3
Model
350
22
  3
レイアウト1
350
1E
  0
DICTIONARY
  5
43
102
{ACAD_REACTORS
330
C
102
}
330
C
100
AcDbDictionary
281
     1
  3
ByBlock
350
45
  3
ByLayer
350
44
  3
Global
350
46
  0
DICTIONARY
  5
6B
102
{ACAD_REACTORS
330
C
102
}
330
C
100
AcDbDictionary
281
     1
  3
Standard
350
6C
  0
DICTIONARY
  5
17
102
{ACAD_REACTORS
330
C
102
}
330
C
100
AcDbDictionary
281
     1
  3
Standard
350
18
  0
DICTIONARY
  5
19
102
{ACAD_REACTORS
330
C
102
}
330
C
100
AcDbDictionary
281
     1
  0
ACDBDICTIONARYWDFLT
  5
E
102
{ACAD_REACTORS
330
C
102
}
330
C
100
AcDbDictionary
281
     1
  3
Normal
350
F
100
AcDbDictionaryWithDefault
340
F
  0
DICTIONARY
  5
47
102
{ACAD_REACTORS
330
C
102
}
330
C
100
AcDbDictionary
281
     1
  3
A0
350
48
  3
A1
350
49
  3
A2
350
4A
  3
A3
350
4B
  3
A4
350
4C
  3
A5
350
4D
  3
A6
350
4E
  3
A7
350
4F
  3
A8
350
50
  3
A9
350
51
  3
B0
350
52
  3
B1
350
53
  3
B2
350
54
  3
B3
350
55
  3
B4
350
56
  3
B5
350
57
  3
B6
350
58
  3
B7
350
59
  3
B8
350
5A
  3
B9
350
5B
  3
C0
350
5C
  3
C1
350
5D
  3
C2
350
5E
  3
C3
350
5F
  3
C4
350
60
  3
C5
350
61
  3
C6
350
62
  3
C7
350
63
  3
C8
350
64
  3
C9
350
65
  3
D0
350
66
  3
D1
350
67
  3
D2
350
68
  0
DICTIONARY
  5
3E3
102
{ACAD_REACTORS
330
C
102
}
330
C
100
AcDbDictionary
281
     1
  0
DICTIONARY
  5
69
102
{ACAD_REACTORS
330
C
102
}
330
C
100
AcDbDictionary
281
     1
  3
Standard
350
6A
  0
DICTIONARY
  5
2A
102
{ACAD_REACTORS
330
C
102
}
330
C
100
AcDbDictionary
281
     1
  3
2dWireframe
350
2F
  3
Basic
350
32
  3
Brighten
350
36
  3
ColorChange
350
3A
  3
Conceptual
350
34
  3
Dim
350
35
  3
EdgeColorOff
350
3D
  3
Facepattern
350
39
  3
Flat
350
2B
  3
FlatWithEdges
350
2C
  3
Gouraud
350
2D
  3
GouraudWithEdges
350
2E
  3
Hidden
350
31
  3
JitterOff
350
3B
  3
Linepattern
350
38
  3
OverhangOff
350
3C
  3
Realistic
350
33
  3
Shaded
350
42
  3
Shaded with edges
350
41
  3
Shades of Gray
350
3E
  3
Sketchy
350
3F
  3
Thicken
350
37
  3
Wireframe
350
30
  3
X-Ray
350
40
  0
XRECORD
  5
3DF
102
{ACAD_REACTORS
330
C
102
}
330
C
100
AcDbXrecord
280
     1
 90
        1
330
6A
  0
DICTIONARY
  5
3A7
102
{ACAD_REACTORS
330
C
102
}
330
C
100
AcDbDictionary
281
     1
  3
CANNOSCALE
350
3A8
  3
CMLEADERSTYLE
350
3E1
  3
CTABLESTYLE
350
3E0
  3
XCLIPFRAME
350
3A9
  0
LAYOUT
  5
22
102
{ACAD_REACTORS
330
1A
102
}
330
1A
100
AcDbPlotSettings
  1

  2
none_device
  4
Letter_(8.50_x_11.00_Inches)
  6

 40
6.35
 41
6.35
 42
6.35000508
 43
6.35000508
 44
215.9
 45
279.4
 46
0.0
 47
0.0
 48
0.0
 49
0.0
140
0.0
141
0.0
142
1.0
143
1.0
 70
  1712
 72
     0
 73
     0
 74
     0
  7

 75
     0
 76
     0
 77
     2
 78
   300
147
1.0
148
0.0
149
0.0
100
AcDbLayout
  1
Model
 70
     1
 71
     0
 10
-20.0
 20
-98.33103715473057
 11
348.4470758474467
 21
93.43752817729938
 12
0.0
 22
0.0
 32
0.0
 14
-20.0
 24
-98.33103715473057
 34
0.0
 15
348.4470758474467
 25
93.43752817729938
 35
0.0
146
0.0
 13
0.0
 23
0.0
 33
0.0
 16
1.0
 26
0.0
 36
0.0
 17
0.0
 27
1.0
 37
0.0
 76
     0
330
1F
331
29
  0
LAYOUT
  5
1E
102
{ACAD_REACTORS
330
1A
102
}
330
1A
100
AcDbPlotSettings
  1

  2
none_device
  4
ISO_A3_(420.00_x_297.00_MM)
  6

 40
7.5
 41
20.0
 42
7.5
 43
20.0
 44
420.0
 45
297.0
 46
-7.5
 47
-20.0
 48
0.0
 49
0.0
140
0.0
141
0.0
142
1.0
143
1.0
 70
   688
 72
     1
 73
     0
 74
     5
  7

 75
    16
 76
     0
 77
     2
 78
   300
147
1.0
148
0.0
149
0.0
100
AcDbLayout
  1
レイアウト1
 70
     0
 71
     1
 10
-7.5
 20
-20.0
 11
420.0
 21
297.0
 12
0.0
 22
0.0
 32
0.0
 14
-9.375
 24
-25.0
 34
0.0
 15
525.0
 25
371.25
 35
0.0
146
0.0
 13
0.0
 23
0.0
 33
0.0
 16
1.0
 26
0.0
 36
0.0
 17
0.0
 27
1.0
 37
0.0
 76
     0
330
1B
331
39D
  0
MATERIAL
  5
45
102
{ACAD_REACTORS
330
43
102
}
330
43
100
AcDbMaterial
  1
ByBlock
 72
     1
 94
      127
  0
MATERIAL
  5
44
102
{ACAD_REACTORS
330
43
102
}
330
43
100
AcDbMaterial
  1
ByLayer
 72
     1
 94
      127
  0
MATERIAL
  5
46
102
{ACAD_REACTORS
330
43
102
}
330
43
100
AcDbMaterial
  1
Global
 72
     1
 94
      127
  0
MLEADERSTYLE
  5
6C
102
{ACAD_REACTORS
330
6B
102
}
102
{ACAD_XDICTIONARY
360
3DD
102
}
330
6B
100
AcDbMLeaderStyle
170
     2
171
     1
172
     0
 90
        2
 40
0.0
 41
0.0
173
     1
 91
-1056964608
340
14
 92
       -2
290
     1
 42
0.09
291
     1
 43
0.36
  3
Standard
341
0
 44
0.18
300

342
11
174
     1
178
     6
175
     1
176
     0
 93
-1056964608
 45
0.18
292
     0
297
     0
 46
0.18
343
0
 94
-1056964608
 47
1.0
 49
1.0
140
1.0
293
     1
141
0.0
294
     1
177
     0
142
1.0
295
     0
296
     0
143
0.125
1001
ACAD_MLEADERVER
1070
     2
  0
MLINESTYLE
  5
18
102
{ACAD_REACTORS
330
17
102
}
330
17
100
AcDbMlineStyle
  2
Standard
 70
     0
  3

 62
   256
 51
90.0
 52
90.0
 71
     2
 49
0.5
 62
   256
  6
BYLAYER
 49
-0.5
 62
   256
  6
BYLAYER
  0
ACDBPLACEHOLDER
  5
F
102
{ACAD_REACTORS
330
E
102
}
330
E
  0
SCALE
  5
48
102
{ACAD_REACTORS
330
47
102
}
330
47
100
AcDbScale
 70
     0
300
1:1
140
1.0
141
1.0
290
     1
  0
SCALE
  5
49
102
{ACAD_REACTORS
330
47
102
}
330
47
100
AcDbScale
 70
     0
300
1:2
140
1.0
141
2.0
290
     0
  0
SCALE
  5
4A
102
{ACAD_REACTORS
330
47
102
}
330
47
100
AcDbScale
 70
     0
300
1:4
140
1.0
141
4.0
290
     0
  0
SCALE
  5
4B
102
{ACAD_REACTORS
330
47
102
}
330
47
100
AcDbScale
 70
     0
300
1:5
140
1.0
141
5.0
290
     0
  0
SCALE
  5
4C
102
{ACAD_REACTORS
330
47
102
}
330
47
100
AcDbScale
 70
     0
300
1:8
140
1.0
141
8.0
290
     0
  0
SCALE
  5
4D
102
{ACAD_REACTORS
330
47
102
}
330
47
100
AcDbScale
 70
     0
300
1:10
140
1.0
141
10.0
290
     0
  0
SCALE
  5
4E
102
{ACAD_REACTORS
330
47
102
}
330
47
100
AcDbScale
 70
     0
300
1:16
140
1.0
141
16.0
290
     0
  0
SCALE
  5
4F
102
{ACAD_REACTORS
330
47
102
}
330
47
100
AcDbScale
 70
     0
300
1:20
140
1.0
141
20.0
290
     0
  0
SCALE
  5
50
102
{ACAD_REACTORS
330
47
102
}
330
47
100
AcDbScale
 70
     0
300
1:30
140
1.0
141
30.0
290
     0
  0
SCALE
  5
51
102
{ACAD_REACTORS
330
47
102
}
330
47
100
AcDbScale
 70
     0
300
1:40
140
1.0
141
40.0
290
     0
  0
SCALE
  5
52
102
{ACAD_REACTORS
330
47
102
}
330
47
100
AcDbScale
 70
     0
300
1:50
140
1.0
141
50.0
290
     0
  0
SCALE
  5
53
102
{ACAD_REACTORS
330
47
102
}
330
47
100
AcDbScale
 70
     0
300
1:100
140
1.0
141
100.0
290
     0
  0
SCALE
  5
54
102
{ACAD_REACTORS
330
47
102
}
330
47
100
AcDbScale
 70
     0
300
2:1
140
2.0
141
1.0
290
     0
  0
SCALE
  5
55
102
{ACAD_REACTORS
330
47
102
}
330
47
100
AcDbScale
 70
     0
300
4:1
140
4.0
141
1.0
290
     0
  0
SCALE
  5
56
102
{ACAD_REACTORS
330
47
102
}
330
47
100
AcDbScale
 70
     0
300
8:1
140
8.0
141
1.0
290
     0
  0
SCALE
  5
57
102
{ACAD_REACTORS
330
47
102
}
330
47
100
AcDbScale
 70
     0
300
10:1
140
10.0
141
1.0
290
     0
  0
SCALE
  5
58
102
{ACAD_REACTORS
330
47
102
}
330
47
100
AcDbScale
 70
     0
300
100:1
140
100.0
141
1.0
290
     0
  0
SCALE
  5
59
102
{ACAD_REACTORS
330
47
102
}
330
47
100
AcDbScale
 70
     0
300
1/128" = 1'-0"
140
0.0078125
141
12.0
290
     0
  0
SCALE
  5
5A
102
{ACAD_REACTORS
330
47
102
}
330
47
100
AcDbScale
 70
     0
300
1/64" = 1'-0"
140
0.015625
141
12.0
290
     0
  0
SCALE
  5
5B
102
{ACAD_REACTORS
330
47
102
}
330
47
100
AcDbScale
 70
     0
300
1/32" = 1'-0"
140
0.03125
141
12.0
290
     0
  0
SCALE
  5
5C
102
{ACAD_REACTORS
330
47
102
}
330
47
100
AcDbScale
 70
     0
300
1/16" = 1'-0"
140
0.0625
141
12.0
290
     0
  0
SCALE
  5
5D
102
{ACAD_REACTORS
330
47
102
}
330
47
100
AcDbScale
 70
     0
300
3/32" = 1'-0"
140
0.09375
141
12.0
290
     0
  0
SCALE
  5
5E
102
{ACAD_REACTORS
330
47
102
}
330
47
100
AcDbScale
 70
     0
300
1/8" = 1'-0"
140
0.125
141
12.0
290
     0
  0
SCALE
  5
5F
102
{ACAD_REACTORS
330
47
102
}
330
47
100
AcDbScale
 70
     0
300
3/16" = 1'-0"
140
0.1875
141
12.0
290
     0
  0
SCALE
  5
60
102
{ACAD_REACTORS
330
47
102
}
330
47
100
AcDbScale
 70
     0
300
1/4" = 1'-0"
140
0.25
141
12.0
290
     0
  0
SCALE
  5
61
102
{ACAD_REACTORS
330
47
102
}
330
47
100
AcDbScale
 70
     0
300
3/8" = 1'-0"
140
0.375
141
12.0
290
     0
  0
SCALE
  5
62
102
{ACAD_REACTORS
330
47
102
}
330
47
100
AcDbScale
 70
     0
300
1/2" = 1'-0"
140
0.5
141
12.0
290
     0
  0
SCALE
  5
63
102
{ACAD_REACTORS
330
47
102
}
330
47
100
AcDbScale
 70
     0
300
3/4" = 1'-0"
140
0.75
141
12.0
290
     0
  0
SCALE
  5
64
102
{ACAD_REACTORS
330
47
102
}
330
47
100
AcDbScale
 70
     0
300
1" = 1'-0"
140
1.0
141
12.0
290
     0
  0
SCALE
  5
65
102
{ACAD_REACTORS
330
47
102
}
330
47
100
AcDbScale
 70
     0
300
1-1/2" = 1'-0"
140
1.5
141
12.0
290
     0
  0
SCALE
  5
66
102
{ACAD_REACTORS
330
47
102
}
330
47
100
AcDbScale
 70
     0
300
3" = 1'-0"
140
3.0
141
12.0
290
     0
  0
SCALE
  5
67
102
{ACAD_REACTORS
330
47
102
}
330
47
100
AcDbScale
 70
     0
300
6" = 1'-0"
140
6.0
141
12.0
290
     0
  0
SCALE
  5
68
102
{ACAD_REACTORS
330
47
102
}
330
47
100
AcDbScale
 70
     0
300
1'-0" = 1'-0"
140
12.0
141
12.0
290
     0
  0
TABLESTYLE
  5
6A
102
{ACAD_REACTORS
330
69
102
}
102
{ACAD_XDICTIONARY
360
3DA
102
}
330
69
100
AcDbTableStyle
  3
Standard
 70
     0
 71
     0
 40
0.06
 41
0.06
280
     0
281
     0
  7
Standard
140
0.18
170
     2
 62
     0
 63
   257
283
     0
 90
        4
 91
        0
  1

274
    -2
284
     1
 64
     0
275
    -2
285
     1
 65
     0
276
    -2
286
     1
 66
     0
277
    -2
287
     1
 67
     0
278
    -2
288
     1
 68
     0
279
    -2
289
     1
 69
     0
  7
Standard
140
0.25
170
     5
 62
     0
 63
   257
283
     0
 90
        4
 91
        0
  1

274
    -2
284
     1
 64
     0
275
    -2
285
     1
 65
     0
276
    -2
286
     1
 66
     0
277
    -2
287
     1
 67
     0
278
    -2
288
     1
 68
     0
279
    -2
289
     1
 69
     0
  7
Standard
140
0.18
170
     5
 62
     0
 63
   257
283
     0
 90
        4
 91
        0
  1

274
    -2
284
     1
 64
     0
275
    -2
285
     1
 65
     0
276
    -2
286
     1
 66
     0
277
    -2
287
     1
 67
     0
278
    -2
288
     1
 68
     0
279
    -2
289
     1
 69
     0
  0
VISUALSTYLE
  5
2F
102
{ACAD_REACTORS
330
2A
102
}
102
{ACAD_XDICTIONARY
360
3B2
102
}
330
2A
100
AcDbVisualStyle
  2
2dWireframe
 70
     4
 71
     0
 72
     2
 73
     0
 90
        0
 40
0.6
 41
30.0
 62
     5
 63
     7
421
 16777215
 74
     1
 91
        4
 64
     7
 65
   257
 75
     1
175
     1
 42
1.0
 92
        0
 66
   257
 43
1.0
 76
     1
 77
     6
 78
     2
 67
     7
 79
     5
170
     0
171
     0
290
     0
174
     0
 93
        1
 44
0.0
173
     0
291
     0
 45
0.0
  0
VISUALSTYLE
  5
32
102
{ACAD_REACTORS
330
2A
102
}
102
{ACAD_XDICTIONARY
360
3B8
102
}
330
2A
100
AcDbVisualStyle
  2
Basic
 70
     7
 71
     1
 72
     0
 73
     1
 90
        0
 40
0.6
 41
30.0
 62
     5
 63
     7
421
 16777215
 74
     0
 91
        4
 64
     7
 65
   257
 75
     1
175
     1
 42
1.0
 92
        8
 66
     7
 43
1.0
 76
     1
 77
     6
 78
     2
 67
     7
 79
     5
170
     0
171
     0
290
     0
174
     0
 93
        1
 44
0.0
173
     0
291
     1
 45
0.0
  0
VISUALSTYLE
  5
36
102
{ACAD_REACTORS
330
2A
102
}
102
{ACAD_XDICTIONARY
360
3C0
102
}
330
2A
100
AcDbVisualStyle
  2
Brighten
 70
    12
 71
     2
 72
     2
 73
     0
 90
        0
 40
0.6
 41
30.0
 62
     5
 63
     7
421
 16777215
 74
     1
 91
        4
 64
     7
 65
   257
 75
     1
175
     1
 42
1.0
 92
        8
 66
     7
 43
1.0
 76
     1
 77
     6
 78
     2
 67
     7
 79
     5
170
     0
171
     0
290
     0
174
     0
 93
        1
 44
50.0
173
     0
291
     1
 45
0.0
  0
VISUALSTYLE
  5
3A
102
{ACAD_REACTORS
330
2A
102
}
102
{ACAD_XDICTIONARY
360
3C8
102
}
330
2A
100
AcDbVisualStyle
  2
ColorChange
 70
    16
 71
     2
 72
     2
 73
     3
 90
        0
 40
0.6
 41
30.0
 62
     5
 63
     8
421
  8421504
 74
     1
 91
        4
 64
     7
 65
   257
 75
     1
175
     1
 42
1.0
 92
        8
 66
     8
424
  8421504
 43
1.0
 76
     1
 77
     6
 78
     2
 67
     7
 79
     5
170
     0
171
     0
290
     0
174
     0
 93
        1
 44
0.0
173
     0
291
     1
 45
0.0
  0
VISUALSTYLE
  5
34
102
{ACAD_REACTORS
330
2A
102
}
102
{ACAD_XDICTIONARY
360
3BC
102
}
330
2A
100
AcDbVisualStyle
  2
Conceptual
 70
     9
 71
     3
 72
     2
 73
     0
 90
        0
 40
0.6
 41
30.0
 62
     5
 63
     7
421
 16777215
 74
     2
 91
        2
 64
     7
 65
   257
 75
     1
175
     1
 42
179.0
 92
        8
 66
     7
 43
1.0
 76
     1
 77
     6
 78
     2
 67
     7
 79
     3
170
     0
171
     0
290
     0
174
     0
 93
        1
 44
0.0
173
     0
291
     0
 45
0.0
  0
VISUALSTYLE
  5
35
102
{ACAD_REACTORS
330
2A
102
}
102
{ACAD_XDICTIONARY
360
3BE
102
}
330
2A
100
AcDbVisualStyle
  2
Dim
 70
    11
 71
     2
 72
     2
 73
     0
 90
        0
 40
0.6
 41
30.0
 62
     5
 63
     7
421
 16777215
 74
     1
 91
        4
 64
     7
 65
   257
 75
     1
175
     1
 42
1.0
 92
        8
 66
     7
 43
1.0
 76
     1
 77
     6
 78
     2
 67
     7
 79
     5
170
     0
171
     0
290
     0
174
     0
 93
        1
 44
-50.0
173
     0
291
     1
 45
0.0
  0
VISUALSTYLE
  5
3D
102
{ACAD_REACTORS
330
2A
102
}
102
{ACAD_XDICTIONARY
360
3CE
102
}
330
2A
100
AcDbVisualStyle
  2
EdgeColorOff
 70
    22
 71
     2
 72
     2
 73
     0
 90
        0
 40
0.6
 41
30.0
 62
     5
 63
     7
421
 16777215
 74
     1
 91
        4
 64
     7
 65
   257
 75
     1
175
     1
 42
1.0
 92
        8
 66
     7
 43
1.0
 76
     1
 77
     6
 78
     2
 67
     7
 79
     5
170
     0
171
     0
290
     0
174
     0
 93
        1
 44
0.0
173
     0
291
     1
 45
0.0
  0
VISUALSTYLE
  5
39
102
{ACAD_REACTORS
330
2A
102
}
102
{ACAD_XDICTIONARY
360
3C6
102
}
330
2A
100
AcDbVisualStyle
  2
Facepattern
 70
    15
 71
     2
 72
     2
 73
     0
 90
        0
 40
0.6
 41
30.0
 62
     5
 63
     7
421
 16777215
 74
     1
 91
        4
 64
     7
 65
   257
 75
     1
175
     1
 42
1.0
 92
        8
 66
     7
 43
1.0
 76
     1
 77
     6
 78
     2
 67
     7
 79
     5
170
     0
171
     0
290
     0
174
     0
 93
        1
 44
0.0
173
     0
291
     1
 45
0.0
  0
VISUALSTYLE
  5
2B
102
{ACAD_REACTORS
330
2A
102
}
102
{ACAD_XDICTIONARY
360
3AA
102
}
330
2A
100
AcDbVisualStyle
  2
Flat
 70
     0
 71
     2
 72
     1
 73
     1
 90
        2
 40
0.6
 41
30.0
 62
     5
 63
     7
421
 16777215
 74
     0
 91
        0
 64
     7
 65
   257
 75
     1
175
     1
 42
1.0
 92
        8
 66
     7
 43
1.0
 76
     1
 77
     6
 78
     2
 67
     7
 79
     5
170
     0
171
     0
290
     0
174
     0
 93
       13
 44
0.0
173
     0
291
     1
 45
0.0
  0
VISUALSTYLE
  5
2C
102
{ACAD_REACTORS
330
2A
102
}
102
{ACAD_XDICTIONARY
360
3AC
102
}
330
2A
100
AcDbVisualStyle
  2
FlatWithEdges
 70
     1
 71
     2
 72
     1
 73
     1
 90
        2
 40
0.6
 41
30.0
 62
     5
 63
     7
421
 16777215
 74
     1
 91
        0
 64
     7
 65
   257
 75
     1
175
     1
 42
1.0
 92
        0
 66
   257
 43
1.0
 76
     1
 77
     6
 78
     2
 67
     7
 79
     5
170
     0
171
     0
290
     0
174
     0
 93
       13
 44
0.0
173
     0
291
     1
 45
0.0
  0
VISUALSTYLE
  5
2D
102
{ACAD_REACTORS
330
2A
102
}
102
{ACAD_XDICTIONARY
360
3AE
102
}
330
2A
100
AcDbVisualStyle
  2
Gouraud
 70
     2
 71
     2
 72
     2
 73
     1
 90
        2
 40
0.6
 41
30.0
 62
     5
 63
     7
421
 16777215
 74
     0
 91
        0
 64
     7
 65
   257
 75
     1
175
     1
 42
1.0
 92
        0
 66
     7
 43
1.0
 76
     1
 77
     6
 78
     2
 67
     7
 79
     5
170
     0
171
     0
290
     0
174
     0
 93
       13
 44
0.0
173
     0
291
     1
 45
0.0
  0
VISUALSTYLE
  5
2E
102
{ACAD_REACTORS
330
2A
102
}
102
{ACAD_XDICTIONARY
360
3B0
102
}
330
2A
100
AcDbVisualStyle
  2
GouraudWithEdges
 70
     3
 71
     2
 72
     2
 73
     1
 90
        2
 40
0.6
 41
30.0
 62
     5
 63
     7
421
 16777215
 74
     1
 91
        0
 64
     7
 65
   257
 75
     1
175
     1
 42
1.0
 92
        0
 66
   257
 43
1.0
 76
     1
 77
     6
 78
     2
 67
     7
 79
     5
170
     0
171
     0
290
     0
174
     0
 93
       13
 44
0.0
173
     0
291
     1
 45
0.0
  0
VISUALSTYLE
  5
31
102
{ACAD_REACTORS
330
2A
102
}
102
{ACAD_XDICTIONARY
360
3B6
102
}
330
2A
100
AcDbVisualStyle
  2
Hidden
 70
     6
 71
     1
 72
     2
 73
     2
 90
        0
 40
0.6
 41
30.0
 62
     5
 63
     7
421
 16777215
 74
     2
 91
        2
 64
     7
 65
   257
 75
     2
175
     1
 42
40.0
 92
        0
 66
   257
 43
1.0
 76
     1
 77
     6
 78
     2
 67
     7
 79
     3
170
     0
171
     0
290
     0
174
     0
 93
        1
 44
0.0
173
     0
291
     0
 45
0.0
  0
VISUALSTYLE
  5
3B
102
{ACAD_REACTORS
330
2A
102
}
102
{ACAD_XDICTIONARY
360
3CA
102
}
330
2A
100
AcDbVisualStyle
  2
JitterOff
 70
    20
 71
     2
 72
     2
 73
     0
 90
        0
 40
0.6
 41
30.0
 62
     5
 63
     7
421
 16777215
 74
     1
 91
        4
 64
     7
 65
   257
 75
     1
175
     1
 42
1.0
 92
       10
 66
     7
 43
1.0
 76
     1
 77
     6
 78
     2
 67
     7
 79
     5
170
     0
171
     0
290
     0
174
     0
 93
        1
 44
0.0
173
     0
291
     1
 45
0.0
  0
VISUALSTYLE
  5
38
102
{ACAD_REACTORS
330
2A
102
}
102
{ACAD_XDICTIONARY
360
3C4
102
}
330
2A
100
AcDbVisualStyle
  2
Linepattern
 70
    14
 71
     2
 72
     2
 73
     0
 90
        0
 40
0.6
 41
30.0
 62
     5
 63
     7
421
 16777215
 74
     1
 91
        4
 64
     7
 65
   257
 75
     7
175
     7
 42
1.0
 92
        8
 66
     7
 43
1.0
 76
     1
 77
     6
 78
     2
 67
     7
 79
     5
170
     0
171
     0
290
     0
174
     0
 93
        1
 44
0.0
173
     0
291
     1
 45
0.0
  0
VISUALSTYLE
  5
3C
102
{ACAD_REACTORS
330
2A
102
}
102
{ACAD_XDICTIONARY
360
3CC
102
}
330
2A
100
AcDbVisualStyle
  2
OverhangOff
 70
    21
 71
     2
 72
     2
 73
     0
 90
        0
 40
0.6
 41
30.0
 62
     5
 63
     7
421
 16777215
 74
     1
 91
        4
 64
     7
 65
   257
 75
     1
175
     1
 42
1.0
 92
        9
 66
     7
 43
1.0
 76
     1
 77
     6
 78
     2
 67
     7
 79
     5
170
     0
171
     0
290
     0
174
     0
 93
        1
 44
0.0
173
     0
291
     1
 45
0.0
  0
VISUALSTYLE
  5
33
102
{ACAD_REACTORS
330
2A
102
}
102
{ACAD_XDICTIONARY
360
3BA
102
}
330
2A
100
AcDbVisualStyle
  2
Realistic
 70
     8
 71
     2
 72
     3
 73
     0
 90
        2
 40
0.6
 41
30.0
 62
     5
 63
     7
421
 16777215
 74
     0
 91
        0
 64
     7
 65
   257
 75
     1
175
     1
 42
1.0
 92
        8
 66
   257
 43
1.0
 76
     1
 77
     6
 78
     2
 67
     7
 79
     3
170
     0
171
     0
290
     0
174
     0
 93
       13
 44
0.0
173
     0
291
     0
 45
0.0
  0
VISUALSTYLE
  5
42
102
{ACAD_REACTORS
330
2A
102
}
102
{ACAD_XDICTIONARY
360
3D8
102
}
330
2A
100
AcDbVisualStyle
  2
Shaded
 70
    27
 71
     2
 72
     2
 73
     1
 90
        2
 40
0.6
 41
30.0
 62
     5
 63
     7
421
 16777215
 74
     0
 91
        4
 64
     7
 65
   257
 75
     1
175
     1
 42
1.0
 92
        8
 66
   257
 43
1.0
 76
     1
 77
     6
 78
     2
 67
     8
425
  7895160
 79
     3
170
     0
171
     0
290
     0
174
     0
 93
        5
 44
0.0
173
     0
291
     0
 45
0.0
  0
VISUALSTYLE
  5
41
102
{ACAD_REACTORS
330
2A
102
}
102
{ACAD_XDICTIONARY
360
3D6
102
}
330
2A
100
AcDbVisualStyle
  2
Shaded with edges
 70
    26
 71
     2
 72
     2
 73
     1
 90
        2
 40
0.6
 41
30.0
 62
     5
 63
     7
421
 16777215
 74
     1
 91
       10
 64
     7
 65
   257
 75
     2
175
     1
 42
1.0
 92
        8
 66
   257
 43
1.0
 76
     1
 77
     6
 78
     2
 67
     7
 79
     3
170
     0
171
     0
290
     0
174
     0
 93
        5
 44
0.0
173
     0
291
     0
 45
0.0
  0
VISUALSTYLE
  5
3E
102
{ACAD_REACTORS
330
2A
102
}
102
{ACAD_XDICTIONARY
360
3D0
102
}
330
2A
100
AcDbVisualStyle
  2
Shades of Gray
 70
    23
 71
     2
 72
     2
 73
     3
 90
        0
 40
0.6
 41
30.0
 62
     5
 63
     7
421
 16777215
 74
     2
 91
        2
 64
     7
 65
     7
 75
     1
175
     1
 42
40.0
 92
        8
 66
     7
 43
1.0
 76
     1
 77
     6
 78
     2
 67
     7
 79
     3
170
     0
171
     0
290
     0
174
     0
 93
        1
 44
0.0
173
     0
291
     0
 45
0.0
  0
VISUALSTYLE
  5
3F
102
{ACAD_REACTORS
330
2A
102
}
102
{ACAD_XDICTIONARY
360
3D2
102
}
330
2A
100
AcDbVisualStyle
  2
Sketchy
 70
    24
 71
     1
 72
     2
 73
     2
 90
        0
 40
0.6
 41
30.0
 62
     5
 63
     7
421
 16777215
 74
     2
 91
        2
 64
     7
 65
     7
 75
     1
175
     1
 42
40.0
 92
       11
 66
     7
 43
1.0
 76
     1
 77
     6
 78
     2
 67
     7
 79
     6
170
     0
171
     0
290
     0
174
     0
 93
        1
 44
0.0
173
     0
291
     0
 45
0.0
  0
VISUALSTYLE
  5
37
102
{ACAD_REACTORS
330
2A
102
}
102
{ACAD_XDICTIONARY
360
3C2
102
}
330
2A
100
AcDbVisualStyle
  2
Thicken
 70
    13
 71
     2
 72
     2
 73
     0
 90
        0
 40
0.6
 41
30.0
 62
     5
 63
     7
421
 16777215
 74
     1
 91
        4
 64
     7
 65
   257
 75
     1
175
     1
 42
1.0
 92
       12
 66
     7
 43
1.0
 76
     1
 77
     6
 78
     2
 67
     7
 79
     5
170
     0
171
     0
290
     0
174
     0
 93
        1
 44
0.0
173
     0
291
     1
 45
0.0
  0
VISUALSTYLE
  5
30
102
{ACAD_REACTORS
330
2A
102
}
102
{ACAD_XDICTIONARY
360
3B4
102
}
330
2A
100
AcDbVisualStyle
  2
Wireframe
 70
     5
 71
     0
 72
     2
 73
     0
 90
        0
 40
0.6
 41
30.0
 62
     5
 63
     7
421
 16777215
 74
     1
 91
        4
 64
     7
 65
   257
 75
     1
175
     1
 42
1.0
 92
        0
 66
   257
 43
1.0
 76
     1
 77
     6
 78
     2
 67
     7
 79
     3
170
     0
171
     0
290
     0
174
     0
 93
        1
 44
0.0
173
     0
291
     0
 45
0.0
  0
VISUALSTYLE
  5
40
102
{ACAD_REACTORS
330
2A
102
}
102
{ACAD_XDICTIONARY
360
3D4
102
}
330
2A
100
AcDbVisualStyle
  2
X-Ray
 70
    25
 71
     2
 72
     2
 73
     1
 90
        1
 40
0.5
 41
30.0
 62
     5
 63
     7
421
 16777215
 74
     1
 91
        0
 64
     7
 65
   257
 75
     1
175
     1
 42
1.0
 92
        8
 66
     7
 43
1.0
 76
     1
 77
     6
 78
     2
 67
     7
 79
     3
170
     0
171
     0
290
     0
174
     0
 93
       13
 44
0.0
173
     0
291
     0
 45
0.0
  0
DICTIONARYVAR
  5
3A8
102
{ACAD_REACTORS
330
3A7
102
}
330
3A7
100
DictionaryVariables
280
     0
  1
1:1
  0
DICTIONARYVAR
  5
3E1
102
{ACAD_REACTORS
330
3A7
102
}
330
3A7
100
DictionaryVariables
280
     0
  1
Standard
  0
DICTIONARYVAR
  5
3E0
102
{ACAD_REACTORS
330
3A7
102
}
330
3A7
100
DictionaryVariables
280
     0
  1
Standard
  0
DICTIONARYVAR
  5
3A9
102
{ACAD_REACTORS
330
3A7
102
}
330
3A7
100
DictionaryVariables
280
     0
  1
2
  0
DICTIONARY
  5
3DD
330
6C
100
AcDbDictionary
280
     1
281
     1
  3
ACAD_XREC_ROUNDTRIP
360
3DE
  0
DICTIONARY
  5
3DA
330
6A
100
AcDbDictionary
280
     1
281
     1
  3
ACAD_ROUNDTRIP_2008_TABLESTYLE_CELLSTYLEMAP
360
3DB
  0
DICTIONARY
  5
3B2
330
2F
100
AcDbDictionary
280
     1
281
     1
  3
ACAD_XREC_ROUNDTRIP
360
3B3
  0
DICTIONARY
  5
3B8
330
32
100
AcDbDictionary
280
     1
281
     1
  3
ACAD_XREC_ROUNDTRIP
360
3B9
  0
DICTIONARY
  5
3C0
330
36
100
AcDbDictionary
280
     1
281
     1
  3
ACAD_XREC_ROUNDTRIP
360
3C1
  0
DICTIONARY
  5
3C8
330
3A
100
AcDbDictionary
280
     1
281
     1
  3
ACAD_XREC_ROUNDTRIP
360
3C9
  0
DICTIONARY
  5
3BC
330
34
100
AcDbDictionary
280
     1
281
     1
  3
ACAD_XREC_ROUNDTRIP
360
3BD
  0
DICTIONARY
  5
3BE
330
35
100
AcDbDictionary
280
     1
281
     1
  3
ACAD_XREC_ROUNDTRIP
360
3BF
  0
DICTIONARY
  5
3CE
330
3D
100
AcDbDictionary
280
     1
281
     1
  3
ACAD_XREC_ROUNDTRIP
360
3CF
  0
DICTIONARY
  5
3C6
330
39
100
AcDbDictionary
280
     1
281
     1
  3
ACAD_XREC_ROUNDTRIP
360
3C7
  0
DICTIONARY
  5
3AA
330
2B
100
AcDbDictionary
280
     1
281
     1
  3
ACAD_XREC_ROUNDTRIP
360
3AB
  0
DICTIONARY
  5
3AC
330
2C
100
AcDbDictionary
280
     1
281
     1
  3
ACAD_XREC_ROUNDTRIP
360
3AD
  0
DICTIONARY
  5
3AE
330
2D
100
AcDbDictionary
280
     1
281
     1
  3
ACAD_XREC_ROUNDTRIP
360
3AF
  0
DICTIONARY
  5
3B0
330
2E
100
AcDbDictionary
280
     1
281
     1
  3
ACAD_XREC_ROUNDTRIP
360
3B1
  0
DICTIONARY
  5
3B6
330
31
100
AcDbDictionary
280
     1
281
     1
  3
ACAD_XREC_ROUNDTRIP
360
3B7
  0
DICTIONARY
  5
3CA
330
3B
100
AcDbDictionary
280
     1
281
     1
  3
ACAD_XREC_ROUNDTRIP
360
3CB
  0
DICTIONARY
  5
3C4
330
38
100
AcDbDictionary
280
     1
281
     1
  3
ACAD_XREC_ROUNDTRIP
360
3C5
  0
DICTIONARY
  5
3CC
330
3C
100
AcDbDictionary
280
     1
281
     1
  3
ACAD_XREC_ROUNDTRIP
360
3CD
  0
DICTIONARY
  5
3BA
330
33
100
AcDbDictionary
280
     1
281
     1
  3
ACAD_XREC_ROUNDTRIP
360
3BB
  0
DICTIONARY
  5
3D8
330
42
100
AcDbDictionary
280
     1
281
     1
  3
ACAD_XREC_ROUNDTRIP
360
3D9
  0
DICTIONARY
  5
3D6
330
41
100
AcDbDictionary
280
     1
281
     1
  3
ACAD_XREC_ROUNDTRIP
360
3D7
  0
DICTIONARY
  5
3D0
330
3E
100
AcDbDictionary
280
     1
281
     1
  3
ACAD_XREC_ROUNDTRIP
360
3D1
  0
DICTIONARY
  5
3D2
330
3F
100
AcDbDictionary
280
     1
281
     1
  3
ACAD_XREC_ROUNDTRIP
360
3D3
  0
DICTIONARY
  5
3C2
330
37
100
AcDbDictionary
280
     1
281
     1
  3
ACAD_XREC_ROUNDTRIP
360
3C3
  0
DICTIONARY
  5
3B4
330
30
100
AcDbDictionary
280
     1
281
     1
  3
ACAD_XREC_ROUNDTRIP
360
3B5
  0
DICTIONARY
  5
3D4
330
40
100
AcDbDictionary
280
     1
281
     1
  3
ACAD_XREC_ROUNDTRIP
360
3D5
  0
XRECORD
  5
3DE
102
{ACAD_REACTORS
330
3DD
102
}
330
3DD
100
AcDbXrecord
280
     1
102
ACAD_ROUNDTRIP_2010_MLEADER_STYLE
  0
CELLSTYLEMAP
  5
3DB
102
{ACAD_REACTORS
330
3DA
102
}
330
3DA
100
AcDbCellStyleMap
 90
        3
300
CELLSTYLE
  1
TABLEFORMAT_BEGIN
 90
        5
170
     1
 91
        0
 92
    32768
 62
   257
 93
        1
300
CONTENTFORMAT
  1
CONTENTFORMAT_BEGIN
 90
        0
 91
        0
 92
        4
 93
        0
300

 40
0.0
140
1.0
 94
        5
 62
     0
340
11
144
0.25
309
CONTENTFORMAT_END
171
     1
301
MARGIN
  1
CELLMARGIN_BEGIN
 40
0.06
 40
0.06
 40
0.06
 40
0.06
 40
0.06
 40
0.06
309
CELLMARGIN_END
 94
        6
 95
        1
302
GRIDFORMAT
  1
GRIDFORMAT_BEGIN
 90
        0
 91
        1
 62
     0
 92
       -2
340
14
 93
        0
 40
0.045
309
GRIDFORMAT_END
 95
        2
302
GRIDFORMAT
  1
GRIDFORMAT_BEGIN
 90
        0
 91
        1
 62
     0
 92
       -2
340
14
 93
        0
 40
0.045
309
GRIDFORMAT_END
 95
        4
302
GRIDFORMAT
  1
GRIDFORMAT_BEGIN
 90
        0
 91
        1
 62
     0
 92
       -2
340
14
 93
        0
 40
0.045
309
GRIDFORMAT_END
 95
        8
302
GRIDFORMAT
  1
GRIDFORMAT_BEGIN
 90
        0
 91
        1
 62
     0
 92
       -2
340
14
 93
        0
 40
0.045
309
GRIDFORMAT_END
 95
       16
302
GRIDFORMAT
  1
GRIDFORMAT_BEGIN
 90
        0
 91
        1
 62
     0
 92
       -2
340
14
 93
        0
 40
0.045
309
GRIDFORMAT_END
 95
       32
302
GRIDFORMAT
  1
GRIDFORMAT_BEGIN
 90
        0
 91
        1
 62
     0
 92
       -2
340
14
 93
        0
 40
0.045
309
GRIDFORMAT_END
309
TABLEFORMAT_END
  1
CELLSTYLE_BEGIN
 90
        1
 91
        1
300
_TITLE
309
CELLSTYLE_END
300
CELLSTYLE
  1
TABLEFORMAT_BEGIN
 90
        5
170
     1
 91
        0
 92
        0
 62
   257
 93
        1
300
CONTENTFORMAT
  1
CONTENTFORMAT_BEGIN
 90
        0
 91
        0
 92
        4
 93
        0
300

 40
0.0
140
1.0
 94
        5
 62
     0
340
11
144
0.18
309
CONTENTFORMAT_END
171
     1
301
MARGIN
  1
CELLMARGIN_BEGIN
 40
0.06
 40
0.06
 40
0.06
 40
0.06
 40
0.06
 40
0.06
309
CELLMARGIN_END
 94
        6
 95
        1
302
GRIDFORMAT
  1
GRIDFORMAT_BEGIN
 90
        0
 91
        1
 62
     0
 92
       -2
340
14
 93
        0
 40
0.045
309
GRIDFORMAT_END
 95
        2
302
GRIDFORMAT
  1
GRIDFORMAT_BEGIN
 90
        0
 91
        1
 62
     0
 92
       -2
340
14
 93
        0
 40
0.045
309
GRIDFORMAT_END
 95
        4
302
GRIDFORMAT
  1
GRIDFORMAT_BEGIN
 90
        0
 91
        1
 62
     0
 92
       -2
340
14
 93
        0
 40
0.045
309
GRIDFORMAT_END
 95
        8
302
GRIDFORMAT
  1
GRIDFORMAT_BEGIN
 90
        0
 91
        1
 62
     0
 92
       -2
340
14
 93
        0
 40
0.045
309
GRIDFORMAT_END
 95
       16
302
GRIDFORMAT
  1
GRIDFORMAT_BEGIN
 90
        0
 91
        1
 62
     0
 92
       -2
340
14
 93
        0
 40
0.045
309
GRIDFORMAT_END
 95
       32
302
GRIDFORMAT
  1
GRIDFORMAT_BEGIN
 90
        0
 91
        1
 62
     0
 92
       -2
340
14
 93
        0
 40
0.045
309
GRIDFORMAT_END
309
TABLEFORMAT_END
  1
CELLSTYLE_BEGIN
 90
        2
 91
        1
300
_HEADER
309
CELLSTYLE_END
300
CELLSTYLE
  1
TABLEFORMAT_BEGIN
 90
        5
170
     1
 91
        0
 92
        0
 62
   257
 93
        1
300
CONTENTFORMAT
  1
CONTENTFORMAT_BEGIN
 90
        0
 91
        0
 92
        4
 93
        0
300

 40
0.0
140
1.0
 94
        2
 62
     0
340
11
144
0.18
309
CONTENTFORMAT_END
171
     1
301
MARGIN
  1
CELLMARGIN_BEGIN
 40
0.06
 40
0.06
 40
0.06
 40
0.06
 40
0.06
 40
0.06
309
CELLMARGIN_END
 94
        6
 95
        1
302
GRIDFORMAT
  1
GRIDFORMAT_BEGIN
 90
        0
 91
        1
 62
     0
 92
       -2
340
14
 93
        0
 40
0.045
309
GRIDFORMAT_END
 95
        2
302
GRIDFORMAT
  1
GRIDFORMAT_BEGIN
 90
        0
 91
        1
 62
     0
 92
       -2
340
14
 93
        0
 40
0.045
309
GRIDFORMAT_END
 95
        4
302
GRIDFORMAT
  1
GRIDFORMAT_BEGIN
 90
        0
 91
        1
 62
     0
 92
       -2
340
14
 93
        0
 40
0.045
309
GRIDFORMAT_END
 95
        8
302
GRIDFORMAT
  1
GRIDFORMAT_BEGIN
 90
        0
 91
        1
 62
     0
 92
       -2
340
14
 93
        0
 40
0.045
309
GRIDFORMAT_END
 95
       16
302
GRIDFORMAT
  1
GRIDFORMAT_BEGIN
 90
        0
 91
        1
 62
     0
 92
       -2
340
14
 93
        0
 40
0.045
309
GRIDFORMAT_END
 95
       32
302
GRIDFORMAT
  1
GRIDFORMAT_BEGIN
 90
        0
 91
        1
 62
     0
 92
       -2
340
14
 93
        0
 40
0.045
309
GRIDFORMAT_END
309
TABLEFORMAT_END
  1
CELLSTYLE_BEGIN
 90
        3
 91
        2
300
_DATA
309
CELLSTYLE_END
  0
XRECORD
  5
3B3
102
{ACAD_REACTORS
330
3B2
102
}
330
3B2
100
AcDbXrecord
280
     1
102
RTVSPropertyOp0
 70
     1
102
RTVSPropertyOp1
 70
     1
102
RTVSPropertyOp2
 70
     1
102
RTVSPropertyOp3
 70
     1
102
RTVSPropertyOp4
 70
     1
102
RTVSPropertyOp5
 70
     1
102
RTVSPropertyOp6
 70
     1
102
RTVSPropertyOp7
 70
     1
102
RTVSPropertyOp8
 70
     1
102
RTVSPropertyOp9
 70
     1
102
RTVSPropertyOp10
 70
     1
102
RTVSPropertyOp11
 70
     1
102
RTVSPropertyOp12
 70
     1
102
RTVSPropertyOp13
 70
     1
102
RTVSPropertyOp14
 70
     1
102
RTVSPropertyOp15
 70
     1
102
RTVSPropertyOp16
 70
     1
102
RTVSPropertyOp17
 70
     1
102
RTVSPropertyOp18
 70
     1
102
RTVSPropertyOp19
 70
     1
102
RTVSPropertyOp20
 70
     1
102
RTVSPropertyOp21
 70
     1
102
RTVSPropertyOp22
 70
     1
102
RTVSPropertyOp23
 70
     1
102
RTVSPropertyOp24
 70
     1
102
RTVSPropertyOp25
 70
     1
102
RTVSPropertyOp26
 70
     1
102
RTVSPropertyOp27
 70
     1
102
RTVSPropertyOp28
 70
     1
102
RTVSPropertyOp29
 70
     1
102
RTVSPropertyOp30
 70
     1
102
RTVSPropertyOp31
 70
     1
102
RTVSPropertyOp32
 70
     1
102
RTVSPropertyOp33
 70
     1
102
RTVSPropertyOp34
 70
     1
102
RTVSPropertyOp35
 70
     1
102
RTVSPropertyOp36
 70
     1
102
RTVSPropertyOp37
 70
     1
102
RTVSPropertyOp38
 70
     1
102
RTVSPropertyOp39
 70
     1
102
RTVSPropertyOp40
 70
     1
102
RTVSPropertyOp41
 70
     1
102
RTVSPropertyOp42
 70
     1
102
RTVSPropertyOp43
 70
     1
102
RTVSPropertyOp44
 70
     1
102
RTVSPropertyOp45
 70
     1
102
RTVSPropertyOp46
 70
     1
102
RTVSPropertyOp47
 70
     1
102
RTVSPropertyOp48
 70
     1
102
RTVSPropertyOp49
 70
     1
102
RTVSPropertyOp50
 70
     1
102
RTVSPropertyOp51
 70
     0
102
RTVSPropertyOp52
 70
     0
102
RTVSPropertyOp53
 70
     1
102
RTVSPropertyOp54
 70
     1
102
RTVSPropertyOp55
 70
     1
102
RTVSPropertyOp56
 70
     1
102
RTVSPropertyOp57
 70
     1
102
RTVSPost2010Prop28
280
     1
102
RTVSPost2010PropOp28
 70
     1
102
RTVSPost2010Prop29
280
     1
102
RTVSPost2010PropOp29
 70
     1
102
RTVSPost2010Prop30
280
     0
102
RTVSPost2010PropOp30
 70
     1
102
RTVSPost2010Prop31
280
     0
102
RTVSPost2010PropOp31
 70
     1
102
RTVSPost2010Prop32
280
     0
102
RTVSPost2010PropOp32
 70
     1
102
RTVSPost2010Prop33
280
     0
102
RTVSPost2010PropOp33
 70
     1
102
RTVSPost2010Prop34
280
     0
102
RTVSPost2010PropOp34
 70
     1
102
RTVSPost2010Prop35
280
     0
102
RTVSPost2010PropOp35
 70
     1
102
RTVSPost2010Prop36
280
     0
102
RTVSPost2010PropOp36
 70
     1
102
RTVSPost2010Prop37
 90
       50
102
RTVSPost2010PropOp37
 70
     1
102
RTVSPost2010Prop38
140
0.0
102
RTVSPost2010PropOp38
 70
     1
102
RTVSPost2010Prop39
140
1.0
102
RTVSPost2010PropOp39
 70
     1
102
RTVSPost2010Prop40
 90
        0
102
RTVSPost2010PropOp40
 70
     1
102
RTVSPost2010Prop41ColorIndex
 90
       18
102
RTVSPost2010Prop41ColorRGB
 90
        0
102
RTVSPost2010PropOp41
 70
     1
102
RTVSPost2010Prop42
 90
       50
102
RTVSPost2010PropOp42
 70
     1
102
RTVSPost2010Prop43
 90
        3
102
RTVSPost2010PropOp43
 70
     1
102
RTVSPost2010Prop44ColorIndex
 90
        5
102
RTVSPost2010Prop44ColorRGB
 90
      255
102
RTVSPost2010PropOp44
 70
     1
102
RTVSPost2010Prop45
280
     0
102
RTVSPost2010PropOp45
 70
     1
102
RTVSPost2010Prop46
 90
       50
102
RTVSPost2010PropOp46
 70
     1
102
RTVSPost2010Prop47
 90
       50
102
RTVSPost2010PropOp47
 70
     1
102
RTVSPost2010Prop48
 90
       50
102
RTVSPost2010PropOp48
 70
     1
102
RTVSPost2010Prop49
280
     0
102
RTVSPost2010PropOp49
 70
     1
102
RTVSPost2010Prop50
 90
       50
102
RTVSPost2010PropOp50
 70
     1
102
RTVSPost2010Prop51ColorIndex
 90
      256
102
RTVSPost2010Prop51ColorRGB
 90
-16777216
102
RTVSPost2010PropOp51
 70
     0
102
RTVSPost2010Prop52
140
1.0
102
RTVSPost2010PropOp52
 70
     0
102
RTVSPost2010Prop53
 90
        2
102
RTVSPost2010PropOp53
 70
     1
102
RTVSPost2010Prop54
  1
strokes_ogs.tif
102
RTVSPost2010PropOp54
 70
     1
102
RTVSPost2010Prop55
280
     0
102
RTVSPost2010PropOp55
 70
     1
102
RTVSPost2010Prop56
140
1.0
102
RTVSPost2010PropOp56
 70
     1
102
RTVSPost2010Prop57
140
1.0
102
RTVSPost2010PropOp57
 70
     1
  0
XRECORD
  5
3B9
102
{ACAD_REACTORS
330
3B8
102
}
330
3B8
100
AcDbXrecord
280
     1
102
RTVSPropertyOp0
 70
     1
102
RTVSPropertyOp1
 70
     1
102
RTVSPropertyOp2
 70
     1
102
RTVSPropertyOp3
 70
     1
102
RTVSPropertyOp4
 70
     1
102
RTVSPropertyOp5
 70
     1
102
RTVSPropertyOp6
 70
     1
102
RTVSPropertyOp7
 70
     1
102
RTVSPropertyOp8
 70
     1
102
RTVSPropertyOp9
 70
     1
102
RTVSPropertyOp10
 70
     1
102
RTVSPropertyOp11
 70
     1
102
RTVSPropertyOp12
 70
     1
102
RTVSPropertyOp13
 70
     1
102
RTVSPropertyOp14
 70
     1
102
RTVSPropertyOp15
 70
     1
102
RTVSPropertyOp16
 70
     1
102
RTVSPropertyOp17
 70
     1
102
RTVSPropertyOp18
 70
     1
102
RTVSPropertyOp19
 70
     1
102
RTVSPropertyOp20
 70
     1
102
RTVSPropertyOp21
 70
     1
102
RTVSPropertyOp22
 70
     1
102
RTVSPropertyOp23
 70
     1
102
RTVSPropertyOp24
 70
     1
102
RTVSPropertyOp25
 70
     1
102
RTVSPropertyOp26
 70
     1
102
RTVSPropertyOp27
 70
     1
102
RTVSPropertyOp28
 70
     1
102
RTVSPropertyOp29
 70
     1
102
RTVSPropertyOp30
 70
     1
102
RTVSPropertyOp31
 70
     1
102
RTVSPropertyOp32
 70
     1
102
RTVSPropertyOp33
 70
     1
102
RTVSPropertyOp34
 70
     1
102
RTVSPropertyOp35
 70
     1
102
RTVSPropertyOp36
 70
     1
102
RTVSPropertyOp37
 70
     1
102
RTVSPropertyOp38
 70
     1
102
RTVSPropertyOp39
 70
     1
102
RTVSPropertyOp40
 70
     1
102
RTVSPropertyOp41
 70
     1
102
RTVSPropertyOp42
 70
     1
102
RTVSPropertyOp43
 70
     1
102
RTVSPropertyOp44
 70
     1
102
RTVSPropertyOp45
 70
     1
102
RTVSPropertyOp46
 70
     1
102
RTVSPropertyOp47
 70
     1
102
RTVSPropertyOp48
 70
     1
102
RTVSPropertyOp49
 70
     1
102
RTVSPropertyOp50
 70
     1
102
RTVSPropertyOp51
 70
     0
102
RTVSPropertyOp52
 70
     0
102
RTVSPropertyOp53
 70
     1
102
RTVSPropertyOp54
 70
     1
102
RTVSPropertyOp55
 70
     1
102
RTVSPropertyOp56
 70
     1
102
RTVSPropertyOp57
 70
     1
102
RTVSPost2010Prop28
280
     0
102
RTVSPost2010PropOp28
 70
     1
102
RTVSPost2010Prop29
280
     1
102
RTVSPost2010PropOp29
 70
     1
102
RTVSPost2010Prop30
280
     1
102
RTVSPost2010PropOp30
 70
     1
102
RTVSPost2010Prop31
280
     0
102
RTVSPost2010PropOp31
 70
     1
102
RTVSPost2010Prop32
280
     0
102
RTVSPost2010PropOp32
 70
     1
102
RTVSPost2010Prop33
280
     0
102
RTVSPost2010PropOp33
 70
     1
102
RTVSPost2010Prop34
280
     0
102
RTVSPost2010PropOp34
 70
     1
102
RTVSPost2010Prop35
280
     0
102
RTVSPost2010PropOp35
 70
     1
102
RTVSPost2010Prop36
280
     0
102
RTVSPost2010PropOp36
 70
     1
102
RTVSPost2010Prop37
 90
       50
102
RTVSPost2010PropOp37
 70
     1
102
RTVSPost2010Prop38
140
0.0
102
RTVSPost2010PropOp38
 70
     1
102
RTVSPost2010Prop39
140
1.0
102
RTVSPost2010PropOp39
 70
     1
102
RTVSPost2010Prop40
 90
        0
102
RTVSPost2010PropOp40
 70
     1
102
RTVSPost2010Prop41ColorIndex
 90
       18
102
RTVSPost2010Prop41ColorRGB
 90
        0
102
RTVSPost2010PropOp41
 70
     1
102
RTVSPost2010Prop42
 90
       50
102
RTVSPost2010PropOp42
 70
     1
102
RTVSPost2010Prop43
 90
        3
102
RTVSPost2010PropOp43
 70
     1
102
RTVSPost2010Prop44ColorIndex
 90
        5
102
RTVSPost2010Prop44ColorRGB
 90
      255
102
RTVSPost2010PropOp44
 70
     1
102
RTVSPost2010Prop45
280
     0
102
RTVSPost2010PropOp45
 70
     1
102
RTVSPost2010Prop46
 90
       50
102
RTVSPost2010PropOp46
 70
     1
102
RTVSPost2010Prop47
 90
       50
102
RTVSPost2010PropOp47
 70
     1
102
RTVSPost2010Prop48
 90
       50
102
RTVSPost2010PropOp48
 70
     1
102
RTVSPost2010Prop49
280
     0
102
RTVSPost2010PropOp49
 70
     1
102
RTVSPost2010Prop50
 90
       50
102
RTVSPost2010PropOp50
 70
     1
102
RTVSPost2010Prop51ColorIndex
 90
      256
102
RTVSPost2010Prop51ColorRGB
 90
-16777216
102
RTVSPost2010PropOp51
 70
     0
102
RTVSPost2010Prop52
140
1.0
102
RTVSPost2010PropOp52
 70
     0
102
RTVSPost2010Prop53
 90
        2
102
RTVSPost2010PropOp53
 70
     1
102
RTVSPost2010Prop54
  1
strokes_ogs.tif
102
RTVSPost2010PropOp54
 70
     1
102
RTVSPost2010Prop55
280
     0
102
RTVSPost2010PropOp55
 70
     1
102
RTVSPost2010Prop56
140
1.0
102
RTVSPost2010PropOp56
 70
     1
102
RTVSPost2010Prop57
140
1.0
102
RTVSPost2010PropOp57
 70
     1
  0
XRECORD
  5
3C1
102
{ACAD_REACTORS
330
3C0
102
}
330
3C0
100
AcDbXrecord
280
     1
102
RTVSPropertyOp0
 70
     1
102
RTVSPropertyOp1
 70
     1
102
RTVSPropertyOp2
 70
     1
102
RTVSPropertyOp3
 70
     1
102
RTVSPropertyOp4
 70
     1
102
RTVSPropertyOp5
 70
     1
102
RTVSPropertyOp6
 70
     1
102
RTVSPropertyOp7
 70
     1
102
RTVSPropertyOp8
 70
     1
102
RTVSPropertyOp9
 70
     1
102
RTVSPropertyOp10
 70
     1
102
RTVSPropertyOp11
 70
     1
102
RTVSPropertyOp12
 70
     1
102
RTVSPropertyOp13
 70
     1
102
RTVSPropertyOp14
 70
     1
102
RTVSPropertyOp15
 70
     1
102
RTVSPropertyOp16
 70
     1
102
RTVSPropertyOp17
 70
     1
102
RTVSPropertyOp18
 70
     1
102
RTVSPropertyOp19
 70
     1
102
RTVSPropertyOp20
 70
     1
102
RTVSPropertyOp21
 70
     1
102
RTVSPropertyOp22
 70
     1
102
RTVSPropertyOp23
 70
     1
102
RTVSPropertyOp24
 70
     1
102
RTVSPropertyOp25
 70
     1
102
RTVSPropertyOp26
 70
     1
102
RTVSPropertyOp27
 70
     1
102
RTVSPropertyOp28
 70
     1
102
RTVSPropertyOp29
 70
     1
102
RTVSPropertyOp30
 70
     1
102
RTVSPropertyOp31
 70
     1
102
RTVSPropertyOp32
 70
     1
102
RTVSPropertyOp33
 70
     1
102
RTVSPropertyOp34
 70
     1
102
RTVSPropertyOp35
 70
     1
102
RTVSPropertyOp36
 70
     1
102
RTVSPropertyOp37
 70
     1
102
RTVSPropertyOp38
 70
     1
102
RTVSPropertyOp39
 70
     1
102
RTVSPropertyOp40
 70
     1
102
RTVSPropertyOp41
 70
     1
102
RTVSPropertyOp42
 70
     1
102
RTVSPropertyOp43
 70
     1
102
RTVSPropertyOp44
 70
     1
102
RTVSPropertyOp45
 70
     1
102
RTVSPropertyOp46
 70
     1
102
RTVSPropertyOp47
 70
     1
102
RTVSPropertyOp48
 70
     1
102
RTVSPropertyOp49
 70
     1
102
RTVSPropertyOp50
 70
     1
102
RTVSPropertyOp51
 70
     0
102
RTVSPropertyOp52
 70
     0
102
RTVSPropertyOp53
 70
     1
102
RTVSPropertyOp54
 70
     1
102
RTVSPropertyOp55
 70
     1
102
RTVSPropertyOp56
 70
     1
102
RTVSPropertyOp57
 70
     1
102
RTVSPost2010Prop28
280
     0
102
RTVSPost2010PropOp28
 70
     1
102
RTVSPost2010Prop29
280
     1
102
RTVSPost2010PropOp29
 70
     1
102
RTVSPost2010Prop30
280
     1
102
RTVSPost2010PropOp30
 70
     1
102
RTVSPost2010Prop31
280
     0
102
RTVSPost2010PropOp31
 70
     1
102
RTVSPost2010Prop32
280
     0
102
RTVSPost2010PropOp32
 70
     1
102
RTVSPost2010Prop33
280
     0
102
RTVSPost2010PropOp33
 70
     1
102
RTVSPost2010Prop34
280
     0
102
RTVSPost2010PropOp34
 70
     1
102
RTVSPost2010Prop35
280
     0
102
RTVSPost2010PropOp35
 70
     1
102
RTVSPost2010Prop36
280
     0
102
RTVSPost2010PropOp36
 70
     1
102
RTVSPost2010Prop37
 90
       50
102
RTVSPost2010PropOp37
 70
     1
102
RTVSPost2010Prop38
140
0.0
102
RTVSPost2010PropOp38
 70
     1
102
RTVSPost2010Prop39
140
1.0
102
RTVSPost2010PropOp39
 70
     1
102
RTVSPost2010Prop40
 90
        0
102
RTVSPost2010PropOp40
 70
     1
102
RTVSPost2010Prop41ColorIndex
 90
       18
102
RTVSPost2010Prop41ColorRGB
 90
        0
102
RTVSPost2010PropOp41
 70
     1
102
RTVSPost2010Prop42
 90
       50
102
RTVSPost2010PropOp42
 70
     1
102
RTVSPost2010Prop43
 90
        3
102
RTVSPost2010PropOp43
 70
     1
102
RTVSPost2010Prop44ColorIndex
 90
        5
102
RTVSPost2010Prop44ColorRGB
 90
      255
102
RTVSPost2010PropOp44
 70
     1
102
RTVSPost2010Prop45
280
     0
102
RTVSPost2010PropOp45
 70
     1
102
RTVSPost2010Prop46
 90
       50
102
RTVSPost2010PropOp46
 70
     1
102
RTVSPost2010Prop47
 90
       50
102
RTVSPost2010PropOp47
 70
     1
102
RTVSPost2010Prop48
 90
       50
102
RTVSPost2010PropOp48
 70
     1
102
RTVSPost2010Prop49
280
     0
102
RTVSPost2010PropOp49
 70
     1
102
RTVSPost2010Prop50
 90
       50
102
RTVSPost2010PropOp50
 70
     1
102
RTVSPost2010Prop51ColorIndex
 90
      256
102
RTVSPost2010Prop51ColorRGB
 90
-16777216
102
RTVSPost2010PropOp51
 70
     0
102
RTVSPost2010Prop52
140
1.0
102
RTVSPost2010PropOp52
 70
     0
102
RTVSPost2010Prop53
 90
        2
102
RTVSPost2010PropOp53
 70
     1
102
RTVSPost2010Prop54
  1
strokes_ogs.tif
102
RTVSPost2010PropOp54
 70
     1
102
RTVSPost2010Prop55
280
     0
102
RTVSPost2010PropOp55
 70
     1
102
RTVSPost2010Prop56
140
1.0
102
RTVSPost2010PropOp56
 70
     1
102
RTVSPost2010Prop57
140
1.0
102
RTVSPost2010PropOp57
 70
     1
  0
XRECORD
  5
3C9
102
{ACAD_REACTORS
330
3C8
102
}
330
3C8
100
AcDbXrecord
280
     1
102
RTVSPropertyOp0
 70
     1
102
RTVSPropertyOp1
 70
     1
102
RTVSPropertyOp2
 70
     1
102
RTVSPropertyOp3
 70
     1
102
RTVSPropertyOp4
 70
     1
102
RTVSPropertyOp5
 70
     1
102
RTVSPropertyOp6
 70
     1
102
RTVSPropertyOp7
 70
     1
102
RTVSPropertyOp8
 70
     1
102
RTVSPropertyOp9
 70
     1
102
RTVSPropertyOp10
 70
     1
102
RTVSPropertyOp11
 70
     1
102
RTVSPropertyOp12
 70
     1
102
RTVSPropertyOp13
 70
     1
102
RTVSPropertyOp14
 70
     1
102
RTVSPropertyOp15
 70
     1
102
RTVSPropertyOp16
 70
     1
102
RTVSPropertyOp17
 70
     1
102
RTVSPropertyOp18
 70
     1
102
RTVSPropertyOp19
 70
     1
102
RTVSPropertyOp20
 70
     1
102
RTVSPropertyOp21
 70
     1
102
RTVSPropertyOp22
 70
     1
102
RTVSPropertyOp23
 70
     1
102
RTVSPropertyOp24
 70
     1
102
RTVSPropertyOp25
 70
     1
102
RTVSPropertyOp26
 70
     1
102
RTVSPropertyOp27
 70
     1
102
RTVSPropertyOp28
 70
     1
102
RTVSPropertyOp29
 70
     1
102
RTVSPropertyOp30
 70
     1
102
RTVSPropertyOp31
 70
     1
102
RTVSPropertyOp32
 70
     1
102
RTVSPropertyOp33
 70
     1
102
RTVSPropertyOp34
 70
     1
102
RTVSPropertyOp35
 70
     1
102
RTVSPropertyOp36
 70
     1
102
RTVSPropertyOp37
 70
     1
102
RTVSPropertyOp38
 70
     1
102
RTVSPropertyOp39
 70
     1
102
RTVSPropertyOp40
 70
     1
102
RTVSPropertyOp41
 70
     1
102
RTVSPropertyOp42
 70
     1
102
RTVSPropertyOp43
 70
     1
102
RTVSPropertyOp44
 70
     1
102
RTVSPropertyOp45
 70
     1
102
RTVSPropertyOp46
 70
     1
102
RTVSPropertyOp47
 70
     1
102
RTVSPropertyOp48
 70
     1
102
RTVSPropertyOp49
 70
     1
102
RTVSPropertyOp50
 70
     1
102
RTVSPropertyOp51
 70
     0
102
RTVSPropertyOp52
 70
     0
102
RTVSPropertyOp53
 70
     1
102
RTVSPropertyOp54
 70
     1
102
RTVSPropertyOp55
 70
     1
102
RTVSPropertyOp56
 70
     1
102
RTVSPropertyOp57
 70
     1
102
RTVSPost2010Prop28
280
     0
102
RTVSPost2010PropOp28
 70
     1
102
RTVSPost2010Prop29
280
     1
102
RTVSPost2010PropOp29
 70
     1
102
RTVSPost2010Prop30
280
     1
102
RTVSPost2010PropOp30
 70
     1
102
RTVSPost2010Prop31
280
     0
102
RTVSPost2010PropOp31
 70
     1
102
RTVSPost2010Prop32
280
     0
102
RTVSPost2010PropOp32
 70
     1
102
RTVSPost2010Prop33
280
     0
102
RTVSPost2010PropOp33
 70
     1
102
RTVSPost2010Prop34
280
     0
102
RTVSPost2010PropOp34
 70
     1
102
RTVSPost2010Prop35
280
     0
102
RTVSPost2010PropOp35
 70
     1
102
RTVSPost2010Prop36
280
     0
102
RTVSPost2010PropOp36
 70
     1
102
RTVSPost2010Prop37
 90
       50
102
RTVSPost2010PropOp37
 70
     1
102
RTVSPost2010Prop38
140
0.0
102
RTVSPost2010PropOp38
 70
     1
102
RTVSPost2010Prop39
140
1.0
102
RTVSPost2010PropOp39
 70
     1
102
RTVSPost2010Prop40
 90
        0
102
RTVSPost2010PropOp40
 70
     1
102
RTVSPost2010Prop41ColorIndex
 90
       18
102
RTVSPost2010Prop41ColorRGB
 90
        0
102
RTVSPost2010PropOp41
 70
     1
102
RTVSPost2010Prop42
 90
       50
102
RTVSPost2010PropOp42
 70
     1
102
RTVSPost2010Prop43
 90
        3
102
RTVSPost2010PropOp43
 70
     1
102
RTVSPost2010Prop44ColorIndex
 90
        5
102
RTVSPost2010Prop44ColorRGB
 90
      255
102
RTVSPost2010PropOp44
 70
     1
102
RTVSPost2010Prop45
280
     0
102
RTVSPost2010PropOp45
 70
     1
102
RTVSPost2010Prop46
 90
       50
102
RTVSPost2010PropOp46
 70
     1
102
RTVSPost2010Prop47
 90
       50
102
RTVSPost2010PropOp47
 70
     1
102
RTVSPost2010Prop48
 90
       50
102
RTVSPost2010PropOp48
 70
     1
102
RTVSPost2010Prop49
280
     0
102
RTVSPost2010PropOp49
 70
     1
102
RTVSPost2010Prop50
 90
       50
102
RTVSPost2010PropOp50
 70
     1
102
RTVSPost2010Prop51ColorIndex
 90
      256
102
RTVSPost2010Prop51ColorRGB
 90
-16777216
102
RTVSPost2010PropOp51
 70
     0
102
RTVSPost2010Prop52
140
1.0
102
RTVSPost2010PropOp52
 70
     0
102
RTVSPost2010Prop53
 90
        2
102
RTVSPost2010PropOp53
 70
     1
102
RTVSPost2010Prop54
  1
strokes_ogs.tif
102
RTVSPost2010PropOp54
 70
     1
102
RTVSPost2010Prop55
280
     0
102
RTVSPost2010PropOp55
 70
     1
102
RTVSPost2010Prop56
140
1.0
102
RTVSPost2010PropOp56
 70
     1
102
RTVSPost2010Prop57
140
1.0
102
RTVSPost2010PropOp57
 70
     1
  0
XRECORD
  5
3BD
102
{ACAD_REACTORS
330
3BC
102
}
330
3BC
100
AcDbXrecord
280
     1
102
RTVSPropertyOp0
 70
     1
102
RTVSPropertyOp1
 70
     1
102
RTVSPropertyOp2
 70
     1
102
RTVSPropertyOp3
 70
     1
102
RTVSPropertyOp4
 70
     1
102
RTVSPropertyOp5
 70
     1
102
RTVSPropertyOp6
 70
     1
102
RTVSPropertyOp7
 70
     1
102
RTVSPropertyOp8
 70
     1
102
RTVSPropertyOp9
 70
     1
102
RTVSPropertyOp10
 70
     1
102
RTVSPropertyOp11
 70
     1
102
RTVSPropertyOp12
 70
     1
102
RTVSPropertyOp13
 70
     1
102
RTVSPropertyOp14
 70
     1
102
RTVSPropertyOp15
 70
     1
102
RTVSPropertyOp16
 70
     1
102
RTVSPropertyOp17
 70
     1
102
RTVSPropertyOp18
 70
     1
102
RTVSPropertyOp19
 70
     1
102
RTVSPropertyOp20
 70
     1
102
RTVSPropertyOp21
 70
     1
102
RTVSPropertyOp22
 70
     1
102
RTVSPropertyOp23
 70
     1
102
RTVSPropertyOp24
 70
     1
102
RTVSPropertyOp25
 70
     1
102
RTVSPropertyOp26
 70
     1
102
RTVSPropertyOp27
 70
     1
102
RTVSPropertyOp28
 70
     1
102
RTVSPropertyOp29
 70
     1
102
RTVSPropertyOp30
 70
     1
102
RTVSPropertyOp31
 70
     1
102
RTVSPropertyOp32
 70
     1
102
RTVSPropertyOp33
 70
     1
102
RTVSPropertyOp34
 70
     1
102
RTVSPropertyOp35
 70
     1
102
RTVSPropertyOp36
 70
     1
102
RTVSPropertyOp37
 70
     1
102
RTVSPropertyOp38
 70
     1
102
RTVSPropertyOp39
 70
     1
102
RTVSPropertyOp40
 70
     1
102
RTVSPropertyOp41
 70
     1
102
RTVSPropertyOp42
 70
     1
102
RTVSPropertyOp43
 70
     1
102
RTVSPropertyOp44
 70
     1
102
RTVSPropertyOp45
 70
     1
102
RTVSPropertyOp46
 70
     1
102
RTVSPropertyOp47
 70
     1
102
RTVSPropertyOp48
 70
     1
102
RTVSPropertyOp49
 70
     1
102
RTVSPropertyOp50
 70
     1
102
RTVSPropertyOp51
 70
     0
102
RTVSPropertyOp52
 70
     0
102
RTVSPropertyOp53
 70
     1
102
RTVSPropertyOp54
 70
     1
102
RTVSPropertyOp55
 70
     1
102
RTVSPropertyOp56
 70
     1
102
RTVSPropertyOp57
 70
     1
102
RTVSPost2010Prop28
280
     0
102
RTVSPost2010PropOp28
 70
     1
102
RTVSPost2010Prop29
280
     1
102
RTVSPost2010PropOp29
 70
     1
102
RTVSPost2010Prop30
280
     1
102
RTVSPost2010PropOp30
 70
     1
102
RTVSPost2010Prop31
280
     0
102
RTVSPost2010PropOp31
 70
     1
102
RTVSPost2010Prop32
280
     0
102
RTVSPost2010PropOp32
 70
     1
102
RTVSPost2010Prop33
280
     0
102
RTVSPost2010PropOp33
 70
     1
102
RTVSPost2010Prop34
280
     0
102
RTVSPost2010PropOp34
 70
     1
102
RTVSPost2010Prop35
280
     0
102
RTVSPost2010PropOp35
 70
     1
102
RTVSPost2010Prop36
280
     0
102
RTVSPost2010PropOp36
 70
     1
102
RTVSPost2010Prop37
 90
       50
102
RTVSPost2010PropOp37
 70
     1
102
RTVSPost2010Prop38
140
0.0
102
RTVSPost2010PropOp38
 70
     1
102
RTVSPost2010Prop39
140
1.0
102
RTVSPost2010PropOp39
 70
     1
102
RTVSPost2010Prop40
 90
        0
102
RTVSPost2010PropOp40
 70
     1
102
RTVSPost2010Prop41ColorIndex
 90
       18
102
RTVSPost2010Prop41ColorRGB
 90
        0
102
RTVSPost2010PropOp41
 70
     1
102
RTVSPost2010Prop42
 90
       50
102
RTVSPost2010PropOp42
 70
     1
102
RTVSPost2010Prop43
 90
        3
102
RTVSPost2010PropOp43
 70
     1
102
RTVSPost2010Prop44ColorIndex
 90
        5
102
RTVSPost2010Prop44ColorRGB
 90
      255
102
RTVSPost2010PropOp44
 70
     1
102
RTVSPost2010Prop45
280
     0
102
RTVSPost2010PropOp45
 70
     1
102
RTVSPost2010Prop46
 90
       50
102
RTVSPost2010PropOp46
 70
     1
102
RTVSPost2010Prop47
 90
       50
102
RTVSPost2010PropOp47
 70
     1
102
RTVSPost2010Prop48
 90
       50
102
RTVSPost2010PropOp48
 70
     1
102
RTVSPost2010Prop49
280
     0
102
RTVSPost2010PropOp49
 70
     1
102
RTVSPost2010Prop50
 90
       50
102
RTVSPost2010PropOp50
 70
     1
102
RTVSPost2010Prop51ColorIndex
 90
      256
102
RTVSPost2010Prop51ColorRGB
 90
-16777216
102
RTVSPost2010PropOp51
 70
     0
102
RTVSPost2010Prop52
140
1.0
102
RTVSPost2010PropOp52
 70
     0
102
RTVSPost2010Prop53
 90
        2
102
RTVSPost2010PropOp53
 70
     1
102
RTVSPost2010Prop54
  1
strokes_ogs.tif
102
RTVSPost2010PropOp54
 70
     1
102
RTVSPost2010Prop55
280
     0
102
RTVSPost2010PropOp55
 70
     1
102
RTVSPost2010Prop56
140
1.0
102
RTVSPost2010PropOp56
 70
     1
102
RTVSPost2010Prop57
140
1.0
102
RTVSPost2010PropOp57
 70
     1
  0
XRECORD
  5
3BF
102
{ACAD_REACTORS
330
3BE
102
}
330
3BE
100
AcDbXrecord
280
     1
102
RTVSPropertyOp0
 70
     1
102
RTVSPropertyOp1
 70
     1
102
RTVSPropertyOp2
 70
     1
102
RTVSPropertyOp3
 70
     1
102
RTVSPropertyOp4
 70
     1
102
RTVSPropertyOp5
 70
     1
102
RTVSPropertyOp6
 70
     1
102
RTVSPropertyOp7
 70
     1
102
RTVSPropertyOp8
 70
     1
102
RTVSPropertyOp9
 70
     1
102
RTVSPropertyOp10
 70
     1
102
RTVSPropertyOp11
 70
     1
102
RTVSPropertyOp12
 70
     1
102
RTVSPropertyOp13
 70
     1
102
RTVSPropertyOp14
 70
     1
102
RTVSPropertyOp15
 70
     1
102
RTVSPropertyOp16
 70
     1
102
RTVSPropertyOp17
 70
     1
102
RTVSPropertyOp18
 70
     1
102
RTVSPropertyOp19
 70
     1
102
RTVSPropertyOp20
 70
     1
102
RTVSPropertyOp21
 70
     1
102
RTVSPropertyOp22
 70
     1
102
RTVSPropertyOp23
 70
     1
102
RTVSPropertyOp24
 70
     1
102
RTVSPropertyOp25
 70
     1
102
RTVSPropertyOp26
 70
     1
102
RTVSPropertyOp27
 70
     1
102
RTVSPropertyOp28
 70
     1
102
RTVSPropertyOp29
 70
     1
102
RTVSPropertyOp30
 70
     1
102
RTVSPropertyOp31
 70
     1
102
RTVSPropertyOp32
 70
     1
102
RTVSPropertyOp33
 70
     1
102
RTVSPropertyOp34
 70
     1
102
RTVSPropertyOp35
 70
     1
102
RTVSPropertyOp36
 70
     1
102
RTVSPropertyOp37
 70
     1
102
RTVSPropertyOp38
 70
     1
102
RTVSPropertyOp39
 70
     1
102
RTVSPropertyOp40
 70
     1
102
RTVSPropertyOp41
 70
     1
102
RTVSPropertyOp42
 70
     1
102
RTVSPropertyOp43
 70
     1
102
RTVSPropertyOp44
 70
     1
102
RTVSPropertyOp45
 70
     1
102
RTVSPropertyOp46
 70
     1
102
RTVSPropertyOp47
 70
     1
102
RTVSPropertyOp48
 70
     1
102
RTVSPropertyOp49
 70
     1
102
RTVSPropertyOp50
 70
     1
102
RTVSPropertyOp51
 70
     0
102
RTVSPropertyOp52
 70
     0
102
RTVSPropertyOp53
 70
     1
102
RTVSPropertyOp54
 70
     1
102
RTVSPropertyOp55
 70
     1
102
RTVSPropertyOp56
 70
     1
102
RTVSPropertyOp57
 70
     1
102
RTVSPost2010Prop28
280
     0
102
RTVSPost2010PropOp28
 70
     1
102
RTVSPost2010Prop29
280
     1
102
RTVSPost2010PropOp29
 70
     1
102
RTVSPost2010Prop30
280
     1
102
RTVSPost2010PropOp30
 70
     1
102
RTVSPost2010Prop31
280
     0
102
RTVSPost2010PropOp31
 70
     1
102
RTVSPost2010Prop32
280
     0
102
RTVSPost2010PropOp32
 70
     1
102
RTVSPost2010Prop33
280
     0
102
RTVSPost2010PropOp33
 70
     1
102
RTVSPost2010Prop34
280
     0
102
RTVSPost2010PropOp34
 70
     1
102
RTVSPost2010Prop35
280
     0
102
RTVSPost2010PropOp35
 70
     1
102
RTVSPost2010Prop36
280
     0
102
RTVSPost2010PropOp36
 70
     1
102
RTVSPost2010Prop37
 90
       50
102
RTVSPost2010PropOp37
 70
     1
102
RTVSPost2010Prop38
140
0.0
102
RTVSPost2010PropOp38
 70
     1
102
RTVSPost2010Prop39
140
1.0
102
RTVSPost2010PropOp39
 70
     1
102
RTVSPost2010Prop40
 90
        0
102
RTVSPost2010PropOp40
 70
     1
102
RTVSPost2010Prop41ColorIndex
 90
       18
102
RTVSPost2010Prop41ColorRGB
 90
        0
102
RTVSPost2010PropOp41
 70
     1
102
RTVSPost2010Prop42
 90
       50
102
RTVSPost2010PropOp42
 70
     1
102
RTVSPost2010Prop43
 90
        3
102
RTVSPost2010PropOp43
 70
     1
102
RTVSPost2010Prop44ColorIndex
 90
        5
102
RTVSPost2010Prop44ColorRGB
 90
      255
102
RTVSPost2010PropOp44
 70
     1
102
RTVSPost2010Prop45
280
     0
102
RTVSPost2010PropOp45
 70
     1
102
RTVSPost2010Prop46
 90
       50
102
RTVSPost2010PropOp46
 70
     1
102
RTVSPost2010Prop47
 90
       50
102
RTVSPost2010PropOp47
 70
     1
102
RTVSPost2010Prop48
 90
       50
102
RTVSPost2010PropOp48
 70
     1
102
RTVSPost2010Prop49
280
     0
102
RTVSPost2010PropOp49
 70
     1
102
RTVSPost2010Prop50
 90
       50
102
RTVSPost2010PropOp50
 70
     1
102
RTVSPost2010Prop51ColorIndex
 90
      256
102
RTVSPost2010Prop51ColorRGB
 90
-16777216
102
RTVSPost2010PropOp51
 70
     0
102
RTVSPost2010Prop52
140
1.0
102
RTVSPost2010PropOp52
 70
     0
102
RTVSPost2010Prop53
 90
        2
102
RTVSPost2010PropOp53
 70
     1
102
RTVSPost2010Prop54
  1
strokes_ogs.tif
102
RTVSPost2010PropOp54
 70
     1
102
RTVSPost2010Prop55
280
     0
102
RTVSPost2010PropOp55
 70
     1
102
RTVSPost2010Prop56
140
1.0
102
RTVSPost2010PropOp56
 70
     1
102
RTVSPost2010Prop57
140
1.0
102
RTVSPost2010PropOp57
 70
     1
  0
XRECORD
  5
3CF
102
{ACAD_REACTORS
330
3CE
102
}
330
3CE
100
AcDbXrecord
280
     1
102
RTVSPropertyOp0
 70
     0
102
RTVSPropertyOp1
 70
     0
102
RTVSPropertyOp2
 70
     0
102
RTVSPropertyOp3
 70
     0
102
RTVSPropertyOp4
 70
     0
102
RTVSPropertyOp5
 70
     0
102
RTVSPropertyOp6
 70
     0
102
RTVSPropertyOp7
 70
     0
102
RTVSPropertyOp8
 70
     0
102
RTVSPropertyOp9
 70
     0
102
RTVSPropertyOp10
 70
     0
102
RTVSPropertyOp11
 70
     0
102
RTVSPropertyOp12
 70
     0
102
RTVSPropertyOp13
 70
     0
102
RTVSPropertyOp14
 70
     2
102
RTVSPropertyOp15
 70
     0
102
RTVSPropertyOp16
 70
     0
102
RTVSPropertyOp17
 70
     0
102
RTVSPropertyOp18
 70
     0
102
RTVSPropertyOp19
 70
     0
102
RTVSPropertyOp20
 70
     0
102
RTVSPropertyOp21
 70
     0
102
RTVSPropertyOp22
 70
     0
102
RTVSPropertyOp23
 70
     0
102
RTVSPropertyOp24
 70
     0
102
RTVSPropertyOp25
 70
     0
102
RTVSPropertyOp26
 70
     0
102
RTVSPropertyOp27
 70
     0
102
RTVSPropertyOp28
 70
     0
102
RTVSPropertyOp29
 70
     0
102
RTVSPropertyOp30
 70
     0
102
RTVSPropertyOp31
 70
     0
102
RTVSPropertyOp32
 70
     0
102
RTVSPropertyOp33
 70
     0
102
RTVSPropertyOp34
 70
     0
102
RTVSPropertyOp35
 70
     0
102
RTVSPropertyOp36
 70
     0
102
RTVSPropertyOp37
 70
     0
102
RTVSPropertyOp38
 70
     0
102
RTVSPropertyOp39
 70
     0
102
RTVSPropertyOp40
 70
     0
102
RTVSPropertyOp41
 70
     0
102
RTVSPropertyOp42
 70
     0
102
RTVSPropertyOp43
 70
     0
102
RTVSPropertyOp44
 70
     0
102
RTVSPropertyOp45
 70
     0
102
RTVSPropertyOp46
 70
     0
102
RTVSPropertyOp47
 70
     0
102
RTVSPropertyOp48
 70
     0
102
RTVSPropertyOp49
 70
     0
102
RTVSPropertyOp50
 70
     0
102
RTVSPropertyOp51
 70
     0
102
RTVSPropertyOp52
 70
     0
102
RTVSPropertyOp53
 70
     0
102
RTVSPropertyOp54
 70
     0
102
RTVSPropertyOp55
 70
     0
102
RTVSPropertyOp56
 70
     0
102
RTVSPropertyOp57
 70
     0
102
RTVSPost2010Prop28
280
     0
102
RTVSPost2010PropOp28
 70
     0
102
RTVSPost2010Prop29
280
     1
102
RTVSPost2010PropOp29
 70
     0
102
RTVSPost2010Prop30
280
     1
102
RTVSPost2010PropOp30
 70
     0
102
RTVSPost2010Prop31
280
     0
102
RTVSPost2010PropOp31
 70
     0
102
RTVSPost2010Prop32
280
     0
102
RTVSPost2010PropOp32
 70
     0
102
RTVSPost2010Prop33
280
     0
102
RTVSPost2010PropOp33
 70
     0
102
RTVSPost2010Prop34
280
     0
102
RTVSPost2010PropOp34
 70
     0
102
RTVSPost2010Prop35
280
     0
102
RTVSPost2010PropOp35
 70
     0
102
RTVSPost2010Prop36
280
     0
102
RTVSPost2010PropOp36
 70
     0
102
RTVSPost2010Prop37
 90
       50
102
RTVSPost2010PropOp37
 70
     0
102
RTVSPost2010Prop38
140
0.0
102
RTVSPost2010PropOp38
 70
     0
102
RTVSPost2010Prop39
140
1.0
102
RTVSPost2010PropOp39
 70
     0
102
RTVSPost2010Prop40
 90
        0
102
RTVSPost2010PropOp40
 70
     0
102
RTVSPost2010Prop41ColorIndex
 90
       18
102
RTVSPost2010Prop41ColorRGB
 90
        0
102
RTVSPost2010PropOp41
 70
     0
102
RTVSPost2010Prop42
 90
       50
102
RTVSPost2010PropOp42
 70
     0
102
RTVSPost2010Prop43
 90
        3
102
RTVSPost2010PropOp43
 70
     0
102
RTVSPost2010Prop44ColorIndex
 90
        5
102
RTVSPost2010Prop44ColorRGB
 90
      255
102
RTVSPost2010PropOp44
 70
     0
102
RTVSPost2010Prop45
280
     0
102
RTVSPost2010PropOp45
 70
     0
102
RTVSPost2010Prop46
 90
       50
102
RTVSPost2010PropOp46
 70
     0
102
RTVSPost2010Prop47
 90
       50
102
RTVSPost2010PropOp47
 70
     0
102
RTVSPost2010Prop48
 90
       50
102
RTVSPost2010PropOp48
 70
     0
102
RTVSPost2010Prop49
280
     0
102
RTVSPost2010PropOp49
 70
     0
102
RTVSPost2010Prop50
 90
       50
102
RTVSPost2010PropOp50
 70
     0
102
RTVSPost2010Prop51ColorIndex
 90
      256
102
RTVSPost2010Prop51ColorRGB
 90
-16777216
102
RTVSPost2010PropOp51
 70
     0
102
RTVSPost2010Prop52
140
1.0
102
RTVSPost2010PropOp52
 70
     0
102
RTVSPost2010Prop53
 90
        2
102
RTVSPost2010PropOp53
 70
     0
102
RTVSPost2010Prop54
  1
strokes_ogs.tif
102
RTVSPost2010PropOp54
 70
     0
102
RTVSPost2010Prop55
280
     0
102
RTVSPost2010PropOp55
 70
     0
102
RTVSPost2010Prop56
140
1.0
102
RTVSPost2010PropOp56
 70
     0
102
RTVSPost2010Prop57
140
1.0
102
RTVSPost2010PropOp57
 70
     0
  0
XRECORD
  5
3C7
102
{ACAD_REACTORS
330
3C6
102
}
330
3C6
100
AcDbXrecord
280
     1
102
RTVSPropertyOp0
 70
     1
102
RTVSPropertyOp1
 70
     1
102
RTVSPropertyOp2
 70
     1
102
RTVSPropertyOp3
 70
     1
102
RTVSPropertyOp4
 70
     1
102
RTVSPropertyOp5
 70
     1
102
RTVSPropertyOp6
 70
     1
102
RTVSPropertyOp7
 70
     1
102
RTVSPropertyOp8
 70
     1
102
RTVSPropertyOp9
 70
     1
102
RTVSPropertyOp10
 70
     1
102
RTVSPropertyOp11
 70
     1
102
RTVSPropertyOp12
 70
     1
102
RTVSPropertyOp13
 70
     1
102
RTVSPropertyOp14
 70
     1
102
RTVSPropertyOp15
 70
     1
102
RTVSPropertyOp16
 70
     1
102
RTVSPropertyOp17
 70
     1
102
RTVSPropertyOp18
 70
     1
102
RTVSPropertyOp19
 70
     1
102
RTVSPropertyOp20
 70
     1
102
RTVSPropertyOp21
 70
     1
102
RTVSPropertyOp22
 70
     1
102
RTVSPropertyOp23
 70
     1
102
RTVSPropertyOp24
 70
     1
102
RTVSPropertyOp25
 70
     1
102
RTVSPropertyOp26
 70
     1
102
RTVSPropertyOp27
 70
     1
102
RTVSPropertyOp28
 70
     1
102
RTVSPropertyOp29
 70
     1
102
RTVSPropertyOp30
 70
     1
102
RTVSPropertyOp31
 70
     1
102
RTVSPropertyOp32
 70
     1
102
RTVSPropertyOp33
 70
     1
102
RTVSPropertyOp34
 70
     1
102
RTVSPropertyOp35
 70
     1
102
RTVSPropertyOp36
 70
     1
102
RTVSPropertyOp37
 70
     1
102
RTVSPropertyOp38
 70
     1
102
RTVSPropertyOp39
 70
     1
102
RTVSPropertyOp40
 70
     1
102
RTVSPropertyOp41
 70
     1
102
RTVSPropertyOp42
 70
     1
102
RTVSPropertyOp43
 70
     1
102
RTVSPropertyOp44
 70
     1
102
RTVSPropertyOp45
 70
     1
102
RTVSPropertyOp46
 70
     1
102
RTVSPropertyOp47
 70
     1
102
RTVSPropertyOp48
 70
     1
102
RTVSPropertyOp49
 70
     1
102
RTVSPropertyOp50
 70
     1
102
RTVSPropertyOp51
 70
     0
102
RTVSPropertyOp52
 70
     0
102
RTVSPropertyOp53
 70
     1
102
RTVSPropertyOp54
 70
     1
102
RTVSPropertyOp55
 70
     1
102
RTVSPropertyOp56
 70
     1
102
RTVSPropertyOp57
 70
     1
102
RTVSPost2010Prop28
280
     0
102
RTVSPost2010PropOp28
 70
     1
102
RTVSPost2010Prop29
280
     1
102
RTVSPost2010PropOp29
 70
     1
102
RTVSPost2010Prop30
280
     1
102
RTVSPost2010PropOp30
 70
     1
102
RTVSPost2010Prop31
280
     0
102
RTVSPost2010PropOp31
 70
     1
102
RTVSPost2010Prop32
280
     0
102
RTVSPost2010PropOp32
 70
     1
102
RTVSPost2010Prop33
280
     0
102
RTVSPost2010PropOp33
 70
     1
102
RTVSPost2010Prop34
280
     0
102
RTVSPost2010PropOp34
 70
     1
102
RTVSPost2010Prop35
280
     0
102
RTVSPost2010PropOp35
 70
     1
102
RTVSPost2010Prop36
280
     0
102
RTVSPost2010PropOp36
 70
     1
102
RTVSPost2010Prop37
 90
       50
102
RTVSPost2010PropOp37
 70
     1
102
RTVSPost2010Prop38
140
0.0
102
RTVSPost2010PropOp38
 70
     1
102
RTVSPost2010Prop39
140
1.0
102
RTVSPost2010PropOp39
 70
     1
102
RTVSPost2010Prop40
 90
        0
102
RTVSPost2010PropOp40
 70
     1
102
RTVSPost2010Prop41ColorIndex
 90
       18
102
RTVSPost2010Prop41ColorRGB
 90
        0
102
RTVSPost2010PropOp41
 70
     1
102
RTVSPost2010Prop42
 90
       50
102
RTVSPost2010PropOp42
 70
     1
102
RTVSPost2010Prop43
 90
        3
102
RTVSPost2010PropOp43
 70
     1
102
RTVSPost2010Prop44ColorIndex
 90
        5
102
RTVSPost2010Prop44ColorRGB
 90
      255
102
RTVSPost2010PropOp44
 70
     1
102
RTVSPost2010Prop45
280
     0
102
RTVSPost2010PropOp45
 70
     1
102
RTVSPost2010Prop46
 90
       50
102
RTVSPost2010PropOp46
 70
     1
102
RTVSPost2010Prop47
 90
       50
102
RTVSPost2010PropOp47
 70
     1
102
RTVSPost2010Prop48
 90
       50
102
RTVSPost2010PropOp48
 70
     1
102
RTVSPost2010Prop49
280
     0
102
RTVSPost2010PropOp49
 70
     1
102
RTVSPost2010Prop50
 90
       50
102
RTVSPost2010PropOp50
 70
     1
102
RTVSPost2010Prop51ColorIndex
 90
      256
102
RTVSPost2010Prop51ColorRGB
 90
-16777216
102
RTVSPost2010PropOp51
 70
     0
102
RTVSPost2010Prop52
140
1.0
102
RTVSPost2010PropOp52
 70
     0
102
RTVSPost2010Prop53
 90
        2
102
RTVSPost2010PropOp53
 70
     1
102
RTVSPost2010Prop54
  1
strokes_ogs.tif
102
RTVSPost2010PropOp54
 70
     1
102
RTVSPost2010Prop55
280
     0
102
RTVSPost2010PropOp55
 70
     1
102
RTVSPost2010Prop56
140
1.0
102
RTVSPost2010PropOp56
 70
     1
102
RTVSPost2010Prop57
140
1.0
102
RTVSPost2010PropOp57
 70
     1
  0
XRECORD
  5
3AB
102
{ACAD_REACTORS
330
3AA
102
}
330
3AA
100
AcDbXrecord
280
     1
102
RTVSPropertyOp0
 70
     1
102
RTVSPropertyOp1
 70
     1
102
RTVSPropertyOp2
 70
     1
102
RTVSPropertyOp3
 70
     1
102
RTVSPropertyOp4
 70
     1
102
RTVSPropertyOp5
 70
     1
102
RTVSPropertyOp6
 70
     1
102
RTVSPropertyOp7
 70
     1
102
RTVSPropertyOp8
 70
     1
102
RTVSPropertyOp9
 70
     1
102
RTVSPropertyOp10
 70
     1
102
RTVSPropertyOp11
 70
     1
102
RTVSPropertyOp12
 70
     1
102
RTVSPropertyOp13
 70
     1
102
RTVSPropertyOp14
 70
     1
102
RTVSPropertyOp15
 70
     1
102
RTVSPropertyOp16
 70
     1
102
RTVSPropertyOp17
 70
     1
102
RTVSPropertyOp18
 70
     1
102
RTVSPropertyOp19
 70
     1
102
RTVSPropertyOp20
 70
     1
102
RTVSPropertyOp21
 70
     1
102
RTVSPropertyOp22
 70
     1
102
RTVSPropertyOp23
 70
     1
102
RTVSPropertyOp24
 70
     1
102
RTVSPropertyOp25
 70
     1
102
RTVSPropertyOp26
 70
     1
102
RTVSPropertyOp27
 70
     1
102
RTVSPropertyOp28
 70
     1
102
RTVSPropertyOp29
 70
     1
102
RTVSPropertyOp30
 70
     1
102
RTVSPropertyOp31
 70
     1
102
RTVSPropertyOp32
 70
     1
102
RTVSPropertyOp33
 70
     1
102
RTVSPropertyOp34
 70
     1
102
RTVSPropertyOp35
 70
     1
102
RTVSPropertyOp36
 70
     1
102
RTVSPropertyOp37
 70
     1
102
RTVSPropertyOp38
 70
     1
102
RTVSPropertyOp39
 70
     1
102
RTVSPropertyOp40
 70
     1
102
RTVSPropertyOp41
 70
     1
102
RTVSPropertyOp42
 70
     1
102
RTVSPropertyOp43
 70
     1
102
RTVSPropertyOp44
 70
     1
102
RTVSPropertyOp45
 70
     1
102
RTVSPropertyOp46
 70
     1
102
RTVSPropertyOp47
 70
     1
102
RTVSPropertyOp48
 70
     1
102
RTVSPropertyOp49
 70
     1
102
RTVSPropertyOp50
 70
     1
102
RTVSPropertyOp51
 70
     0
102
RTVSPropertyOp52
 70
     0
102
RTVSPropertyOp53
 70
     1
102
RTVSPropertyOp54
 70
     1
102
RTVSPropertyOp55
 70
     1
102
RTVSPropertyOp56
 70
     1
102
RTVSPropertyOp57
 70
     1
102
RTVSPost2010Prop28
280
     0
102
RTVSPost2010PropOp28
 70
     1
102
RTVSPost2010Prop29
280
     1
102
RTVSPost2010PropOp29
 70
     1
102
RTVSPost2010Prop30
280
     1
102
RTVSPost2010PropOp30
 70
     1
102
RTVSPost2010Prop31
280
     0
102
RTVSPost2010PropOp31
 70
     1
102
RTVSPost2010Prop32
280
     0
102
RTVSPost2010PropOp32
 70
     1
102
RTVSPost2010Prop33
280
     0
102
RTVSPost2010PropOp33
 70
     1
102
RTVSPost2010Prop34
280
     0
102
RTVSPost2010PropOp34
 70
     1
102
RTVSPost2010Prop35
280
     0
102
RTVSPost2010PropOp35
 70
     1
102
RTVSPost2010Prop36
280
     0
102
RTVSPost2010PropOp36
 70
     1
102
RTVSPost2010Prop37
 90
       50
102
RTVSPost2010PropOp37
 70
     1
102
RTVSPost2010Prop38
140
0.0
102
RTVSPost2010PropOp38
 70
     1
102
RTVSPost2010Prop39
140
1.0
102
RTVSPost2010PropOp39
 70
     1
102
RTVSPost2010Prop40
 90
        0
102
RTVSPost2010PropOp40
 70
     1
102
RTVSPost2010Prop41ColorIndex
 90
       18
102
RTVSPost2010Prop41ColorRGB
 90
        0
102
RTVSPost2010PropOp41
 70
     1
102
RTVSPost2010Prop42
 90
       50
102
RTVSPost2010PropOp42
 70
     1
102
RTVSPost2010Prop43
 90
        3
102
RTVSPost2010PropOp43
 70
     1
102
RTVSPost2010Prop44ColorIndex
 90
        5
102
RTVSPost2010Prop44ColorRGB
 90
      255
102
RTVSPost2010PropOp44
 70
     1
102
RTVSPost2010Prop45
280
     0
102
RTVSPost2010PropOp45
 70
     1
102
RTVSPost2010Prop46
 90
       50
102
RTVSPost2010PropOp46
 70
     1
102
RTVSPost2010Prop47
 90
       50
102
RTVSPost2010PropOp47
 70
     1
102
RTVSPost2010Prop48
 90
       50
102
RTVSPost2010PropOp48
 70
     1
102
RTVSPost2010Prop49
280
     0
102
RTVSPost2010PropOp49
 70
     1
102
RTVSPost2010Prop50
 90
       50
102
RTVSPost2010PropOp50
 70
     1
102
RTVSPost2010Prop51ColorIndex
 90
      256
102
RTVSPost2010Prop51ColorRGB
 90
-16777216
102
RTVSPost2010PropOp51
 70
     0
102
RTVSPost2010Prop52
140
1.0
102
RTVSPost2010PropOp52
 70
     0
102
RTVSPost2010Prop53
 90
        2
102
RTVSPost2010PropOp53
 70
     1
102
RTVSPost2010Prop54
  1
strokes_ogs.tif
102
RTVSPost2010PropOp54
 70
     1
102
RTVSPost2010Prop55
280
     0
102
RTVSPost2010PropOp55
 70
     1
102
RTVSPost2010Prop56
140
1.0
102
RTVSPost2010PropOp56
 70
     1
102
RTVSPost2010Prop57
140
1.0
102
RTVSPost2010PropOp57
 70
     1
  0
XRECORD
  5
3AD
102
{ACAD_REACTORS
330
3AC
102
}
330
3AC
100
AcDbXrecord
280
     1
102
RTVSPropertyOp0
 70
     1
102
RTVSPropertyOp1
 70
     1
102
RTVSPropertyOp2
 70
     1
102
RTVSPropertyOp3
 70
     1
102
RTVSPropertyOp4
 70
     1
102
RTVSPropertyOp5
 70
     1
102
RTVSPropertyOp6
 70
     1
102
RTVSPropertyOp7
 70
     1
102
RTVSPropertyOp8
 70
     1
102
RTVSPropertyOp9
 70
     1
102
RTVSPropertyOp10
 70
     1
102
RTVSPropertyOp11
 70
     1
102
RTVSPropertyOp12
 70
     1
102
RTVSPropertyOp13
 70
     1
102
RTVSPropertyOp14
 70
     1
102
RTVSPropertyOp15
 70
     1
102
RTVSPropertyOp16
 70
     1
102
RTVSPropertyOp17
 70
     1
102
RTVSPropertyOp18
 70
     1
102
RTVSPropertyOp19
 70
     1
102
RTVSPropertyOp20
 70
     1
102
RTVSPropertyOp21
 70
     1
102
RTVSPropertyOp22
 70
     1
102
RTVSPropertyOp23
 70
     1
102
RTVSPropertyOp24
 70
     1
102
RTVSPropertyOp25
 70
     1
102
RTVSPropertyOp26
 70
     1
102
RTVSPropertyOp27
 70
     1
102
RTVSPropertyOp28
 70
     1
102
RTVSPropertyOp29
 70
     1
102
RTVSPropertyOp30
 70
     1
102
RTVSPropertyOp31
 70
     1
102
RTVSPropertyOp32
 70
     1
102
RTVSPropertyOp33
 70
     1
102
RTVSPropertyOp34
 70
     1
102
RTVSPropertyOp35
 70
     1
102
RTVSPropertyOp36
 70
     1
102
RTVSPropertyOp37
 70
     1
102
RTVSPropertyOp38
 70
     1
102
RTVSPropertyOp39
 70
     1
102
RTVSPropertyOp40
 70
     1
102
RTVSPropertyOp41
 70
     1
102
RTVSPropertyOp42
 70
     1
102
RTVSPropertyOp43
 70
     1
102
RTVSPropertyOp44
 70
     1
102
RTVSPropertyOp45
 70
     1
102
RTVSPropertyOp46
 70
     1
102
RTVSPropertyOp47
 70
     1
102
RTVSPropertyOp48
 70
     1
102
RTVSPropertyOp49
 70
     1
102
RTVSPropertyOp50
 70
     1
102
RTVSPropertyOp51
 70
     0
102
RTVSPropertyOp52
 70
     0
102
RTVSPropertyOp53
 70
     1
102
RTVSPropertyOp54
 70
     1
102
RTVSPropertyOp55
 70
     1
102
RTVSPropertyOp56
 70
     1
102
RTVSPropertyOp57
 70
     1
102
RTVSPost2010Prop28
280
     0
102
RTVSPost2010PropOp28
 70
     1
102
RTVSPost2010Prop29
280
     1
102
RTVSPost2010PropOp29
 70
     1
102
RTVSPost2010Prop30
280
     1
102
RTVSPost2010PropOp30
 70
     1
102
RTVSPost2010Prop31
280
     0
102
RTVSPost2010PropOp31
 70
     1
102
RTVSPost2010Prop32
280
     0
102
RTVSPost2010PropOp32
 70
     1
102
RTVSPost2010Prop33
280
     0
102
RTVSPost2010PropOp33
 70
     1
102
RTVSPost2010Prop34
280
     0
102
RTVSPost2010PropOp34
 70
     1
102
RTVSPost2010Prop35
280
     0
102
RTVSPost2010PropOp35
 70
     1
102
RTVSPost2010Prop36
280
     0
102
RTVSPost2010PropOp36
 70
     1
102
RTVSPost2010Prop37
 90
       50
102
RTVSPost2010PropOp37
 70
     1
102
RTVSPost2010Prop38
140
0.0
102
RTVSPost2010PropOp38
 70
     1
102
RTVSPost2010Prop39
140
1.0
102
RTVSPost2010PropOp39
 70
     1
102
RTVSPost2010Prop40
 90
        0
102
RTVSPost2010PropOp40
 70
     1
102
RTVSPost2010Prop41ColorIndex
 90
       18
102
RTVSPost2010Prop41ColorRGB
 90
        0
102
RTVSPost2010PropOp41
 70
     1
102
RTVSPost2010Prop42
 90
       50
102
RTVSPost2010PropOp42
 70
     1
102
RTVSPost2010Prop43
 90
        3
102
RTVSPost2010PropOp43
 70
     1
102
RTVSPost2010Prop44ColorIndex
 90
        5
102
RTVSPost2010Prop44ColorRGB
 90
      255
102
RTVSPost2010PropOp44
 70
     1
102
RTVSPost2010Prop45
280
     0
102
RTVSPost2010PropOp45
 70
     1
102
RTVSPost2010Prop46
 90
       50
102
RTVSPost2010PropOp46
 70
     1
102
RTVSPost2010Prop47
 90
       50
102
RTVSPost2010PropOp47
 70
     1
102
RTVSPost2010Prop48
 90
       50
102
RTVSPost2010PropOp48
 70
     1
102
RTVSPost2010Prop49
280
     0
102
RTVSPost2010PropOp49
 70
     1
102
RTVSPost2010Prop50
 90
       50
102
RTVSPost2010PropOp50
 70
     1
102
RTVSPost2010Prop51ColorIndex
 90
      256
102
RTVSPost2010Prop51ColorRGB
 90
-16777216
102
RTVSPost2010PropOp51
 70
     0
102
RTVSPost2010Prop52
140
1.0
102
RTVSPost2010PropOp52
 70
     0
102
RTVSPost2010Prop53
 90
        2
102
RTVSPost2010PropOp53
 70
     1
102
RTVSPost2010Prop54
  1
strokes_ogs.tif
102
RTVSPost2010PropOp54
 70
     1
102
RTVSPost2010Prop55
280
     0
102
RTVSPost2010PropOp55
 70
     1
102
RTVSPost2010Prop56
140
1.0
102
RTVSPost2010PropOp56
 70
     1
102
RTVSPost2010Prop57
140
1.0
102
RTVSPost2010PropOp57
 70
     1
  0
XRECORD
  5
3AF
102
{ACAD_REACTORS
330
3AE
102
}
330
3AE
100
AcDbXrecord
280
     1
102
RTVSPropertyOp0
 70
     1
102
RTVSPropertyOp1
 70
     1
102
RTVSPropertyOp2
 70
     1
102
RTVSPropertyOp3
 70
     1
102
RTVSPropertyOp4
 70
     1
102
RTVSPropertyOp5
 70
     1
102
RTVSPropertyOp6
 70
     1
102
RTVSPropertyOp7
 70
     1
102
RTVSPropertyOp8
 70
     1
102
RTVSPropertyOp9
 70
     1
102
RTVSPropertyOp10
 70
     1
102
RTVSPropertyOp11
 70
     1
102
RTVSPropertyOp12
 70
     1
102
RTVSPropertyOp13
 70
     1
102
RTVSPropertyOp14
 70
     1
102
RTVSPropertyOp15
 70
     1
102
RTVSPropertyOp16
 70
     1
102
RTVSPropertyOp17
 70
     1
102
RTVSPropertyOp18
 70
     1
102
RTVSPropertyOp19
 70
     1
102
RTVSPropertyOp20
 70
     1
102
RTVSPropertyOp21
 70
     1
102
RTVSPropertyOp22
 70
     1
102
RTVSPropertyOp23
 70
     1
102
RTVSPropertyOp24
 70
     1
102
RTVSPropertyOp25
 70
     1
102
RTVSPropertyOp26
 70
     1
102
RTVSPropertyOp27
 70
     1
102
RTVSPropertyOp28
 70
     1
102
RTVSPropertyOp29
 70
     1
102
RTVSPropertyOp30
 70
     1
102
RTVSPropertyOp31
 70
     1
102
RTVSPropertyOp32
 70
     1
102
RTVSPropertyOp33
 70
     1
102
RTVSPropertyOp34
 70
     1
102
RTVSPropertyOp35
 70
     1
102
RTVSPropertyOp36
 70
     1
102
RTVSPropertyOp37
 70
     1
102
RTVSPropertyOp38
 70
     1
102
RTVSPropertyOp39
 70
     1
102
RTVSPropertyOp40
 70
     1
102
RTVSPropertyOp41
 70
     1
102
RTVSPropertyOp42
 70
     1
102
RTVSPropertyOp43
 70
     1
102
RTVSPropertyOp44
 70
     1
102
RTVSPropertyOp45
 70
     1
102
RTVSPropertyOp46
 70
     1
102
RTVSPropertyOp47
 70
     1
102
RTVSPropertyOp48
 70
     1
102
RTVSPropertyOp49
 70
     1
102
RTVSPropertyOp50
 70
     1
102
RTVSPropertyOp51
 70
     0
102
RTVSPropertyOp52
 70
     0
102
RTVSPropertyOp53
 70
     1
102
RTVSPropertyOp54
 70
     1
102
RTVSPropertyOp55
 70
     1
102
RTVSPropertyOp56
 70
     1
102
RTVSPropertyOp57
 70
     1
102
RTVSPost2010Prop28
280
     0
102
RTVSPost2010PropOp28
 70
     1
102
RTVSPost2010Prop29
280
     1
102
RTVSPost2010PropOp29
 70
     1
102
RTVSPost2010Prop30
280
     1
102
RTVSPost2010PropOp30
 70
     1
102
RTVSPost2010Prop31
280
     0
102
RTVSPost2010PropOp31
 70
     1
102
RTVSPost2010Prop32
280
     0
102
RTVSPost2010PropOp32
 70
     1
102
RTVSPost2010Prop33
280
     0
102
RTVSPost2010PropOp33
 70
     1
102
RTVSPost2010Prop34
280
     0
102
RTVSPost2010PropOp34
 70
     1
102
RTVSPost2010Prop35
280
     0
102
RTVSPost2010PropOp35
 70
     1
102
RTVSPost2010Prop36
280
     0
102
RTVSPost2010PropOp36
 70
     1
102
RTVSPost2010Prop37
 90
       50
102
RTVSPost2010PropOp37
 70
     1
102
RTVSPost2010Prop38
140
0.0
102
RTVSPost2010PropOp38
 70
     1
102
RTVSPost2010Prop39
140
1.0
102
RTVSPost2010PropOp39
 70
     1
102
RTVSPost2010Prop40
 90
        0
102
RTVSPost2010PropOp40
 70
     1
102
RTVSPost2010Prop41ColorIndex
 90
       18
102
RTVSPost2010Prop41ColorRGB
 90
        0
102
RTVSPost2010PropOp41
 70
     1
102
RTVSPost2010Prop42
 90
       50
102
RTVSPost2010PropOp42
 70
     1
102
RTVSPost2010Prop43
 90
        3
102
RTVSPost2010PropOp43
 70
     1
102
RTVSPost2010Prop44ColorIndex
 90
        5
102
RTVSPost2010Prop44ColorRGB
 90
      255
102
RTVSPost2010PropOp44
 70
     1
102
RTVSPost2010Prop45
280
     0
102
RTVSPost2010PropOp45
 70
     1
102
RTVSPost2010Prop46
 90
       50
102
RTVSPost2010PropOp46
 70
     1
102
RTVSPost2010Prop47
 90
       50
102
RTVSPost2010PropOp47
 70
     1
102
RTVSPost2010Prop48
 90
       50
102
RTVSPost2010PropOp48
 70
     1
102
RTVSPost2010Prop49
280
     0
102
RTVSPost2010PropOp49
 70
     1
102
RTVSPost2010Prop50
 90
       50
102
RTVSPost2010PropOp50
 70
     1
102
RTVSPost2010Prop51ColorIndex
 90
      256
102
RTVSPost2010Prop51ColorRGB
 90
-16777216
102
RTVSPost2010PropOp51
 70
     0
102
RTVSPost2010Prop52
140
1.0
102
RTVSPost2010PropOp52
 70
     0
102
RTVSPost2010Prop53
 90
        2
102
RTVSPost2010PropOp53
 70
     1
102
RTVSPost2010Prop54
  1
strokes_ogs.tif
102
RTVSPost2010PropOp54
 70
     1
102
RTVSPost2010Prop55
280
     0
102
RTVSPost2010PropOp55
 70
     1
102
RTVSPost2010Prop56
140
1.0
102
RTVSPost2010PropOp56
 70
     1
102
RTVSPost2010Prop57
140
1.0
102
RTVSPost2010PropOp57
 70
     1
  0
XRECORD
  5
3B1
102
{ACAD_REACTORS
330
3B0
102
}
330
3B0
100
AcDbXrecord
280
     1
102
RTVSPropertyOp0
 70
     1
102
RTVSPropertyOp1
 70
     1
102
RTVSPropertyOp2
 70
     1
102
RTVSPropertyOp3
 70
     1
102
RTVSPropertyOp4
 70
     1
102
RTVSPropertyOp5
 70
     1
102
RTVSPropertyOp6
 70
     1
102
RTVSPropertyOp7
 70
     1
102
RTVSPropertyOp8
 70
     1
102
RTVSPropertyOp9
 70
     1
102
RTVSPropertyOp10
 70
     1
102
RTVSPropertyOp11
 70
     1
102
RTVSPropertyOp12
 70
     1
102
RTVSPropertyOp13
 70
     1
102
RTVSPropertyOp14
 70
     1
102
RTVSPropertyOp15
 70
     1
102
RTVSPropertyOp16
 70
     1
102
RTVSPropertyOp17
 70
     1
102
RTVSPropertyOp18
 70
     1
102
RTVSPropertyOp19
 70
     1
102
RTVSPropertyOp20
 70
     1
102
RTVSPropertyOp21
 70
     1
102
RTVSPropertyOp22
 70
     1
102
RTVSPropertyOp23
 70
     1
102
RTVSPropertyOp24
 70
     1
102
RTVSPropertyOp25
 70
     1
102
RTVSPropertyOp26
 70
     1
102
RTVSPropertyOp27
 70
     1
102
RTVSPropertyOp28
 70
     1
102
RTVSPropertyOp29
 70
     1
102
RTVSPropertyOp30
 70
     1
102
RTVSPropertyOp31
 70
     1
102
RTVSPropertyOp32
 70
     1
102
RTVSPropertyOp33
 70
     1
102
RTVSPropertyOp34
 70
     1
102
RTVSPropertyOp35
 70
     1
102
RTVSPropertyOp36
 70
     1
102
RTVSPropertyOp37
 70
     1
102
RTVSPropertyOp38
 70
     1
102
RTVSPropertyOp39
 70
     1
102
RTVSPropertyOp40
 70
     1
102
RTVSPropertyOp41
 70
     1
102
RTVSPropertyOp42
 70
     1
102
RTVSPropertyOp43
 70
     1
102
RTVSPropertyOp44
 70
     1
102
RTVSPropertyOp45
 70
     1
102
RTVSPropertyOp46
 70
     1
102
RTVSPropertyOp47
 70
     1
102
RTVSPropertyOp48
 70
     1
102
RTVSPropertyOp49
 70
     1
102
RTVSPropertyOp50
 70
     1
102
RTVSPropertyOp51
 70
     0
102
RTVSPropertyOp52
 70
     0
102
RTVSPropertyOp53
 70
     1
102
RTVSPropertyOp54
 70
     1
102
RTVSPropertyOp55
 70
     1
102
RTVSPropertyOp56
 70
     1
102
RTVSPropertyOp57
 70
     1
102
RTVSPost2010Prop28
280
     0
102
RTVSPost2010PropOp28
 70
     1
102
RTVSPost2010Prop29
280
     1
102
RTVSPost2010PropOp29
 70
     1
102
RTVSPost2010Prop30
280
     1
102
RTVSPost2010PropOp30
 70
     1
102
RTVSPost2010Prop31
280
     0
102
RTVSPost2010PropOp31
 70
     1
102
RTVSPost2010Prop32
280
     0
102
RTVSPost2010PropOp32
 70
     1
102
RTVSPost2010Prop33
280
     0
102
RTVSPost2010PropOp33
 70
     1
102
RTVSPost2010Prop34
280
     0
102
RTVSPost2010PropOp34
 70
     1
102
RTVSPost2010Prop35
280
     0
102
RTVSPost2010PropOp35
 70
     1
102
RTVSPost2010Prop36
280
     0
102
RTVSPost2010PropOp36
 70
     1
102
RTVSPost2010Prop37
 90
       50
102
RTVSPost2010PropOp37
 70
     1
102
RTVSPost2010Prop38
140
0.0
102
RTVSPost2010PropOp38
 70
     1
102
RTVSPost2010Prop39
140
1.0
102
RTVSPost2010PropOp39
 70
     1
102
RTVSPost2010Prop40
 90
        0
102
RTVSPost2010PropOp40
 70
     1
102
RTVSPost2010Prop41ColorIndex
 90
       18
102
RTVSPost2010Prop41ColorRGB
 90
        0
102
RTVSPost2010PropOp41
 70
     1
102
RTVSPost2010Prop42
 90
       50
102
RTVSPost2010PropOp42
 70
     1
102
RTVSPost2010Prop43
 90
        3
102
RTVSPost2010PropOp43
 70
     1
102
RTVSPost2010Prop44ColorIndex
 90
        5
102
RTVSPost2010Prop44ColorRGB
 90
      255
102
RTVSPost2010PropOp44
 70
     1
102
RTVSPost2010Prop45
280
     0
102
RTVSPost2010PropOp45
 70
     1
102
RTVSPost2010Prop46
 90
       50
102
RTVSPost2010PropOp46
 70
     1
102
RTVSPost2010Prop47
 90
       50
102
RTVSPost2010PropOp47
 70
     1
102
RTVSPost2010Prop48
 90
       50
102
RTVSPost2010PropOp48
 70
     1
102
RTVSPost2010Prop49
280
     0
102
RTVSPost2010PropOp49
 70
     1
102
RTVSPost2010Prop50
 90
       50
102
RTVSPost2010PropOp50
 70
     1
102
RTVSPost2010Prop51ColorIndex
 90
      256
102
RTVSPost2010Prop51ColorRGB
 90
-16777216
102
RTVSPost2010PropOp51
 70
     0
102
RTVSPost2010Prop52
140
1.0
102
RTVSPost2010PropOp52
 70
     0
102
RTVSPost2010Prop53
 90
        2
102
RTVSPost2010PropOp53
 70
     1
102
RTVSPost2010Prop54
  1
strokes_ogs.tif
102
RTVSPost2010PropOp54
 70
     1
102
RTVSPost2010Prop55
280
     0
102
RTVSPost2010PropOp55
 70
     1
102
RTVSPost2010Prop56
140
1.0
102
RTVSPost2010PropOp56
 70
     1
102
RTVSPost2010Prop57
140
1.0
102
RTVSPost2010PropOp57
 70
     1
  0
XRECORD
  5
3B7
102
{ACAD_REACTORS
330
3B6
102
}
330
3B6
100
AcDbXrecord
280
     1
102
RTVSPropertyOp0
 70
     1
102
RTVSPropertyOp1
 70
     1
102
RTVSPropertyOp2
 70
     1
102
RTVSPropertyOp3
 70
     1
102
RTVSPropertyOp4
 70
     1
102
RTVSPropertyOp5
 70
     1
102
RTVSPropertyOp6
 70
     1
102
RTVSPropertyOp7
 70
     1
102
RTVSPropertyOp8
 70
     1
102
RTVSPropertyOp9
 70
     1
102
RTVSPropertyOp10
 70
     1
102
RTVSPropertyOp11
 70
     1
102
RTVSPropertyOp12
 70
     1
102
RTVSPropertyOp13
 70
     1
102
RTVSPropertyOp14
 70
     1
102
RTVSPropertyOp15
 70
     1
102
RTVSPropertyOp16
 70
     1
102
RTVSPropertyOp17
 70
     1
102
RTVSPropertyOp18
 70
     1
102
RTVSPropertyOp19
 70
     1
102
RTVSPropertyOp20
 70
     1
102
RTVSPropertyOp21
 70
     1
102
RTVSPropertyOp22
 70
     1
102
RTVSPropertyOp23
 70
     1
102
RTVSPropertyOp24
 70
     1
102
RTVSPropertyOp25
 70
     1
102
RTVSPropertyOp26
 70
     1
102
RTVSPropertyOp27
 70
     1
102
RTVSPropertyOp28
 70
     1
102
RTVSPropertyOp29
 70
     1
102
RTVSPropertyOp30
 70
     1
102
RTVSPropertyOp31
 70
     1
102
RTVSPropertyOp32
 70
     1
102
RTVSPropertyOp33
 70
     1
102
RTVSPropertyOp34
 70
     1
102
RTVSPropertyOp35
 70
     1
102
RTVSPropertyOp36
 70
     1
102
RTVSPropertyOp37
 70
     1
102
RTVSPropertyOp38
 70
     1
102
RTVSPropertyOp39
 70
     1
102
RTVSPropertyOp40
 70
     1
102
RTVSPropertyOp41
 70
     1
102
RTVSPropertyOp42
 70
     1
102
RTVSPropertyOp43
 70
     1
102
RTVSPropertyOp44
 70
     1
102
RTVSPropertyOp45
 70
     1
102
RTVSPropertyOp46
 70
     1
102
RTVSPropertyOp47
 70
     1
102
RTVSPropertyOp48
 70
     1
102
RTVSPropertyOp49
 70
     1
102
RTVSPropertyOp50
 70
     1
102
RTVSPropertyOp51
 70
     0
102
RTVSPropertyOp52
 70
     0
102
RTVSPropertyOp53
 70
     1
102
RTVSPropertyOp54
 70
     1
102
RTVSPropertyOp55
 70
     1
102
RTVSPropertyOp56
 70
     1
102
RTVSPropertyOp57
 70
     1
102
RTVSPost2010Prop28
280
     0
102
RTVSPost2010PropOp28
 70
     1
102
RTVSPost2010Prop29
280
     1
102
RTVSPost2010PropOp29
 70
     1
102
RTVSPost2010Prop30
280
     1
102
RTVSPost2010PropOp30
 70
     1
102
RTVSPost2010Prop31
280
     0
102
RTVSPost2010PropOp31
 70
     1
102
RTVSPost2010Prop32
280
     0
102
RTVSPost2010PropOp32
 70
     1
102
RTVSPost2010Prop33
280
     0
102
RTVSPost2010PropOp33
 70
     1
102
RTVSPost2010Prop34
280
     0
102
RTVSPost2010PropOp34
 70
     1
102
RTVSPost2010Prop35
280
     0
102
RTVSPost2010PropOp35
 70
     1
102
RTVSPost2010Prop36
280
     0
102
RTVSPost2010PropOp36
 70
     1
102
RTVSPost2010Prop37
 90
       50
102
RTVSPost2010PropOp37
 70
     1
102
RTVSPost2010Prop38
140
0.0
102
RTVSPost2010PropOp38
 70
     1
102
RTVSPost2010Prop39
140
1.0
102
RTVSPost2010PropOp39
 70
     1
102
RTVSPost2010Prop40
 90
        0
102
RTVSPost2010PropOp40
 70
     1
102
RTVSPost2010Prop41ColorIndex
 90
       18
102
RTVSPost2010Prop41ColorRGB
 90
        0
102
RTVSPost2010PropOp41
 70
     1
102
RTVSPost2010Prop42
 90
       50
102
RTVSPost2010PropOp42
 70
     1
102
RTVSPost2010Prop43
 90
        3
102
RTVSPost2010PropOp43
 70
     1
102
RTVSPost2010Prop44ColorIndex
 90
        5
102
RTVSPost2010Prop44ColorRGB
 90
      255
102
RTVSPost2010PropOp44
 70
     1
102
RTVSPost2010Prop45
280
     0
102
RTVSPost2010PropOp45
 70
     1
102
RTVSPost2010Prop46
 90
       50
102
RTVSPost2010PropOp46
 70
     1
102
RTVSPost2010Prop47
 90
       50
102
RTVSPost2010PropOp47
 70
     1
102
RTVSPost2010Prop48
 90
       50
102
RTVSPost2010PropOp48
 70
     1
102
RTVSPost2010Prop49
280
     0
102
RTVSPost2010PropOp49
 70
     1
102
RTVSPost2010Prop50
 90
       50
102
RTVSPost2010PropOp50
 70
     1
102
RTVSPost2010Prop51ColorIndex
 90
      256
102
RTVSPost2010Prop51ColorRGB
 90
-16777216
102
RTVSPost2010PropOp51
 70
     0
102
RTVSPost2010Prop52
140
1.0
102
RTVSPost2010PropOp52
 70
     0
102
RTVSPost2010Prop53
 90
        2
102
RTVSPost2010PropOp53
 70
     1
102
RTVSPost2010Prop54
  1
strokes_ogs.tif
102
RTVSPost2010PropOp54
 70
     1
102
RTVSPost2010Prop55
280
     0
102
RTVSPost2010PropOp55
 70
     1
102
RTVSPost2010Prop56
140
1.0
102
RTVSPost2010PropOp56
 70
     1
102
RTVSPost2010Prop57
140
1.0
102
RTVSPost2010PropOp57
 70
     1
  0
XRECORD
  5
3CB
102
{ACAD_REACTORS
330
3CA
102
}
330
3CA
100
AcDbXrecord
280
     1
102
RTVSPropertyOp0
 70
     0
102
RTVSPropertyOp1
 70
     0
102
RTVSPropertyOp2
 70
     0
102
RTVSPropertyOp3
 70
     0
102
RTVSPropertyOp4
 70
     0
102
RTVSPropertyOp5
 70
     0
102
RTVSPropertyOp6
 70
     0
102
RTVSPropertyOp7
 70
     0
102
RTVSPropertyOp8
 70
     0
102
RTVSPropertyOp9
 70
     0
102
RTVSPropertyOp10
 70
     0
102
RTVSPropertyOp11
 70
     0
102
RTVSPropertyOp12
 70
     0
102
RTVSPropertyOp13
 70
     0
102
RTVSPropertyOp14
 70
     2
102
RTVSPropertyOp15
 70
     0
102
RTVSPropertyOp16
 70
     0
102
RTVSPropertyOp17
 70
     0
102
RTVSPropertyOp18
 70
     0
102
RTVSPropertyOp19
 70
     0
102
RTVSPropertyOp20
 70
     0
102
RTVSPropertyOp21
 70
     0
102
RTVSPropertyOp22
 70
     0
102
RTVSPropertyOp23
 70
     0
102
RTVSPropertyOp24
 70
     0
102
RTVSPropertyOp25
 70
     0
102
RTVSPropertyOp26
 70
     0
102
RTVSPropertyOp27
 70
     0
102
RTVSPropertyOp28
 70
     0
102
RTVSPropertyOp29
 70
     0
102
RTVSPropertyOp30
 70
     0
102
RTVSPropertyOp31
 70
     0
102
RTVSPropertyOp32
 70
     0
102
RTVSPropertyOp33
 70
     0
102
RTVSPropertyOp34
 70
     0
102
RTVSPropertyOp35
 70
     0
102
RTVSPropertyOp36
 70
     0
102
RTVSPropertyOp37
 70
     0
102
RTVSPropertyOp38
 70
     0
102
RTVSPropertyOp39
 70
     0
102
RTVSPropertyOp40
 70
     0
102
RTVSPropertyOp41
 70
     0
102
RTVSPropertyOp42
 70
     0
102
RTVSPropertyOp43
 70
     0
102
RTVSPropertyOp44
 70
     0
102
RTVSPropertyOp45
 70
     0
102
RTVSPropertyOp46
 70
     0
102
RTVSPropertyOp47
 70
     0
102
RTVSPropertyOp48
 70
     0
102
RTVSPropertyOp49
 70
     0
102
RTVSPropertyOp50
 70
     0
102
RTVSPropertyOp51
 70
     0
102
RTVSPropertyOp52
 70
     0
102
RTVSPropertyOp53
 70
     0
102
RTVSPropertyOp54
 70
     0
102
RTVSPropertyOp55
 70
     0
102
RTVSPropertyOp56
 70
     0
102
RTVSPropertyOp57
 70
     0
102
RTVSPost2010Prop28
280
     0
102
RTVSPost2010PropOp28
 70
     0
102
RTVSPost2010Prop29
280
     1
102
RTVSPost2010PropOp29
 70
     0
102
RTVSPost2010Prop30
280
     1
102
RTVSPost2010PropOp30
 70
     0
102
RTVSPost2010Prop31
280
     0
102
RTVSPost2010PropOp31
 70
     0
102
RTVSPost2010Prop32
280
     0
102
RTVSPost2010PropOp32
 70
     0
102
RTVSPost2010Prop33
280
     0
102
RTVSPost2010PropOp33
 70
     0
102
RTVSPost2010Prop34
280
     0
102
RTVSPost2010PropOp34
 70
     0
102
RTVSPost2010Prop35
280
     0
102
RTVSPost2010PropOp35
 70
     0
102
RTVSPost2010Prop36
280
     0
102
RTVSPost2010PropOp36
 70
     0
102
RTVSPost2010Prop37
 90
       50
102
RTVSPost2010PropOp37
 70
     0
102
RTVSPost2010Prop38
140
0.0
102
RTVSPost2010PropOp38
 70
     0
102
RTVSPost2010Prop39
140
1.0
102
RTVSPost2010PropOp39
 70
     0
102
RTVSPost2010Prop40
 90
        0
102
RTVSPost2010PropOp40
 70
     0
102
RTVSPost2010Prop41ColorIndex
 90
       18
102
RTVSPost2010Prop41ColorRGB
 90
        0
102
RTVSPost2010PropOp41
 70
     0
102
RTVSPost2010Prop42
 90
       50
102
RTVSPost2010PropOp42
 70
     0
102
RTVSPost2010Prop43
 90
        3
102
RTVSPost2010PropOp43
 70
     0
102
RTVSPost2010Prop44ColorIndex
 90
        5
102
RTVSPost2010Prop44ColorRGB
 90
      255
102
RTVSPost2010PropOp44
 70
     0
102
RTVSPost2010Prop45
280
     0
102
RTVSPost2010PropOp45
 70
     0
102
RTVSPost2010Prop46
 90
       50
102
RTVSPost2010PropOp46
 70
     0
102
RTVSPost2010Prop47
 90
       50
102
RTVSPost2010PropOp47
 70
     0
102
RTVSPost2010Prop48
 90
       50
102
RTVSPost2010PropOp48
 70
     0
102
RTVSPost2010Prop49
280
     0
102
RTVSPost2010PropOp49
 70
     0
102
RTVSPost2010Prop50
 90
       50
102
RTVSPost2010PropOp50
 70
     0
102
RTVSPost2010Prop51ColorIndex
 90
      256
102
RTVSPost2010Prop51ColorRGB
 90
-16777216
102
RTVSPost2010PropOp51
 70
     0
102
RTVSPost2010Prop52
140
1.0
102
RTVSPost2010PropOp52
 70
     0
102
RTVSPost2010Prop53
 90
        2
102
RTVSPost2010PropOp53
 70
     0
102
RTVSPost2010Prop54
  1
strokes_ogs.tif
102
RTVSPost2010PropOp54
 70
     0
102
RTVSPost2010Prop55
280
     0
102
RTVSPost2010PropOp55
 70
     0
102
RTVSPost2010Prop56
140
1.0
102
RTVSPost2010PropOp56
 70
     0
102
RTVSPost2010Prop57
140
1.0
102
RTVSPost2010PropOp57
 70
     0
  0
XRECORD
  5
3C5
102
{ACAD_REACTORS
330
3C4
102
}
330
3C4
100
AcDbXrecord
280
     1
102
RTVSPropertyOp0
 70
     1
102
RTVSPropertyOp1
 70
     1
102
RTVSPropertyOp2
 70
     1
102
RTVSPropertyOp3
 70
     1
102
RTVSPropertyOp4
 70
     1
102
RTVSPropertyOp5
 70
     1
102
RTVSPropertyOp6
 70
     1
102
RTVSPropertyOp7
 70
     1
102
RTVSPropertyOp8
 70
     1
102
RTVSPropertyOp9
 70
     1
102
RTVSPropertyOp10
 70
     1
102
RTVSPropertyOp11
 70
     1
102
RTVSPropertyOp12
 70
     1
102
RTVSPropertyOp13
 70
     1
102
RTVSPropertyOp14
 70
     1
102
RTVSPropertyOp15
 70
     1
102
RTVSPropertyOp16
 70
     1
102
RTVSPropertyOp17
 70
     1
102
RTVSPropertyOp18
 70
     1
102
RTVSPropertyOp19
 70
     1
102
RTVSPropertyOp20
 70
     1
102
RTVSPropertyOp21
 70
     1
102
RTVSPropertyOp22
 70
     1
102
RTVSPropertyOp23
 70
     1
102
RTVSPropertyOp24
 70
     1
102
RTVSPropertyOp25
 70
     1
102
RTVSPropertyOp26
 70
     1
102
RTVSPropertyOp27
 70
     1
102
RTVSPropertyOp28
 70
     1
102
RTVSPropertyOp29
 70
     1
102
RTVSPropertyOp30
 70
     1
102
RTVSPropertyOp31
 70
     1
102
RTVSPropertyOp32
 70
     1
102
RTVSPropertyOp33
 70
     1
102
RTVSPropertyOp34
 70
     1
102
RTVSPropertyOp35
 70
     1
102
RTVSPropertyOp36
 70
     1
102
RTVSPropertyOp37
 70
     1
102
RTVSPropertyOp38
 70
     1
102
RTVSPropertyOp39
 70
     1
102
RTVSPropertyOp40
 70
     1
102
RTVSPropertyOp41
 70
     1
102
RTVSPropertyOp42
 70
     1
102
RTVSPropertyOp43
 70
     1
102
RTVSPropertyOp44
 70
     1
102
RTVSPropertyOp45
 70
     1
102
RTVSPropertyOp46
 70
     1
102
RTVSPropertyOp47
 70
     1
102
RTVSPropertyOp48
 70
     1
102
RTVSPropertyOp49
 70
     1
102
RTVSPropertyOp50
 70
     1
102
RTVSPropertyOp51
 70
     0
102
RTVSPropertyOp52
 70
     0
102
RTVSPropertyOp53
 70
     1
102
RTVSPropertyOp54
 70
     1
102
RTVSPropertyOp55
 70
     1
102
RTVSPropertyOp56
 70
     1
102
RTVSPropertyOp57
 70
     1
102
RTVSPost2010Prop28
280
     0
102
RTVSPost2010PropOp28
 70
     1
102
RTVSPost2010Prop29
280
     1
102
RTVSPost2010PropOp29
 70
     1
102
RTVSPost2010Prop30
280
     1
102
RTVSPost2010PropOp30
 70
     1
102
RTVSPost2010Prop31
280
     0
102
RTVSPost2010PropOp31
 70
     1
102
RTVSPost2010Prop32
280
     0
102
RTVSPost2010PropOp32
 70
     1
102
RTVSPost2010Prop33
280
     0
102
RTVSPost2010PropOp33
 70
     1
102
RTVSPost2010Prop34
280
     0
102
RTVSPost2010PropOp34
 70
     1
102
RTVSPost2010Prop35
280
     0
102
RTVSPost2010PropOp35
 70
     1
102
RTVSPost2010Prop36
280
     0
102
RTVSPost2010PropOp36
 70
     1
102
RTVSPost2010Prop37
 90
       50
102
RTVSPost2010PropOp37
 70
     1
102
RTVSPost2010Prop38
140
0.0
102
RTVSPost2010PropOp38
 70
     1
102
RTVSPost2010Prop39
140
1.0
102
RTVSPost2010PropOp39
 70
     1
102
RTVSPost2010Prop40
 90
        0
102
RTVSPost2010PropOp40
 70
     1
102
RTVSPost2010Prop41ColorIndex
 90
       18
102
RTVSPost2010Prop41ColorRGB
 90
        0
102
RTVSPost2010PropOp41
 70
     1
102
RTVSPost2010Prop42
 90
       50
102
RTVSPost2010PropOp42
 70
     1
102
RTVSPost2010Prop43
 90
        3
102
RTVSPost2010PropOp43
 70
     1
102
RTVSPost2010Prop44ColorIndex
 90
        5
102
RTVSPost2010Prop44ColorRGB
 90
      255
102
RTVSPost2010PropOp44
 70
     1
102
RTVSPost2010Prop45
280
     0
102
RTVSPost2010PropOp45
 70
     1
102
RTVSPost2010Prop46
 90
       50
102
RTVSPost2010PropOp46
 70
     1
102
RTVSPost2010Prop47
 90
       50
102
RTVSPost2010PropOp47
 70
     1
102
RTVSPost2010Prop48
 90
       50
102
RTVSPost2010PropOp48
 70
     1
102
RTVSPost2010Prop49
280
     0
102
RTVSPost2010PropOp49
 70
     1
102
RTVSPost2010Prop50
 90
       50
102
RTVSPost2010PropOp50
 70
     1
102
RTVSPost2010Prop51ColorIndex
 90
      256
102
RTVSPost2010Prop51ColorRGB
 90
-16777216
102
RTVSPost2010PropOp51
 70
     0
102
RTVSPost2010Prop52
140
1.0
102
RTVSPost2010PropOp52
 70
     0
102
RTVSPost2010Prop53
 90
        2
102
RTVSPost2010PropOp53
 70
     1
102
RTVSPost2010Prop54
  1
strokes_ogs.tif
102
RTVSPost2010PropOp54
 70
     1
102
RTVSPost2010Prop55
280
     0
102
RTVSPost2010PropOp55
 70
     1
102
RTVSPost2010Prop56
140
1.0
102
RTVSPost2010PropOp56
 70
     1
102
RTVSPost2010Prop57
140
1.0
102
RTVSPost2010PropOp57
 70
     1
  0
XRECORD
  5
3CD
102
{ACAD_REACTORS
330
3CC
102
}
330
3CC
100
AcDbXrecord
280
     1
102
RTVSPropertyOp0
 70
     0
102
RTVSPropertyOp1
 70
     0
102
RTVSPropertyOp2
 70
     0
102
RTVSPropertyOp3
 70
     0
102
RTVSPropertyOp4
 70
     0
102
RTVSPropertyOp5
 70
     0
102
RTVSPropertyOp6
 70
     0
102
RTVSPropertyOp7
 70
     0
102
RTVSPropertyOp8
 70
     0
102
RTVSPropertyOp9
 70
     0
102
RTVSPropertyOp10
 70
     0
102
RTVSPropertyOp11
 70
     0
102
RTVSPropertyOp12
 70
     0
102
RTVSPropertyOp13
 70
     0
102
RTVSPropertyOp14
 70
     2
102
RTVSPropertyOp15
 70
     0
102
RTVSPropertyOp16
 70
     0
102
RTVSPropertyOp17
 70
     0
102
RTVSPropertyOp18
 70
     0
102
RTVSPropertyOp19
 70
     0
102
RTVSPropertyOp20
 70
     0
102
RTVSPropertyOp21
 70
     0
102
RTVSPropertyOp22
 70
     0
102
RTVSPropertyOp23
 70
     0
102
RTVSPropertyOp24
 70
     0
102
RTVSPropertyOp25
 70
     0
102
RTVSPropertyOp26
 70
     0
102
RTVSPropertyOp27
 70
     0
102
RTVSPropertyOp28
 70
     0
102
RTVSPropertyOp29
 70
     0
102
RTVSPropertyOp30
 70
     0
102
RTVSPropertyOp31
 70
     0
102
RTVSPropertyOp32
 70
     0
102
RTVSPropertyOp33
 70
     0
102
RTVSPropertyOp34
 70
     0
102
RTVSPropertyOp35
 70
     0
102
RTVSPropertyOp36
 70
     0
102
RTVSPropertyOp37
 70
     0
102
RTVSPropertyOp38
 70
     0
102
RTVSPropertyOp39
 70
     0
102
RTVSPropertyOp40
 70
     0
102
RTVSPropertyOp41
 70
     0
102
RTVSPropertyOp42
 70
     0
102
RTVSPropertyOp43
 70
     0
102
RTVSPropertyOp44
 70
     0
102
RTVSPropertyOp45
 70
     0
102
RTVSPropertyOp46
 70
     0
102
RTVSPropertyOp47
 70
     0
102
RTVSPropertyOp48
 70
     0
102
RTVSPropertyOp49
 70
     0
102
RTVSPropertyOp50
 70
     0
102
RTVSPropertyOp51
 70
     0
102
RTVSPropertyOp52
 70
     0
102
RTVSPropertyOp53
 70
     0
102
RTVSPropertyOp54
 70
     0
102
RTVSPropertyOp55
 70
     0
102
RTVSPropertyOp56
 70
     0
102
RTVSPropertyOp57
 70
     0
102
RTVSPost2010Prop28
280
     0
102
RTVSPost2010PropOp28
 70
     0
102
RTVSPost2010Prop29
280
     1
102
RTVSPost2010PropOp29
 70
     0
102
RTVSPost2010Prop30
280
     1
102
RTVSPost2010PropOp30
 70
     0
102
RTVSPost2010Prop31
280
     0
102
RTVSPost2010PropOp31
 70
     0
102
RTVSPost2010Prop32
280
     0
102
RTVSPost2010PropOp32
 70
     0
102
RTVSPost2010Prop33
280
     0
102
RTVSPost2010PropOp33
 70
     0
102
RTVSPost2010Prop34
280
     0
102
RTVSPost2010PropOp34
 70
     0
102
RTVSPost2010Prop35
280
     0
102
RTVSPost2010PropOp35
 70
     0
102
RTVSPost2010Prop36
280
     0
102
RTVSPost2010PropOp36
 70
     0
102
RTVSPost2010Prop37
 90
       50
102
RTVSPost2010PropOp37
 70
     0
102
RTVSPost2010Prop38
140
0.0
102
RTVSPost2010PropOp38
 70
     0
102
RTVSPost2010Prop39
140
1.0
102
RTVSPost2010PropOp39
 70
     0
102
RTVSPost2010Prop40
 90
        0
102
RTVSPost2010PropOp40
 70
     0
102
RTVSPost2010Prop41ColorIndex
 90
       18
102
RTVSPost2010Prop41ColorRGB
 90
        0
102
RTVSPost2010PropOp41
 70
     0
102
RTVSPost2010Prop42
 90
       50
102
RTVSPost2010PropOp42
 70
     0
102
RTVSPost2010Prop43
 90
        3
102
RTVSPost2010PropOp43
 70
     0
102
RTVSPost2010Prop44ColorIndex
 90
        5
102
RTVSPost2010Prop44ColorRGB
 90
      255
102
RTVSPost2010PropOp44
 70
     0
102
RTVSPost2010Prop45
280
     0
102
RTVSPost2010PropOp45
 70
     0
102
RTVSPost2010Prop46
 90
       50
102
RTVSPost2010PropOp46
 70
     0
102
RTVSPost2010Prop47
 90
       50
102
RTVSPost2010PropOp47
 70
     0
102
RTVSPost2010Prop48
 90
       50
102
RTVSPost2010PropOp48
 70
     0
102
RTVSPost2010Prop49
280
     0
102
RTVSPost2010PropOp49
 70
     0
102
RTVSPost2010Prop50
 90
       50
102
RTVSPost2010PropOp50
 70
     0
102
RTVSPost2010Prop51ColorIndex
 90
      256
102
RTVSPost2010Prop51ColorRGB
 90
-16777216
102
RTVSPost2010PropOp51
 70
     0
102
RTVSPost2010Prop52
140
1.0
102
RTVSPost2010PropOp52
 70
     0
102
RTVSPost2010Prop53
 90
        2
102
RTVSPost2010PropOp53
 70
     0
102
RTVSPost2010Prop54
  1
strokes_ogs.tif
102
RTVSPost2010PropOp54
 70
     0
102
RTVSPost2010Prop55
280
     0
102
RTVSPost2010PropOp55
 70
     0
102
RTVSPost2010Prop56
140
1.0
102
RTVSPost2010PropOp56
 70
     0
102
RTVSPost2010Prop57
140
1.0
102
RTVSPost2010PropOp57
 70
     0
  0
XRECORD
  5
3BB
102
{ACAD_REACTORS
330
3BA
102
}
330
3BA
100
AcDbXrecord
280
     1
102
RTVSPropertyOp0
 70
     1
102
RTVSPropertyOp1
 70
     1
102
RTVSPropertyOp2
 70
     1
102
RTVSPropertyOp3
 70
     1
102
RTVSPropertyOp4
 70
     1
102
RTVSPropertyOp5
 70
     1
102
RTVSPropertyOp6
 70
     1
102
RTVSPropertyOp7
 70
     1
102
RTVSPropertyOp8
 70
     1
102
RTVSPropertyOp9
 70
     1
102
RTVSPropertyOp10
 70
     1
102
RTVSPropertyOp11
 70
     1
102
RTVSPropertyOp12
 70
     1
102
RTVSPropertyOp13
 70
     1
102
RTVSPropertyOp14
 70
     1
102
RTVSPropertyOp15
 70
     1
102
RTVSPropertyOp16
 70
     1
102
RTVSPropertyOp17
 70
     1
102
RTVSPropertyOp18
 70
     1
102
RTVSPropertyOp19
 70
     1
102
RTVSPropertyOp20
 70
     1
102
RTVSPropertyOp21
 70
     1
102
RTVSPropertyOp22
 70
     1
102
RTVSPropertyOp23
 70
     1
102
RTVSPropertyOp24
 70
     1
102
RTVSPropertyOp25
 70
     1
102
RTVSPropertyOp26
 70
     1
102
RTVSPropertyOp27
 70
     1
102
RTVSPropertyOp28
 70
     1
102
RTVSPropertyOp29
 70
     1
102
RTVSPropertyOp30
 70
     1
102
RTVSPropertyOp31
 70
     1
102
RTVSPropertyOp32
 70
     1
102
RTVSPropertyOp33
 70
     1
102
RTVSPropertyOp34
 70
     1
102
RTVSPropertyOp35
 70
     1
102
RTVSPropertyOp36
 70
     1
102
RTVSPropertyOp37
 70
     1
102
RTVSPropertyOp38
 70
     1
102
RTVSPropertyOp39
 70
     1
102
RTVSPropertyOp40
 70
     1
102
RTVSPropertyOp41
 70
     1
102
RTVSPropertyOp42
 70
     1
102
RTVSPropertyOp43
 70
     1
102
RTVSPropertyOp44
 70
     1
102
RTVSPropertyOp45
 70
     1
102
RTVSPropertyOp46
 70
     1
102
RTVSPropertyOp47
 70
     1
102
RTVSPropertyOp48
 70
     1
102
RTVSPropertyOp49
 70
     1
102
RTVSPropertyOp50
 70
     1
102
RTVSPropertyOp51
 70
     0
102
RTVSPropertyOp52
 70
     0
102
RTVSPropertyOp53
 70
     1
102
RTVSPropertyOp54
 70
     1
102
RTVSPropertyOp55
 70
     1
102
RTVSPropertyOp56
 70
     1
102
RTVSPropertyOp57
 70
     1
102
RTVSPost2010Prop28
280
     0
102
RTVSPost2010PropOp28
 70
     1
102
RTVSPost2010Prop29
280
     1
102
RTVSPost2010PropOp29
 70
     1
102
RTVSPost2010Prop30
280
     1
102
RTVSPost2010PropOp30
 70
     1
102
RTVSPost2010Prop31
280
     0
102
RTVSPost2010PropOp31
 70
     1
102
RTVSPost2010Prop32
280
     0
102
RTVSPost2010PropOp32
 70
     1
102
RTVSPost2010Prop33
280
     0
102
RTVSPost2010PropOp33
 70
     1
102
RTVSPost2010Prop34
280
     0
102
RTVSPost2010PropOp34
 70
     1
102
RTVSPost2010Prop35
280
     0
102
RTVSPost2010PropOp35
 70
     1
102
RTVSPost2010Prop36
280
     0
102
RTVSPost2010PropOp36
 70
     1
102
RTVSPost2010Prop37
 90
       50
102
RTVSPost2010PropOp37
 70
     1
102
RTVSPost2010Prop38
140
0.0
102
RTVSPost2010PropOp38
 70
     1
102
RTVSPost2010Prop39
140
1.0
102
RTVSPost2010PropOp39
 70
     1
102
RTVSPost2010Prop40
 90
        0
102
RTVSPost2010PropOp40
 70
     1
102
RTVSPost2010Prop41ColorIndex
 90
       18
102
RTVSPost2010Prop41ColorRGB
 90
        0
102
RTVSPost2010PropOp41
 70
     1
102
RTVSPost2010Prop42
 90
       50
102
RTVSPost2010PropOp42
 70
     1
102
RTVSPost2010Prop43
 90
        3
102
RTVSPost2010PropOp43
 70
     1
102
RTVSPost2010Prop44ColorIndex
 90
        5
102
RTVSPost2010Prop44ColorRGB
 90
      255
102
RTVSPost2010PropOp44
 70
     1
102
RTVSPost2010Prop45
280
     0
102
RTVSPost2010PropOp45
 70
     1
102
RTVSPost2010Prop46
 90
       50
102
RTVSPost2010PropOp46
 70
     1
102
RTVSPost2010Prop47
 90
       50
102
RTVSPost2010PropOp47
 70
     1
102
RTVSPost2010Prop48
 90
       50
102
RTVSPost2010PropOp48
 70
     1
102
RTVSPost2010Prop49
280
     0
102
RTVSPost2010PropOp49
 70
     1
102
RTVSPost2010Prop50
 90
       50
102
RTVSPost2010PropOp50
 70
     1
102
RTVSPost2010Prop51ColorIndex
 90
      256
102
RTVSPost2010Prop51ColorRGB
 90
-16777216
102
RTVSPost2010PropOp51
 70
     0
102
RTVSPost2010Prop52
140
1.0
102
RTVSPost2010PropOp52
 70
     0
102
RTVSPost2010Prop53
 90
        2
102
RTVSPost2010PropOp53
 70
     1
102
RTVSPost2010Prop54
  1
strokes_ogs.tif
102
RTVSPost2010PropOp54
 70
     1
102
RTVSPost2010Prop55
280
     0
102
RTVSPost2010PropOp55
 70
     1
102
RTVSPost2010Prop56
140
1.0
102
RTVSPost2010PropOp56
 70
     1
102
RTVSPost2010Prop57
140
1.0
102
RTVSPost2010PropOp57
 70
     1
  0
XRECORD
  5
3D9
102
{ACAD_REACTORS
330
3D8
102
}
330
3D8
100
AcDbXrecord
280
     1
102
RTVSPropertyOp0
 70
     1
102
RTVSPropertyOp1
 70
     1
102
RTVSPropertyOp2
 70
     1
102
RTVSPropertyOp3
 70
     1
102
RTVSPropertyOp4
 70
     1
102
RTVSPropertyOp5
 70
     1
102
RTVSPropertyOp6
 70
     1
102
RTVSPropertyOp7
 70
     1
102
RTVSPropertyOp8
 70
     1
102
RTVSPropertyOp9
 70
     1
102
RTVSPropertyOp10
 70
     1
102
RTVSPropertyOp11
 70
     1
102
RTVSPropertyOp12
 70
     1
102
RTVSPropertyOp13
 70
     1
102
RTVSPropertyOp14
 70
     1
102
RTVSPropertyOp15
 70
     1
102
RTVSPropertyOp16
 70
     1
102
RTVSPropertyOp17
 70
     1
102
RTVSPropertyOp18
 70
     1
102
RTVSPropertyOp19
 70
     1
102
RTVSPropertyOp20
 70
     1
102
RTVSPropertyOp21
 70
     1
102
RTVSPropertyOp22
 70
     1
102
RTVSPropertyOp23
 70
     1
102
RTVSPropertyOp24
 70
     1
102
RTVSPropertyOp25
 70
     1
102
RTVSPropertyOp26
 70
     1
102
RTVSPropertyOp27
 70
     1
102
RTVSPropertyOp28
 70
     1
102
RTVSPropertyOp29
 70
     1
102
RTVSPropertyOp30
 70
     1
102
RTVSPropertyOp31
 70
     1
102
RTVSPropertyOp32
 70
     1
102
RTVSPropertyOp33
 70
     1
102
RTVSPropertyOp34
 70
     1
102
RTVSPropertyOp35
 70
     1
102
RTVSPropertyOp36
 70
     1
102
RTVSPropertyOp37
 70
     1
102
RTVSPropertyOp38
 70
     1
102
RTVSPropertyOp39
 70
     1
102
RTVSPropertyOp40
 70
     1
102
RTVSPropertyOp41
 70
     1
102
RTVSPropertyOp42
 70
     1
102
RTVSPropertyOp43
 70
     1
102
RTVSPropertyOp44
 70
     1
102
RTVSPropertyOp45
 70
     1
102
RTVSPropertyOp46
 70
     1
102
RTVSPropertyOp47
 70
     1
102
RTVSPropertyOp48
 70
     1
102
RTVSPropertyOp49
 70
     1
102
RTVSPropertyOp50
 70
     1
102
RTVSPropertyOp51
 70
     0
102
RTVSPropertyOp52
 70
     0
102
RTVSPropertyOp53
 70
     1
102
RTVSPropertyOp54
 70
     1
102
RTVSPropertyOp55
 70
     1
102
RTVSPropertyOp56
 70
     1
102
RTVSPropertyOp57
 70
     1
102
RTVSPost2010Prop28
280
     0
102
RTVSPost2010PropOp28
 70
     1
102
RTVSPost2010Prop29
280
     1
102
RTVSPost2010PropOp29
 70
     1
102
RTVSPost2010Prop30
280
     1
102
RTVSPost2010PropOp30
 70
     1
102
RTVSPost2010Prop31
280
     0
102
RTVSPost2010PropOp31
 70
     1
102
RTVSPost2010Prop32
280
     0
102
RTVSPost2010PropOp32
 70
     1
102
RTVSPost2010Prop33
280
     0
102
RTVSPost2010PropOp33
 70
     1
102
RTVSPost2010Prop34
280
     0
102
RTVSPost2010PropOp34
 70
     1
102
RTVSPost2010Prop35
280
     0
102
RTVSPost2010PropOp35
 70
     1
102
RTVSPost2010Prop36
280
     0
102
RTVSPost2010PropOp36
 70
     1
102
RTVSPost2010Prop37
 90
       50
102
RTVSPost2010PropOp37
 70
     1
102
RTVSPost2010Prop38
140
0.0
102
RTVSPost2010PropOp38
 70
     1
102
RTVSPost2010Prop39
140
1.0
102
RTVSPost2010PropOp39
 70
     1
102
RTVSPost2010Prop40
 90
        0
102
RTVSPost2010PropOp40
 70
     1
102
RTVSPost2010Prop41ColorIndex
 90
       18
102
RTVSPost2010Prop41ColorRGB
 90
        0
102
RTVSPost2010PropOp41
 70
     1
102
RTVSPost2010Prop42
 90
       50
102
RTVSPost2010PropOp42
 70
     1
102
RTVSPost2010Prop43
 90
        3
102
RTVSPost2010PropOp43
 70
     1
102
RTVSPost2010Prop44ColorIndex
 90
        5
102
RTVSPost2010Prop44ColorRGB
 90
      255
102
RTVSPost2010PropOp44
 70
     1
102
RTVSPost2010Prop45
280
     0
102
RTVSPost2010PropOp45
 70
     1
102
RTVSPost2010Prop46
 90
       50
102
RTVSPost2010PropOp46
 70
     1
102
RTVSPost2010Prop47
 90
       50
102
RTVSPost2010PropOp47
 70
     1
102
RTVSPost2010Prop48
 90
       50
102
RTVSPost2010PropOp48
 70
     1
102
RTVSPost2010Prop49
280
     0
102
RTVSPost2010PropOp49
 70
     1
102
RTVSPost2010Prop50
 90
       50
102
RTVSPost2010PropOp50
 70
     1
102
RTVSPost2010Prop51ColorIndex
 90
      256
102
RTVSPost2010Prop51ColorRGB
 90
-16777216
102
RTVSPost2010PropOp51
 70
     0
102
RTVSPost2010Prop52
140
1.0
102
RTVSPost2010PropOp52
 70
     0
102
RTVSPost2010Prop53
 90
        2
102
RTVSPost2010PropOp53
 70
     1
102
RTVSPost2010Prop54
  1
strokes_ogs.tif
102
RTVSPost2010PropOp54
 70
     1
102
RTVSPost2010Prop55
280
     0
102
RTVSPost2010PropOp55
 70
     1
102
RTVSPost2010Prop56
140
1.0
102
RTVSPost2010PropOp56
 70
     1
102
RTVSPost2010Prop57
140
1.0
102
RTVSPost2010PropOp57
 70
     1
  0
XRECORD
  5
3D7
102
{ACAD_REACTORS
330
3D6
102
}
330
3D6
100
AcDbXrecord
280
     1
102
RTVSPropertyOp0
 70
     1
102
RTVSPropertyOp1
 70
     1
102
RTVSPropertyOp2
 70
     1
102
RTVSPropertyOp3
 70
     1
102
RTVSPropertyOp4
 70
     1
102
RTVSPropertyOp5
 70
     1
102
RTVSPropertyOp6
 70
     1
102
RTVSPropertyOp7
 70
     1
102
RTVSPropertyOp8
 70
     1
102
RTVSPropertyOp9
 70
     1
102
RTVSPropertyOp10
 70
     1
102
RTVSPropertyOp11
 70
     1
102
RTVSPropertyOp12
 70
     1
102
RTVSPropertyOp13
 70
     1
102
RTVSPropertyOp14
 70
     1
102
RTVSPropertyOp15
 70
     1
102
RTVSPropertyOp16
 70
     1
102
RTVSPropertyOp17
 70
     1
102
RTVSPropertyOp18
 70
     1
102
RTVSPropertyOp19
 70
     1
102
RTVSPropertyOp20
 70
     1
102
RTVSPropertyOp21
 70
     1
102
RTVSPropertyOp22
 70
     1
102
RTVSPropertyOp23
 70
     1
102
RTVSPropertyOp24
 70
     1
102
RTVSPropertyOp25
 70
     1
102
RTVSPropertyOp26
 70
     1
102
RTVSPropertyOp27
 70
     1
102
RTVSPropertyOp28
 70
     1
102
RTVSPropertyOp29
 70
     1
102
RTVSPropertyOp30
 70
     1
102
RTVSPropertyOp31
 70
     1
102
RTVSPropertyOp32
 70
     1
102
RTVSPropertyOp33
 70
     1
102
RTVSPropertyOp34
 70
     1
102
RTVSPropertyOp35
 70
     1
102
RTVSPropertyOp36
 70
     1
102
RTVSPropertyOp37
 70
     1
102
RTVSPropertyOp38
 70
     1
102
RTVSPropertyOp39
 70
     1
102
RTVSPropertyOp40
 70
     1
102
RTVSPropertyOp41
 70
     1
102
RTVSPropertyOp42
 70
     1
102
RTVSPropertyOp43
 70
     1
102
RTVSPropertyOp44
 70
     1
102
RTVSPropertyOp45
 70
     1
102
RTVSPropertyOp46
 70
     1
102
RTVSPropertyOp47
 70
     1
102
RTVSPropertyOp48
 70
     1
102
RTVSPropertyOp49
 70
     1
102
RTVSPropertyOp50
 70
     1
102
RTVSPropertyOp51
 70
     0
102
RTVSPropertyOp52
 70
     0
102
RTVSPropertyOp53
 70
     1
102
RTVSPropertyOp54
 70
     1
102
RTVSPropertyOp55
 70
     1
102
RTVSPropertyOp56
 70
     1
102
RTVSPropertyOp57
 70
     1
102
RTVSPost2010Prop28
280
     0
102
RTVSPost2010PropOp28
 70
     1
102
RTVSPost2010Prop29
280
     1
102
RTVSPost2010PropOp29
 70
     1
102
RTVSPost2010Prop30
280
     1
102
RTVSPost2010PropOp30
 70
     1
102
RTVSPost2010Prop31
280
     0
102
RTVSPost2010PropOp31
 70
     1
102
RTVSPost2010Prop32
280
     0
102
RTVSPost2010PropOp32
 70
     1
102
RTVSPost2010Prop33
280
     0
102
RTVSPost2010PropOp33
 70
     1
102
RTVSPost2010Prop34
280
     0
102
RTVSPost2010PropOp34
 70
     1
102
RTVSPost2010Prop35
280
     0
102
RTVSPost2010PropOp35
 70
     1
102
RTVSPost2010Prop36
280
     0
102
RTVSPost2010PropOp36
 70
     1
102
RTVSPost2010Prop37
 90
       50
102
RTVSPost2010PropOp37
 70
     1
102
RTVSPost2010Prop38
140
0.0
102
RTVSPost2010PropOp38
 70
     1
102
RTVSPost2010Prop39
140
1.0
102
RTVSPost2010PropOp39
 70
     1
102
RTVSPost2010Prop40
 90
        0
102
RTVSPost2010PropOp40
 70
     1
102
RTVSPost2010Prop41ColorIndex
 90
       18
102
RTVSPost2010Prop41ColorRGB
 90
        0
102
RTVSPost2010PropOp41
 70
     1
102
RTVSPost2010Prop42
 90
       50
102
RTVSPost2010PropOp42
 70
     1
102
RTVSPost2010Prop43
 90
        3
102
RTVSPost2010PropOp43
 70
     1
102
RTVSPost2010Prop44ColorIndex
 90
        5
102
RTVSPost2010Prop44ColorRGB
 90
      255
102
RTVSPost2010PropOp44
 70
     1
102
RTVSPost2010Prop45
280
     0
102
RTVSPost2010PropOp45
 70
     1
102
RTVSPost2010Prop46
 90
       50
102
RTVSPost2010PropOp46
 70
     1
102
RTVSPost2010Prop47
 90
       50
102
RTVSPost2010PropOp47
 70
     1
102
RTVSPost2010Prop48
 90
       50
102
RTVSPost2010PropOp48
 70
     1
102
RTVSPost2010Prop49
280
     0
102
RTVSPost2010PropOp49
 70
     1
102
RTVSPost2010Prop50
 90
       50
102
RTVSPost2010PropOp50
 70
     1
102
RTVSPost2010Prop51ColorIndex
 90
      256
102
RTVSPost2010Prop51ColorRGB
 90
-16777216
102
RTVSPost2010PropOp51
 70
     0
102
RTVSPost2010Prop52
140
1.0
102
RTVSPost2010PropOp52
 70
     0
102
RTVSPost2010Prop53
 90
        2
102
RTVSPost2010PropOp53
 70
     1
102
RTVSPost2010Prop54
  1
strokes_ogs.tif
102
RTVSPost2010PropOp54
 70
     1
102
RTVSPost2010Prop55
280
     0
102
RTVSPost2010PropOp55
 70
     1
102
RTVSPost2010Prop56
140
1.0
102
RTVSPost2010PropOp56
 70
     1
102
RTVSPost2010Prop57
140
1.0
102
RTVSPost2010PropOp57
 70
     1
  0
XRECORD
  5
3D1
102
{ACAD_REACTORS
330
3D0
102
}
330
3D0
100
AcDbXrecord
280
     1
102
RTVSPropertyOp0
 70
     1
102
RTVSPropertyOp1
 70
     1
102
RTVSPropertyOp2
 70
     1
102
RTVSPropertyOp3
 70
     1
102
RTVSPropertyOp4
 70
     1
102
RTVSPropertyOp5
 70
     1
102
RTVSPropertyOp6
 70
     1
102
RTVSPropertyOp7
 70
     1
102
RTVSPropertyOp8
 70
     1
102
RTVSPropertyOp9
 70
     1
102
RTVSPropertyOp10
 70
     1
102
RTVSPropertyOp11
 70
     1
102
RTVSPropertyOp12
 70
     1
102
RTVSPropertyOp13
 70
     1
102
RTVSPropertyOp14
 70
     1
102
RTVSPropertyOp15
 70
     1
102
RTVSPropertyOp16
 70
     1
102
RTVSPropertyOp17
 70
     1
102
RTVSPropertyOp18
 70
     1
102
RTVSPropertyOp19
 70
     1
102
RTVSPropertyOp20
 70
     1
102
RTVSPropertyOp21
 70
     1
102
RTVSPropertyOp22
 70
     1
102
RTVSPropertyOp23
 70
     1
102
RTVSPropertyOp24
 70
     1
102
RTVSPropertyOp25
 70
     1
102
RTVSPropertyOp26
 70
     1
102
RTVSPropertyOp27
 70
     1
102
RTVSPropertyOp28
 70
     1
102
RTVSPropertyOp29
 70
     1
102
RTVSPropertyOp30
 70
     1
102
RTVSPropertyOp31
 70
     1
102
RTVSPropertyOp32
 70
     1
102
RTVSPropertyOp33
 70
     1
102
RTVSPropertyOp34
 70
     1
102
RTVSPropertyOp35
 70
     1
102
RTVSPropertyOp36
 70
     1
102
RTVSPropertyOp37
 70
     1
102
RTVSPropertyOp38
 70
     1
102
RTVSPropertyOp39
 70
     1
102
RTVSPropertyOp40
 70
     1
102
RTVSPropertyOp41
 70
     1
102
RTVSPropertyOp42
 70
     1
102
RTVSPropertyOp43
 70
     1
102
RTVSPropertyOp44
 70
     1
102
RTVSPropertyOp45
 70
     1
102
RTVSPropertyOp46
 70
     1
102
RTVSPropertyOp47
 70
     1
102
RTVSPropertyOp48
 70
     1
102
RTVSPropertyOp49
 70
     1
102
RTVSPropertyOp50
 70
     1
102
RTVSPropertyOp51
 70
     0
102
RTVSPropertyOp52
 70
     0
102
RTVSPropertyOp53
 70
     1
102
RTVSPropertyOp54
 70
     1
102
RTVSPropertyOp55
 70
     1
102
RTVSPropertyOp56
 70
     1
102
RTVSPropertyOp57
 70
     1
102
RTVSPost2010Prop28
280
     0
102
RTVSPost2010PropOp28
 70
     1
102
RTVSPost2010Prop29
280
     1
102
RTVSPost2010PropOp29
 70
     1
102
RTVSPost2010Prop30
280
     1
102
RTVSPost2010PropOp30
 70
     1
102
RTVSPost2010Prop31
280
     0
102
RTVSPost2010PropOp31
 70
     1
102
RTVSPost2010Prop32
280
     0
102
RTVSPost2010PropOp32
 70
     1
102
RTVSPost2010Prop33
280
     0
102
RTVSPost2010PropOp33
 70
     1
102
RTVSPost2010Prop34
280
     0
102
RTVSPost2010PropOp34
 70
     1
102
RTVSPost2010Prop35
280
     0
102
RTVSPost2010PropOp35
 70
     1
102
RTVSPost2010Prop36
280
     0
102
RTVSPost2010PropOp36
 70
     1
102
RTVSPost2010Prop37
 90
       50
102
RTVSPost2010PropOp37
 70
     1
102
RTVSPost2010Prop38
140
0.0
102
RTVSPost2010PropOp38
 70
     1
102
RTVSPost2010Prop39
140
1.0
102
RTVSPost2010PropOp39
 70
     1
102
RTVSPost2010Prop40
 90
        0
102
RTVSPost2010PropOp40
 70
     1
102
RTVSPost2010Prop41ColorIndex
 90
       18
102
RTVSPost2010Prop41ColorRGB
 90
        0
102
RTVSPost2010PropOp41
 70
     1
102
RTVSPost2010Prop42
 90
       50
102
RTVSPost2010PropOp42
 70
     1
102
RTVSPost2010Prop43
 90
        3
102
RTVSPost2010PropOp43
 70
     1
102
RTVSPost2010Prop44ColorIndex
 90
        5
102
RTVSPost2010Prop44ColorRGB
 90
      255
102
RTVSPost2010PropOp44
 70
     1
102
RTVSPost2010Prop45
280
     0
102
RTVSPost2010PropOp45
 70
     1
102
RTVSPost2010Prop46
 90
       50
102
RTVSPost2010PropOp46
 70
     1
102
RTVSPost2010Prop47
 90
       50
102
RTVSPost2010PropOp47
 70
     1
102
RTVSPost2010Prop48
 90
       50
102
RTVSPost2010PropOp48
 70
     1
102
RTVSPost2010Prop49
280
     0
102
RTVSPost2010PropOp49
 70
     1
102
RTVSPost2010Prop50
 90
       50
102
RTVSPost2010PropOp50
 70
     1
102
RTVSPost2010Prop51ColorIndex
 90
      256
102
RTVSPost2010Prop51ColorRGB
 90
-16777216
102
RTVSPost2010PropOp51
 70
     0
102
RTVSPost2010Prop52
140
1.0
102
RTVSPost2010PropOp52
 70
     0
102
RTVSPost2010Prop53
 90
        2
102
RTVSPost2010PropOp53
 70
     1
102
RTVSPost2010Prop54
  1
strokes_ogs.tif
102
RTVSPost2010PropOp54
 70
     1
102
RTVSPost2010Prop55
280
     0
102
RTVSPost2010PropOp55
 70
     1
102
RTVSPost2010Prop56
140
1.0
102
RTVSPost2010PropOp56
 70
     1
102
RTVSPost2010Prop57
140
1.0
102
RTVSPost2010PropOp57
 70
     1
  0
XRECORD
  5
3D3
102
{ACAD_REACTORS
330
3D2
102
}
330
3D2
100
AcDbXrecord
280
     1
102
RTVSPropertyOp0
 70
     1
102
RTVSPropertyOp1
 70
     1
102
RTVSPropertyOp2
 70
     1
102
RTVSPropertyOp3
 70
     1
102
RTVSPropertyOp4
 70
     1
102
RTVSPropertyOp5
 70
     1
102
RTVSPropertyOp6
 70
     1
102
RTVSPropertyOp7
 70
     1
102
RTVSPropertyOp8
 70
     1
102
RTVSPropertyOp9
 70
     1
102
RTVSPropertyOp10
 70
     1
102
RTVSPropertyOp11
 70
     1
102
RTVSPropertyOp12
 70
     1
102
RTVSPropertyOp13
 70
     1
102
RTVSPropertyOp14
 70
     1
102
RTVSPropertyOp15
 70
     1
102
RTVSPropertyOp16
 70
     1
102
RTVSPropertyOp17
 70
     1
102
RTVSPropertyOp18
 70
     1
102
RTVSPropertyOp19
 70
     1
102
RTVSPropertyOp20
 70
     1
102
RTVSPropertyOp21
 70
     1
102
RTVSPropertyOp22
 70
     1
102
RTVSPropertyOp23
 70
     1
102
RTVSPropertyOp24
 70
     1
102
RTVSPropertyOp25
 70
     1
102
RTVSPropertyOp26
 70
     1
102
RTVSPropertyOp27
 70
     1
102
RTVSPropertyOp28
 70
     1
102
RTVSPropertyOp29
 70
     1
102
RTVSPropertyOp30
 70
     1
102
RTVSPropertyOp31
 70
     1
102
RTVSPropertyOp32
 70
     1
102
RTVSPropertyOp33
 70
     1
102
RTVSPropertyOp34
 70
     1
102
RTVSPropertyOp35
 70
     1
102
RTVSPropertyOp36
 70
     1
102
RTVSPropertyOp37
 70
     1
102
RTVSPropertyOp38
 70
     1
102
RTVSPropertyOp39
 70
     1
102
RTVSPropertyOp40
 70
     1
102
RTVSPropertyOp41
 70
     1
102
RTVSPropertyOp42
 70
     1
102
RTVSPropertyOp43
 70
     1
102
RTVSPropertyOp44
 70
     1
102
RTVSPropertyOp45
 70
     1
102
RTVSPropertyOp46
 70
     1
102
RTVSPropertyOp47
 70
     1
102
RTVSPropertyOp48
 70
     1
102
RTVSPropertyOp49
 70
     1
102
RTVSPropertyOp50
 70
     1
102
RTVSPropertyOp51
 70
     0
102
RTVSPropertyOp52
 70
     0
102
RTVSPropertyOp53
 70
     1
102
RTVSPropertyOp54
 70
     1
102
RTVSPropertyOp55
 70
     1
102
RTVSPropertyOp56
 70
     1
102
RTVSPropertyOp57
 70
     1
102
RTVSPost2010Prop28
280
     0
102
RTVSPost2010PropOp28
 70
     1
102
RTVSPost2010Prop29
280
     1
102
RTVSPost2010PropOp29
 70
     1
102
RTVSPost2010Prop30
280
     1
102
RTVSPost2010PropOp30
 70
     1
102
RTVSPost2010Prop31
280
     0
102
RTVSPost2010PropOp31
 70
     1
102
RTVSPost2010Prop32
280
     0
102
RTVSPost2010PropOp32
 70
     1
102
RTVSPost2010Prop33
280
     0
102
RTVSPost2010PropOp33
 70
     1
102
RTVSPost2010Prop34
280
     0
102
RTVSPost2010PropOp34
 70
     1
102
RTVSPost2010Prop35
280
     0
102
RTVSPost2010PropOp35
 70
     1
102
RTVSPost2010Prop36
280
     0
102
RTVSPost2010PropOp36
 70
     1
102
RTVSPost2010Prop37
 90
       50
102
RTVSPost2010PropOp37
 70
     1
102
RTVSPost2010Prop38
140
0.0
102
RTVSPost2010PropOp38
 70
     1
102
RTVSPost2010Prop39
140
1.0
102
RTVSPost2010PropOp39
 70
     1
102
RTVSPost2010Prop40
 90
        0
102
RTVSPost2010PropOp40
 70
     1
102
RTVSPost2010Prop41ColorIndex
 90
       18
102
RTVSPost2010Prop41ColorRGB
 90
        0
102
RTVSPost2010PropOp41
 70
     1
102
RTVSPost2010Prop42
 90
       50
102
RTVSPost2010PropOp42
 70
     1
102
RTVSPost2010Prop43
 90
        3
102
RTVSPost2010PropOp43
 70
     1
102
RTVSPost2010Prop44ColorIndex
 90
        5
102
RTVSPost2010Prop44ColorRGB
 90
      255
102
RTVSPost2010PropOp44
 70
     1
102
RTVSPost2010Prop45
280
     0
102
RTVSPost2010PropOp45
 70
     1
102
RTVSPost2010Prop46
 90
       50
102
RTVSPost2010PropOp46
 70
     1
102
RTVSPost2010Prop47
 90
       50
102
RTVSPost2010PropOp47
 70
     1
102
RTVSPost2010Prop48
 90
       50
102
RTVSPost2010PropOp48
 70
     1
102
RTVSPost2010Prop49
280
     0
102
RTVSPost2010PropOp49
 70
     1
102
RTVSPost2010Prop50
 90
       50
102
RTVSPost2010PropOp50
 70
     1
102
RTVSPost2010Prop51ColorIndex
 90
      256
102
RTVSPost2010Prop51ColorRGB
 90
-16777216
102
RTVSPost2010PropOp51
 70
     0
102
RTVSPost2010Prop52
140
1.0
102
RTVSPost2010PropOp52
 70
     0
102
RTVSPost2010Prop53
 90
        2
102
RTVSPost2010PropOp53
 70
     1
102
RTVSPost2010Prop54
  1
strokes_ogs.tif
102
RTVSPost2010PropOp54
 70
     1
102
RTVSPost2010Prop55
280
     0
102
RTVSPost2010PropOp55
 70
     1
102
RTVSPost2010Prop56
140
1.0
102
RTVSPost2010PropOp56
 70
     1
102
RTVSPost2010Prop57
140
1.0
102
RTVSPost2010PropOp57
 70
     1
  0
XRECORD
  5
3C3
102
{ACAD_REACTORS
330
3C2
102
}
330
3C2
100
AcDbXrecord
280
     1
102
RTVSPropertyOp0
 70
     1
102
RTVSPropertyOp1
 70
     1
102
RTVSPropertyOp2
 70
     1
102
RTVSPropertyOp3
 70
     1
102
RTVSPropertyOp4
 70
     1
102
RTVSPropertyOp5
 70
     1
102
RTVSPropertyOp6
 70
     1
102
RTVSPropertyOp7
 70
     1
102
RTVSPropertyOp8
 70
     1
102
RTVSPropertyOp9
 70
     1
102
RTVSPropertyOp10
 70
     1
102
RTVSPropertyOp11
 70
     1
102
RTVSPropertyOp12
 70
     1
102
RTVSPropertyOp13
 70
     1
102
RTVSPropertyOp14
 70
     1
102
RTVSPropertyOp15
 70
     1
102
RTVSPropertyOp16
 70
     1
102
RTVSPropertyOp17
 70
     1
102
RTVSPropertyOp18
 70
     1
102
RTVSPropertyOp19
 70
     1
102
RTVSPropertyOp20
 70
     1
102
RTVSPropertyOp21
 70
     1
102
RTVSPropertyOp22
 70
     1
102
RTVSPropertyOp23
 70
     1
102
RTVSPropertyOp24
 70
     1
102
RTVSPropertyOp25
 70
     1
102
RTVSPropertyOp26
 70
     1
102
RTVSPropertyOp27
 70
     1
102
RTVSPropertyOp28
 70
     1
102
RTVSPropertyOp29
 70
     1
102
RTVSPropertyOp30
 70
     1
102
RTVSPropertyOp31
 70
     1
102
RTVSPropertyOp32
 70
     1
102
RTVSPropertyOp33
 70
     1
102
RTVSPropertyOp34
 70
     1
102
RTVSPropertyOp35
 70
     1
102
RTVSPropertyOp36
 70
     1
102
RTVSPropertyOp37
 70
     1
102
RTVSPropertyOp38
 70
     1
102
RTVSPropertyOp39
 70
     1
102
RTVSPropertyOp40
 70
     1
102
RTVSPropertyOp41
 70
     1
102
RTVSPropertyOp42
 70
     1
102
RTVSPropertyOp43
 70
     1
102
RTVSPropertyOp44
 70
     1
102
RTVSPropertyOp45
 70
     1
102
RTVSPropertyOp46
 70
     1
102
RTVSPropertyOp47
 70
     1
102
RTVSPropertyOp48
 70
     1
102
RTVSPropertyOp49
 70
     1
102
RTVSPropertyOp50
 70
     1
102
RTVSPropertyOp51
 70
     0
102
RTVSPropertyOp52
 70
     0
102
RTVSPropertyOp53
 70
     1
102
RTVSPropertyOp54
 70
     1
102
RTVSPropertyOp55
 70
     1
102
RTVSPropertyOp56
 70
     1
102
RTVSPropertyOp57
 70
     1
102
RTVSPost2010Prop28
280
     0
102
RTVSPost2010PropOp28
 70
     1
102
RTVSPost2010Prop29
280
     1
102
RTVSPost2010PropOp29
 70
     1
102
RTVSPost2010Prop30
280
     1
102
RTVSPost2010PropOp30
 70
     1
102
RTVSPost2010Prop31
280
     0
102
RTVSPost2010PropOp31
 70
     1
102
RTVSPost2010Prop32
280
     0
102
RTVSPost2010PropOp32
 70
     1
102
RTVSPost2010Prop33
280
     0
102
RTVSPost2010PropOp33
 70
     1
102
RTVSPost2010Prop34
280
     0
102
RTVSPost2010PropOp34
 70
     1
102
RTVSPost2010Prop35
280
     0
102
RTVSPost2010PropOp35
 70
     1
102
RTVSPost2010Prop36
280
     0
102
RTVSPost2010PropOp36
 70
     1
102
RTVSPost2010Prop37
 90
       50
102
RTVSPost2010PropOp37
 70
     1
102
RTVSPost2010Prop38
140
0.0
102
RTVSPost2010PropOp38
 70
     1
102
RTVSPost2010Prop39
140
1.0
102
RTVSPost2010PropOp39
 70
     1
102
RTVSPost2010Prop40
 90
        0
102
RTVSPost2010PropOp40
 70
     1
102
RTVSPost2010Prop41ColorIndex
 90
       18
102
RTVSPost2010Prop41ColorRGB
 90
        0
102
RTVSPost2010PropOp41
 70
     1
102
RTVSPost2010Prop42
 90
       50
102
RTVSPost2010PropOp42
 70
     1
102
RTVSPost2010Prop43
 90
        3
102
RTVSPost2010PropOp43
 70
     1
102
RTVSPost2010Prop44ColorIndex
 90
        5
102
RTVSPost2010Prop44ColorRGB
 90
      255
102
RTVSPost2010PropOp44
 70
     1
102
RTVSPost2010Prop45
280
     0
102
RTVSPost2010PropOp45
 70
     1
102
RTVSPost2010Prop46
 90
       50
102
RTVSPost2010PropOp46
 70
     1
102
RTVSPost2010Prop47
 90
       50
102
RTVSPost2010PropOp47
 70
     1
102
RTVSPost2010Prop48
 90
       50
102
RTVSPost2010PropOp48
 70
     1
102
RTVSPost2010Prop49
280
     0
102
RTVSPost2010PropOp49
 70
     1
102
RTVSPost2010Prop50
 90
       50
102
RTVSPost2010PropOp50
 70
     1
102
RTVSPost2010Prop51ColorIndex
 90
      256
102
RTVSPost2010Prop51ColorRGB
 90
-16777216
102
RTVSPost2010PropOp51
 70
     0
102
RTVSPost2010Prop52
140
1.0
102
RTVSPost2010PropOp52
 70
     0
102
RTVSPost2010Prop53
 90
        2
102
RTVSPost2010PropOp53
 70
     1
102
RTVSPost2010Prop54
  1
strokes_ogs.tif
102
RTVSPost2010PropOp54
 70
     1
102
RTVSPost2010Prop55
280
     0
102
RTVSPost2010PropOp55
 70
     1
102
RTVSPost2010Prop56
140
1.0
102
RTVSPost2010PropOp56
 70
     1
102
RTVSPost2010Prop57
140
1.0
102
RTVSPost2010PropOp57
 70
     1
  0
XRECORD
  5
3B5
102
{ACAD_REACTORS
330
3B4
102
}
330
3B4
100
AcDbXrecord
280
     1
102
RTVSPropertyOp0
 70
     1
102
RTVSPropertyOp1
 70
     1
102
RTVSPropertyOp2
 70
     1
102
RTVSPropertyOp3
 70
     1
102
RTVSPropertyOp4
 70
     1
102
RTVSPropertyOp5
 70
     1
102
RTVSPropertyOp6
 70
     1
102
RTVSPropertyOp7
 70
     1
102
RTVSPropertyOp8
 70
     1
102
RTVSPropertyOp9
 70
     1
102
RTVSPropertyOp10
 70
     1
102
RTVSPropertyOp11
 70
     1
102
RTVSPropertyOp12
 70
     1
102
RTVSPropertyOp13
 70
     1
102
RTVSPropertyOp14
 70
     1
102
RTVSPropertyOp15
 70
     1
102
RTVSPropertyOp16
 70
     1
102
RTVSPropertyOp17
 70
     1
102
RTVSPropertyOp18
 70
     1
102
RTVSPropertyOp19
 70
     1
102
RTVSPropertyOp20
 70
     1
102
RTVSPropertyOp21
 70
     1
102
RTVSPropertyOp22
 70
     1
102
RTVSPropertyOp23
 70
     1
102
RTVSPropertyOp24
 70
     1
102
RTVSPropertyOp25
 70
     1
102
RTVSPropertyOp26
 70
     1
102
RTVSPropertyOp27
 70
     1
102
RTVSPropertyOp28
 70
     1
102
RTVSPropertyOp29
 70
     1
102
RTVSPropertyOp30
 70
     1
102
RTVSPropertyOp31
 70
     1
102
RTVSPropertyOp32
 70
     1
102
RTVSPropertyOp33
 70
     1
102
RTVSPropertyOp34
 70
     1
102
RTVSPropertyOp35
 70
     1
102
RTVSPropertyOp36
 70
     1
102
RTVSPropertyOp37
 70
     1
102
RTVSPropertyOp38
 70
     1
102
RTVSPropertyOp39
 70
     1
102
RTVSPropertyOp40
 70
     1
102
RTVSPropertyOp41
 70
     1
102
RTVSPropertyOp42
 70
     1
102
RTVSPropertyOp43
 70
     1
102
RTVSPropertyOp44
 70
     1
102
RTVSPropertyOp45
 70
     1
102
RTVSPropertyOp46
 70
     1
102
RTVSPropertyOp47
 70
     1
102
RTVSPropertyOp48
 70
     1
102
RTVSPropertyOp49
 70
     1
102
RTVSPropertyOp50
 70
     1
102
RTVSPropertyOp51
 70
     0
102
RTVSPropertyOp52
 70
     0
102
RTVSPropertyOp53
 70
     1
102
RTVSPropertyOp54
 70
     1
102
RTVSPropertyOp55
 70
     1
102
RTVSPropertyOp56
 70
     1
102
RTVSPropertyOp57
 70
     1
102
RTVSPost2010Prop28
280
     0
102
RTVSPost2010PropOp28
 70
     1
102
RTVSPost2010Prop29
280
     1
102
RTVSPost2010PropOp29
 70
     1
102
RTVSPost2010Prop30
280
     1
102
RTVSPost2010PropOp30
 70
     1
102
RTVSPost2010Prop31
280
     0
102
RTVSPost2010PropOp31
 70
     1
102
RTVSPost2010Prop32
280
     0
102
RTVSPost2010PropOp32
 70
     1
102
RTVSPost2010Prop33
280
     0
102
RTVSPost2010PropOp33
 70
     1
102
RTVSPost2010Prop34
280
     0
102
RTVSPost2010PropOp34
 70
     1
102
RTVSPost2010Prop35
280
     0
102
RTVSPost2010PropOp35
 70
     1
102
RTVSPost2010Prop36
280
     0
102
RTVSPost2010PropOp36
 70
     1
102
RTVSPost2010Prop37
 90
       50
102
RTVSPost2010PropOp37
 70
     1
102
RTVSPost2010Prop38
140
0.0
102
RTVSPost2010PropOp38
 70
     1
102
RTVSPost2010Prop39
140
1.0
102
RTVSPost2010PropOp39
 70
     1
102
RTVSPost2010Prop40
 90
        0
102
RTVSPost2010PropOp40
 70
     1
102
RTVSPost2010Prop41ColorIndex
 90
       18
102
RTVSPost2010Prop41ColorRGB
 90
        0
102
RTVSPost2010PropOp41
 70
     1
102
RTVSPost2010Prop42
 90
       50
102
RTVSPost2010PropOp42
 70
     1
102
RTVSPost2010Prop43
 90
        3
102
RTVSPost2010PropOp43
 70
     1
102
RTVSPost2010Prop44ColorIndex
 90
        5
102
RTVSPost2010Prop44ColorRGB
 90
      255
102
RTVSPost2010PropOp44
 70
     1
102
RTVSPost2010Prop45
280
     0
102
RTVSPost2010PropOp45
 70
     1
102
RTVSPost2010Prop46
 90
       50
102
RTVSPost2010PropOp46
 70
     1
102
RTVSPost2010Prop47
 90
       50
102
RTVSPost2010PropOp47
 70
     1
102
RTVSPost2010Prop48
 90
       50
102
RTVSPost2010PropOp48
 70
     1
102
RTVSPost2010Prop49
280
     0
102
RTVSPost2010PropOp49
 70
     1
102
RTVSPost2010Prop50
 90
       50
102
RTVSPost2010PropOp50
 70
     1
102
RTVSPost2010Prop51ColorIndex
 90
      256
102
RTVSPost2010Prop51ColorRGB
 90
-16777216
102
RTVSPost2010PropOp51
 70
     0
102
RTVSPost2010Prop52
140
1.0
102
RTVSPost2010PropOp52
 70
     0
102
RTVSPost2010Prop53
 90
        2
102
RTVSPost2010PropOp53
 70
     1
102
RTVSPost2010Prop54
  1
strokes_ogs.tif
102
RTVSPost2010PropOp54
 70
     1
102
RTVSPost2010Prop55
280
     0
102
RTVSPost2010PropOp55
 70
     1
102
RTVSPost2010Prop56
140
1.0
102
RTVSPost2010PropOp56
 70
     1
102
RTVSPost2010Prop57
140
1.0
102
RTVSPost2010PropOp57
 70
     1
  0
XRECORD
  5
3D5
102
{ACAD_REACTORS
330
3D4
102
}
330
3D4
100
AcDbXrecord
280
     1
102
RTVSPropertyOp0
 70
     1
102
RTVSPropertyOp1
 70
     1
102
RTVSPropertyOp2
 70
     1
102
RTVSPropertyOp3
 70
     1
102
RTVSPropertyOp4
 70
     1
102
RTVSPropertyOp5
 70
     1
102
RTVSPropertyOp6
 70
     1
102
RTVSPropertyOp7
 70
     1
102
RTVSPropertyOp8
 70
     1
102
RTVSPropertyOp9
 70
     1
102
RTVSPropertyOp10
 70
     1
102
RTVSPropertyOp11
 70
     1
102
RTVSPropertyOp12
 70
     1
102
RTVSPropertyOp13
 70
     1
102
RTVSPropertyOp14
 70
     1
102
RTVSPropertyOp15
 70
     1
102
RTVSPropertyOp16
 70
     1
102
RTVSPropertyOp17
 70
     1
102
RTVSPropertyOp18
 70
     1
102
RTVSPropertyOp19
 70
     1
102
RTVSPropertyOp20
 70
     1
102
RTVSPropertyOp21
 70
     1
102
RTVSPropertyOp22
 70
     1
102
RTVSPropertyOp23
 70
     1
102
RTVSPropertyOp24
 70
     1
102
RTVSPropertyOp25
 70
     1
102
RTVSPropertyOp26
 70
     1
102
RTVSPropertyOp27
 70
     1
102
RTVSPropertyOp28
 70
     1
102
RTVSPropertyOp29
 70
     1
102
RTVSPropertyOp30
 70
     1
102
RTVSPropertyOp31
 70
     1
102
RTVSPropertyOp32
 70
     1
102
RTVSPropertyOp33
 70
     1
102
RTVSPropertyOp34
 70
     1
102
RTVSPropertyOp35
 70
     1
102
RTVSPropertyOp36
 70
     1
102
RTVSPropertyOp37
 70
     1
102
RTVSPropertyOp38
 70
     1
102
RTVSPropertyOp39
 70
     1
102
RTVSPropertyOp40
 70
     1
102
RTVSPropertyOp41
 70
     1
102
RTVSPropertyOp42
 70
     1
102
RTVSPropertyOp43
 70
     1
102
RTVSPropertyOp44
 70
     1
102
RTVSPropertyOp45
 70
     1
102
RTVSPropertyOp46
 70
     1
102
RTVSPropertyOp47
 70
     1
102
RTVSPropertyOp48
 70
     1
102
RTVSPropertyOp49
 70
     1
102
RTVSPropertyOp50
 70
     1
102
RTVSPropertyOp51
 70
     0
102
RTVSPropertyOp52
 70
     0
102
RTVSPropertyOp53
 70
     1
102
RTVSPropertyOp54
 70
     1
102
RTVSPropertyOp55
 70
     1
102
RTVSPropertyOp56
 70
     1
102
RTVSPropertyOp57
 70
     1
102
RTVSPost2010Prop28
280
     0
102
RTVSPost2010PropOp28
 70
     1
102
RTVSPost2010Prop29
280
     1
102
RTVSPost2010PropOp29
 70
     1
102
RTVSPost2010Prop30
280
     1
102
RTVSPost2010PropOp30
 70
     1
102
RTVSPost2010Prop31
280
     0
102
RTVSPost2010PropOp31
 70
     1
102
RTVSPost2010Prop32
280
     0
102
RTVSPost2010PropOp32
 70
     1
102
RTVSPost2010Prop33
280
     0
102
RTVSPost2010PropOp33
 70
     1
102
RTVSPost2010Prop34
280
     0
102
RTVSPost2010PropOp34
 70
     1
102
RTVSPost2010Prop35
280
     0
102
RTVSPost2010PropOp35
 70
     1
102
RTVSPost2010Prop36
280
     0
102
RTVSPost2010PropOp36
 70
     1
102
RTVSPost2010Prop37
 90
       50
102
RTVSPost2010PropOp37
 70
     1
102
RTVSPost2010Prop38
140
0.0
102
RTVSPost2010PropOp38
 70
     1
102
RTVSPost2010Prop39
140
1.0
102
RTVSPost2010PropOp39
 70
     1
102
RTVSPost2010Prop40
 90
        0
102
RTVSPost2010PropOp40
 70
     1
102
RTVSPost2010Prop41ColorIndex
 90
       18
102
RTVSPost2010Prop41ColorRGB
 90
        0
102
RTVSPost2010PropOp41
 70
     1
102
RTVSPost2010Prop42
 90
       50
102
RTVSPost2010PropOp42
 70
     1
102
RTVSPost2010Prop43
 90
        3
102
RTVSPost2010PropOp43
 70
     1
102
RTVSPost2010Prop44ColorIndex
 90
        5
102
RTVSPost2010Prop44ColorRGB
 90
      255
102
RTVSPost2010PropOp44
 70
     1
102
RTVSPost2010Prop45
280
     0
102
RTVSPost2010PropOp45
 70
     1
102
RTVSPost2010Prop46
 90
       50
102
RTVSPost2010PropOp46
 70
     1
102
RTVSPost2010Prop47
 90
       50
102
RTVSPost2010PropOp47
 70
     1
102
RTVSPost2010Prop48
 90
       50
102
RTVSPost2010PropOp48
 70
     1
102
RTVSPost2010Prop49
280
     0
102
RTVSPost2010PropOp49
 70
     1
102
RTVSPost2010Prop50
 90
       50
102
RTVSPost2010PropOp50
 70
     1
102
RTVSPost2010Prop51ColorIndex
 90
      256
102
RTVSPost2010Prop51ColorRGB
 90
-16777216
102
RTVSPost2010PropOp51
 70
     0
102
RTVSPost2010Prop52
140
1.0
102
RTVSPost2010PropOp52
 70
     0
102
RTVSPost2010Prop53
 90
        2
102
RTVSPost2010PropOp53
 70
     1
102
RTVSPost2010Prop54
  1
strokes_ogs.tif
102
RTVSPost2010PropOp54
 70
     1
102
RTVSPost2010Prop55
280
     0
102
RTVSPost2010PropOp55
 70
     1
102
RTVSPost2010Prop56
140
1.0
102
RTVSPost2010PropOp56
 70
     1
102
RTVSPost2010Prop57
140
1.0
102
RTVSPost2010PropOp57
 70
     1
  0
ENDSEC
  0
EOF
